<?xml version="1.0" standalone="no"?>
<!DOCTYPE svg PUBLIC "-//W3C//DTD SVG 1.1//EN" "http://www.w3.org/Graphics/SVG/1.1/DTD/svg11.dtd">
<svg xmlns="http://www.w3.org/2000/svg">
<metadata>Generated by Fontastic.me</metadata>
<defs>
<font id="lineicon" horiz-adv-x="512">
<font-face font-family="lineicon" units-per-em="512" ascent="480" descent="-32"/>
<missing-glyph horiz-adv-x="512" />

<glyph unicode="&#57344;" d="M181 512l-138 0c-24 0-43-19-43-43l0-138c0-24 19-43 43-43l138 0c24 0 43 19 43 43l0 138c0 24-19 43-43 43z m11-181c0-6-5-11-11-11l-138 0c-6 0-11 5-11 11l0 138c0 6 5 11 11 11l138 0c6 0 11-5 11-11z m277 181l-138 0c-24 0-43-19-43-43l0-138c0-24 19-43 43-43l138 0c24 0 43 19 43 43l0 138c0 24-19 43-43 43z m11-181c0-6-5-11-11-11l-138 0c-6 0-11 5-11 11l0 138c0 6 5 11 11 11l138 0c6 0 11-5 11-11z m-299-107l-138 0c-24 0-43-19-43-43l0-138c0-24 19-43 43-43l138 0c24 0 43 19 43 43l0 138c0 24-19 43-43 43z m11-181c0-6-5-11-11-11l-138 0c-6 0-11 5-11 11l0 138c0 6 5 11 11 11l138 0c6 0 11-5 11-11z m277 181l-138 0c-24 0-43-19-43-43l0-138c0-24 19-43 43-43l138 0c24 0 43 19 43 43l0 138c0 24-19 43-43 43z m11-181c0-6-5-11-11-11l-138 0c-6 0-11 5-11 11l0 138c0 6 5 11 11 11l138 0c6 0 11-5 11-11z"/>
<glyph unicode="&#57345;" d="M272 144l0 174l51-71c3-5 8-7 13-7c4 0 7 1 10 3c7 5 8 15 3 23l-80 111c0 1-1 1-1 1c-1 1-1 2-2 2c0 0 0 1-1 1c0 0 0 0 0 0c-1 1-1 1-2 1c-1 1-1 1-2 1c-1 0-1 1-2 1c-1 0-1 0-2 0c0 0-1 0-1 0l0 0c0 0-1 0-1 0c-1 0-1 0-2 0c-1 0-1-1-2-1c-1 0-1-1-2-1c-1 0-1 0-2-1c0 0 0 0 0 0c-1 0-1-1-1-1c-1-1-2-1-2-2c0 0-1 0-1-1l-80-112c-5-7-3-17 4-22c3-2 6-3 9-3c5 0 10 2 13 7l51 71l0-174c0-9 7-16 16-16l0 0c9 0 16 7 16 16z m240 112c0 141-115 256-256 256c-141 0-256-115-256-256c0-141 115-256 256-256c141 0 256 115 256 256z m-480 0c0 124 100 224 224 224c124 0 224-100 224-224c0-124-100-224-224-224c-124 0-224 100-224 224z"/>
<glyph unicode="&#57346;" d="M144 240l174 0l-71-51c-5-3-7-8-7-13c0-4 1-7 3-10c5-7 15-8 23-3l111 80c1 0 1 1 1 1c1 1 2 1 2 2c0 0 1 0 1 1c0 0 0 0 0 0c1 1 1 1 1 2c1 1 1 1 1 2c0 1 1 1 1 2c0 1 0 1 0 2c0 0 0 1 0 1l0 0c0 0 0 1 0 1c0 1 0 1 0 2c0 1-1 1-1 2c0 1-1 2-1 2c0 1 0 1-1 2c0 0 0 0 0 0c0 1-1 1-1 1c-1 1-1 2-2 2c0 0 0 1-1 1l-112 80c-7 5-17 3-22-4c-2-3-3-6-3-9c0-5 2-10 7-13l71-51l-174 0c-9 0-16-7-16-16l0 0c0-9 7-16 16-16z m112-240c141 0 256 115 256 256c0 141-115 256-256 256c-141 0-256-115-256-256c0-141 115-256 256-256z m0 480c124 0 224-100 224-224c0-124-100-224-224-224c-124 0-224 100-224 224c0 124 100 224 224 224z"/>
<glyph unicode="&#57347;" d="M368 272l-174 0l71 51c5 3 7 8 7 13c0 4-1 7-3 10c-5 7-15 8-23 3l-111-80c-1 0-1-1-1-1c-1-1-2-1-2-2c0 0-1 0-1-1c0 0 0 0 0 0c-1-1-1-1-1-2c-1-1-1-1-1-2c0-1-1-1-1-2c0-1 0-1 0-2c0 0 0-1 0-1l0 0c0 0 0-1 0-1c0-1 0-1 0-2c0-1 1-1 1-2c0-1 1-1 1-2c0-1 0-1 1-2c0 0 0 0 0 0c0-1 1-1 1-1c1-1 1-2 2-2c0 0 0-1 1-1l112-80c7-5 17-3 22 4c2 3 3 6 3 9c0 5-2 10-7 13l-71 51l174 0c9 0 16 7 16 16l0 0c0 9-7 16-16 16z m-112 240c-141 0-256-115-256-256c0-141 115-256 256-256c141 0 256 115 256 256c0 141-115 256-256 256z m0-480c-124 0-224 100-224 224c0 124 100 224 224 224c124 0 224-100 224-224c0-124-100-224-224-224z"/>
<glyph unicode="&#57348;" d="M240 368l0-174l-51 71c-3 5-8 7-13 7c-4 0-7-1-10-3c-7-5-8-15-3-23l80-111c0-1 1-1 1-1c1-1 1-2 2-2c0 0 0-1 1-1c0 0 0 0 0 0c1-1 1-1 2-1c1-1 1-1 2-1c1 0 1-1 2-1c1 0 1 0 2 0c0 0 1 0 1 0l0 0c0 0 1 0 1 0c1 0 1 0 2 0c1 0 1 1 2 1c1 0 1 1 2 1c1 0 1 0 2 1c0 0 0 0 0 0c1 0 1 1 1 1c1 1 2 1 2 2c0 0 1 0 1 1l80 112c5 7 3 17-4 22c-3 2-6 3-9 3c-5 0-10-2-13-7l-51-71l0 174c0 9-7 16-16 16l0 0c-9 0-16-7-16-16z m-240-112c0-141 115-256 256-256c141 0 256 115 256 256c0 141-115 256-256 256c-141 0-256-115-256-256z m480 0c0-124-100-224-224-224c-124 0-224 100-224 224c0 124 100 224 224 224c124 0 224-100 224-224z"/>
<glyph unicode="&#57349;" d="M328 512c-101 0-184-83-184-184c0-33 9-65 25-92l-155-154c-19-19-19-49 0-68c9-9 22-14 34-14c12 0 25 5 34 14l154 155c27-16 59-25 92-25c101 0 184 83 184 184c0 101-83 184-184 184z m-269-475c-4-4-9-5-11-5c-2 0-7 1-11 5c-4 4-5 9-5 11c0 2 1 7 5 11l150 151c7-8 15-16 23-23z m269 139c-84 0-152 68-152 152c0 84 68 152 152 152c84 0 152-68 152-152c0-84-68-152-152-152z m84 238c-6 7-16 7-22 0c-7-6-7-16 0-22c35-35 35-93 0-128c-7-6-7-16 0-22c3-4 7-5 11-5c4 0 8 1 11 5c48 47 48 125 0 172z"/>
<glyph unicode="&#57350;" d="M464 448l-102 0l-28 55c-2 6-8 9-14 9l-128 0c-6 0-12-3-14-9l-28-55l-102 0c-26 0-48-22-48-48l0-352c0-26 22-48 48-48l416 0c26 0 48 22 48 48l0 352c0 26-22 48-48 48z m-432-176l95 0c-9-19-15-41-15-64c0-23 6-45 15-64l-95 0z m448-224c0-9-7-16-16-16l-416 0c-9 0-16 7-16 16l0 64l112 0c2 0 3 0 4 1c27-30 65-49 108-49c43 0 81 19 108 49c1-1 2-1 4-1l112 0z m-336 160c0 62 50 112 112 112c62 0 112-50 112-112c0-62-50-112-112-112c-62 0-112 50-112 112z m336-64l-95 0c9 19 15 41 15 64c0 23-6 45-15 64l95 0z m0 160l-112 0c-2 0-3 0-4-1c-27 30-65 49-108 49c-43 0-81-19-108-49c-1 1-2 1-4 1l-112 0l0 96c0 9 7 16 16 16l112 0c6 0 12 3 14 9l28 55l108 0l28-55c2-6 8-9 14-9l112 0c9 0 16-7 16-16z m-224-48c26 0 48-22 48-48c0-9 7-16 16-16c9 0 16 7 16 16c0 44-36 80-80 80c-9 0-16-7-16-16c0-9 7-16 16-16z"/>
<glyph unicode="&#57351;" d="M456 416c-4 0-8 0-11-1c0 0-1 0-1 0c-10-2-20-7-27-15l-97-91l0 43c0 27-22 48-48 48l-48 0c-12 0-23-4-32-12l-71 72c-1 0-1 0-2 0c1 3 2 6 2 9c0 9-4 17-10 23l-11 11c-12 12-33 12-45 0l-46-45c-6-6-9-14-9-23c0-8 3-17 9-23l12-11c6-6 14-9 22-9c3 0 6 0 9 1c0 0 0-1 1-1l55-56l-60 0c-26 0-48-21-48-48l0-224c0-26 22-48 48-48l224 0c26 0 48 22 48 48l0 43l96-90c1-1 2-2 3-3c2-1 3-2 5-3c1-1 2-2 4-3c1-1 3-1 4-2c2-1 3-2 5-2c1-1 3-1 5-2c1 0 3 0 4-1c3 0 6-1 10-1c0 0 0 0 0 0l0 0c4 0 7 1 10 1c1 1 3 1 4 1c2 1 4 1 6 2c1 1 2 1 4 2c1 1 3 2 5 3c1 0 2 1 3 2c2 1 4 3 6 5c1 0 1 0 2 1c2 2 4 5 6 8c1 0 1 1 1 2c2 2 3 4 4 6c0 1 1 2 1 3c1 2 1 3 2 4c1 2 2 5 2 8l0 312c0 31-25 56-56 56z m-413-8l0 16l0 0z m0 16l-11 11l45 45l12-11z m34-12l23 23l77-77c-1-2-1-4-1-6c0-9-7-16-16-16l-7 0z m211-348c0-9-7-16-16-16l-224 0c-9 0-16 7-16 16l0 224c0 9 7 16 16 16l112 0c26 0 48 22 48 48c0 9 7 16 16 16l48 0c9 0 16-7 16-16z m112 12l-80 75l0 114l80 76z m80-20c0-1 0-3 0-4c-1-3-2-5-3-8c0 0-1 0-1 0c-1-2-3-4-4-6c-1 0-1 0-1-1c-2-1-4-2-6-3c-1 0-1 0-2 0c-2-1-4-2-7-2l0 0c-3 0-5 1-8 2c0 0 0 0 0 0c-3 1-5 2-7 3c0 1 0 1-1 1c-4 4-6 8-8 14c0 0 0 1 0 1l0 307c0 12 8 21 19 24c0 0 0 0 0 0c2 0 3 0 5 0c13 0 24-10 24-24z m-288 136c-12 0-23-4-32-12c-9 8-20 12-32 12c-26 0-48-21-48-48c0-26 22-48 48-48c12 0 23 5 32 13c9-8 20-13 32-13c26 0 48 22 48 48c0 27-22 48-48 48z m-64-64c-9 0-16 7-16 16c0 9 7 16 16 16c9 0 16-7 16-16c0-9-7-16-16-16z m64 0c-9 0-16 7-16 16c0 9 7 16 16 16c9 0 16-7 16-16c0-9-7-16-16-16z"/>
<glyph unicode="&#57352;" d="M468 512l-424 0c-24 0-44-21-44-46l0-420c0-25 20-46 44-46l424 0c24 0 44 21 44 46l0 420c0 25-20 46-44 46z m12-466c0-8-5-14-12-14l-424 0c-7 0-12 6-12 14l0 420c0 8 5 14 12 14l424 0c7 0 12-6 12-14z m-288 338c-35 0-64-29-64-64c0-35 29-64 64-64c35 0 64 29 64 64c0 35-29 64-64 64z m0-96c-18 0-32 14-32 32c0 18 14 32 32 32c18 0 32-14 32-32c0-18-14-32-32-32z m240 160l-352 0c-9 0-16-7-16-16l0-320c0-9 7-16 16-16l352 0c9 0 16 7 16 16l0 320c0 9-7 16-16 16z m-320-320c-3 0-5 1-7 2l62 62c6 7 16 7 23 0l64-64z m304 16c0-9-7-16-16-16l-101 0l-55 55l85 84c6 7 16 7 23 0l64-64z m0 104l-42 42c-18 19-49 19-68 0l-84-85l-10 10c-18 19-49 19-68 0l-48-48l0 233c0 9 7 16 16 16l288 0c9 0 16-7 16-16z"/>
<glyph unicode="&#57353;" d="M498 290l-208 208c-18 19-50 19-68 0l-208-208c-19-19-19-49 0-68c9-9 21-14 34-14c6 0 11 1 16 3l0-179c0-18 14-32 32-32l64 0c18 0 32 14 32 32l0 112l128 0l0-112c0-18 14-32 32-32l64 0c18 0 32 14 32 32l0 179c5-2 10-3 16-3c13 0 25 5 34 14c19 19 19 49 0 68z m-253 186c3 3 7 4 11 4c4 0 8-1 11-4c7-7 7-17 0-23l-11-11l-11 11c-7 6-7 16 0 23z m-186-231c-6-6-16-6-22 0c-7 6-7 16 0 23l176 176c2-5 5-10 9-14l11-11z m357-213l-64 0l0 112c0 18-14 32-32 32l-128 0c-18 0-32-14-32-32l0-112l-64 0l0 204l160 160l160-160l0-204z m59 213c-6-6-16-6-22 0l-174 174l11 11c4 4 7 9 9 14l176-176c7-7 7-17 0-23z m-283 27c0-35 29-64 64-64c35 0 64 29 64 64c0 36-29 64-64 64c-35 0-64-28-64-64z m96 0c0-17-14-32-32-32c-18 0-32 15-32 32c0 18 14 32 32 32c18 0 32-14 32-32z"/>
<glyph unicode="&#57354;" d="M448 320l-208 0c-3 0-5 1-6 2c-1 2-2 4-2 6c0 3 1 4 2 6l67 69c12 12 19 28 19 45c0 17-7 33-19 45c-12 12-28 19-45 19c-17 0-33-7-45-19l-188-181c-15-15-23-35-23-56c0-22 8-42 23-57c1-1 2-1 3-2l185-178c12-12 28-19 45-19c17 0 33 7 45 19c12 12 19 28 19 45c0 17-7 33-19 45l-67 70c-1 1-2 2-2 5c0 2 1 4 2 6c1 1 3 2 6 2l208 0c35 0 63 29 64 64l0 1c-1 34-29 63-64 63z m0-96l-208 0c-11 0-21-4-29-12c-7-7-11-17-11-28c0-10 4-20 11-28l67-69c6-6 10-15 10-23c0-9-4-17-10-23c-12-12-33-12-45 1l-187 180c-1 1-1 2-2 2c-8 9-12 20-12 32c0 13 5 25 14 33l187 182c12 12 33 12 45 0c6-6 10-14 10-23c0-8-4-16-10-23l-66-69c-8-8-12-18-12-28c0-11 4-21 11-28c8-8 18-12 29-12l208 0c17 0 31-14 32-32c0-17-15-32-32-32z"/>
<glyph unicode="&#57355;" d="M261 244c-3 3-5 7-5 12c0 4 2 8 5 11l136 136c12 12 19 28 19 45c0 17-7 33-19 45c-12 12-28 19-45 19c-17 0-33-7-45-19l-188-181c-15-15-23-35-23-56c0-22 8-42 24-57l161-155l26-26c12-12 28-18 45-18c17 0 33 6 45 18c12 12 19 28 19 46c0 17-7 33-19 45z m114-203c-12-12-34-12-46 0l-187 181c-9 9-14 21-14 34c0 12 5 24 14 33l187 182c6 6 14 9 23 9c9 0 17-3 23-9c6-6 9-14 9-23c0-9-3-17-9-23l-137-135c-9-10-14-22-14-34c0-13 5-25 14-34l137-136c6-6 9-14 9-22c0-9-3-17-9-23z"/>
<glyph unicode="&#57356;" d="M495 298c-1 1-2 1-2 2l-123 118c-18 19-50 19-68 0c-9-9-14-21-14-34c0-12 5-24 14-33l45-47l-59 0c-12 0-24-5-32-12c-9 7-20 12-32 12l-58 0l44 46c9 10 14 22 14 34c0 13-5 25-14 34c-18 19-50 18-68 1l-125-121c-11-11-17-26-17-42c0-16 6-30 17-41c1-1 2-2 2-2l123-119c9-9 21-14 34-14c13 0 25 5 34 14c9 9 14 21 14 34c0 13-5 25-14 34l-45 46l59 0c12 0 23 5 32 13c8-8 20-13 32-13l58 0l-44-46c-9-9-14-21-14-34c0-13 5-25 14-34c9-9 21-14 34-14c13 0 25 5 34 14l125 121c11 11 17 26 17 41c0 16-6 31-17 42z m-255-42c0-9-7-16-16-16l-59 0c-8 0-16-3-22-9c-6-6-10-14-10-23c0-8 4-16 9-22l45-47c3-3 5-7 5-11c0-4-2-8-5-11c-6-6-16-6-23 0l-124 121c-1 0-1 1-2 1c-4 5-6 11-6 17c0 7 3 14 8 19l125 121c6 6 16 6 22 0c3-3 5-7 5-12c0-4-2-8-5-11l-44-46c-6-6-10-14-10-23c0-8 4-16 10-22c6-7 14-10 22-10l59 0c9 0 16-7 16-16z m232-18l-125-121c-6-6-16-6-22 0c-3 3-5 7-5 11c0 4 2 8 5 12l44 46c6 6 10 14 10 22c0 9-4 17-10 23c-6 6-14 9-22 9l-59 0c-9 0-16 7-16 16l0 0c0 9 7 16 16 16l59 0c8 0 16 3 22 10c6 6 10 14 10 22c0 9-4 17-9 23l-45 46c-3 3-5 7-5 11c0 5 2 9 5 12c6 6 16 6 23 0l124-121c1-1 1-1 2-1c4-5 6-11 6-18c0-7-3-13-8-18z"/>
<glyph unicode="&#57357;" d="M489 312l-188 181c-12 12-28 19-45 19c-17 0-33-7-45-19c-12-12-19-28-19-45c0-17 7-33 19-45l66-70c2-1 3-3 3-5c0-3-1-5-2-6c-1-1-3-2-6-2l-208 0c-35 0-64-29-64-64l0 0c0-35 29-64 64-64l208 0c3 0 5-1 6-2c1-2 2-4 2-6c0-3-1-5-2-6l-67-69c-12-12-19-28-19-45c0-18 7-34 19-46c12-12 28-18 45-18c17 0 33 6 45 18l185 179c1 0 2 1 3 2c15 15 23 35 23 57c0 21-8 41-23 56z m-21-88c-1-1-1-1-2-2l-187-181c-13-12-34-12-46 0c-6 6-9 14-9 23c0 8 3 16 9 22l67 70c8 7 12 17 12 28c0 11-4 21-12 28c-7 8-17 12-28 12l-208 0c-18 0-32 14-32 32c0 17 14 32 32 32l208 0c11 0 21 4 28 11c8 8 12 18 12 29c0 10-4 20-12 28l-66 69c-7 6-10 14-10 23c0 9 3 17 9 23c12 12 34 12 46 0l187-182c9-9 14-21 14-33c0-12-4-23-12-32z"/>
<glyph unicode="&#57358;" d="M392 312l-187 181c-12 12-28 19-45 19c-17 0-33-7-45-19c-12-12-19-28-19-45c0-17 7-33 19-45l136-136c3-3 5-7 5-11c0-5-2-9-5-12l-136-135c-12-12-19-28-19-45c0-17 7-33 19-45c12-12 28-19 45-19c17 0 33 7 45 19l26 25l161 155c15 15 24 35 24 57c0 21-9 41-24 56z m-22-90l-187-181c-13-12-34-12-46 0c-6 6-9 14-9 23c0 8 3 17 9 23l137 135c9 9 14 21 14 34c0 13-5 25-14 34l-137 135c-6 6-9 15-9 23c0 9 3 17 9 23c6 6 14 9 23 9c8 0 17-3 23-9l187-182c9-8 14-20 14-33c0-13-5-25-14-34z"/>
<glyph unicode="&#57359;" d="M192 512l-144 0c-13 0-25-5-34-14c-9-9-14-21-14-34l0-144c0-26 22-48 48-48c26 0 48 22 48 48l0 26l62-60c18-18 50-18 68 0c19 19 19 49 0 68l-60 62l26 0c26 0 48 22 48 48c0 26-22 48-48 48z m0-64l-64 0c-6 0-12-4-15-10c-2-6-1-13 4-17l86-90c7-6 7-16 0-22c-6-6-16-7-22 0l-90 86c-4 5-11 6-17 4c-6-3-10-9-10-15l0-64c0-9-7-16-16-16c-9 0-16 7-16 16l0 144c0 4 2 8 5 11c3 3 7 5 11 5l144 0c9 0 16-7 16-16c0-9-7-16-16-16z m306 50c-9 9-21 14-34 14l-144 0c-26 0-48-22-48-48c0-26 22-48 48-48l26 0l-60-62c-19-19-19-49 0-68c18-18 50-18 68 0l62 60l0-26c0-26 22-48 48-48c26 0 48 22 48 48l0 144c0 13-5 25-14 34z m-18-178c0-9-7-16-16-16c-9 0-16 7-16 16l0 64c0 6-4 12-10 15c-2 1-4 1-6 1c-4 0-8-2-11-4l-90-87c-6-6-16-6-22 0c-7 6-7 16 0 23l86 89c5 4 6 11 4 17c-3 6-9 10-15 10l-64 0c-9 0-16 7-16 16c0 9 7 16 16 16l144 0c4 0 8-2 11-5c3-3 5-7 5-11z m-16-80c-26 0-48-22-48-48l0-26l-62 60c-18 18-50 18-68 0c-19-19-19-49 0-68l60-62l-26 0c-26 0-48-22-48-48c0-26 22-48 48-48l144 0c13 0 25 5 34 14c9 9 14 21 14 34l0 144c0 26-22 48-48 48z m16-192c0-4-2-8-5-11c-3-3-7-5-11-5l-144 0c-9 0-16 7-16 16c0 9 7 16 16 16l64 0c6 0 12 4 15 10c2 6 1 13-4 17l-86 90c-7 6-7 16 0 22c6 6 16 7 22 0l90-86c4-5 11-6 17-4c6 3 10 9 10 15l0 64c0 9 7 16 16 16c9 0 16-7 16-16z m-288 48l-26 0l60 62c19 19 19 49 0 68c-18 18-50 18-68 0l-62-60l0 26c0 26-22 48-48 48c-26 0-48-22-48-48l0-144c0-13 5-25 14-34c9-9 21-14 34-14l144 0c26 0 48 22 48 48c0 26-22 48-48 48z m0-64l-144 0c-4 0-8 2-11 5c-3 3-5 7-5 11l0 144c0 9 7 16 16 16c9 0 16-7 16-16l0-64c0-6 4-12 10-15c6-2 13-1 17 4l90 86c6 6 16 6 22 0c7-6 7-16 0-23l-86-89c-5-4-6-11-4-17c3-6 9-10 15-10l64 0c9 0 16-7 16-16c0-9-7-16-16-16z"/>
<glyph unicode="&#57360;" d="M346 256l147 147c12 12 19 28 19 45c0 17-7 33-19 45c-12 12-28 19-45 19c-17 0-33-7-45-19l-147-146l-147 146c-12 12-28 19-45 19c-17 0-33-7-45-19c-25-25-25-65 0-90l146-147l-146-147c-25-25-25-65 0-90c12-12 28-19 45-19c17 0 33 7 45 19l147 146l147-146c12-12 28-19 45-19c17 0 33 7 45 19c25 25 25 65 0 90z m125-215c-12-12-34-12-46 0l-158 158c-6 7-16 7-22 0l-158-158c-12-12-34-12-46 0c-12 13-12 33 0 46l158 158c3 3 5 7 5 11c0 4-2 8-5 11l-158 158c-12 13-12 33 0 46c6 6 14 9 23 9c9 0 17-3 23-9l158-158c6-7 16-7 22 0l158 158c12 12 34 12 46 0c6-6 9-14 9-23c0-9-3-17-9-23l-158-158c-7-6-7-16 0-22l158-158c12-13 12-33 0-46z"/>
<glyph unicode="&#57361;" d="M290 352l-228 0c-34 0-62-28-62-62l0-228c0-34 28-62 62-62l228 0c34 0 62 28 62 62l0 228c0 34-28 62-62 62z m30-290c0-17-13-30-30-30l-228 0c-17 0-30 13-30 30l0 228c0 17 13 30 30 30l228 0c17 0 30-13 30-30z m130 450l-228 0c-34 0-62-28-62-62l0-50c0-9 7-16 16-16c9 0 16 7 16 16l0 50c0 17 13 30 30 30l228 0c17 0 30-13 30-30l0-228c0-17-13-30-30-30l-50 0c-9 0-16-7-16-16c0-9 7-16 16-16l50 0c34 0 62 28 62 62l0 228c0 34-28 62-62 62z"/>
<glyph unicode="&#57362;" d="M256 416l0-48c0-6 3-11 8-14c3-1 5-2 8-2c3 0 6 1 9 3l96 64c4 3 7 8 7 13c0 5-3 10-7 13l-96 64c-5 4-11 4-17 1c-5-3-8-8-8-14l0-48c-106 0-192-86-192-192c0-9 7-16 16-16c9 0 16 7 16 16c0 88 72 160 160 160z m32 50l51-34l-51-34z m144-194c-9 0-16-7-16-16c0-88-72-160-160-160l0 48c0 6-3 11-8 14c-6 3-12 3-17-1l-96-64c-4-3-7-8-7-13c0-5 3-10 7-13l96-64c3-2 6-3 9-3c3 0 5 1 8 2c5 3 8 8 8 14l0 48c106 0 192 86 192 192c0 9-7 16-16 16z m-208-226l-51 34l51 34z"/>
<glyph unicode="&#57363;" d="M507 507c-6 7-16 7-22 0l-71-70l-15 16c-16 16-44 16-59 0l-100-100c-8-8-12-18-12-29c0-11 4-22 12-30l16-15l-23-23l-15 16c-16 16-44 16-59 0l-100-100c-16-16-16-42 0-59l16-15l-70-71c-7-6-7-16 0-22c3-3 7-5 11-5c4 0 8 2 11 5l71 70l15-16c8-8 19-12 30-12c11 0 21 4 29 12l100 100c16 16 16 42 0 59l-16 15l23 23l15-16c8-8 19-12 30-12c11 0 21 4 29 12l100 100c16 16 16 42 0 59l-16 15l70 71c7 6 7 16 0 22z m-258-326l-99-99c-4-4-10-4-14 0l-16 16l38 38c6 6 6 16 0 22c-6 6-16 6-22 0l-38-38l-16 16c-4 4-4 10 0 14l99 99c2 2 5 3 7 3c3 0 5-1 7-3l16-16l-34-34c-6-6-6-16 0-22c3-3 7-5 11-5c4 0 8 2 11 5l34 34l16-16c4-4 4-10 0-14z m181 181l-99-99c-4-4-10-4-14 0l-16 16l34 34c6 6 6 16 0 22c-6 6-16 6-22 0l-34-34l-16 16c-2 2-3 4-3 7c0 2 1 5 3 7l99 99c2 2 5 3 7 3c3 0 5-1 7-3l16-16l-38-38c-6-6-6-16 0-22c3-3 7-5 11-5c4 0 8 2 11 5l38 38l16-16c4-4 4-10 0-14z"/>
<glyph unicode="&#57364;" d="M302 289c-1 9-10 15-18 13c-9-1-15-10-14-18c1-7 2-13 2-20c0-66-54-120-120-120c-66 0-120 54-120 120c0 66 54 120 120 120c19 0 37-4 54-13c8-4 17 0 21 8c4 7 1 17-7 21c-21 11-44 16-68 16c-84 0-152-68-152-152c0-84 68-152 152-152c84 0 152 68 152 152c0 8-1 17-2 25z m58 127c-84 0-152-68-152-152c0-8 1-16 2-24c1-9 10-15 18-14c9 2 15 10 14 19c-1 6-2 13-2 19c0 66 54 120 120 120c66 0 120-54 120-120c0-66-54-120-120-120c-19 0-37 4-54 13c-8 4-17 0-21-8c-4-7-1-17 7-21c21-11 44-16 68-16c84 0 152 68 152 152c0 84-68 152-152 152z"/>
<glyph unicode="&#57365;" d="M464 240c-9 0-16-7-16-16c0-106-86-192-192-192c-106 0-192 86-192 192c0 106 86 192 192 192l0-48c0-6 3-11 8-14c3-1 5-2 8-2c3 0 6 1 9 3l96 64c4 3 7 8 7 13c0 5-3 10-7 13l-96 64c-5 4-11 4-17 1c-5-3-8-8-8-14l0-48c-124 0-224-100-224-224c0-124 100-224 224-224c124 0 224 100 224 224c0 9-7 16-16 16z m-176 226l51-34l-51-34z"/>
<glyph unicode="&#57366;" d="M256 160c79 0 144 79 144 176c0 97-65 176-144 176c-39 0-76-19-103-53c-26-33-41-77-41-123c0-97 65-176 144-176z m0 320c62 0 112-65 112-144c0-79-50-144-112-144c-62 0-112 65-112 144c0 79 50 144 112 144z m112-288c-9 0-16-7-16-16c0-9 7-16 16-16c62 0 112-50 112-112c0-9-7-16-16-16l-416 0c-9 0-16 7-16 16c0 62 50 112 112 112c9 0 16 7 16 16c0 9-7 16-16 16c-79 0-144-65-144-144c0-26 22-48 48-48l416 0c26 0 48 22 48 48c0 79-65 144-144 144z"/>
<glyph unicode="&#57367;" d="M232 160c66 0 120 65 120 146c0 81-54 146-120 146c-33 0-63-16-86-44c-22-27-34-64-34-102c0-81 54-146 120-146z m0 260c49 0 88-51 88-114c0-63-39-114-88-114c-49 0-88 51-88 114c0 63 39 114 88 114z m101-244c-9 0-16-7-16-16c0-9 7-16 16-16c54 0 99-45 99-99c0-7-6-13-13-13l-374 0c-7 0-13 6-13 13c0 54 44 99 99 99c9 0 16 7 16 16c0 9-7 16-16 16c-72 0-131-59-131-131c0-25 20-45 45-45l374 0c25 0 45 20 45 45c0 72-59 131-131 131z m-89 294c11 7 23 10 36 10c49 0 88-51 88-114c0-11-1-22-4-33c-2-9 4-17 12-19c1 0 3-1 4-1c7 0 14 5 15 13c3 13 5 26 5 40c0 80-54 146-120 146c-18 0-36-5-53-15c-7-4-10-14-5-22c4-7 14-10 22-5z m140-230c-9 0-16-7-16-16c0-9 7-16 16-16c55 0 96-46 96-100c0-2 0-4-1-6c-4-8 0-17 8-21c2-1 4-1 7-1c6 0 12 4 14 10c3 5 4 11 4 18c0 72-56 132-128 132z"/>
<glyph unicode="&#57368;" d="M340 512l-168 0c-24 0-44-21-44-46l0-418c0-26 22-48 48-48c26 0 48 22 48 48c0 18 14 32 32 32c18 0 32-14 32-32c0-26 22-48 48-48c26 0 48 22 48 48l0 418c0 25-20 46-44 46z m12-464c0-9-7-16-16-16c-9 0-16 7-16 16c0 35-29 64-64 64c-35 0-64-29-64-64c0-9-7-16-16-16c-9 0-16 7-16 16l0 418c0 8 5 14 12 14l168 0c7 0 12-6 12-14z m-96 400c-35 0-64-29-64-64c0-35 29-64 64-64c35 0 64 29 64 64c0 35-29 64-64 64z m0-96c-18 0-32 14-32 32c0 18 14 32 32 32c18 0 32-14 32-32c0-18-14-32-32-32z"/>
<glyph unicode="&#57369;" d="M493 430c-24 24-66 24-91 0l-211-211l-81 81c-25 24-67 24-91 0c-25-25-25-66 0-91l126-126c12-12 29-19 46-19c17 0 33 7 45 19l257 256c12 12 19 28 19 46c0 17-7 33-19 45z m-23-68l-257-257c-12-12-33-12-45 0l-127 127c-12 12-12 33 0 45c7 6 15 9 23 9c9 0 17-3 23-9l92-92c7-7 17-7 23 0l223 222c12 12 33 12 45 0c7-6 10-14 10-23c0-8-3-16-10-22z"/>
<glyph unicode="&#57370;" d="M256 512c-71 0-128-57-128-128l0-288c0-53 43-96 96-96c53 0 96 43 96 96l0 288c0 35-29 64-64 64c-35 0-64-29-64-64l0-240c0-9 7-16 16-16c9 0 16 7 16 16l0 240c0 18 14 32 32 32c18 0 32-14 32-32l0-288c0-35-29-64-64-64c-35 0-64 29-64 64l0 288c0 53 43 96 96 96c53 0 96-43 96-96l0-240c0-9 7-16 16-16c9 0 16 7 16 16l0 240c0 71-57 128-128 128z"/>
<glyph unicode="&#57371;" d="M448 240c-35 0-64-29-64-64l0-32c0-9-7-16-16-16l-224 0c-9 0-16 7-16 16l0 32c0 35-29 64-64 64c-35 0-64-29-64-64l0-128c0-26 22-48 48-48l416 0c26 0 48 22 48 48l0 128c0 35-29 64-64 64z m32-192c0-9-7-16-16-16l-416 0c-9 0-16 7-16 16l0 128c0 18 14 32 32 32c18 0 32-14 32-32l0-32c0-26 22-48 48-48l224 0c26 0 48 22 48 48l0 32c0 18 14 32 32 32c18 0 32-14 32-32z m-265 129c11-11 26-17 42-17c15 0 30 6 41 17c1 1 1 2 2 2l118 123c19 18 19 50 0 68c-9 9-21 14-34 14c-12 0-24-5-33-14l-47-45l0 139l0 0c0 26-21 48-48 48c-26 0-48-22-48-48l1 0l-1-138l-46 44c-9 9-21 14-34 14c-12 0-24-5-33-14c-10-9-15-21-15-34c0-13 5-25 14-34z m-98 170c3 3 7 5 11 5c5 0 9-2 12-5l46-44c6-6 14-10 23-10c8 0 16 4 22 10c6 6 10 14 10 22l0 139c0 7 5 13 12 15c1 1 2 1 3 1c1 0 1 0 2 0c8-1 14-8 14-16l0-139c0-8 4-16 10-22c6-6 14-10 22-10c9 0 17 4 23 9l46 45c3 3 7 5 11 5c5 0 9-2 12-5c6-6 6-16 0-23l-121-124c0-1-1-1-1-2c-5-4-11-6-17-6c-7 0-14 3-19 8l-121 125c-6 6-6 16 0 22z"/>
<glyph unicode="&#57372;" d="M128 253l0 211c0 26-22 48-48 48c-26 0-48-22-48-48l0-211c-19-7-32-24-32-45l0-64c0-21 13-38 32-45l0-51c0-26 22-48 48-48c26 0 48 22 48 48l0 51c19 7 32 24 32 45l0 64c0 21-13 38-32 45z m-64 211c0 9 7 16 16 16c9 0 16-7 16-16l0-208l-32 0z m32-416c0-9-7-16-16-16c-9 0-16 7-16 16l0 48l32 0z m32 96c0-9-7-16-16-16l-64 0c-9 0-16 7-16 16l0 64c0 9 7 16 16 16l64 0c9 0 16-7 16-16z m352 173l0 147c0 26-22 48-48 48c-26 0-48-22-48-48l0-147c-19-7-32-24-32-45l0-64c0-21 13-38 32-45l0-115c0-26 22-48 48-48c26 0 48 22 48 48l0 115c19 7 32 24 32 45l0 64c0 21-13 38-32 45z m-64 147c0 9 7 16 16 16c9 0 16-7 16-16l0-144l-32 0z m32-416c0-9-7-16-16-16c-9 0-16 7-16 16l0 112l32 0z m32 160c0-9-7-16-16-16l-64 0c-9 0-16 7-16 16l0 64c0 9 7 16 16 16l64 0c9 0 16-7 16-16z m-176 237l0 19c0 26-22 48-48 48c-26 0-48-22-48-48l0-19c-19-7-32-24-32-45l0-64c0-21 13-38 32-45l0-243c0-26 22-48 48-48c26 0 48 22 48 48l0 243c19 7 32 24 32 45l0 64c0 21-13 38-32 45z m-64 19c0 9 7 16 16 16c9 0 16-7 16-16l0-16l-32 0z m32-416c0-9-7-16-16-16c-9 0-16 7-16 16l0 240l32 0z m32 288c0-9-7-16-16-16l-64 0c-9 0-16 7-16 16l0 64c0 9 7 16 16 16l64 0c9 0 16-7 16-16z"/>
<glyph unicode="&#57373;" d="M336 512c-44 0-80-36-80-80c0-26-22-48-48-48c-26 0-48 22-48 48l0 20c2 2 5 3 7 5c12 13 12 33 0 46c-13 12-33 12-46 0c-12-13-12-33 0-46c2-2 5-3 7-5l0-420l-32 0c-9 0-16-7-16-16c0-9 7-16 16-16l96 0c9 0 16 7 16 16c0 9-7 16-16 16l-32 0l0 192c13-10 30-16 48-16c44 0 80 36 80 80c0 26 22 48 48 48c26 0 48-22 48-48c0-9 7-16 16-16c9 0 16 7 16 16l0 144c0 44-36 80-80 80z m48-160c-13 10-30 16-48 16c-44 0-80-36-80-80c0-26-22-48-48-48c-26 0-48 22-48 48l0 80c13-10 30-16 48-16c44 0 80 36 80 80c0 26 22 48 48 48c26 0 48-22 48-48z"/>
<glyph unicode="&#57374;" d="M256 395c-77 0-139-62-139-139c0-77 62-139 139-139c77 0 139 62 139 139c0 77-62 139-139 139z m0-246c-59 0-107 48-107 107c0 59 48 107 107 107c59 0 107-48 107-107c0-59-48-107-107-107z m242 62c-23 3-40 22-40 45c0 23 17 42 40 45c5 1 9 3 11 7c3 4 4 9 3 13c-7 25-16 48-29 70c-3 4-7 6-11 7c-5 1-9 0-13-3c-17-13-44-12-60 4c-16 16-18 42-4 60c3 4 4 8 3 13c-1 4-3 8-7 11c-22 13-45 22-70 29c-4 1-9 0-13-3c-4-2-6-6-7-11c-3-23-22-40-45-40c-23 0-42 17-45 40c-1 5-3 9-7 11c-4 3-9 4-13 3c-25-7-48-16-70-29c-4-3-6-7-7-11c-1-5 0-9 3-13c14-18 12-44-4-60c-16-16-43-18-60-4c-4 3-8 4-13 3c-4-1-8-3-11-7c-13-22-22-45-29-70c-1-4 0-9 3-13c2-4 6-6 11-7c23-3 40-22 40-45c0-23-17-42-40-45c-5-1-9-3-11-7c-3-4-4-9-3-13c7-25 16-48 29-70c3-4 7-6 11-7c4-1 9 0 13 3c18 13 44 12 60-4c16-16 18-42 4-60c-3-4-4-8-3-13c1-4 3-8 7-11c22-13 45-22 70-29c1 0 2 0 4 0c3 0 6 1 9 3c4 2 6 6 7 11c3 23 22 40 45 40c23 0 42-17 45-40c1-5 3-9 7-11c4-3 9-4 13-3c25 7 48 16 70 29c4 3 6 7 7 11c1 5 0 9-3 13c-14 18-12 44 4 60c16 16 43 17 60 4c4-3 8-4 13-3c4 1 8 3 11 7c13 22 22 45 28 70c2 4 1 9-2 13c-2 4-6 6-11 7z m-35-59c-29 13-64 6-87-16c-23-23-29-58-16-87c-10-5-21-9-31-13c-12 30-40 50-73 50c-33 0-61-20-73-50c-10 4-21 8-31 13c13 29 7 64-16 87c-15 14-34 23-55 23c-11 0-22-3-32-7c-5 10-9 21-13 31c30 12 50 40 50 73c0 33-20 61-50 73c4 10 8 21 13 31c10-4 21-7 32-7c21 0 40 9 55 23c23 23 29 58 16 87c10 5 21 9 31 13c12-30 40-50 73-50c33 0 61 20 73 50c10-4 21-8 31-13c-13-29-7-64 16-87c15-14 34-23 55-23c11 0 22 3 32 7c5-10 9-21 13-31c-30-12-50-40-50-73c0-33 20-61 50-73c-4-10-8-21-13-31z m-207 180c-42 0-76-34-76-76c0-42 34-76 76-76c42 0 76 34 76 76c0 42-34 76-76 76z m0-106c-17 0-30 13-30 30c0 17 13 30 30 30c17 0 30-13 30-30c0-17-13-30-30-30z"/>
<glyph unicode="&#57375;" d="M48 336l416 0c26 0 48 22 48 48c0 26-22 48-48 48l-416 0c-26 0-48-22-48-48c0-26 22-48 48-48z m0 64l416 0c9 0 16-7 16-16c0-9-7-16-16-16l-416 0c-9 0-16 7-16 16c0 9 7 16 16 16z m416-96l-416 0c-26 0-48-22-48-48c0-26 22-48 48-48l416 0c26 0 48 22 48 48c0 26-22 48-48 48z m0-64l-416 0c-9 0-16 7-16 16c0 9 7 16 16 16l416 0c9 0 16-7 16-16c0-9-7-16-16-16z m0-64l-416 0c-26 0-48-22-48-48c0-26 22-48 48-48l416 0c26 0 48 22 48 48c0 26-22 48-48 48z m0-64l-416 0c-9 0-16 7-16 16c0 9 7 16 16 16l416 0c9 0 16-7 16-16c0-9-7-16-16-16z"/>
<glyph unicode="&#57376;" d="M506 279l-47 79c-9 16-25 26-43 26l-368 0c-26 0-48-22-48-48l0-160c0-26 22-48 48-48l368 0c18 0 34 10 42 25l49 81c3 7 5 14 5 22c0 8-2 15-6 23z m-27-30l-49-80c-3-6-8-9-14-9l-368 0c-9 0-16 7-16 16l0 160c0 9 7 16 16 16l368 0c6 0 11-3 15-9l47-80c1-2 2-4 2-7c0-3-1-5-1-7z m-111 71c-35 0-64-29-64-64c0-35 29-64 64-64c35 0 64 29 64 64c0 35-29 64-64 64z m0-96c-18 0-32 14-32 32c0 18 14 32 32 32c18 0 32-14 32-32c0-18-14-32-32-32z"/>
<glyph unicode="&#57377;" d="M128 160c-26 0-48-22-48-48c0-26 22-48 48-48c26 0 48 22 48 48c0 26-22 48-48 48z m0-64c-9 0-16 7-16 16c0 9 7 16 16 16c9 0 16-7 16-16c0-9-7-16-16-16z m43 347c-3 3-7 5-11 5l-64 0c-4 0-8-2-11-5l-16-16c-3-3-5-7-5-11l0-176c0-4 2-8 5-11l16-16c3-3 7-5 11-5l64 0c4 0 8 2 11 5l16 16c3 3 5 7 5 11l0 176c0 4-2 8-5 11z m-11-196l-7-7l-50 0l-7 7l0 162l7 7l9 0l0-64l16 16l16-16l0 64l9 0l7-7z m224-87c-26 0-48-22-48-48c0-26 22-48 48-48c26 0 48 22 48 48c0 26-22 48-48 48z m0-64c-9 0-16 7-16 16c0 9 7 16 16 16c9 0 16-7 16-16c0-9-7-16-16-16z m96 416l-192 0c-18 0-32-14-32-32c0 18-14 32-32 32l-192 0c-18 0-32-14-32-32l0-448c0-18 14-32 32-32l192 0c18 0 32 14 32 32c0-18 14-32 32-32l192 0c18 0 32 14 32 32l0 448c0 18-14 32-32 32z m-448-480l0 448l192 0l0-448z m256 0l0 448l192 0l0-448z m139 411c-3 3-7 5-11 5l-64 0c-4 0-8-2-11-5l-16-16c-3-3-5-7-5-11l0-176c0-4 2-8 5-11l16-16c3-3 7-5 11-5l64 0c4 0 8 2 11 5l16 16c3 3 5 7 5 11l0 176c0 4-2 8-5 11z m-11-196l-7-7l-50 0l-7 7l0 162l7 7l9 0l0-64l16 16l16-16l0 64l9 0l7-7z"/>
<glyph unicode="&#57378;" d="M448 369c-1 9-8 15-16 15l-80 0l0 32c0 53-43 96-96 96c-53 0-96-43-96-96l0-32l-80 0c-8 0-15-6-16-15l-32-352c0-4 1-8 4-12c3-3 8-5 12-5l416 0c4 0 9 2 12 5c3 4 4 8 4 12z m-256 47c0 35 29 64 64 64c35 0 64-29 64-64l0-32l-128 0z m-126-384l29 320l65 0l0-36c-10-6-16-16-16-28c0-18 14-32 32-32c18 0 32 14 32 32c0 12-6 22-16 28l0 36l128 0l0-36c-10-6-16-16-16-28c0-18 14-32 32-32c18 0 32 14 32 32c0 12-6 22-16 28l0 36l65 0l29-320z"/>
<glyph unicode="&#57379;" d="M480 336l-32 0c0 26-22 48-48 48l-352 0c-26 0-48-22-48-48l0-160c0-26 22-48 48-48l352 0c26 0 48 22 48 48l32 0c18 0 32 14 32 32l0 96c0 18-14 32-32 32z m-64-160c0-9-7-16-16-16l-352 0c-9 0-16 7-16 16l0 160c0 9 7 16 16 16l352 0c9 0 16-7 16-16z m64 32l-32 0l0 96l32 0z m-361 98c-4 8-14 14-23 14l-16 0c-9 0-16-7-16-16l0-96c0-9 7-16 16-16l80 0c9 0 13 6 9 14z"/>
<glyph unicode="&#57380;" d="M480 336l-32 0c0 26-22 48-48 48l-352 0c-26 0-48-22-48-48l0-160c0-26 22-48 48-48l352 0c26 0 48 22 48 48l32 0c18 0 32 14 32 32l0 96c0 18-14 32-32 32z m-64-160c0-9-7-16-16-16l-352 0c-9 0-16 7-16 16l0 160c0 9 7 16 16 16l352 0c9 0 16-7 16-16z m64 32l-32 0l0 96l32 0z m-265 98c-4 8-14 14-23 14l-112 0c-9 0-16-7-16-16l0-96c0-9 7-16 16-16l176 0c9 0 13 6 9 14z"/>
<glyph unicode="&#57381;" d="M480 336l-32 0c0 26-22 48-48 48l-352 0c-26 0-48-22-48-48l0-160c0-26 22-48 48-48l352 0c26 0 48 22 48 48l32 0c18 0 32 14 32 32l0 96c0 18-14 32-32 32z m-64-160c0-9-7-16-16-16l-352 0c-9 0-16 7-16 16l0 160c0 9 7 16 16 16l352 0c9 0 16-7 16-16z m64 32l-32 0l0 96l32 0z m-178 98c-4 8-14 14-23 14l-199 0c-9 0-16-7-16-16l0-96c0-9 7-16 16-16l263 0c9 0 13 6 9 14z"/>
<glyph unicode="&#57382;" d="M368 320l-288 0c-9 0-16-7-16-16l0-96c0-9 7-16 16-16l288 0c9 0 16 7 16 16l0 96c0 9-7 16-16 16z m112 16l-32 0c0 26-22 48-48 48l-352 0c-26 0-48-22-48-48l0-160c0-26 22-48 48-48l352 0c26 0 48 22 48 48l32 0c18 0 32 14 32 32l0 96c0 18-14 32-32 32z m-64-160c0-9-7-16-16-16l-352 0c-9 0-16 7-16 16l0 160c0 9 7 16 16 16l352 0c9 0 16-7 16-16z m64 32l-32 0l0 96l32 0z"/>
<glyph unicode="&#57383;" d="M480 336l-32 0c0 26-22 48-48 48l-352 0c-26 0-48-22-48-48l0-160c0-26 22-48 48-48l352 0c26 0 48 22 48 48l32 0c18 0 32 14 32 32l0 96c0 18-14 32-32 32z m-64-160c0-9-7-16-16-16l-352 0c-9 0-16 7-16 16l0 160c0 9 7 16 16 16l352 0c9 0 16-7 16-16z m64 32l-32 0l0 96l32 0z"/>
<glyph unicode="&#57384;" d="M464 496l-144 0c0 9-7 16-16 16l-96 0c-9 0-16-7-16-16l-144 0c-26 0-48-22-48-48l0-32c0-9 7-16 16-16l48 0l0-352c0-26 22-48 48-48l288 0c26 0 48 22 48 48l0 352l48 0c9 0 16 7 16 16l0 32c0 26-22 48-48 48z m-48-448c0-9-7-16-16-16l-288 0c-9 0-16 7-16 16l0 352l320 0z m64 384l-448 0l0 16c0 9 7 16 16 16l416 0c9 0 16-7 16-16z m-320-368c9 0 16 7 16 16l0 240c0 9-7 16-16 16c-9 0-16-7-16-16l0-240c0-9 7-16 16-16z m64 0c9 0 16 7 16 16l0 240c0 9-7 16-16 16c-9 0-16-7-16-16l0-240c0-9 7-16 16-16z m64 0c9 0 16 7 16 16l0 240c0 9-7 16-16 16c-9 0-16-7-16-16l0-240c0-9 7-16 16-16z m64 0c9 0 16 7 16 16l0 240c0 9-7 16-16 16c-9 0-16-7-16-16l0-240c0-9 7-16 16-16z"/>
<glyph unicode="&#57385;" d="M39 129c-22-21-36-95-39-110c-1-5 1-11 5-14c3-3 7-5 11-5c1 0 2 0 3 0c15 3 89 17 110 39c12 12 19 28 19 45c0 17-7 33-19 45c-24 24-66 24-90 0z m68-68c-8-7-39-17-70-24c7 31 17 62 24 69c6 7 14 10 23 10c8 0 16-3 23-10c6-6 9-14 9-22c0-9-3-17-9-23z m396 442c-6 6-14 9-23 9l0 0c-9 0-17-3-22-9l-340-317c0 0 0 0 0 0c0 0 0 0 0 0c-1-1-1-2-2-3c0-1-1-1-2-2c0-1 0-2 0-3c0-1-1-2-1-3c0-1 1-2 1-3c0-1 0-2 0-3c1-1 1-2 2-3c1-1 1-2 1-3c1 0 1 0 1 0c0 0 0 0 0 0c1-1 1-1 2-2c1 0 2-1 3-1c1-1 2-1 3-1c1 0 2-1 3-1c1 0 2 1 3 1c1 0 2 0 3 1c1 0 2 1 3 1c0 1 1 1 2 2l0 0c7 6 17 6 23 0c6-6 6-16 0-23l0 0c-1-1-1-2-2-2c0-1-1-2-1-3c-1-1-1-2-1-3c0-1-1-2-1-3c0-1 1-2 1-3c0-1 0-2 1-3c0-1 1-2 1-3c1-1 1-1 2-2c0 0 0 0 0 0c0 0 0 0 0-1c1-1 3-1 4-2c0 0 1 0 2-1c1 0 3-1 5-1c2 0 5 1 7 1c0 1 1 1 1 2c1 0 3 1 4 2c0 0 0 0 0 0c0 0 0 0 0 0l317 339c12 13 12 33 0 46z m-309-329c-2 4-5 8-8 12c-4 3-8 6-12 8l306 286z"/>
<glyph unicode="&#57386;" d="M448 128c-12 0-23-3-32-9l-105 105c6 9 9 20 9 32c0 22-12 42-29 54l25 74c1 0 3 0 4 0c35 0 64 29 64 64c0 35-29 64-64 64c-35 0-64-29-64-64c0-22 12-42 29-54l-25-74c-1 0-3 0-4 0c-35 0-64-29-64-64c0-7 2-14 4-21l-80-53c-12 16-31 26-52 26c-35 0-64-29-64-64c0-35 29-64 64-64c35 0 64 29 64 64c0 2 0 5-1 7l87 57c11-10 26-16 42-16c12 0 23 3 32 9l105-105c-6-9-9-20-9-32c0-35 29-64 64-64c35 0 64 29 64 64c0 35-29 64-64 64z m-384-16c-18 0-32 14-32 32c0 18 14 32 32 32c18 0 32-14 32-32c0-18-14-32-32-32z m192 112c-18 0-32 14-32 32c0 18 14 32 32 32c18 0 32-14 32-32c0-18-14-32-32-32z m32 224c0 18 14 32 32 32c18 0 32-14 32-32c0-18-14-32-32-32c-18 0-32 14-32 32z m160-416c-18 0-32 14-32 32c0 18 14 32 32 32c18 0 32-14 32-32c0-18-14-32-32-32z"/>
<glyph unicode="&#57387;" d="M348 393l-119-79c-7-3-13-7-18-13c-6-6-11-13-14-21l-78-116c-11-12-11-32 1-44c6-6 14-9 23-9c8 0 15 3 21 8l119 79c7 3 13 7 18 13c6 6 11 13 14 21l78 116c11 12 11 32-1 44c-12 11-32 12-44 1z m-203-248l-2-2l0 0l0-16l0 16l56 84c3-6 7-11 12-16c5-5 10-9 16-12z m141 100l-8-11l-11-8c-3-1-7-2-11-2c-9 0-17 3-23 9c-6 6-9 14-9 23c0 4 1 8 2 11l8 11l11 8c11 4 25 2 34-7c6-6 9-14 9-23c0-4-1-8-2-11z m-30 267c-141 0-256-115-256-256c0-141 115-256 256-256c141 0 256 115 256 256c0 141-115 256-256 256z m0-480c-124 0-224 100-224 224c0 124 100 224 224 224c124 0 224-100 224-224c0-124-100-224-224-224z m0 384c9 0 16 7 16 16c0 9-7 16-16 16c-9 0-16-7-16-16c0-9 7-16 16-16z m0-320c-9 0-16-7-16-16c0-9 7-16 16-16c9 0 16 7 16 16c0 9-7 16-16 16z m176 176c-9 0-16-7-16-16c0-9 7-16 16-16c9 0 16 7 16 16c0 9-7 16-16 16z m-352 0c-9 0-16-7-16-16c0-9 7-16 16-16c9 0 16 7 16 16c0 9-7 16-16 16z"/>
<glyph unicode="&#57388;" d="M466 400l-68 0l0 68c0 24-21 44-46 44l-306 0c-25 0-46-20-46-44l0-308c0-12 5-24 14-33c9-10 21-15 34-15c13 0 25 5 34 14l34 33c6-18 23-31 44-31l136 0c11 0 21-5 29-12l105-102c9-9 21-14 34-14c13 0 25 5 34 14c9 9 14 21 14 34l0 308c0 24-21 44-46 44z m-407-251c-6-6-16-6-22 0c-3 3-5 7-5 11l0 308c0 7 6 12 14 12l306 0c8 0 14-5 14-12l0-184c0-7-6-12-14-12l-136 0c-20 0-38-7-51-21z m421-101c0-4-2-8-5-11c-6-6-16-7-23 0l-105 101c-13 14-31 22-51 22l-136 0c-8 0-14 5-14 12l0 16l41 40c8 8 18 12 29 12l136 0c25 0 46 20 46 44l0 84l68 0c8 0 14-6 14-12z m-280 272c13 0 24 11 24 24c0 13-11 24-24 24c-13 0-24-11-24-24c0-13 11-24 24-24z m-96 48c-13 0-24-11-24-24c0-13 11-24 24-24c13 0 24 11 24 24c0 13-11 24-24 24z m192-48c13 0 24 11 24 24c0 13-11 24-24 24c-13 0-24-11-24-24c0-13 11-24 24-24z"/>
<glyph unicode="&#57389;" d="M466 512l-420 0c-25 0-46-20-46-44l0-420c0-13 5-25 14-34c9-9 21-14 34-14c13 0 25 5 34 14l105 102c8 7 18 12 29 12l250 0c25 0 46 19 46 44l0 296c0 24-21 44-46 44z m14-340c0-7-6-12-14-12l-250 0c-20 0-38-8-51-21l-106-102c-6-6-16-6-22 0c-3 3-5 7-5 11l0 272l0 0l0 148c0 7 6 12 14 12l420 0c8 0 14-5 14-12z m-224 116c-18 0-32-15-32-32c0-18 14-32 32-32c18 0 32 14 32 32c0 17-14 32-32 32z m-128 0c-18 0-32-15-32-32c0-18 14-32 32-32c18 0 32 14 32 32c0 17-14 32-32 32z m256 0c-18 0-32-15-32-32c0-18 14-32 32-32c18 0 32 14 32 32c0 17-14 32-32 32z"/>
<glyph unicode="&#57390;" d="M466 512l-420 0c-25 0-46-20-46-44l0-420c0-13 5-25 14-34c9-9 21-14 34-14c13 0 25 5 34 14l105 102c8 7 18 12 29 12l250 0c25 0 46 19 46 44l0 296c0 24-21 44-46 44z m14-340c0-7-6-12-14-12l-250 0c-20 0-38-8-51-21l-106-102c-6-6-16-6-22 0c-3 3-5 7-5 11l0 272l0 0l0 148c0 7 6 12 14 12l420 0c8 0 14-5 14-12z"/>
<glyph unicode="&#57391;" d="M256 512c-141 0-256-115-256-256c0-141 115-256 256-256c141 0 256 115 256 256c0 141-115 256-256 256z m0-480c-124 0-224 100-224 224c0 124 100 224 224 224c124 0 224-100 224-224c0-124-100-224-224-224z m42 201c4 7 6 15 6 23c0 21-13 38-32 45l0 131c0 9-7 16-16 16c-9 0-16-7-16-16l0-131c-19-7-32-24-32-45c0-26 22-48 48-48c6 0 12 1 18 4l67-67c3-3 7-5 11-5c4 0 8 2 11 5c7 6 7 16 0 22z m-42 7c-9 0-16 7-16 16c0 9 7 16 16 16c9 0 16-7 16-16c0-9-7-16-16-16z"/>
<glyph unicode="&#57392;" d="M512 500c-3 8-11 14-20 12l-64-16c-6-2-11-7-12-14l-8-51l-394-47c0 0 0 0-1 0c0-1-1 0-1 0c-1-1-1-1-2-2c-1 0-2 0-3-1c-1-1-2-2-3-3c0 0-1 0-1-1c0 0 0 0 0 0c-1-2-2-3-2-5c0 0-1-1-1-1c0-2 0-5 0-7l48-192l16-64c1 0 1-1 1-1c0-1 1-2 1-2c1-1 1-2 2-3c0-1 1-1 1-2c1-1 2-1 4-2c0 0 1-1 1-1c2-1 4-1 6-1l336 0c9 0 16 7 16 16c0 9-7 16-16 16l-324 0l-8 32l300 0c2 0 4 0 6 1c0 0 1 1 2 1c1 1 2 1 2 2c1 0 1 1 2 2c1 1 1 1 2 2c0 1 1 2 1 3c0 1 1 2 1 2l0 1l0 0l46 293l54 13c8 3 14 11 12 20z m-436-308l-40 162l50 6l24-168z m66 0l-25 172l50 6l8-178z m99 0l-34 0l-8 182l50 6z m65 0l-33 0l8 192l50 6z m64 0l-32 0l25 202l34 4z m-226-128c-18 0-32-14-32-32c0-18 14-32 32-32c18 0 32 14 32 32c0 18-14 32-32 32z m208 0c-18 0-32-14-32-32c0-18 14-32 32-32c18 0 32 14 32 32c0 18-14 32-32 32z"/>
<glyph unicode="&#57393;" d="M464 480c-9 0-16-7-16-16c0-9 7-16 16-16c9 0 16-7 16-16l0-80l-448 0l0 80c0 9 7 16 16 16c9 0 16 7 16 16c0 9-7 16-16 16c-26 0-48-22-48-48l0-384c0-26 22-48 48-48l416 0c26 0 48 22 48 48l0 384c0 26-22 48-48 48z m16-432c0-9-7-16-16-16l-416 0c-9 0-16 7-16 16l0 272l448 0z m-384 368c9 0 16 7 16 16l0 64c0 9-7 16-16 16c-9 0-16-7-16-16l0-64c0-9 7-16 16-16z m64 0c9 0 16 7 16 16l0 64c0 9-7 16-16 16c-9 0-16-7-16-16l0-64c0-9 7-16 16-16z m64 0c9 0 16 7 16 16l0 64c0 9-7 16-16 16c-9 0-16-7-16-16l0-64c0-9 7-16 16-16z m64 0c9 0 16 7 16 16l0 64c0 9-7 16-16 16c-9 0-16-7-16-16l0-64c0-9 7-16 16-16z m64 0c9 0 16 7 16 16l0 64c0 9-7 16-16 16c-9 0-16-7-16-16l0-64c0-9 7-16 16-16z m64 0c9 0 16 7 16 16l0 64c0 9-7 16-16 16c-9 0-16-7-16-16l0-64c0-9 7-16 16-16z m-72-304c-13 0-24 11-24 24c0 9-7 16-16 16c-9 0-16-7-16-16c0-31 25-56 56-56c31 0 56 25 56 56c0 16-6 30-17 40c11 10 17 24 17 40c0 31-25 56-56 56c-31 0-56-25-56-56c0-9 7-16 16-16c9 0 16 7 16 16c0 13 11 24 24 24c13 0 24-11 24-24c0-13-11-24-24-24c-9 0-16-7-16-16c0-9 7-16 16-16c13 0 24-11 24-24c0-13-11-24-24-24z m-232-16c0-9 7-16 16-16l80 0c9 0 16 7 16 16c0 9-7 16-16 16l-56 0c7 9 16 18 24 26c24 25 48 50 48 78c0 31-25 56-56 56c-31 0-56-25-56-56c0-9 7-16 16-16c9 0 16 7 16 16c0 13 11 24 24 24c13 0 24-11 24-24c0-15-22-37-39-55c-22-24-41-43-41-65z"/>
<glyph unicode="&#57394;" d="M416 512l-320 0c-26 0-48-22-48-48l0-416c0-26 22-48 48-48l320 0c26 0 48 22 48 48l0 416c0 26-22 48-48 48z m16-464c0-9-7-16-16-16l-320 0c-9 0-16 7-16 16l0 323c5-2 10-3 16-3l320 0c6 0 11 1 16 3z m0 368c0-9-7-16-16-16l-320 0c-9 0-16 7-16 16l0 48c0 9 7 16 16 16l320 0c9 0 16-7 16-16z m-224-128l-16 0l0 16c0 9-7 16-16 16c-9 0-16-7-16-16l0-16l-16 0c-9 0-16-7-16-16c0-9 7-16 16-16l16 0l0-16c0-9 7-16 16-16c9 0 16 7 16 16l0 16l16 0c9 0 16 7 16 16c0 9-7 16-16 16z m160 0l-64 0c-9 0-16-7-16-16c0-9 7-16 16-16l64 0c9 0 16 7 16 16c0 9-7 16-16 16z m0-112l-64 0c-9 0-16-7-16-16c0-9 7-16 16-16l64 0c9 0 16 7 16 16c0 9-7 16-16 16z m0-64l-64 0c-9 0-16-7-16-16c0-9 7-16 16-16l64 0c9 0 16 7 16 16c0 9-7 16-16 16z m-149 59c-6 7-16 7-22 0l-21-20l-21 20c-6 7-16 7-22 0c-7-6-7-16 0-22l20-21l-20-21c-7-6-7-16 0-22c3-3 7-5 11-5c4 0 8 2 11 5l21 20l21-20c3-3 7-5 11-5c4 0 8 2 11 5c7 6 7 16 0 22l-20 21l20 21c7 6 7 16 0 22z"/>
<glyph unicode="&#57395;" d="M256 512c-79 0-144-65-144-144c0-38 13-71 25-102c12-30 23-58 23-90c0-17 9-32 22-40c-4-7-6-15-6-24c0-17 9-32 22-40c-4-7-6-15-6-24c0-26 22-48 48-48l32 0c26 0 48 22 48 48c0 9-2 17-6 24c13 8 22 23 22 40c0 9-2 17-6 24c13 8 22 23 22 40c0 32 11 60 23 90c12 31 25 64 25 102c0 79-65 144-144 144z m16-480l-32 0c-9 0-16 7-16 16c0 9 7 16 16 16l32 0c9 0 16-7 16-16c0-9-7-16-16-16z m16 64l-64 0c-9 0-16 7-16 16c0 9 7 16 16 16l64 0c9 0 16-7 16-16c0-9-7-16-16-16z m-77 244c12-11 28-20 45-20c17 0 33 9 46 20c-4-35-13-57-22-79c-11-27-22-54-24-101l0 0c-2 56-14 84-25 110c-9 20-17 39-20 70z m134-62c-12-31-25-64-25-102c0-9-7-16-16-16l-16 0c2 41 12 64 22 89c12 31 26 66 26 135c0 1 0 1 0 1c0 2-1 3-1 4c0 1-1 2-1 2c-1 1-1 2-2 3c0 1-1 2-2 2c0 1-1 1-1 1c-1 1-1 1-1 1c-1 0-2 1-3 1c-2 0-3 1-4 1c0 0-1 0-1 0c-1 0-1 0-1 0c-2 0-3-1-4-1c-1 0-2-1-2-1c-1-1-2-1-3-2c-1 0-2-1-2-2c-1 0-1-1-1-1c-9-13-33-41-51-41c-18 0-42 28-51 41c0 0 0 1-1 1c0 1-1 2-2 2c-1 1-2 1-3 2c0 0-1 1-2 1c-1 0-2 1-4 1c0 0 0 0-1 0c0 0-1 0-1 0c-1 0-3-1-4-1c-1 0-2-1-3-1c0 0 0 0-1-1c0 0-1 0-1-1c-1 0-2-1-2-2c-1-1-1-2-2-2c0-1-1-2-1-3c0-1-1-2-1-3c0-1 0-1 0-2c0-67 13-97 25-126c11-25 21-49 23-98l-16 0c-9 0-16 7-16 16c0 38-13 71-25 102c-12 30-23 58-23 90c0 62 50 112 112 112c62 0 112-50 112-112c0-32-11-60-23-90z"/>
<glyph unicode="&#57396;" d="M508 253l-54 136c15 8 26 24 26 43c0 26-22 48-48 48c-26 0-48-22-48-48c0-19 11-35 26-43l-36-91c-17 2-33 3-49 4l-47 119c15 8 26 24 26 43c0 26-22 48-48 48c-26 0-48-22-48-48c0-19 11-35 26-43l-47-119c-16-1-32-2-49-4l-36 91c15 8 26 24 26 43c0 26-22 48-48 48c-26 0-48-22-48-48c0-19 11-35 26-43l-54-136c-2-4-4-8-4-13l0-176c0-62 230-64 256-64c26 0 256 2 256 64l0 176c0 5-2 9-4 13z m-76 195c9 0 16-7 16-16c0-9-7-16-16-16c-9 0-16 7-16 16c0 9 7 16 16 16z m0-91l30-76c-16 5-35 9-55 12z m-176 123c9 0 16-7 16-16c0-9-7-16-16-16c-9 0-16 7-16 16c0 9 7 16 16 16z m0-91l34-86c-17 1-29 1-34 1c-5 0-17 0-34-1z m-176 59c9 0 16-7 16-16c0-9-7-16-16-16c-9 0-16 7-16 16c0 9 7 16 16 16z m0-91l25-64c-20-3-39-7-55-12z m176-325c-132 0-206 20-222 32c16 12 90 32 222 32c132 0 206-20 222-32c-16-12-90-32-222-32z m224 66c-64 29-204 30-224 30c-20 0-160-1-224-30l0 139l1 2c12 12 88 33 223 33c135 0 211-21 223-33l1-2z m-352 87c-8-1-15-9-14-18c1-8 8-14 16-14l2 0c9 1 15 9 14 18c-1 9-9 15-18 14z m256 0c-9 1-17-5-18-14c-1-9 5-17 14-18l2 0c8 0 14 6 16 14c1 9-6 17-14 18z m-320-12c-8-2-13-10-11-19c2-7 8-12 15-12c1 0 3 0 4 0c9 2 14 11 12 20c-2 8-11 14-20 11z m128 17c0 0 0 0 0 0c-9 0-16-8-15-17c0-8 7-15 16-15l1 0c9 1 15 8 15 17c-1 9-8 16-17 15z m64 2c-9 0-16-7-16-16c0-9 7-16 16-16c9 0 16 7 16 16c0 9-7 16-16 16z m192-19c-9 3-18-3-20-11c-2-9 3-18 12-20c1 0 2 0 4 0c7 0 13 5 15 12c2 9-3 17-11 19z m-128 17c0 0 0 0 0 0c-9 1-17-6-17-15c-1-9 6-16 15-17l1 0c8 0 15 7 16 15c0 9-6 17-15 17z m64 43c-9 1-17-5-18-14c-1-9 5-17 14-18l2 0c8 0 14 6 16 14c1 9-6 17-14 18z m-64 5c-9 1-17-6-17-15c-1-9 6-16 15-17l1 0c8 0 15 7 16 15c0 9-6 17-15 17z m128-17c-9 3-18-3-20-11c-2-9 3-18 12-20c1 0 2 0 4 0c7 0 13 5 15 12c2 9-3 17-11 19z m-256 17c-9 0-16-8-15-17c0-8 7-15 16-15l1 0c9 1 15 8 15 17c-1 9-8 16-17 15z m64 2c0 0 0 0 0 0c-9 0-16-7-16-16c0-9 7-16 16-16c9 0 16 7 16 16c0 9-7 16-16 16z m-64-2c0 0 0 0 0 0c0 0 0 0 0 0c0 0 0 0 0 0z m-128-17c-8-2-13-10-11-19c2-7 8-12 15-12c1 0 3 0 4 0c9 2 14 11 12 20c-2 8-11 14-20 11z m64 12c0 0 0 0 0 0c-8-1-15-9-14-18c1-8 8-14 16-14l2 0c9 1 15 9 14 18c-1 9-9 15-18 14z"/>
<glyph unicode="&#57397;" d="M446 438c0 0-1 0-1 0c2 18 3 38 3 58c0 9-7 16-16 16l-352 0c-8 0-16-7-16-16c0-20 2-39 4-58c-1 0-1 0-2 0c-54-23-80-85-58-140c11-26 31-46 58-57c13-6 27-9 40-9c11 0 22 2 32 5c18-27 36-51 53-69c0-2 1-4 3-6c9-9 14-21 14-34c0-13-5-25-14-34c-9-9-21-14-34-14c-35 0-64-29-64-64c0-9 8-16 16-16l288 0c9 0 16 7 16 16c0 35-29 64-64 64c-13 0-25 5-34 14c-9 9-14 21-14 34c0 13 5 25 14 34c2 2 3 4 4 6c16 18 35 41 52 69c10-3 21-5 32-5c13 0 27 3 40 9c27 11 47 31 58 57c22 55-4 117-58 140z m-368-168c-19 8-33 22-40 41c-15 36 1 77 35 94c10-54 28-100 49-139c-15-3-30-2-44 4z m274-222c12 0 22-6 28-16l-247 0c5 10 15 16 27 16c22 0 42 8 57 23c13 14 21 31 23 50c3-3 6-5 7-6c3-2 6-3 9-3c4 0 7 1 10 3c0 1 3 3 7 6c2-19 9-36 23-50c15-15 35-23 56-23z m-96 101c-34 29-153 144-159 331l319 0c-7-187-125-302-160-331z m218 162c-7-19-21-33-40-41c-14-6-29-7-43-4c20 39 39 85 49 139c34-18 49-58 34-94z"/>
<glyph unicode="&#57398;" d="M511 323c0 0 0 0 0 0c0 3-2 6-4 9l-126 173c-1 2-2 3-4 4c0 0 0 0 0 0c-2 1-4 2-6 3c0 0 0 0 0 0c0 0 0 0 0 0c-1 0-2 0-3 0l-224 0c-1 0-3 0-4 0c0 0 0 0 0 0c0 0 0 0 0 0c-2-1-3-2-5-3c0 0-1 0-1 0c-1-1-2-2-3-4l-128-176c0 0 0 0-1-1c0 0 0-1-1-1c0 0 0-1 0-1c0-1 0-1 0-2c-1-1-1-1-1-2c0-1 0-2 0-2c0-1 0-2 0-2c0-1 0-2 1-3c0 0 0-1 0-2c0 0 1 0 1 0c0-1 0-1 1-2c0 0 0-1 0-1l240-304c1 0 1 0 1-1c1 0 1-1 2-2c1 0 1 0 2 0c0-1 0-1 0-1c0 0 1 0 2-1c0 0 1 0 2 0c0 0 0-1 0-1c1 0 3 0 4 0c0 0 0 0 0 0l0 0c0 0 0 0 0 0c1 0 2 0 3 0c1 0 1 1 1 1c1 0 1 0 2 0c1 1 1 1 2 1c0 0 0 0 0 1c1 0 1 0 1 0c1 1 2 2 2 2c1 1 1 1 1 1l239 302c3 3 5 7 5 12c0 1 0 2-1 3z m-163 157l-34-144l-116 0l-34 144z m-212-22l29-122l-118 0z m-87-154l123 0l52-222z m207-218l-51 218l102 0z m32-4l51 222l124 0z m59 254l28 122l89-122z"/>
<glyph unicode="&#57399;" d="M404 416l-40 0c-7 0-12 6-12 14l0 36c0 25-20 46-44 46l-200 0c-24 0-44-21-44-46l0-420c0-25 20-46 44-46l296 0c24 0 44 21 44 46l0 324c0 25-20 46-44 46z m12-370c0-8-5-14-12-14l-296 0c-7 0-12 6-12 14l0 420c0 8 5 14 12 14l200 0c7 0 12-6 12-14l0-36c0-25 20-46 44-46l40 0c7 0 12-6 12-14z m-272 306l128 0c9 0 16 7 16 16c0 9-7 16-16 16l-128 0c-9 0-16-7-16-16c0-9 7-16 16-16z m224-32l-224 0c-9 0-16-7-16-16c0-9 7-16 16-16l224 0c9 0 16 7 16 16c0 9-7 16-16 16z m0-64l-224 0c-9 0-16-7-16-16c0-9 7-16 16-16l224 0c9 0 16 7 16 16c0 9-7 16-16 16z m0-64l-224 0c-9 0-16-7-16-16c0-9 7-16 16-16l224 0c9 0 16 7 16 16c0 9-7 16-16 16z m0-64l-224 0c-9 0-16-7-16-16c0-9 7-16 16-16l224 0c9 0 16 7 16 16c0 9-7 16-16 16z"/>
<glyph unicode="&#57400;" d="M498 498c-9 9-21 14-34 14l-416 0c-13 0-25-5-34-14c-9-9-14-21-14-34l0-416c0-3 0-6 1-10c0 0 0-1 0-1c1-3 2-5 3-8c0 0 0 0 0 0c2-6 6-11 10-15c2-2 4-4 7-5c0-1 0-1 0-1c2-1 5-3 7-4c1 0 1 0 1 0c3-1 5-2 7-2c1-1 2-1 2-1c4-1 7-1 10-1l416 0c3 0 6 0 10 1c0 0 1 0 2 1c2 0 4 1 7 2c0 0 0 0 1 0c2 2 5 3 7 4c0 0 0 0 0 1c3 1 5 3 7 5c4 4 7 9 10 15c0 0 0 0 0 0c1 3 2 5 3 8c0 0 0 1 0 1c1 4 1 7 1 10l0 416c0 13-5 25-14 34z m-466-86l156-156l-156-156z m447-370c-1-2-2-4-4-5c-1-2-3-3-5-4c-2-1-4-1-6-1l-416 0c-2 0-4 0-6 1c-2 1-4 2-5 4c-2 1-3 3-4 5c-1 2-1 4-1 6c0 4 2 8 5 11l174 174l11-11c9-9 21-14 34-14c13 0 25 5 34 14l11 11l174-174c3-3 5-7 5-11c0-2 0-4-1-6z m1 58l-156 156l156 156z m-5 353l-208-208c-6-6-16-6-22 0l-208 208c-3 3-5 7-5 11c0 4 2 8 5 11c3 3 7 5 11 5l416 0c4 0 8-2 11-5c3-3 5-7 5-11c0-4-2-8-5-11z"/>
<glyph unicode="&#57401;" d="M256 384c-144 0-256-56-256-128c0-72 112-128 256-128c144 0 256 56 256 128c0 72-112 128-256 128z m-224-128c0 34 50 70 130 87c-21-23-34-54-34-87c0-33 13-64 34-87c-80 17-130 53-130 87z m224-96c-53 0-96 43-96 96c0 53 43 96 96 96c53 0 96-43 96-96c0-53-43-96-96-96z m94 9c21 23 34 54 34 87c0 33-13 64-34 87c80-17 130-53 130-87c0-34-50-70-130-87z m-94 135c-26 0-48-22-48-48c0-26 22-48 48-48c26 0 48 22 48 48c0 26-22 48-48 48z m0-64c-9 0-16 7-16 16c0 9 7 16 16 16c9 0 16-7 16-16c0-9-7-16-16-16z"/>
<glyph unicode="&#57402;" d="M266 258c6 2 8 8 6 13c0 1-1 2-1 2c-12 24-56 41-80 31c-5-2-7-8-5-13l17-42c2-6 16-11 21-9l42 18c0 0 0 0 0 0z m-85-123c-2 6-16 11-21 9l-42-17c-6-3-8-9-6-14c10-24 56-43 81-33c5 2 7 8 5 13z m110 63l-42-17c-6-2-11-16-9-21l17-42c3-6 9-8 14-6c24 10 43 56 33 81c-2 5-8 8-13 5z m-147 26l-17 42c-3 6-9 8-14 6c-24-10-43-56-33-81c2-5 8-7 13-5l42 17c6 2 11 16 9 21z m42-17c-8-3-12-13-9-21c4-8 13-12 21-9c8 4 12 13 9 21c-4 8-13 12-21 9z m325 139c0 0 0 1-1 2c0 2-1 5-2 7c0 0 0 1-1 1c-1 3-2 5-3 7c0 0-1 1-1 1c-2 2-3 4-5 6c-1 1-2 1-2 2c-2 1-4 3-5 4c-2 1-3 2-4 2c-2 1-3 2-5 3c-1 0-2 0-4 1c-1 0-3 1-5 1c-2 1-5 1-8 1c0 0-1 0-1 0c0 0-1 0-1 0c-3 0-6 0-8-1c-1 0-2 0-3-1c-2 0-4-1-6-1c-1-1-2-1-2-2c-3-1-5-2-7-3c-1 0-1-1-2-2c-2-1-3-2-5-4l-77-74c-33 51-89 86-154 88l-79 76c0 0 0 0-1 0c1 3 2 6 2 9c0 9-4 17-10 23l-11 11c-12 12-33 12-45 0l-46-45c-6-6-9-14-9-23c0-9 3-17 9-23l12-11c6-6 14-9 22-9c3 0 6 0 9 1c0 0 0-1 1-1l37-38c-54-34-90-94-90-162c0-35 9-67 26-95c13-24 5-53-18-67c-8-5-10-15-6-22c3-5 9-8 14-8c3 0 6 1 8 2c19 12 32 30 37 50c35-32 80-52 131-52c68 0 127 35 161 88l77-74c1-1 2-1 2-2c2-1 4-3 5-4c2-1 3-1 4-2c2-1 3-2 5-2c1-1 2-1 4-2c1 0 3-1 5-1c1 0 2 0 3 0c2-1 4-1 6-1c2 0 4 0 6 1c1 0 2 0 3 0c2 0 4 1 5 1c2 1 3 1 4 2c2 0 3 1 5 2c1 1 2 1 4 2c1 1 3 3 5 4c0 1 1 1 2 2c2 2 3 4 5 6c0 1 1 1 1 1c1 2 2 5 3 7c1 0 1 1 1 1c1 3 2 5 2 7c1 1 1 2 1 2c1 4 1 7 1 10l0 288c0 3 0 7-1 10z m-468 78l-11 11l45 45l12-11z m34-12l23 23l56-54c-13-3-25-6-36-11z m115-380c-59 0-111 33-139 81c0 0 0 1-1 2c0 0 0 0 0 1c-13 22-20 48-20 76c0 88 72 160 160 160c88 0 160-72 160-160c0-88-72-160-160-160z m224 40l-47 46c10 23 15 48 15 74c0 26-5 52-15 74l47 46z m64-24c0-2 0-4-1-6c-1-2-2-3-3-5c-1 0-1 0-1 0c-1-2-3-3-5-4c-1 0-1 0-2 0c-5-1-11 0-15 4c-3 3-5 7-5 11l0 288c0 5 2 9 5 12c1 1 3 2 5 3c2 1 4 1 6 1c2 0 4 0 6-1c2-1 4-2 5-3c0-1 0-1 1-1c1-1 2-3 3-5c1-2 1-4 1-6z"/>
<glyph unicode="&#57403;" d="M200 511c-7 2-14 0-18-5c-5-6-5-13-1-19c1-1 71-107-15-213c-96-117-44-224 1-269c3-3 7-5 11-5l0 0c10 0 16 7 16 16c0 3 0 6-2 8c-3 10-5 38-5 54c0 32 13 55 27 70c-1-21 4-44 22-67c13-15 15-35 6-60c-2-6 0-14 6-18c6-4 14-4 19 0c27 22 117 102 117 228c0 207-182 279-184 280z m79-454c-2 17-8 32-18 44c-31 38-7 75-6 76c4 6 4 14 0 19c-3 4-8 6-13 6c-2 0-4 0-5-1c-4-1-82-32-82-123c-20 48-18 111 35 176c65 78 55 158 38 206c49-31 124-101 124-229c0-80-41-139-73-174z"/>
<glyph unicode="&#57404;" d="M430 295c-3 6-8 9-14 9l-112 0l0 192c0 7-5 13-11 15c-7 2-14 0-18-6l-192-272c-3-5-4-11-1-16c3-6 8-9 14-9l112 0l0-192c0-7 5-13 11-15c2-1 3-1 5-1c5 0 10 2 13 7l192 272c4 5 4 11 1 16z m-190-229l0 158c0 9-7 16-16 16l-97 0l145 206l0-158c0-9 7-16 16-16l97 0z"/>
<glyph unicode="&#57405;" d="M464 352l0 16c0 26-22 48-48 48l-192 0c-9 0-16 7-16 16c0 26-22 48-48 48l-64 0c-26 0-48-22-48-48l0-80c-26 0-48-22-48-48l32-224c0-26 22-48 48-48l352 0c26 0 48 22 48 48l32 224c0 26-22 48-48 48z m-384 80c0 9 7 16 16 16l64 0c9 0 16-7 16-16c0-26 22-48 48-48l192 0c9 0 16-7 16-16l0-16l-352 0z m368-352c0-9-7-16-16-16l-352 0c-9 0-16 7-16 16l-32 224c0 9 7 16 16 16l416 0c9 0 16-7 16-16z m-216 208l-118 0c-11 0-21-5-28-13c-8-8-11-19-9-30l7-48c2-20 19-37 37-37l111 0c22 0 40 18 40 40l0 48c0 22-18 40-40 40z m8-88c0-4-4-8-8-8l-111 0c-1 1-5 5-6 9l-6 48c-1 2 0 4 1 5c1 1 2 2 4 2l118 0c4 0 8-4 8-8z"/>
<glyph unicode="&#57406;" d="M509 487c0 0 0 0 0 0c0 0 0 0 0 0c-2 5-5 10-9 13c0 1-1 1-1 1c-7 7-16 11-27 11c0 0 0 0-1 0c-5 0-10-1-14-3l-109-47c-5-1-8-3-12-6c-3 2-6 4-10 5l-111 48c-5 2-10 3-14 3c-1 0-1 0-1 0c0 0 0 0 0 0c-1 0-1 0-1 0c-9 0-17-3-23-8c-7 5-15 8-24 8c0 0 0 0-1 0c-5 0-10-1-14-3l-110-47c-15-5-26-20-27-37l0-385c0-5 1-10 3-15c0 0 0 0 0 0c0 0 0 0 0 0c1-4 3-7 6-9c0-1 1-2 1-2c3-3 5-5 8-7c0 0 0 0 0 0c3-2 6-4 10-5c0 0 1 0 1 0c4-1 7-2 11-2c0 0 0 0 1 0c5 0 10 1 14 3l109 47c5 1 8 3 12 6c3-2 6-4 10-5l111-48c5-2 10-3 15-3c0 0 0 0 0 0c4 0 7 1 11 2c0 0 1 0 1 0c4 1 7 3 10 5c0 0 0 0 0 0c1 0 1 1 2 1c1 0 1-1 2-1c0 0 0 0 0 0c3-2 6-4 10-5c0 0 1 0 1 0c4-1 7-2 11-2c0 0 0 0 1 0c5 0 10 1 14 3l110 47c15 5 26 20 27 37l0 385c0 5-1 10-3 15z m-356-407l-110-47c-4-2-9 0-10 4c-1 1-1 2-1 3l0 384c0 3 2 6 7 8l110 47c4 2 9 0 10-4c1-1 1-2 1-3l0-384c0-4-2-7-7-8z m167-40c0-1 0-2-1-3c-1-2-2-4-4-4c-1-1-2-1-3-1c-1 0-2 0-3 1l-112 47c-3 1-5 4-5 7l0 385c0 1 0 2 1 3c1 2 2 4 4 4c1 1 2 1 3 1c1 0 2 0 3-1l112-47c3-2 5-5 5-7z m153 40l-110-47c-4-2-9 0-10 4c-1 1-1 2-1 3l0 384c0 3 2 6 7 8l110 47c4 2 9 0 10-4c1-1 1-2 1-3l0-384c0-4-2-7-7-8z"/>
<glyph unicode="&#57407;" d="M384 288l0 96c0 71-57 128-128 128c-71 0-128-57-128-128l0-96c-26 0-48-22-48-48l0-192c0-26 22-48 48-48l256 0c26 0 48 22 48 48l0 192c0 26-22 48-48 48z m-224 96c0 53 43 96 96 96c53 0 96-43 96-96l0-96l-192 0z m240-336c0-9-7-16-16-16l-256 0c-9 0-16 7-16 16l0 192c0 9 7 16 16 16l256 0c9 0 16-7 16-16z m-128 108l0 36c0 9-7 16-16 16c-9 0-16-7-16-16l0-36c-10-6-16-16-16-28c0-18 14-32 32-32c18 0 32 14 32 32c0 12-6 22-16 28z"/>
<glyph unicode="&#57408;" d="M512 112c0 7-2 14-5 20l-108 368c-2 7-8 12-15 12l-256 0c-7 0-13-5-15-12l-108-368c-3-6-5-13-5-20l0-68c0-24 21-44 46-44l420 0c25 0 46 20 46 44z m-372 368l232 0l93-320c0 0-1 0-1 0l-51 0l-61 275c-2 8-9 13-16 13l-160 0c-8 0-14-5-16-13l-61-275l-51 0c0 0-1 0-1 0z m20-320l-28 0l57 256l134 0l57-256l-28 0c-9 0-16-7-16-16l0-36c0-7-6-12-14-12l-132 0c-7 0-14 9-14 16l0 32c0 9-7 16-16 16z m306-128l-420 0c-8 0-14 5-14 12l0 66l3 9c3 5 8 9 13 9l96 0l0-16c0-26 22-48 46-48l132 0c25 0 46 20 46 44l0 20l96 0c5 0 10-4 13-9l3-9l0-66c0-7-6-12-14-12z"/>
<glyph unicode="&#57409;" d="M352 512c-5 0-10 0-15-1c-2 0-3 0-5 0c-3-1-6-1-9-2c-2 0-4-1-6-1c-3-1-5-1-8-2c-2-1-4-1-7-2c-2-1-4-1-6-2c-5-2-10-4-15-7c-1-1-2-1-3-1c-3-2-6-3-8-5c-2-1-3-2-4-3c-3-1-5-3-8-5c0 0-1-1-2-1c-28 21-61 32-96 32c-88 0-160-72-160-160c0-145 93-276 249-350c2-1 5-2 7-2c2 0 5 1 7 2c156 74 249 205 249 350c0 88-72 160-160 160z m-96-478c-140 69-224 188-224 318c0 71 57 128 128 128c26 0 51-8 72-22c-25-29-40-66-40-106c0-9 7-16 16-16c9 0 16 7 16 16c0 38 17 72 43 96c3 2 5 4 8 6c1 0 1 1 2 1c2 2 5 4 8 6c0 0 1 0 2 1c2 1 5 3 8 4c1 1 2 1 2 2c3 1 6 2 8 3c1 0 3 1 4 1c2 1 5 2 7 3c2 0 3 1 5 1c2 1 4 1 7 2c2 0 4 0 6 1c2 0 4 0 6 0c4 1 8 1 12 1c71 0 128-57 128-128c0-130-84-249-224-318z m96 414c-9 0-16-7-16-16c0-9 7-16 16-16c35 0 64-29 64-64c0-9 7-16 16-16c9 0 16 7 16 16c0 53-43 96-96 96z"/>
<glyph unicode="&#57410;" d="M509 487c5 8 3 17-4 22c-8 5-17 3-22-4l-60-90c-2 1-4 1-7 1c-26 0-48-22-48-48c0-5 1-10 2-15l-57-72c-7 4-16 7-25 7c-26 0-47-21-48-46l-90-53c-9 12-23 19-38 19c-26 0-48-22-48-48c0-10 3-20 9-28l-70-107c-5-8-3-18 4-22c3-2 6-3 9-3c5 0 10 3 13 7l70 107c4-1 9-2 13-2c26 0 47 21 48 46l90 53c9-12 23-19 38-19c26 0 48 22 48 48c0 5-1 10-2 14l57 73c7-4 16-7 25-7c26 0 48 22 48 48c0 12-5 23-12 32z m-397-343c-9 0-16 7-16 16c0 9 7 16 16 16c9 0 16-7 16-16c0-9-7-16-16-16z m176 80c-9 0-16 7-16 16c0 9 7 16 16 16c9 0 16-7 16-16c0-9-7-16-16-16z m128 128c-9 0-16 7-16 16c0 9 7 16 16 16c9 0 16-7 16-16c0-9-7-16-16-16z m-320-320c-9 0-16-7-16-16c0-9 7-16 16-16c9 0 16 7 16 16c0 9-7 16-16 16z m80 0c-9 0-16-7-16-16c0-9 7-16 16-16c9 0 16 7 16 16c0 9-7 16-16 16z m80 0c-9 0-16-7-16-16c0-9 7-16 16-16c9 0 16 7 16 16c0 9-7 16-16 16z m80 0c-9 0-16-7-16-16c0-9 7-16 16-16c9 0 16 7 16 16c0 9-7 16-16 16z m80 0c-9 0-16-7-16-16c0-9 7-16 16-16c9 0 16 7 16 16c0 9-7 16-16 16z m80 0c-9 0-16-7-16-16c0-9 7-16 16-16c9 0 16 7 16 16c0 9-7 16-16 16z m-480 48c9 0 16 7 16 16c0 9-7 16-16 16c-9 0-16-7-16-16c0-9 7-16 16-16z m0 80c9 0 16 7 16 16c0 9-7 16-16 16c-9 0-16-7-16-16c0-9 7-16 16-16z m0 80c9 0 16 7 16 16c0 9-7 16-16 16c-9 0-16-7-16-16c0-9 7-16 16-16z m0 80c9 0 16 7 16 16c0 9-7 16-16 16c-9 0-16-7-16-16c0-9 7-16 16-16z m0 80c9 0 16 7 16 16c0 9-7 16-16 16c-9 0-16-7-16-16c0-9 7-16 16-16z m0 80c9 0 16 7 16 16c0 9-7 16-16 16c-9 0-16-7-16-16c0-9 7-16 16-16z"/>
<glyph unicode="&#57411;" d="M256 480c-141 0-256-100-256-224c0-124 115-224 256-224c141 0 256 100 256 224c0 124-115 224-256 224z m-90-48c-10-12-18-26-25-41c-9 5-18 9-26 14c15 11 32 20 51 27z m-77-49c12-8 25-16 39-22c-9-27-14-57-16-89l-79 0c4 43 25 81 56 111z m-56-143l80 0c1-32 6-62 15-89c-14-7-27-14-39-22c-31 30-52 68-56 111z m82-133c8 5 16 10 26 14c7-15 15-29 25-41c-19 7-36 16-51 27z m125-41c-27 7-51 31-69 66c22 6 45 10 69 11z m0 109c-29-1-56-5-81-13c-8 24-13 50-15 78l96 0z m0 97l-96 0c2 28 7 54 15 78c25-7 52-12 81-13l0-65z m0 97c-24 1-48 5-69 11c18 35 42 59 69 66z m239-97l-80 0c-1 32-6 62-15 89c14 7 27 14 39 23c31-31 52-69 56-112z m-82 133c-8-5-16-10-26-14c-7 15-15 29-25 41c19-7 36-16 51-27z m-125 41c27-7 51-31 69-66c-22-6-45-10-69-11z m0-109c29 1 56 5 81 13c8-24 13-50 15-78l-96 0z m0-97l96 0c-2-28-7-54-15-78c-25 7-52 12-81 13l0 65z m0-174l0 77c24-1 48-5 69-11c-18-35-42-59-69-66z m74 14c10 12 18 26 25 41c9-5 18-9 26-14c-15-11-32-20-51-27z m77 49c-12 8-25 16-39 22c9 27 14 57 15 89l80 0c-4-43-25-81-56-111z"/>
<glyph unicode="&#57412;" d="M359 204c-3 9-9 18-16 29c-4 5-8 10-12 15c-5 5-11 11-17 17c-6 6-12 11-18 16c-5 4-10 8-16 13c-10 8-19 15-26 21c-6 6-11 11-14 16c-4 5-7 9-9 15c-1 1-1 3-1 6c0 2 0 3 1 5c1 3 3 5 6 7c6 4 13 4 18 2c3-1 6-4 8-5c2-3 3-6 3-9c0-14 5-26 15-35c20-18 51-18 70 0c11 9 16 21 16 35c0 15-3 30-10 45c-9 20-24 36-43 48c-15 10-32 16-50 18l0 33c0 9-7 16-16 16c-9 0-16-7-16-16l0-33c-11-1-21-4-30-8c-21-8-39-21-54-40c-6-9-11-19-14-29c-4-11-6-23-6-34c0-15 3-30 9-45c8-17 20-34 35-49c7-8 14-15 22-21l22-18c11-9 19-16 25-22c7-6 12-11 16-16c3-5 6-9 8-14c1-2 1-4 1-6c0-2 0-4-1-6c-1-3-3-5-6-7c-3-2-6-3-10-3c-3 0-6 1-8 1c-3 2-6 4-8 6c-2 4-3 7-3 8c0 14-5 26-15 35c-20 18-51 18-71 0c-10-9-15-21-15-35c0-15 3-30 9-44c10-20 25-37 44-49c15-9 32-16 50-18l0-33c0-9 7-16 16-16c9 0 16 7 16 16l0 33c10 1 20 4 31 8c21 9 39 22 52 40c14 19 21 40 21 63c0 15-3 30-9 44z m-38-88c-10-13-23-23-38-29c-30-12-60-8-84 7c-14 9-25 21-32 35c-4 10-6 20-6 31c0 5 2 9 5 12c4 4 8 5 14 5c5 0 9-1 13-5c4-3 5-7 5-12c0-9 3-18 10-27c5-7 12-13 21-16c16-6 33-5 47 4c8 6 14 13 18 21c3 6 4 12 4 19c0 7-1 14-4 19c-3 7-7 14-12 21c-5 6-11 13-19 19c-7 7-16 15-27 24l-21 17c-7 6-13 12-20 19c-13 13-22 26-28 40c-5 11-7 21-7 32c0 8 1 16 4 23c2 8 6 15 10 21c11 14 24 24 40 30c10 4 21 6 33 6c19 0 35-5 50-14c14-9 24-21 31-35c5-10 7-20 7-31c0-5-2-8-5-11c-8-8-19-8-27-1c-4 4-5 7-5 12c0 9-3 18-10 28c-5 7-13 12-21 16c-15 6-33 4-47-5c-8-5-14-12-18-21c-3-5-4-12-4-18c0-8 1-15 4-19c3-7 7-15 12-22c5-6 11-12 19-19c7-7 16-15 28-24c5-4 10-8 15-12c5-4 11-9 16-14c6-5 10-10 14-15c4-5 8-9 11-14c6-7 10-14 12-21c5-11 7-22 7-32c0-16-5-30-15-44z"/>
<glyph unicode="&#57413;" d="M468 512l-312 0c-24 0-44-21-44-46l0-330c0-4-4-8-8-8c-4 0-8 4-8 8l0 232c0 9-8 17-16 16c-2 0-36 0-36 0c-24 0-44-21-44-46l0-258c0-44 36-80 80-80l0 0c4 0 9 0 15 0l337 0c44 0 80 36 80 80l0 386c0 25-20 46-44 46z m12-432c0-26-22-48-48-48c0 0-349 0-352 0c-26 0-48 22-48 48l0 258c0 8 5 14 12 14l20 0l0-216c0-22 18-40 40-40c22 0 40 18 40 40l0 330c0 8 5 14 12 14l312 0c7 0 12-6 12-14z m-288 208c9 0 16 7 16 16l0 72l50-80c1-1 2-2 2-3c0 0 1 0 1 0c1-2 3-3 4-3c1-1 1-1 1-1c2-1 4-1 6-1c0 0 0 0 0 0c0 0 0 0 0 0c2 0 4 0 6 1c0 0 0 1 1 1c0 0 1 0 1 0c1 1 1 1 2 2c1 0 1 1 2 2c1 1 1 1 2 2c0 1 1 2 1 3c0 1 1 2 1 3c0 1 0 1 0 2l0 128c0 9-7 16-16 16c-9 0-16-7-16-16l0-72l-50 80c-1 1-1 1-2 2c0 1-1 1-2 2c-1 1-1 1-2 2c-1 0-2 1-3 1c-1 0-2 1-3 1c-1 0-1 0-2 0c0 0-1 0-1 0c-1 0-2-1-3-1c-1 0-2-1-3-1c-1 0-1 0-1 0c-1-1-1-1-2-2c-1 0-1-1-2-2c-1-1-1-1-2-2c0-1-1-2-1-3c0-1-1-2-1-3c0-1 0-1 0-2l0-128c0-9 7-16 16-16z m128-208l128 0l0 96l-128 0z m112 368l-96 0c-9 0-16-7-16-16c0-9 7-16 16-16l96 0c9 0 16 7 16 16c0 9-7 16-16 16z m0-64l-96 0c-9 0-16-7-16-16c0-9 7-16 16-16l96 0c9 0 16 7 16 16c0 9-7 16-16 16z m0-64l-96 0c-9 0-16-7-16-16c0-9 7-16 16-16l96 0c9 0 16 7 16 16c0 9-7 16-16 16z m-160-144l-80 0c-9 0-16-7-16-16c0-9 7-16 16-16l80 0c9 0 16 7 16 16c0 9-7 16-16 16z m0-64l-80 0c-9 0-16-7-16-16c0-9 7-16 16-16l80 0c9 0 16 7 16 16c0 9-7 16-16 16z m160 144l-240 0c-9 0-16-7-16-16l0-16c0-9 7-16 16-16l240 0c9 0 16 7 16 16l0 16c0 9-7 16-16 16z"/>
<glyph unicode="&#57414;" d="M256 352c-144 0-256-56-256-128l0-16c0-26 22-48 48-48l64 0c26 0 48 22 48 48l0 16c0 16 30 32 96 32c66 0 96-16 96-32l0-16c0-26 22-48 48-48l64 0c26 0 48 22 48 48l0 16c0 72-112 128-256 128z m224-144c0-9-7-16-16-16l-64 0c-9 0-16 7-16 16l0 16c0 24-17 64-128 64c-111 0-128-40-128-64l0-16c0-9-7-16-16-16l-64 0c-9 0-16 7-16 16l0 16c0 57 118 96 224 96c132 0 224-51 224-96z"/>
<glyph unicode="&#57415;" d="M495 471l-14 14c-18 18-43 27-74 27c-76 0-177-54-265-142c-127-127-178-276-115-339l14-14c11-11 25-17 40-17c16 0 30 6 41 17l57 57c22 22 22 58 0 80l-14 15c-16 15-9 55 57 121c56 56 89 64 103 64c8 0 14-2 18-7l15-14c21-22 58-22 80 0l57 57c11 11 17 25 17 40c0 16-6 30-17 41z m-22-58l-58-57c-9-10-25-10-35 0l-14 14c-11 11-25 16-41 16c-34 0-77-25-126-74c-101-101-73-150-57-166l14-14c10-10 10-26 0-35l-57-58c-9-9-26-9-35 0l-14 15c-49 48 4 182 115 293c80 81 175 133 242 133c22 0 39-6 51-18l15-14c4-5 7-11 7-18c0-6-3-12-7-17z"/>
<glyph unicode="&#57416;" d="M256 512c-115 0-208-93-208-208c0-183 192-297 200-302c2-1 5-2 8-2c3 0 6 1 8 2c8 5 200 119 200 302c0 115-93 208-208 208z m0-477c-36 23-176 124-176 269c0 97 79 176 176 176c97 0 176-79 176-176c0-144-140-246-176-269z m0 317c-26 0-48-22-48-48c0-26 22-48 48-48c26 0 48 22 48 48c0 26-22 48-48 48z"/>
<glyph unicode="&#57417;" d="M496 208l-16 0l0 224c0 44-36 80-80 80l-320 0c-44 0-80-36-80-80l0-352c0-44 36-80 80-80l320 0c44 0 80 36 80 80l0 32l16 0c9 0 16 7 16 16l0 64c0 9-7 16-16 16z m-464 224c0 26 22 48 48 48l320 0c26 0 48-22 48-48l0-128c-9 7-20 12-32 14c0 1 0 1 0 2l0 112c0 9-7 16-16 16l-304 0c-26 0-49-13-64-32z m64-48c-21 0-38-13-45-32c-2 5-3 10-3 16c0 26 22 48 48 48l288 0l0-32z m288-32l0-32l-288 0c-9 0-16 7-16 16c0 9 7 16 16 16z m64-272c0-26-22-48-48-48l-320 0c-26 0-48 22-48 48l0 224c13-10 30-16 48-16l320 0c26 0 48-22 48-48l0-32l-80 0c-26 0-48-22-48-48c0-26 22-48 48-48l80 0z m32 64l-112 0c-9 0-16 7-16 16c0 9 7 16 16 16l112 0z"/>
<glyph unicode="&#57418;" d="M256 96c-26 0-48-22-48-48c0-26 22-48 48-48c26 0 48 22 48 48c0 26-22 48-48 48z m0-64c-9 0-16 7-16 16c0 9 7 16 16 16c9 0 16-7 16-16c0-9-7-16-16-16z m249 408c-75 47-161 72-249 72c-88 0-174-25-249-72c-7-5-9-15-4-22c4-8 14-10 22-5c69 44 149 67 231 67c82 0 162-23 231-67c3-2 6-3 9-3c5 0 10 3 13 8c5 7 3 17-4 22z m-156-243c-56 35-130 35-186 0c-8-5-10-14-5-22c4-7 14-10 22-5c46 29 106 29 152 0c3-2 6-2 9-2c5 0 10 2 13 7c5 8 3 17-5 22z m77 122c-51 32-110 49-170 49c-60 0-119-17-170-49c-7-5-9-14-5-22c5-7 15-10 23-5c45 29 98 44 152 44c54 0 107-15 152-44c3-2 6-2 9-2c5 0 10 2 14 7c4 8 2 17-5 22z"/>
<glyph unicode="&#57419;" d="M384 512c-71 0-128-57-128-128l0-96l-208 0c-26 0-48-22-48-48l0-192c0-26 22-48 48-48l256 0c26 0 48 22 48 48l0 192c0 26-22 48-48 48l-16 0l0 96c0 53 43 96 96 96c53 0 96-43 96-96l0-96c0-9 7-16 16-16c9 0 16 7 16 16l0 96c0 71-57 128-128 128z m-80-256c9 0 16-7 16-16l0-192c0-9-7-16-16-16l-256 0c-9 0-16 7-16 16l0 192c0 9 7 16 16 16z m-128-160c18 0 32 14 32 32c0 12-6 22-16 28l0 36c0 9-7 16-16 16c-9 0-16-7-16-16l0-36c-10-6-16-16-16-28c0-18 14-32 32-32z"/>
<glyph unicode="&#57420;" d="M335 189l-44 49c8-3 17-5 26-5c20 0 41 8 57 24l114 136c16 16 24 36 24 57c0 22-8 42-24 57c0 0 0 0 0 1c0 0 0 0 0 0c-1 1-2 1-2 1c-1 1-2 2-3 2c-1 0-2 0-3 1c-1 0-2 0-3 0c-1 0-2 0-3-1c-1 0-2 0-3 0c-1-1-2-2-3-2c-1-1-2-1-2-2c0 0 0 0 0 0c0 0-1 0-1 0l-209-231l-209 231c0 0-1 0-1 0c0 0 0 0 0 0c-1 1-1 1-2 2c-1 1-2 1-3 2c-1 0-2 0-3 0c-1 1-2 1-3 1c-1 0-2 0-3 0c-1-1-2-1-3-1c-1 0-2-1-3-2c0 0-1 0-2-1c0 0 0 0 0 0c0-1 0-1-1-1c-15-15-23-35-23-57c0-21 8-41 23-56l115-138c16-15 37-23 57-23c9 0 18 2 26 5l-44-49c-45 26-104 19-142-19c-45-45-47-117-5-165c1 0 1 0 1 0c0 0 0-1 1-1c0-1 2-1 3-2c0 0 1 0 1-1c2-1 4-1 6-1c2 0 4 0 6 1c1 1 2 1 2 1c1 1 2 1 3 2c0 0 0 1 1 1c0 0 0 0 0 0l202 223l202-223c0 0 0 0 0 0c1 0 1-1 1-1c1-1 2-1 3-2c0 0 1 0 2-1c2-1 4-1 6-1c2 0 4 0 6 1c0 1 1 1 1 1c1 1 3 1 3 2c1 0 1 1 1 1c0 0 0 0 1 0c42 48 40 120-5 165c-38 38-97 45-142 19z m141 281c2-6 4-13 4-20c0-13-5-25-15-35l-114-136c-15-15-38-18-56-8z m-314-192l-116 138c-9 9-14 21-14 34c0 7 2 14 4 20l181-199c-18-10-41-7-55 7z m-118-236c-20 33-15 77 13 105c26 26 66 32 98 17z m424 0l-111 122c32 15 72 9 97-17c29-29 34-72 14-105z"/>
<glyph unicode="&#57421;" d="M489 430c9 6 23 15 23 34l0 32c0 9-7 16-16 16l-32 0c-19 0-28-14-34-23c-3-5-6-9-8-9c-1 0-4 4-7 9c-6 8-15 23-34 23c-19 0-28-14-34-23c-4-5-6-9-8-9c-1 0-4 4-7 9c-6 9-15 23-34 23c-19 0-29-14-35-23c-3-5-5-9-7-9c-2 0-4 4-7 9c-6 9-16 23-35 23c-19 0-28-14-34-23c-3-5-6-9-7-9c-2 0-4 4-8 9c-6 9-15 23-34 23c-19 0-28-14-34-23c-3-5-6-9-7-9c-2 0-5 4-8 9c-6 9-15 23-34 23l-32 0c-9 0-16-7-16-16l0-32c0-19 15-29 23-34c5-3 9-6 9-8c0-1-4-4-9-7c-8-6-23-15-23-34c0-19 14-28 23-34c5-4 9-6 9-8c0-1-4-4-9-7c-9-6-23-15-23-34c0-19 14-29 23-35c5-3 9-5 9-7c0-2-4-4-9-7c-9-6-23-16-23-35c0-19 14-28 23-34c5-3 9-6 9-7c0-2-4-4-9-8c-9-6-23-15-23-34c0-19 14-28 23-34c5-3 9-6 9-7c0-2-4-5-9-8c-9-6-23-15-23-34l0-32c0-9 7-16 16-16l32 0c19 0 29 15 34 23c3 5 6 9 8 9c1 0 4-4 7-9c6-8 15-23 34-23c19 0 28 14 34 23c4 5 6 9 8 9c1 0 4-4 7-9c6-9 15-23 34-23c19 0 29 14 35 23c3 5 5 9 7 9c2 0 4-4 7-9c6-9 16-23 35-23c19 0 28 14 34 23c3 5 6 9 7 9c2 0 4-4 8-9c6-9 15-23 34-23c19 0 28 14 34 23c3 5 6 9 7 9c2 0 5-4 8-9c6-9 15-23 34-23l32 0c9 0 16 7 16 16l0 32c0 19-15 29-23 34c-5 3-9 6-9 8c0 1 4 4 9 7c8 6 23 15 23 34c0 19-14 28-23 34c-5 4-9 6-9 8c0 1 4 4 9 7c9 6 23 15 23 34c0 19-14 29-23 35c-5 3-9 5-9 7c0 2 4 4 9 7c9 6 23 16 23 35c0 19-14 28-23 34c-5 3-9 6-9 7c0 2 4 4 9 8c9 6 23 15 23 34c0 19-14 28-23 34c-5 3-9 6-9 7c0 2 4 5 9 8z m-9 34c0-2-4-4-9-7c-9-6-23-16-23-35c0-19 14-28 23-34c5-3 9-6 9-7c0-2-4-4-9-8c-9-6-23-15-23-34c0-19 14-28 23-34c5-3 9-6 9-7c0-2-4-5-9-8c-9-6-23-15-23-34c0-19 14-28 23-34c5-3 9-6 9-8c0-1-4-4-9-7c-9-6-23-15-23-34c0-19 14-28 23-34c5-4 9-6 9-8c0-1-4-4-9-7c-8-6-23-15-23-34c0-20 15-29 23-35c5-3 9-5 9-7l0-16l-16 0c-2 0-4 4-7 9c-6 9-16 23-35 23c-19 0-28-14-34-23c-3-5-6-9-7-9c-2 0-4 4-8 9c-6 9-15 23-34 23c-19 0-28-14-34-23c-3-5-6-9-7-9c-2 0-5 4-8 9c-6 9-15 23-34 23c-19 0-28-14-34-23c-3-5-6-9-8-9c-1 0-4 4-7 9c-6 9-15 23-34 23c-19 0-28-14-34-23c-4-5-6-9-8-9c-1 0-4 4-7 9c-6 8-15 23-34 23c-19 0-29-15-35-23c-3-5-5-9-7-9l-16 0l0 16c0 2 4 4 9 7c9 6 23 16 23 35c0 19-14 28-23 34c-5 3-9 6-9 7c0 2 4 4 9 8c9 6 23 15 23 34c0 19-14 28-23 34c-5 3-9 6-9 7c0 2 4 5 9 8c9 6 23 15 23 34c0 19-14 28-23 34c-5 3-9 6-9 8c0 1 4 4 9 7c9 6 23 15 23 34c0 19-14 28-23 34c-5 4-9 6-9 8c0 1 4 4 9 7c8 6 23 15 23 34c0 20-15 29-23 35c-5 3-9 5-9 7l0 16l16 0c2 0 4-4 7-9c6-9 16-23 35-23c19 0 28 14 34 23c3 5 6 9 7 9c2 0 4-4 8-9c6-9 15-23 34-23c19 0 28 14 34 23c3 5 6 9 7 9c2 0 5-4 8-9c6-9 15-23 34-23c19 0 28 14 34 23c3 5 6 9 8 9c1 0 4-4 7-9c6-9 15-23 34-23c19 0 28 14 34 23c4 5 6 9 8 9c1 0 4-4 7-9c6-8 15-23 34-23c19 0 29 15 35 23c3 5 5 9 7 9l16 0z m-64-32l-320 0c-9 0-16-7-16-16l0-320c0-9 7-16 16-16l320 0c9 0 16 7 16 16l0 320c0 9-7 16-16 16z m-16-320l-288 0l0 288l288 0z m-240 112c7 0 10-2 15-5c7-5 16-11 33-11c17 0 26 6 33 11c5 3 8 5 15 5c7 0 10-2 15-5c7-5 16-11 33-11c17 0 26 6 33 11c5 3 8 5 15 5c9 0 16 7 16 16c0 9-7 16-16 16c-17 0-26-6-33-11c-5-3-8-5-15-5c-7 0-10 2-15 5c-7 5-16 11-33 11c-17 0-26-6-33-11c-5-3-8-5-15-5c-7 0-10 2-15 5c-7 5-16 11-33 11c-9 0-16-7-16-16c0-9 7-16 16-16z m0-64c7 0 10-2 15-5c7-5 16-11 33-11c17 0 26 6 33 11c5 3 8 5 15 5c7 0 10-2 15-5c7-5 16-11 33-11c17 0 26 6 33 11c5 3 8 5 15 5c9 0 16 7 16 16c0 9-7 16-16 16c-17 0-26-6-33-11c-5-3-8-5-15-5c-7 0-10 2-15 5c-7 5-16 11-33 11c-17 0-26-6-33-11c-5-3-8-5-15-5c-7 0-10 2-15 5c-7 5-16 11-33 11c-9 0-16-7-16-16c0-9 7-16 16-16z m160 144l32 0c9 0 16 7 16 16l0 32c0 9-7 16-16 16l-32 0c-9 0-16-7-16-16l0-32c0-9 7-16 16-16z"/>
<glyph unicode="&#57422;" d="M511 325c-2 7-8 11-15 11l-170 0l-55 165c-2 7-8 11-15 11c-7 0-13-4-15-11l-55-165l-170 0c-7 0-13-4-15-11c-2-6 0-13 5-18l135-105l-60-181c-2-7 0-14 5-18c6-4 14-4 19 0l151 105l151-105c3-2 6-3 9-3c3 0 7 1 10 3c5 4 7 11 5 18l-60 181l135 105c5 5 7 12 5 18z m-448-21l112 0l-23-69z m323-247l-121 84c-3 2-6 3-9 3c-3 0-6-1-9-3l-121-84l130 388z m-26 178l-23 69l112 0z"/>
<glyph unicode="&#57423;" d="M496 272l-17 0c-8 111-96 199-207 207l0 17c0 9-7 16-16 16c-9 0-16-7-16-16l0-17c-111-8-199-96-207-207l-17 0c-9 0-16-7-16-16c0-9 7-16 16-16l17 0c8-111 96-199 207-207l0-17c0-9 7-16 16-16c9 0 16 7 16 16l0 17c111 8 199 96 207 207l17 0c9 0 16 7 16 16c0 9-7 16-16 16z m-80-32l31 0c-8-93-82-167-175-175l0 31c0 9-7 16-16 16c-9 0-16-7-16-16l0-31c-93 8-167 82-175 175l31 0c9 0 16 7 16 16c0 9-7 16-16 16l-31 0c8 93 82 167 175 175l0-31c0-9 7-16 16-16c9 0 16 7 16 16l0 31c93-8 167-82 175-175l-31 0c-9 0-16-7-16-16c0-9 7-16 16-16z m-112 16c0 26-22 48-48 48c-26 0-48-22-48-48c0-26 22-48 48-48c26 0 48 22 48 48z m-64 0c0 9 7 16 16 16c9 0 16-7 16-16c0-9-7-16-16-16c-9 0-16 7-16 16z m32 96c0 9-7 16-16 16c-62 0-112-50-112-112c0-9 7-16 16-16c9 0 16 7 16 16c0 44 36 80 80 80c9 0 16 7 16 16z m80-80c-9 0-16-7-16-16c0-44-36-80-80-80c-9 0-16-7-16-16c0-9 7-16 16-16c62 0 112 50 112 112c0 9-7 16-16 16z"/>
<glyph unicode="&#57424;" d="M424 512l-104 0c-9 0-16-7-16-16c0-17-22-32-48-32c-26 0-48 15-48 32c0 9-7 16-16 16l-104 0c-49 0-88-39-88-88l0-104c0-27 31-48 72-48c0 0 1 0 1 0l-9-224c0-26 22-48 48-48l288 0c26 0 48 22 48 49l-9 223c0 0 1 0 1 0c41 0 72 21 72 48l0 104c0 49-39 88-88 88z m-350-208c0 0-1 0-2 0c-26 0-40 11-40 16c0 5 14 16 40 16c1 0 3 0 4 1z m6 137l-3-74c-2 1-3 1-5 1c-15 0-29-3-40-8l0 64c0 31 25 56 56 56l4 0c-8-11-12-25-12-39z m320-409l-288 0c-9 0-16 7-16 15l16 393c0 22 18 40 40 40l27 0c9-28 40-48 77-48c37 0 68 20 77 48l27 0c22 0 40-18 40-41l16-391c0-9-7-16-16-16z m40 272c-1 0-2 0-2 0l-2 33c1-1 3-1 4-1c26 0 40-11 40-16c0-5-14-16-40-16z m40 56c-11 5-25 8-40 8c-2 0-3 0-5-1l-3 73c0 15-4 29-12 40l4 0c31 0 56-25 56-56z m-160 24c-18 0-32-14-32-32c0-18 14-32 32-32c18 0 32 14 32 32c0 18-14 32-32 32z"/>
<glyph unicode="&#57425;" d="M447 421l0 0l-16 48c-4 14-31 43-175 43c-144 0-171-29-175-43l-16-48l0 0c-1-2-1-3-1-5c0-16 13-29 33-38l31-332c0 0 0 0 0-1c5-44 115-45 128-45c13 0 123 1 128 45c0 1 0 1 0 1l31 332c20 9 33 22 33 38c0 2 0 3-1 5z m-191 59c71 0 117-9 136-16c-19-7-65-16-136-16c-71 0-117 9-136 16c19 7 65 16 136 16z m96-430c-6-6-40-18-96-18c-56 0-90 12-96 18l-9 91c37-12 90-13 105-13c15 0 68 1 105 13z m24 253c-17-6-58-15-120-15c-62 0-103 9-120 15l-6 63c39-10 89-14 126-14c37 0 87 4 126 14z m-120 81c-94 0-153 20-159 31l7 22c23-11 67-21 152-21c85 0 129 10 152 21l7-22c-7-11-65-31-159-31z"/>
<glyph unicode="&#57426;" d="M484 484c-17 18-41 28-66 28c-25 0-49-10-67-28l-282-281c-2-1-3-3-4-6l-64-176c-2-5-1-12 3-16c3-3 8-5 12-5c2 0 3 0 5 1l159 49c2 0 5 2 6 4l298 297c18 18 28 42 28 67c0 25-10 49-28 66z m-323-407l-59-18c-4 10-9 19-16 27c-7 6-14 11-22 15l27 75l37 0l0-32c0-9 7-16 16-16l28 0z m236 232l-195-195l6 27c1 4-1 9-4 13c-3 4-7 6-12 6l-32 0l0 32c0 9-7 16-16 16l-25 0l190 189l0 0c12 12 28 18 44 18c17 0 32-6 44-18c12-12 18-27 18-44c0-16-6-32-18-44z m65 65l-15-15c-2 23-11 44-27 61c-17 16-38 25-61 27l15 15l0 0c12 12 27 18 44 18c16 0 32-6 44-18c12-12 18-27 18-44c0-17-6-32-18-44z m-105 5l-160-160c-7-6-7-16 0-22c3-3 7-5 11-5c4 0 8 2 11 5l160 160c7 6 7 16 0 22c-6 7-16 7-22 0z"/>
<glyph unicode="&#57427;" d="M512 496c0 1 0 1 0 2c0 0 0 1 0 1c0 1-1 1-1 1c0 1 0 1 0 2c0 0 0 1-1 1c0 0 0 1 0 1c-1 1-1 1-1 2c-1 0-1 1-2 1c0 1 0 1 0 1c0 0-1 0-1 0c0 1-1 1-1 1c0 0 0 0 0 1c0 0-1 0-1 0c0 0 0 0 0 0c-1 0-1 0-2 1c0 0-1 0-1 0c-1 0-1 1-2 1c0 0-1 0-2 0c0 0-1 0-2 0c0 0 0 0 0 0c-1 0-1 0-1 0c-1 0-2 0-2-1c-1 0-1 0-2 0c0-1-1-1-1-1c-1 0-1 0-2-1c0 0 0 0 0 0l0 0l-480-336c-6-4-8-11-6-18c2-6 8-11 15-11l160 0l0-128c0-1 0-1 0-2c1-1 1-2 1-3c0-1 1-2 1-3c1 0 1-1 2-2c1-1 1-2 2-2c1-1 1-1 1-2c1 0 2 0 2 0c1 0 1-1 2-1c1-1 3-1 5-1l0 0c2 0 4 0 6 1c0 0 0 0 1 1c1 0 3 1 4 3c0 0 1 0 1 0c0 1 1 2 2 2l57 92c1 0 1-1 1-1l176-96c5-3 11-3 16 0c4 2 8 7 8 12l48 480c0 1 0 1 0 2z m-327-320l-118 0l322 226z m23-105l0 83l175 193z m227-29l-155 84l193 304z"/>
<glyph unicode="&#57428;" d="M177 247c0-1 0-2 0-3c-1-1-1-2-1-3c0-1 0-1 0-1c0-1 0-1 0-2c0-1 1-2 1-3c0-1 1-2 1-3c1-1 1-2 2-3c1-1 2-1 3-2c1 0 1-1 2-1c0 0 0 0 0 0c1-1 2-1 3-1c1 0 2-1 3-1c1 0 1 0 1 0l128 0c3 0 5 1 7 2c0 0 0 0 0 0c1 0 1 1 2 1c1 1 2 1 3 2c1 1 1 2 2 3c0 1 1 2 1 3c0 1 1 2 1 3c0 1 0 1 0 2c0 0 0 1 0 1c0 1 0 2-1 3c0 1 0 2 0 3c-1 0 0 0-1 0l-64 129c-5 11-23 11-28 0l-64-129c-1 0-1 0-1 0z m79 86l38-77l-76 0z m64-141l-128 0c-9 0-16-7-16-16c0-9 7-16 16-16l128 0c9 0 16 7 16 16c0 9-7 16-16 16z m-20 320c-8 1-17-5-18-13c-2-9 4-17 13-19c107-19 185-112 185-222c0-125-100-226-224-226c-124 0-224 101-224 226c0 110 78 203 185 222c9 2 15 10 13 19c-1 8-10 14-18 13c-123-22-212-129-212-254c0-142 115-258 256-258c141 0 256 116 256 258c0 125-89 232-212 254z"/>
<glyph unicode="&#57429;" d="M256 192c0-1 0-2 0-4c1-1 1-2 1-3c0 0 0 0 0 0c1-2 2-3 3-4c0 0 1 0 1-1c1-1 2-2 4-2c0 0 1-1 1-1c2 0 4-1 6-1c0 0 0 0 0 0l0 0c0 0 0 0 0 0c2 0 4 1 6 2c1 0 1 0 1 0l128 64c5 2 9 8 9 14c0 6-4 12-9 14l-128 64c0 0-1 0-1 0c-1 1-2 1-3 1c-1 1-2 1-3 1c0 0 0 0 0 0c-1 0-2 0-3 0c-1-1-2-1-3-1c-1-1-2-1-3-2c0 0-1-1-2-1c-1-1-2-2-2-3c-1-1-1-1-2-2c0 0 0 0 0 0c0-1 0-2-1-3c0-1 0-2 0-4c0 0 0 0 0 0l0-38l-105 52c0 0 0 0-1 0c-1 1-2 1-3 1c-1 0-2 1-3 1c0 0 0 0 0 0c-1 0-2 0-3-1c-1 0-2 0-3 0c-1-1-2-1-3-2c0 0-1-1-2-1c-1-1-1-2-2-3c-1-1-1-1-1-2c-1 0-1 0-1 0c0-1 0-2 0-3c-1-1-1-2-1-4c0 0 0 0 0 0l0-128c0 0 0 0 0 0c0-1 0-2 1-4c0-1 0-2 0-3c0 0 0 0 1 0c0-2 1-3 2-4c1 0 1 0 1-1c1-1 3-1 4-2c0 0 1-1 1-1c2 0 4-1 6-1c0 0 0 0 0 0c0 0 0 0 0 0c2 0 4 1 7 2c0 0 0 0 0 0l105 52l0-38c0 0 0 0 0 0z m32 102l76-38l-76-38l0 76z m-128-76l0 76l76-38z m339 12c-9 2-17-4-19-13c-19-107-112-185-222-185c-125 0-226 100-226 224c0 124 101 224 226 224c110 0 203-78 222-185c2-9 10-15 19-13c8 1 14 10 13 18c-22 123-129 212-254 212c-142 0-258-115-258-256c0-141 116-256 258-256c125 0 232 89 254 212c1 8-5 17-13 18z"/>
<glyph unicode="&#57430;" d="M383 176c9 0 16 7 16 16l0 128c0 9-7 16-16 16c-8 0-16-7-16-16l0-38l-104 52c0 0-1 0-1 0c-1 1-2 1-3 1c-1 0-2 1-3 1c0 0 0 0 0 0c-1 0-2 0-3-1c-1 0-2 0-3 0c-1-1-2-1-3-2c-1 0-1-1-2-1c-1-1-2-2-2-3c-1-1-1-1-2-2c0 0 0 0 0 0c0-1 0-2-1-3c0-1 0-2 0-4c0 0 0 0 0 0l0-38l-105 52c0 0-1 0-1 0c-1 1-2 1-3 1c-1 0-2 1-3 1c0 0 0 0 0 0c-1 0-2 0-3-1c-1 0-2 0-3 0c-1-1-2-1-3-2c0 0-1-1-2-1c-1-1-2-2-2-3c-1-1-1-1-2-2c0 0 0 0 0 0c0-1 0-2-1-3c0-1 0-2 0-4c0 0 0 0 0 0l0-128c0 0 0 0 0 0c0-1 0-2 0-4c1-1 1-2 1-3c0 0 0 0 0 0c1-2 2-3 3-4c0 0 1 0 1-1c1-1 2-1 4-2c0 0 1-1 1-1c2 0 4-1 6-1c0 0 0 0 0 0c2 0 4 1 6 2c1 0 1 0 1 0l105 52l0-38c0 0 0 0 0 0c0-1 0-2 0-3c1-2 1-3 1-4c0 0 0 0 0 0c1-2 2-3 3-4c0 0 1 0 1-1c1-1 2-1 4-2c0 0 1-1 1-1c2 0 4-1 6-1l0 0c0 0 0 0 0 0c2 0 4 1 6 2c0 0 1 0 1 0l104 52l0-38c0-9 8-16 16-16z m-239 42l0 76l76-38z m128 0l0 76l76-38z m227 12c-9 2-17-4-19-13c-19-107-112-185-222-185c-125 0-226 100-226 224c0 124 101 224 226 224c110 0 203-78 222-185c2-9 10-15 19-13c8 1 14 10 13 18c-22 123-129 212-254 212c-142 0-258-115-258-256c0-141 116-256 258-256c125 0 232 89 254 212c1 8-5 17-13 18z"/>
<glyph unicode="&#57431;" d="M192 321l0-130c0-9 7-16 16-16c9 0 16 7 16 16l0 130c0 9-7 16-16 16c-9 0-16-7-16-16z m128-130l0 130c0 9-7 16-16 16c-9 0-16-7-16-16l0-130c0-9 7-16 16-16c9 0 16 7 16 16z m-20 321c-8 1-17-5-18-13c-2-9 4-18 13-19c107-19 185-113 185-224c0-111-78-205-185-224c-9-1-15-10-13-19c1-7 8-13 16-13c0 0 1 0 2 0c123 22 212 130 212 256c0 126-89 234-212 256z m-70-13c-1 8-10 14-18 13c-123-22-212-130-212-256c0-126 89-234 212-256c1 0 2 0 2 0c8 0 15 6 16 13c2 9-4 18-13 19c-107 19-185 113-185 224c0 111 78 205 185 224c9 1 15 10 13 19z"/>
<glyph unicode="&#57432;" d="M499 230c-9 2-17-4-19-13c-19-107-112-185-222-185c-125 0-226 100-226 224c0 124 101 224 226 224c110 0 203-78 222-185c2-9 10-15 19-13c8 1 14 10 13 18c-22 123-129 212-254 212c-142 0-258-115-258-256c0-141 116-256 258-256c125 0 232 89 254 212c1 8-5 17-13 18z m-284 104c0 0-1 0-1 0c-1 1-2 1-3 1c-1 0-2 1-3 1c0 0 0 0 0 0c-1 0-2 0-3-1c-1 0-2 0-3 0c-1-1-2-1-3-2c-1 0-1-1-2-1c-1-1-2-2-2-3c-1-1-1-1-2-2c0 0 0 0 0 0c0-1 0-2-1-3c0-1 0-2 0-4c0 0 0 0 0 0l0-128c0 0 0 0 0 0c0-1 0-2 0-4c1-1 1-2 1-3c0 0 0 0 0 0c1-2 2-3 3-4c0 0 1 0 1-1c1-1 2-1 4-2c0 0 1-1 1-1c2 0 4-1 6-1c0 0 0 0 0 0l0 0c0 0 0 0 0 0c0 0 0 0 0 0c2 0 4 1 6 2c1 0 1 0 1 0l128 64c5 2 9 8 9 14c0 6-4 12-9 14z m9-116l0 76l76-38z"/>
<glyph unicode="&#57433;" d="M464 448l-416 0c-26 0-48-22-48-48l0-288c0-26 22-48 48-48l416 0c26 0 48 22 48 48l0 288c0 26-22 48-48 48z m16-336c0-9-7-16-16-16l-23 0l-28 41c-3 4-8 7-13 7l-288 0c-5 0-10-3-13-7l-28-41l-23 0c-9 0-16 7-16 16l0 288c0 9 7 16 16 16l416 0c9 0 16-7 16-16z m-128 224l-192 0c-35 0-64-29-64-64c0-35 29-64 64-64l192 0c35 0 64 29 64 64c0 35-29 64-64 64z m-192-96c-18 0-32 14-32 32c0 18 14 32 32 32c18 0 32-14 32-32c0-18-14-32-32-32z m137 0l-82 0c6 9 9 20 9 32c0 12-3 23-9 32l82 0c-6-9-9-20-9-32c0-12 3-23 9-32z m55 0c-18 0-32 14-32 32c0 18 14 32 32 32c18 0 32-14 32-32c0-18-14-32-32-32z"/>
<glyph unicode="&#57434;" d="M129 336c-9 0-16-7-16-16l0-128c0-9 7-16 16-16c8 0 16 7 16 16l0 38l104-52c0 0 1 0 1 0c2-1 4-2 6-2c0 0 0 0 0 0l0 0c0 0 0 0 0 0c2 0 4 1 6 1c0 0 1 1 1 1c2 0 3 1 4 2c0 1 1 1 1 1c1 1 2 2 3 4c0 0 0 0 0 0c0 1 0 2 1 3c0 1 0 2 0 4c0 0 0 0 0 0l0 38l105-52c0 0 1 0 1 0c2-1 4-2 6-2c0 0 0 0 0 0l0 0c0 0 0 0 0 0c2 0 4 1 6 1c0 0 1 1 1 1c2 0 3 1 4 2c0 1 1 1 1 1c1 1 2 2 3 4c0 0 0 0 0 0c0 1 0 2 1 3c0 1 0 2 0 4c0 0 0 0 0 0l0 128c0 0 0 0 0 0c0 1 0 2 0 3c-1 2-1 3-1 4c0 0 0 0 0 0c-1 1-1 1-2 2c0 1-1 2-2 3c-1 0-1 1-2 1c-1 1-2 1-3 2c-1 0-2 0-3 0c-1 1-2 1-3 1c0 0 0 0 0 0c-1 0-2-1-3-1c-1 0-2 0-3-1c0 0-1 0-1 0l-105-52l0 38c0 0 0 0 0 0c0 1 0 2 0 3c-1 1-1 3-1 4c0 0 0 0 0 0c-1 1-1 1-2 2c0 1-1 2-2 2c-1 1-1 2-2 2c-1 1-2 1-3 2c-1 0-2 0-3 0c-1 0-2 1-3 1c0 0 0 0 0 0c-1 0-2-1-3-1c-1 0-2 0-3-1c0 0-1 0-1 0l-104-52l0 38c0 9-8 16-16 16z m239-42l0-76l-76 38z m-128 0l0-76l-76 38z m14 218c-125 0-232-89-254-212c-1-8 5-17 13-18c9-2 17 4 19 13c19 107 112 185 222 185c125 0 226-100 226-224c0-124-101-224-226-224c-110 0-203 78-222 185c-2 9-10 15-19 13c-8-1-14-10-13-18c22-123 129-212 254-212c142 0 258 115 258 256c0 141-116 256-258 256z"/>
<glyph unicode="&#57435;" d="M199 312c-31-31-31-82 0-113c15-15 35-24 57-24c21 0 41 9 56 24c15 15 24 35 24 56c0 22-9 42-24 57c-15 15-35 23-56 23c-22 0-42-8-57-23z m105-57c0-13-5-25-14-34c-19-18-50-18-68 0c-19 19-19 49 0 68c9 9 21 14 34 14c12 0 24-5 34-14c9-9 14-21 14-34z m161 148c-5 7-15 9-22 4c-7-5-9-15-4-23c63-89 52-210-25-287c-77-77-198-88-287-25c-8 5-18 3-23-4c-5-7-3-17 4-22c45-32 96-47 147-47c66 0 132 26 182 75c88 89 100 227 28 329z m-81 36c7-5 17-3 23 4c5 7 3 17-4 22c-102 72-240 60-329-28c-88-89-100-227-28-329c3-4 8-7 13-7c3 0 6 1 9 3c7 5 9 15 4 23c-63 89-52 210 25 287c77 77 198 88 287 25z"/>
<glyph unicode="&#57436;" d="M256 320c0 1 0 2 0 4c-1 1-1 2-1 3c0 0 0 0 0 0c-1 1-1 1-2 2c0 1-1 2-2 3c-1 0-1 1-2 1c-1 1-2 1-3 2c-1 0-2 0-3 0c-1 1-2 1-3 1c0 0 0 0 0 0c-1 0-2-1-3-1c-1 0-2 0-3-1c0 0-1 0-1 0l-128-64c-5-2-9-8-9-14c0-6 4-12 9-14l128-64c0 0 0 0 1 0c2-1 4-2 6-2c0 0 0 0 0 0l0 0c0 0 0 0 0 0c2 0 4 1 6 1c0 0 1 1 1 1c2 0 3 1 4 2c0 1 1 1 1 1c1 1 2 2 3 4c0 0 0 0 0 0c0 1 0 2 1 3c0 1 0 2 0 4c0 0 0 0 0 0l0 38l105-52c0 0 0 0 1 0c2-1 4-2 6-2c0 0 0 0 0 0c0 0 0 0 0 0c2 0 4 0 6 1c0 0 1 1 1 1c2 0 3 1 4 2c0 1 0 1 1 1c1 1 2 2 3 4c0 0 0 0 0 0c0 1 0 2 1 3c0 1 0 2 0 4c0 0 0 0 0 0l0 128c0 0 0 0 0 0c0 1 0 2 0 3c-1 1-1 3-1 4c0 0 0 0 0 0c-1 1-1 1-2 2c-1 1-1 2-2 3c-1 0-2 1-2 1c-1 1-2 1-3 2c-1 0-2 0-3 0c-1 0-2 1-3 1c0 0 0 0 0 0c-1 0-2-1-3-1c-1 0-2 0-3-1c-1 0-1 0-1 0l-105-52l0 38c0 0 0 0 0 0z m-32-102l-76 38l76 38z m128 76l0-76l-76 38z m-98 218c-125 0-232-89-254-212c-1-8 5-17 13-18c9-2 17 4 19 13c19 107 112 185 222 185c125 0 226-100 226-224c0-124-101-224-226-224c-110 0-203 78-222 185c-2 9-10 15-19 13c-8-1-14-10-13-18c22-123 129-212 254-212c142 0 258 115 258 256c0 141-116 256-258 256z"/>
<glyph unicode="&#57437;" d="M13 282c9-2 18 4 19 13c19 107 113 185 224 185c111 0 205-78 224-185c1-9 10-15 19-13c7 1 13 8 13 16c0 0 0 1 0 2c-22 123-130 212-256 212c-126 0-234-89-256-212c-1-8 5-17 13-18z m486-52c-9 2-18-4-19-13c-19-107-113-185-224-185c-111 0-205 78-224 185c-1 9-10 15-19 13c-8-1-14-10-13-18c22-123 130-212 256-212c126 0 234 89 256 212c0 1 0 2 0 2c0 8-6 15-13 16z m-171-121c3-1 5-2 8-2c3 0 6 1 9 3l76 52c5 3 7 8 7 13c0 6-2 11-7 14l-76 52c-5 3-11 3-17 0c-5-2-8-8-8-14l0-39l-32 0c-9 0-19 2-28 7c-8 4-18 1-21-7c-4-8-1-18 7-22c13-7 28-10 42-10l32 0l0-33c0-6 3-11 8-14z m24 88l32-22l-32-21z m-240 121l16 0c10 0 19-2 28-7c3-1 5-2 7-2c6 0 12 4 15 9c4 8 0 18-8 22c-13 7-27 10-42 10l-16 0c-9 0-16-7-16-16c0-9 7-16 16-16z m309 26l-76 52c-5 4-12 4-17 1c-5-3-8-8-8-14l0-33l-32 0c-53 0-96-43-96-97c0-36-29-65-64-65l-16 0c-9 0-16-7-16-16c0-9 7-16 16-16l16 0c53 0 96 43 96 97c0 36 29 65 64 65l32 0l0-39c0-6 3-12 8-14c3-2 5-2 8-2c3 0 6 1 9 2l76 52c5 3 7 8 7 14c0 5-2 10-7 13z m-69-35l0 43l32-21z"/>
<glyph unicode="&#57438;" d="M256 512c-141 0-256-115-256-256c0-141 115-256 256-256c141 0 256 115 256 256c0 141-115 256-256 256z m0-480c-124 0-224 100-224 224c0 124 100 224 224 224c124 0 224-100 224-224c0-124-100-224-224-224z m64 304l-128 0c-9 0-16-7-16-16l0-128c0-9 7-16 16-16l128 0c9 0 16 7 16 16l0 128c0 9-7 16-16 16z m-16-128l-96 0l0 96l96 0z"/>
<glyph unicode="&#57439;" d="M496 144l-96 0l0 208c0 10-3 20-9 28l111 110c3 3 3 9 0 12c-3 3-9 3-12 0l-110-111c-8 6-18 9-28 9l-208 0l0 96c0 9-7 16-16 16c-9 0-16-7-16-16l0-96l-96 0c-9 0-16-7-16-16c0-9 7-16 16-16l96 0l0-208c0-26 22-48 48-48l208 0l0-96c0-9 7-16 16-16c9 0 16 7 16 16l0 96l96 0c9 0 16 7 16 16c0 9-7 16-16 16z m-352 16l0 192c0 9 7 16 16 16l192 0c1 0 3 0 4-1l-211-211c-1 1-1 3-1 4z m224 0c0-9-7-16-16-16l-192 0c-1 0-3 0-4 1l211 211c1-1 1-3 1-4z"/>
<glyph unicode="&#57440;" d="M368 32l-32 0c-18 0-32 14-32 32l0 48l-96 0l0-48c0-18-14-32-32-32l-32 0c-9 0-16-7-16-16c0-9 7-16 16-16l224 0c9 0 16 7 16 16c0 9-7 16-16 16z m116 480l-456 0c-15 0-28-13-28-30l0-308c0-17 13-30 28-30l456 0c15 0 28 13 28 30l0 308c0 17-13 30-28 30z m-4-336l-448 0l0 304l448 0z"/>
<glyph unicode="&#57441;" d="M256 512c-141 0-256-115-256-256c0-141 115-256 256-256c141 0 256 115 256 256c0 141-115 256-256 256z m0-480c-124 0-224 100-224 224c0 124 100 224 224 224c124 0 224-100 224-224c0-124-100-224-224-224z m0 272c-26 0-48-22-48-48c0-26 22-48 48-48c26 0 48 22 48 48c0 26-22 48-48 48z m0-64c-9 0-16 7-16 16c0 9 7 16 16 16c9 0 16-7 16-16c0-9-7-16-16-16z m0-144c-88 0-160 72-160 160c0 9-7 16-16 16c-9 0-16-7-16-16c0-106 86-192 192-192c9 0 16 7 16 16c0 9-7 16-16 16z m0 352c-9 0-16-7-16-16c0-9 7-16 16-16c88 0 160-72 160-160c0-9 7-16 16-16c9 0 16 7 16 16c0 106-86 192-192 192z"/>
<glyph unicode="&#57442;" d="M496 214c0 0 0 1 0 2c0 137-108 248-240 248c-132 0-240-111-240-248c0-1 0-2 0-2c-10-16-16-34-16-54c0-52 41-94 92-96c9-10 22-16 36-16c26 0 48 22 48 48l0 128c0 26-22 48-48 48c-14 0-27-6-36-16c-15-1-29-5-41-11c15 89 101 157 205 157c104 0 190-68 205-157c-12 6-26 10-41 11c-9 10-22 16-36 16c-26 0-48-22-48-48l0-128c0-26 22-48 48-48c14 0 27 6 36 16c51 2 92 44 92 96c0 20-6 38-16 54z m-384 10c0 9 7 16 16 16c9 0 16-7 16-16l0-128c0-9-7-16-16-16c-9 0-16 7-16 16z m-32-2l0-124c-28 7-48 32-48 62c0 30 20 55 48 62z m320-126c0-9-7-16-16-16c-9 0-16 7-16 16l0 128c0 9 7 16 16 16c9 0 16-7 16-16z m32 2l0 124c28-7 48-32 48-62c0-30-20-55-48-62z"/>
<glyph unicode="&#57443;" d="M464 448l-416 0c-26 0-48-22-48-48l0-208c0-26 22-48 48-48l416 0c26 0 48 22 48 48l0 208c0 26-22 48-48 48z m16-256c0-9-7-16-16-16l-416 0c-9 0-16 7-16 16l0 208c0 9 7 16 16 16l416 0c9 0 16-7 16-16z m8-80l-168 0c0-9-7-16-16-16l-96 0c-9 0-16 7-16 16l-168 0c-13 0-24-11-24-24c0-13 11-24 24-24l464 0c13 0 24 11 24 24c0 13-11 24-24 24z"/>
<glyph unicode="&#57444;" d="M464 512l-416 0c-26 0-48-22-48-48l0-416c0-26 22-48 48-48l416 0c26 0 48 22 48 48l0 416c0 26-22 48-48 48z m16-464c0-9-7-16-16-16l-416 0c-9 0-16 7-16 16l0 416c0 9 7 16 16 16l416 0c9 0 16-7 16-16z m-64 400l-320 0c-18 0-32-14-32-32l0-64c0-18 14-32 32-32l320 0c18 0 32 14 32 32l0 64c0 18-14 32-32 32z m-320-96l0 64l320 0l0-64z m64-64l-64 0c-18 0-32-14-32-32l0-160c0-18 14-32 32-32l64 0c18 0 32 14 32 32l0 160c0 18-14 32-32 32z m-64-192l0 160l64 0l0-160z m320 192l-160 0c-18 0-32-14-32-32l0-160c0-18 14-32 32-32l160 0c18 0 32 14 32 32l0 160c0 18-14 32-32 32z m-160-192l0 160l160 0l0-160z"/>
<glyph unicode="&#57445;" d="M261 505c-6 9-20 9-26 0c-5-7-123-182-123-337c0-70 53-127 120-135l0-17c0-9 7-16 16-16c9 0 16 7 16 16l0 17c67 8 120 65 120 135c0 155-118 330-123 337z m3-440l0 56l43 44c7 6 7 16 0 22c-6 7-16 7-22 0l-21-20l0 67l43 43c7 6 7 16 0 23c-6 6-16 6-22 0l-21-21l0 89c0 9-7 16-16 16c-9 0-16-7-16-16l0-89l-21 21c-6 6-16 6-22 0c-7-7-7-17 0-23l43-43l0-67l-21 20c-6 7-16 7-22 0c-7-6-7-16 0-22l43-44l0-56c-50 8-88 51-88 103c0 116 73 248 104 299c31-51 104-183 104-299c0-52-38-95-88-103z"/>
<glyph unicode="&#57446;" d="M256 144c62 0 112 50 112 112l0 144c0 62-50 112-112 112c-62 0-112-50-112-112l0-144c0-62 50-112 112-112z m-64 144l-16 0l0 32l16 0c9 0 16 7 16 16c0 9-7 16-16 16l-16 0l0 32l16 0c9 0 16 7 16 16c0 9-7 16-16 16l-14 0c7 36 39 64 78 64c39 0 71-28 78-64l-14 0c-9 0-16-7-16-16c0-9 7-16 16-16l16 0l0-32l-16 0c-9 0-16-7-16-16c0-9 7-16 16-16l16 0l0-32l-16 0c-9 0-16-7-16-16c0-9 7-16 16-16l16 0c0-44-36-80-80-80c-44 0-80 36-80 80l16 0c9 0 16 7 16 16c0 9-7 16-16 16z m64-80c9 0 16 7 16 16l0 208c0 9-7 16-16 16c-9 0-16-7-16-16l0-208c0-9 7-16 16-16z m112-176l-64 0l0 55c74 21 128 89 128 169c0 9-7 16-16 16c-9 0-16-7-16-16c0-79-65-144-144-144c-79 0-144 65-144 144c0 9-7 16-16 16c-9 0-16-7-16-16c0-80 54-148 128-169l0-55l-64 0c-9 0-16-7-16-16c0-9 7-16 16-16l224 0c9 0 16 7 16 16c0 9-7 16-16 16z m-96 0l-32 0l0 49c5-1 11-1 16-1c5 0 11 0 16 1z"/>
<glyph unicode="&#57447;" d="M336 416c-3 0-9 0-15-4l-294-93c-2-1-4-2-6-4c-2-2-21-21-21-59c0-38 19-57 21-59c1-2 4-3 6-4l53-17c0 0 0 0 0 0l0-64c0-26 22-48 48-48l80 0c26 0 48 22 48 48l0 8l65-20c6-4 11-4 15-4l0 0c12 0 48 0 48 160c0 160-36 160-48 160z m-112-288l0-16c0-9-7-16-16-16l-80 0c-9 0-16 7-16 16l0 54l112-36c0 0 0-1 0-2z m75 13l-258 81c-3 5-9 16-9 34c0 18 6 29 9 34l258 81c-7-23-11-60-11-115c0-56 4-92 11-115z m37-10c-6 11-16 45-16 125c0 80 10 114 16 125c6-11 16-45 16-125c0-80-10-114-16-125z m83-10c19 40 29 87 29 135c0 48-10 95-29 135c-4 8-13 11-21 7c-8-3-12-13-8-21c17-35 26-77 26-121c0-44-9-86-26-121c-4-8 0-18 8-21c2-2 4-2 7-2c6 0 11 3 14 9z m14 339c-7 6-17 5-23-1c-6-7-5-17 1-23c43-37 69-106 69-180c0-74-26-143-69-180c-6-6-7-16-1-23c3-3 8-5 12-5c4 0 8 1 11 4c49 44 79 120 79 204c0 84-30 160-79 204z"/>
<glyph unicode="&#57448;" d="M442 509c-4 3-10 4-14 2l-224-64c-7-2-12-8-12-15l0-288c-13 10-30 16-48 16c-44 0-80-36-80-80c0-44 36-80 80-80c44 0 80 36 80 80l0 276l192 55l0-203c-13 10-30 16-48 16c-44 0-80-36-80-80c0-44 36-80 80-80c44 0 80 36 80 80l0 352c0 5-2 10-6 13z m-298-477c-26 0-48 22-48 48c0 26 22 48 48 48c26 0 48-22 48-48c0-26-22-48-48-48z m224 64c-26 0-48 22-48 48c0 26 22 48 48 48c26 0 48-22 48-48c0-26-22-48-48-48z m48 348l-192-55l0 31l192 55z"/>
<glyph unicode="&#57449;" d="M256 512c-9 0-16-7-16-16c0-9 7-16 16-16c124 0 224-100 224-224c0-9 7-16 16-16c9 0 16 7 16 16c0 141-115 256-256 256z m145-206c3-6 9-10 15-10c2 0 4 0 6 1c8 4 12 13 9 21c-21 51-62 92-113 113c-8 3-17-1-21-9c-3-8 1-17 9-21c43-18 77-52 95-95z m70-107c-2 3-5 6-7 9c0 0 0 0 0 0l-256 256c-1 0-1 0-2 1c-22 20-56 20-78-1c-10-11-16-25-16-40l0-139c-17 6-37 2-50-11l-48-48c-9-9-14-21-14-34c0-13 5-25 14-34l144-144c9-9 21-14 34-14c13 0 25 5 34 14l48 48c9 9 14 21 14 34c0 6-1 11-3 16l139 0c11 0 21 3 30 9c0 0 1 0 1 0c3 2 5 4 8 7c0 0 0 0 1 0c2 3 5 6 7 9c0 0 0 1 0 1c6 9 9 19 9 30c0 11-3 21-9 30c0 0 0 1 0 1z m-220-114l-48-48c-6-6-16-6-22 0l-144 144c-3 3-5 7-5 11c0 4 2 8 5 11l48 48c3 3 7 5 11 5c4 0 8-2 11-5c3-3 5-7 5-11c0 0 0 0 0 0c0-71 57-128 128-128c4 0 8-2 11-5c3-3 5-7 5-11c0-4-2-8-5-11z m-11 59c-53 0-96 43-96 96l0 129l225-225z m201 7c0 0 0 0 0 0c-9-9-25-9-34 0l-256 256c-5 5-7 11-7 17c0 6 2 12 7 17c9 9 24 9 33 0c0 0 1 0 1 0c0 0 0 0 0 0l256-256c0 0 0 0 0 0c2-2 4-5 5-8c0 0 0 0 0 0c4-9 2-19-5-26z"/>
<glyph unicode="&#57450;" d="M507 507c-6 7-16 7-22 0l-480-480c-7-6-7-16 0-22c3-3 7-5 11-5c4 0 8 2 11 5l480 480c7 6 7 16 0 22z m-121-189c-7 6-17 6-23 0c-6-7-6-17 0-23l94-94c5-5 7-11 7-17c0-6-2-12-7-17c-3-3-7-5-12-6c0 0-1-1-1-1c-2 0-4 0-5 0c-1 0-1 0-1 0c-2 0-3 1-5 1c0 0 0 0-1 0c-1 1-2 1-4 2c0 0 0 0-1 1c-1 1-3 2-4 3l-94 94c-6 6-16 6-23 0c-6-6-6-16 0-23l79-78l-129 0c-11 0-22 2-32 6c-9 3-18-2-21-10c-3-8 2-18 10-20c14-5 29-8 43-8c4 0 8-2 11-5c3-3 5-7 5-11c0-4-2-8-5-11l-48-48c-6-6-16-6-22 0l-38 38c-7 6-17 6-23 0c-6-7-6-17 0-23l38-38c9-9 21-14 34-14c13 0 25 5 34 14l48 48c9 9 14 21 14 34c0 6-1 11-3 16l139 0c3 0 6 0 8 1c1 0 2 0 3 0c11 2 21 7 29 15c10 11 16 25 16 40c0 15-6 29-16 40z m-318-182c3-3 7-5 11-5c5 0 9 2 12 5c6 6 6 16 0 23l-38 38c-3 3-5 7-5 11c0 4 2 8 5 11l48 48c6 6 16 6 22 0c3-3 5-7 5-11c0-14 3-29 8-43c0-2 1-3 3-5c0 0 0-1 1-1c1-1 2-2 3-2c0-1 1-1 2-1c1-1 2-1 4-1c0 0 1 0 1 0c0 0 0-1 1-1c1 0 3 1 5 1c8 3 13 13 10 21c-4 10-6 21-6 32l0 129l78-79c4-3 8-4 12-4c4 0 8 1 11 4c6 7 6 17 0 23l-94 94c-5 5-7 11-7 17c0 6 2 12 7 17c9 9 25 9 34 0c0 0 0 0 0 0l94-94c6-6 16-6 23 0c6 6 6 16 0 23l-94 94c-22 21-58 21-80 0c-10-11-16-25-16-40l0-139c-17 5-37 2-50-11l-48-48c-9-9-14-21-14-34c0-13 5-25 14-34z"/>
<glyph unicode="&#57451;" d="M372 512l-232 0c-24 0-44-21-44-46l0-420c0-25 20-46 44-46l232 0c24 0 44 21 44 46l0 420c0 25-20 46-44 46z m12-466c0-8-5-14-12-14l-232 0c-7 0-12 6-12 14l0 66l256 0z m0 98l-256 0l0 240l256 0z m0 272l-256 0l0 50c0 8 5 14 12 14l232 0c7 0 12-6 12-14z m-128-368c13 0 24 11 24 24c0 13-11 24-24 24c-13 0-24-11-24-24c0-13 11-24 24-24z m32 416l-64 0c-9 0-16-7-16-16c0-9 7-16 16-16l64 0c9 0 16 7 16 16c0 9-7 16-16 16z"/>
<glyph unicode="&#57452;" d="M80 512l-32 0c-26 0-48-22-48-48l0-32c0-9 7-16 16-16c9 0 16 7 16 16l0 32c0 9 7 16 16 16l32 0c9 0 16 7 16 16c0 9-7 16-16 16z m384 0l-32 0c-9 0-16-7-16-16c0-9 7-16 16-16l32 0c9 0 16-7 16-16l0-32c0-9 7-16 16-16c9 0 16 7 16 16l0 32c0 26-22 48-48 48z m32-416c-9 0-16-7-16-16l0-32c0-9-7-16-16-16l-32 0c-9 0-16-7-16-16c0-9 7-16 16-16l32 0c26 0 48 22 48 48l0 32c0 9-7 16-16 16z m-416-64l-32 0c-9 0-16 7-16 16l0 32c0 9-7 16-16 16c-9 0-16-7-16-16l0-32c0-26 22-48 48-48l32 0c9 0 16 7 16 16c0 9-7 16-16 16z m-64 160c9 0 16 7 16 16l0 96c0 9-7 16-16 16c-9 0-16-7-16-16l0-96c0-9 7-16 16-16z m480 128c-9 0-16-7-16-16l0-96c0-9 7-16 16-16c9 0 16 7 16 16l0 96c0 9-7 16-16 16z m-192 192l-96 0c-9 0-16-7-16-16c0-9 7-16 16-16l96 0c9 0 16 7 16 16c0 9-7 16-16 16z m0-480l-96 0c-9 0-16-7-16-16c0-9 7-16 16-16l96 0c9 0 16 7 16 16c0 9-7 16-16 16z"/>
<glyph unicode="&#57453;" d="M472 384c22 0 40 18 40 40l0 48c0 22-18 40-40 40l-48 0c-22 0-40-18-40-40l0-8l-256 0l0 8c0 22-18 40-40 40l-48 0c-22 0-40-18-40-40l0-48c0-22 18-40 40-40l8 0l0-256l-8 0c-22 0-40-18-40-40l0-48c0-22 18-40 40-40l48 0c22 0 40 18 40 40l0 8l256 0l0-8c0-22 18-40 40-40l48 0c22 0 40 18 40 40l0 48c0 22-18 40-40 40l-8 0l0 256z m-432 32c-4 0-8 4-8 8l0 48c0 4 4 8 8 8l48 0c4 0 8-4 8-8l0-48c0-4-4-8-8-8z m56-376c0-4-4-8-8-8l-48 0c-4 0-8 4-8 8l0 48c0 4 4 8 8 8l48 0c4 0 8-4 8-8z m288 48l0-8l-256 0l0 8c0 22-18 40-40 40l-8 0l0 256l8 0c22 0 40 18 40 40l0 8l256 0l0-8c0-22 18-40 40-40l8 0l0-256l-8 0c-22 0-40-18-40-40z m88 8c4 0 8-4 8-8l0-48c0-4-4-8-8-8l-48 0c-4 0-8 4-8 8l0 48c0 4 4 8 8 8z m-48 320c-4 0-8 4-8 8l0 48c0 4 4 8 8 8l48 0c4 0 8-4 8-8l0-48c0-4-4-8-8-8z"/>
<glyph unicode="&#57454;" d="M512 234c-6 131-110 237-240 245l0 17c0 9-7 16-16 16c-9 0-16-7-16-16l0-17c-130-8-234-114-240-245c0-3 0-7 0-10c0-9 7-16 16-16c9 0 16 7 16 16c0 35 29 64 64 64c35 0 64-29 64-64c0-9 7-16 16-16c9 0 16 7 16 16c0 30 20 55 48 62l0-206c0-26-22-48-48-48c-26 0-48 22-48 48c0 9-7 16-16 16c-9 0-16-7-16-16c0-44 36-80 80-80c44 0 80 36 80 80l0 206c28-7 48-32 48-62c0-9 7-16 16-16c9 0 16 7 16 16c0 35 29 64 64 64c35 0 64-29 64-64c0-9 7-16 16-16c9 0 16 7 16 16c0 3 0 7 0 10z m-96 86c-33 0-63-17-80-43c-17 26-47 43-80 43c-33 0-63-17-80-43c-17 26-47 43-80 43c-17 0-34-5-48-13c33 83 114 141 208 141c94 0 175-58 208-141c-14 8-31 13-48 13z"/>
<glyph unicode="&#57455;" d="M224 240c-26 0-48 22-48 48c0 9-7 16-16 16c-9 0-16-7-16-16c0-44 36-80 80-80c9 0 16 7 16 16c0 9-7 16-16 16z m184-72c0-40-32-72-72-72c-9 0-16-7-16-16c0-9 7-16 16-16c57 0 104 47 104 104c0 9-7 16-16 16c-9 0-16-7-16-16z m53 134l-15 16c7 10 11 22 13 34l37 0c9 0 16 7 16 16c0 9-7 16-16 16l-37 0c-2 14-7 26-15 37l17 17c6 6 6 17 0 23c-6 6-16 6-23 0l-17-17c-11 8-23 13-37 15l0 37c0 9-7 16-16 16c-9 0-16-7-16-16l0-37c-12-2-24-7-34-13l-15 15c-7 6-17 6-23 0c-6-6-6-16 0-23l14-14c-2-2-3-5-5-8c-20 10-42 16-65 16c-79 0-144-65-144-144c0-13 2-27 5-39c-50-18-85-66-85-121c0-71 57-128 128-128l224 0c2 0 3 0 4 1c88 6 156 79 156 167c0 46-18 87-48 117c3 6 2 13-3 17z m-93 127c34 0 61-27 61-61c0-17-8-34-20-45c-15 6-32 11-49 12c-9 26-24 47-44 64c11 18 30 30 52 30z m112-261c0-72-57-132-129-136c-1 0-2 0-3 0l-220 0c-53 0-96 43-96 96c0 46 33 85 77 94c5 1 9 4 11 8c3 5 3 10 1 14c-6 14-9 29-9 44c0 62 50 112 112 112c51 0 96-35 108-84c2-7 8-12 15-12c20-1 39-5 56-14c0 0 1 0 1 0c45-22 76-68 76-122z"/>
<glyph unicode="&#57456;" d="M224 272c-26 0-48 22-48 48c0 9-7 16-16 16c-9 0-16-7-16-16c0-44 36-80 80-80c9 0 16 7 16 16c0 9-7 16-16 16z m200-56c-9 0-16-7-16-16c0-40-32-72-72-72c-9 0-16-7-16-16c0-9 7-16 16-16c57 0 104 47 104 104c0 9-7 16-16 16z m-64 151c-20 58-74 97-136 97c-79 0-144-65-144-144c0-13 2-27 5-39c-50-18-85-66-85-121c0-71 57-128 128-128l224 0c2 0 3 0 4 1c88 6 156 79 156 167c0 88-66 159-152 167z m-9-303c-1 0-2 0-3 0l-220 0c-53 0-96 43-96 96c0 46 33 85 77 94c5 1 9 4 11 8c3 5 3 10 1 14c-6 14-9 29-9 44c0 62 50 112 112 112c51 0 96-35 108-84c2-7 8-12 15-12c75-2 133-62 133-136c0-72-57-132-129-136z"/>
<glyph unicode="&#57457;" d="M115 121c-11-15-35-53-35-73c0-26 22-48 48-48c26 0 48 22 48 48c0 20-24 58-35 73c-6 9-20 9-26 0z m13-89c-9 0-16 7-16 16c0 5 7 19 16 34c9-15 16-29 16-34c0-9-7-16-16-16z m115 89c-11-15-35-53-35-73c0-26 22-48 48-48c26 0 48 22 48 48c0 20-24 58-35 73c-6 9-20 9-26 0z m13-89c-9 0-16 7-16 16c0 5 7 19 16 34c9-15 16-29 16-34c0-9-7-16-16-16z m115 89c-11-15-35-53-35-73c0-26 22-48 48-48c26 0 48 22 48 48c0 20-24 58-35 73c-6 9-20 9-26 0z m13-89c-9 0-16 7-16 16c0 5 7 19 16 34c9-15 16-29 16-34c0-9-7-16-16-16z m-32 448c-32 0-63-10-90-28c-17 36-53 60-94 60c-57 0-104-47-104-104c0-11 2-22 5-32c-41-17-69-58-69-104c0-62 50-112 112-112l240 0c88 0 160 72 160 160c0 88-72 160-160 160z m0-288l-240 0c-44 0-80 36-80 80c0 37 26 70 62 78c5 1 9 4 12 9c2 5 1 10-1 14c-6 11-9 23-9 35c0 40 32 72 72 72c34 0 64-24 71-58c1-5 5-10 10-12c6-2 12 0 16 4c24 22 55 34 87 34c71 0 128-57 128-128c0-71-57-128-128-128z m0 224c-9 0-16-7-16-16c0-9 7-16 16-16c35 0 64-29 64-64c0-9 7-16 16-16c9 0 16 7 16 16c0 53-43 96-96 96z"/>
<glyph unicode="&#57458;" d="M512 258c0 9-7 16-16 16l-41 0l36 37c6 6 6 16 0 22c-7 7-17 7-23 0l-59-60l-115-1l80 81l84 1c8 0 16 7 15 16c0 9-7 16-16 16l-52-1l31 31c6 6 6 16-1 23c-6 6-16 6-22-1l-30-30l-1 52c0 8-7 16-16 16c-9-1-16-8-16-17l1-83l-79-81l-1 114l58 60c7 7 7 17 0 23c-6 6-16 6-22 0l-37-37l0 41c0 9-7 16-16 16c-9 0-16-7-16-16l0-41l-37 36c-6 6-16 6-22 0c-7-7-7-17 0-23l60-59l1-115l-81 80l-1 84c0 8-7 16-16 16c-9-1-16-8-16-17l1-52l-31 31c-6 6-16 6-23-1c-6-6-6-16 1-22l30-30l-52-1c-8 0-16-7-16-16c1-9 8-16 17-16l84 1l80-79l-115-1l-59 58c-7 7-17 7-23 0c-6-6-6-16 0-22l37-37l-41 0c-9 0-16-7-16-16c0-9 7-16 16-16l42 0l-37-37c-6-6-6-16 0-22c3-4 8-5 12-5c4 0 8 2 11 5l59 60l114 1l-79-81l-84-1c-9 0-16-7-16-16c1-9 8-16 17-16l51 1l-30-31c-6-6-6-16 1-23c3-3 7-4 11-4c4 0 8 1 11 5l30 30l1-52c0-9 7-16 16-16c9 1 16 8 16 17l-1 84l79 80l1-115l-58-59c-7-7-7-17 0-23c6-6 16-6 22 0l37 37l0-41c0-9 7-16 16-16c9 0 16 7 16 16l0 42l37-37c3-3 7-4 11-4c4 0 8 1 11 4c7 7 7 17 0 23l-60 59l-1 115l81-80l1-84c0-8 7-16 16-15c9 0 16 7 16 16l-1 52l31-31c3-3 7-4 11-4c4 0 9 1 12 5c6 6 6 16-1 22l-30 30l52 1c8 0 16 7 16 16c-1 9-8 16-17 16l-84-1l-80 79l115 1l59-58c4-4 8-5 12-5c4 0 8 2 11 5c6 6 6 16 0 22l-37 37l41 0c9 0 16 7 16 16z"/>
<glyph unicode="&#57459;" d="M352 480c-32 0-63-10-90-28c-17 36-53 60-94 60c-57 0-104-47-104-104c0-11 2-22 5-32c-41-17-69-58-69-104c0-62 50-112 112-112l32 0c9 0 16 7 16 16c0 9-7 16-16 16l-32 0c-44 0-80 36-80 80c0 37 26 70 62 78c5 1 9 4 12 9c2 5 1 10-1 14c-6 11-9 23-9 35c0 40 32 72 72 72c34 0 64-24 71-58c1-5 5-10 10-12c6-2 12 0 16 4c24 22 55 34 87 34c71 0 128-57 128-128c0-65-49-120-114-127c-9-1-15-9-14-18c1-9 9-15 18-14c81 9 142 77 142 159c0 88-72 160-160 160z m64-160c0-9 7-16 16-16c9 0 16 7 16 16c0 53-43 96-96 96c-9 0-16-7-16-16c0-9 7-16 16-16c35 0 64-29 64-64z m-96-80l-18 0l17 60c2 4 1 10-2 14c-3 4-8 6-13 6l-64 0c-7 0-13-5-15-12l-32-112c-2-4-1-10 2-14c3-4 8-6 13-6l13 0l-29-157c-1-8 3-15 11-18c1-1 3-1 5-1c6 0 11 3 14 8l112 208c3 5 3 11 0 16c-3 5-8 8-14 8z m-78-127l14 76c1 5-1 10-4 13c-3 4-7 6-12 6l-11 0l23 80l31 0l-17-60c-2-4-1-10 2-14c3-4 8-6 13-6l12 0z"/>
<glyph unicode="&#57460;" d="M496 272l-97 0c-3 28-14 53-31 74l43 43c7 6 7 16 0 22c-6 7-16 7-22 0l-43-43c-21 17-46 28-74 31l0 97c0 9-7 16-16 16c-9 0-16-7-16-16l0-97c-28-3-53-14-74-31l-43 43c-6 7-16 7-22 0c-7-6-7-16 0-22l43-43c-17-21-28-46-31-74l-97 0c-9 0-16-7-16-16c0-9 7-16 16-16l97 0c3-28 14-53 31-74l-43-43c-7-6-7-16 0-22c3-3 7-5 11-5c4 0 8 2 11 5l43 43c21-17 46-28 74-31l0-97c0-9 7-16 16-16c9 0 16 7 16 16l0 97c28 3 53 14 74 31l43-43c3-3 7-5 11-5c4 0 8 2 11 5c7 6 7 16 0 22l-43 43c17 21 28 46 31 74l97 0c9 0 16 7 16 16c0 9-7 16-16 16z m-240-128c-62 0-112 50-112 112c0 62 50 112 112 112c62 0 112-50 112-112c0-62-50-112-112-112z"/>
<glyph unicode="&#57461;" d="M436 512l-360 0c-24 0-44-21-44-46l0-420c0-25 20-46 44-46l360 0c24 0 44 21 44 46l0 420c0 25-20 46-44 46z m12-466c0-8-5-14-12-14l-360 0c-7 0-12 6-12 14l0 66l384 0z m0 98l-384 0l0 272l384 0z m0 304l-384 0l0 18c0 8 5 14 12 14l360 0c7 0 12-6 12-14z m-192-400c13 0 24 11 24 24c0 13-11 24-24 24c-13 0-24-11-24-24c0-13 11-24 24-24z"/>
<glyph unicode="&#57462;" d="M240 368l0-174l-51 71c-3 5-8 7-13 7c-4 0-7-1-10-3c-7-5-8-15-3-22l80-112c0-1 1-1 1-1c1-1 1-1 2-2c0 0 0-1 1-1c0 0 0 0 0 0c1-1 1-1 2-1c1-1 1-1 2-1c1 0 1-1 2-1c1 0 1 0 2 0c0 0 1 0 1 0l0 0c0 0 1 0 1 0c1 0 1 0 2 0c1 0 1 1 2 1c1 0 1 1 2 1c1 0 1 0 2 1c0 0 0 0 0 0c1 0 1 1 1 1c1 1 2 1 2 2c0 0 1 0 1 1l80 112c5 7 3 17-4 22c-3 2-6 3-9 3c-5 0-10-2-13-7l-51-71l0 174c0 9-7 16-16 16l0 0c-9 0-16-7-16-16z"/>
<glyph unicode="&#57463;" d="M368 272l-174 0l71 51c5 3 7 8 7 13c0 4-1 7-3 10c-5 7-15 8-23 3l-111-80c-1 0-1-1-1-1c-1-1-2-1-2-2c0 0-1 0-1-1c0 0 0 0 0 0c-1-1-1-1-1-2c-1-1-1-1-1-2c0-1-1-1-1-2c0-1 0-1 0-2c0 0 0-1 0-1l0 0c0 0 0-1 0-1c0-1 0-1 0-2c0-1 1-1 1-2c0-1 1-1 1-2c0-1 0-1 1-2c0 0 0 0 0 0c0-1 1-1 1-1c1-1 1-2 2-2c0 0 0-1 1-1l112-80c7-5 17-3 22 4c2 3 3 6 3 9c0 5-2 10-7 13l-71 51l174 0c9 0 16 7 16 16l0 0c0 9-7 16-16 16z"/>
<glyph unicode="&#57464;" d="M144 240l174 0l-71-51c-5-3-7-8-7-13c0-4 1-7 3-10c5-7 15-8 22-3l112 80c1 0 1 1 1 1c1 1 1 1 2 2c0 0 1 0 1 1c0 0 0 0 0 0c1 1 1 1 1 2c1 1 1 1 1 2c0 1 1 1 1 2c0 1 0 1 0 2c0 0 0 1 0 1l0 0c0 1 0 1 0 1c0 1 0 2 0 2c0 1-1 1-1 2c0 1-1 2-1 2c0 1 0 1-1 2c0 0 0 0 0 0c0 1-1 1-1 1c-1 1-1 2-2 2c0 0 0 1-1 1l-112 80c-7 5-17 3-22-4c-2-3-3-6-3-9c0-5 2-10 7-13l71-51l-174 0c-9 0-16-7-16-16l0 0c0-9 7-16 16-16z"/>
<glyph unicode="&#57465;" d="M272 144l0 174l51-71c3-5 8-7 13-7c4 0 7 1 10 3c7 5 8 15 3 23l-80 111c0 1-1 1-1 1c-1 1-1 2-2 2c0 0 0 1-1 1c0 0 0 0 0 0c-1 1-1 1-2 1c-1 1-1 1-2 1c-1 0-1 1-2 1c-1 0-1 0-2 0c0 0-1 0-1 0l0 0c0 0-1 0-1 0c-1 0-1 0-2 0c-1 0-1-1-2-1c-1 0-1-1-2-1c-1 0-1 0-2-1c0 0 0 0 0 0c-1 0-1-1-1-1c-1-1-2-1-2-2c0 0-1 0-1-1l-80-112c-5-7-3-17 4-22c3-2 6-3 9-3c5 0 10 2 13 7l51 71l0-174c0-9 7-16 16-16l0 0c9 0 16 7 16 16z"/>
<glyph unicode="&#57466;" d="M0 256c0-141 115-256 256-256c141 0 256 115 256 256c0 141-115 256-256 256c-141 0-256-115-256-256z m480 0c0-124-100-224-224-224c-124 0-224 100-224 224c0 124 100 224 224 224c124 0 224-100 224-224z m-134-68c7-6 7-16 0-23c-6-6-16-6-22 0l-159 159c-6 6-6 16 0 22c7 7 17 7 23 0z m-22 159c6 6 16 6 22 0c7-7 7-17 0-23l-158-158c-6-7-16-7-23 0c-6 6-6 16 0 22z"/>
<glyph unicode="&#57467;" d="M0 256c0-141 115-256 256-256c141 0 256 115 256 256c0 141-115 256-256 256c-141 0-256-115-256-256z m480 0c0-124-100-224-224-224c-124 0-224 100-224 224c0 124 100 224 224 224c124 0 224-100 224-224z m-208-112c0-9-7-16-16-16c-9 0-16 7-16 16l0 224c0 9 7 16 16 16c9 0 16-7 16-16z m96 128c9 0 16-7 16-16c0-9-7-16-16-16l-224 0c-9 0-16 7-16 16c0 9 7 16 16 16z"/>
</font>
</defs>
</svg>
