<?xml version="1.0" standalone="no"?>
<!DOCTYPE svg PUBLIC "-//W3C//DTD SVG 1.1//EN" "http://www.w3.org/Graphics/SVG/1.1/DTD/svg11.dtd" >
<svg xmlns="http://www.w3.org/2000/svg">
<metadata>
Created by FontForge 20120731 at Sat Jan 30 09:42:28 2016
 By Ads
</metadata>
<defs>
<font id="iconfont" horiz-adv-x="1024" >
  <font-face 
    font-family="iconfont"
    font-weight="500"
    font-stretch="normal"
    units-per-em="1024"
    panose-1="2 0 6 3 0 0 0 0 0 0"
    ascent="896"
    descent="-128"
    x-height="792"
    bbox="0 -212 1053 870"
    underline-thickness="50"
    underline-position="-100"
    unicode-range="U+0078-F015C"
  />
<missing-glyph horiz-adv-x="374" 
d="M34 0v682h272v-682h-272zM68 34h204v614h-204v-614z" />
    <glyph glyph-name=".notdef" horiz-adv-x="374" 
d="M34 0v682h272v-682h-272zM68 34h204v614h-204v-614z" />
    <glyph glyph-name=".null" horiz-adv-x="0" 
 />
    <glyph glyph-name="nonmarkingreturn" horiz-adv-x="341" 
 />
    <glyph glyph-name="x" unicode="x" horiz-adv-x="1001" 
d="M281 543q-27 -1 -53 -1h-83q-18 0 -36.5 -6t-32.5 -18.5t-23 -32t-9 -45.5v-76h912v41q0 16 -0.5 30t-0.5 18q0 13 -5 29t-17 29.5t-31.5 22.5t-49.5 9h-133v-97h-438v97zM955 310v-52q0 -23 0.5 -52t0.5 -58t-10.5 -47.5t-26 -30t-33 -16t-31.5 -4.5q-14 -1 -29.5 -0.5
t-29.5 0.5h-32l-45 128h-439l-44 -128h-29h-34q-20 0 -45 1q-25 0 -41 9.5t-25.5 23t-13.5 29.5t-4 30v167h911zM163 247q-12 0 -21 -8.5t-9 -21.5t9 -21.5t21 -8.5q13 0 22 8.5t9 21.5t-9 21.5t-22 8.5zM316 123q-8 -26 -14 -48q-5 -19 -10.5 -37t-7.5 -25t-3 -15t1 -14.5
t9.5 -10.5t21.5 -4h37h67h81h80h64h36q23 0 34 12t2 38q-5 13 -9.5 30.5t-9.5 34.5q-5 19 -11 39h-368zM336 498v228q0 11 2.5 23t10 21.5t20.5 15.5t34 6h188q31 0 51.5 -14.5t20.5 -52.5v-227h-327z" />
    <glyph glyph-name="uniE602" unicode="&#xe602;" 
d="M468.5 329q-7.5 0 -12.5 -5.5t-5 -13.5q0 -3 1.5 -6.5t4 -6t5.5 -4t7 -1.5t7 1.5t5.5 4t4 6t1.5 6.5q0 8 -5.5 13.5t-13 5.5zM452 419q-73 -10 -120.5 -52t-41 -91t64 -76t131 -16.5t121 52.5t40.5 90q-4 32 -32 56t-71 34t-92 3zM467 201q-29 -5 -55.5 2t-45 25
t-22.5 42q-7 38 18.5 70t69.5 41q29 5 56 -2t45 -25t23 -42q7 -37 -19 -69.5t-70 -41.5zM511 834q-73 0 -142 -23t-124 -64.5t-96.5 -96.5t-64.5 -124t-23 -142q0 -91 36 -174.5t96 -143.5t143.5 -96t174.5 -36t174.5 36t143.5 96t96 143.5t36 174.5q0 53 -12 103.5
t-34 94.5t-53 83t-70 70t-83 53t-95 34t-103 12zM478 128q-116 0 -197.5 53.5t-81.5 128.5q0 48 49.5 111t111.5 106.5t98 43.5q12 0 25.5 -4.5t25 -15.5t11 -29.5t-14.5 -45.5q0 -1 5 1t14 5t21 6.5t26 6t27.5 3.5t27.5 -1.5t25 -9.5q18 -10 21.5 -25.5t-2 -27t-12.5 -22
t-7 -11.5t7.5 -2.5t19.5 -4t25.5 -8.5t25 -15t19.5 -24.5t8 -36.5q0 -78 -86 -132q-81 -50 -192 -50zM697 502q-4 5 -11.5 9t-14.5 5.5t-13 1.5h-10h-4q-5 0 -9 3.5t-4 8.5v5q0 6 4 10t9 5t13 2t28 -3t34 -18q9 -8 14.5 -19.5t6.5 -22.5t0.5 -20.5t-1.5 -15.5l-1 -6
q-1 -3 -3 -6t-5.5 -5t-7.5 -2h-12q-5 0 -7.5 4t-1.5 9q4 4 5 25q1 18 -9 30zM820 431q-1 -8 -7.5 -14t-14.5 -6h-8q-8 0 -13 6t-4 14q1 2 1.5 7t1.5 19t-0.5 27.5t-7 31.5t-15.5 32q-16 24 -46 34.5t-52 9.5h-22q-3 0 -6 0.5t-5.5 2.5t-4.5 4t-3 5t-1 7v9q0 6 2.5 10.5t7 7
t10.5 2.5q1 0 4.5 0.5t14 0t20.5 -1.5t24.5 -4.5t28 -8.5t28.5 -14t27 -21q26 -26 36.5 -66t6.5 -67zM404.5 300q-13.5 -6 -19.5 -18t-1.5 -22t17.5 -13t26.5 3.5t19.5 18t1.5 22t-17.5 13t-26.5 -3.5z" />
    <glyph glyph-name="uniE603" unicode="&#xe603;" 
d="M598 770q-45 0 -85.5 -17.5t-70 -46.5t-46.5 -70t-17 -85q0 -41 14.5 -78.5t40.5 -67t61 -47.5q-54 -17 -99.5 -49.5t-78.5 -76t-51.5 -98t-18.5 -112.5q0 -6 2.5 -10.5t7.5 -7.5t11 -3q8 0 14 6t6 15q0 128 90.5 218.5t217.5 91.5q2 -1 3.5 -0.5t3.5 0.5q89 2 151.5 66
t62.5 153q0 91 -64.5 155t-154.5 64zM598 374q-48 0 -89 23.5t-64.5 64.5t-23.5 89q0 73 51.5 125t125.5 52q36 0 68.5 -14t56.5 -37.5t38 -56.5t14 -69q0 -73 -52 -125t-125 -52zM847 270q-7 6 -15.5 6t-14.5 -6t-6 -14.5t6 -15.5q90 -90 90 -218q0 -9 6 -15t15 -6t15 6
t6 15q0 145 -102 248zM376 368v0q0 9 -6 15t-14 6q-57 0 -97.5 43.5t-40.5 103.5q0 40 18.5 74t50 54t69.5 20q8 0 14 6t6 14q0 6 -2.5 11t-7.5 7.5t-10 2.5q-30 0 -57 -9.5t-49.5 -27t-39 -40.5t-25.5 -52t-9 -60q0 -51 24 -94t65 -68q-86 -31 -140.5 -109.5t-54.5 -176.5
q0 -5 3 -10t8 -8t10.5 -3t10.5 3t7.5 8t2.5 10q0 108 71.5 183.5t172.5 75.5q8 0 14 6.5t6 14.5z" />
    <glyph glyph-name="uniE606" unicode="&#xe606;" 
d="M89 744q-6 0 -11 -4.5t-5 -11.5q0 -2 0.5 -4.5t1.5 -4t2.5 -3t3.5 -3t4 -2t4 -0.5h46l179 -669l2 -6v-2h1q4 -8 14 -8h495q7 0 12 5t5 12t-5 11.5t-12 4.5h-482l-181 675q-5 10 -16 10h-58zM274 -78q0 -29 20.5 -49.5t49.5 -20.5t49.5 20.5t20.5 49.5t-20.5 49.5
t-49.5 20.5t-49.5 -20.5t-20.5 -49.5zM304 -78q0 17 12 28.5t28.5 11.5t28 -11.5t11.5 -28.5q0 -8 -3 -15.5t-8.5 -12.5t-13 -8.5t-15.5 -3.5q-27 0 -37 26q-3 7 -3 14zM716 -78q0 -29 20.5 -49.5t49.5 -20.5t49.5 20.5t20.5 49.5q0 19 -9.5 35.5t-25.5 25.5t-35 9t-35.5 -9
t-25.5 -25.5t-9 -35.5zM746 -78q0 6 1.5 11t4 9.5t6 8t8 6t9.5 4t11 1.5q16 0 28 -11.5t12 -28t-12 -28.5t-28 -12q-28 0 -38 26q-2 7 -2 14zM949 563zM949 563v2q0 6 -5 11t-11 5h-668q-5 0 -8.5 -2t-6 -6t-2.5 -8q0 -7 5 -12t12 -5h647l-91 -339l-464 -56
q-7 -1 -11.5 -6.5t-3.5 -12.5t6.5 -11t12.5 -4l474 59q11 1 13 12h1l99 368q1 2 1 5z" />
    <glyph glyph-name="uniE60F" unicode="&#xe60f;" 
d="M900 607h-776q-34 0 -58.5 -22.5t-24.5 -54.5v-460q0 -32 24.5 -54.5t58.5 -22.5h776q34 0 58.5 22.5t24.5 54.5v460q0 32 -24.5 54.5t-58.5 22.5zM96 70v450l245 -226l-245 -226v2zM136 556h752l-376 -347zM380 258l132 -122l132 123l233 -215h-729zM684 294h-1l245 226
v-450z" />
    <glyph glyph-name="uniE612" unicode="&#xe612;" 
d="M509 833q104 0 177.5 -73.5t73.5 -177.5q0 -55 -40 -141t-96 -171q38 -3 73 -9v-40q-47 9 -99 13q-6 -8 -11.5 -15.5t-10.5 -14.5l-10 -12q-5 -7 -10 -12.5t-10 -10.5q64 -4 106 -21t42 -39q0 -26 -54.5 -44t-132 -18t-132 18t-54.5 44q0 22 42.5 39t107.5 22
q-23 24 -51 63q-64 -5 -120 -16.5t-96 -28t-62.5 -38t-22.5 -43.5q0 -36 52.5 -66t143 -47.5t197 -17.5t197 17.5t143 47.5t52.5 66q0 19 -17.5 37.5t-48.5 34t-75 27.5v41q91 -24 144 -60.5t53 -79.5q0 -35 -35.5 -66t-95.5 -54t-143 -36.5t-175 -13.5q-61 0 -119 6.5
t-107.5 17t-91 26.5t-70.5 34.5t-45 40.5t-16 45q0 58 93.5 103t238.5 60q-57 84 -97 170.5t-40 141.5q0 51 20 97.5t53.5 80t80.5 53.5t98 20zM533 156q-17 -16 -24 -16q-3 0 -6.5 2t-8 5.5t-10.5 8.5q-59 -2 -99 -15.5t-40 -31.5q0 -13 21.5 -24t59 -17.5t81.5 -6.5
q34 0 64 3.5t52 10t34.5 15.5t12.5 19q0 17 -39 30.5t-98 16.5zM506 682q-34 0 -62.5 -16t-45.5 -43.5t-17 -59.5t17 -59.5t45.5 -43t62.5 -15.5q52 0 88.5 34.5t36.5 83.5q0 24 -10 46t-26.5 38t-40 25.5t-48.5 9.5z" />
    <glyph glyph-name="uniE616" unicode="&#xe616;" 
d="M512 812q-188 0 -332 -122q-136 -116 -171 -292q-9 -49 -9 -98q0 -104 40.5 -199t109 -163.5t163.5 -109t199 -40.5t199 40.5t163.5 109t109 163.5t40.5 199q0 83 -26 161.5t-73 141.5t-110 110t-141.5 73t-161.5 26zM794 140q-5 -4 -11.5 -4t-14 4t-16 12t-16.5 20
q-14 -38 -36 -71q51 -18 51 -47q0 -25 -39 -43t-94 -18q-66 0 -106 24q-39 -24 -106 -24q-55 0 -93.5 18t-38.5 43q0 29 50 47q-21 32 -36 71q-16 -23 -31.5 -31.5t-25.5 -0.5q-14 13 -9.5 52.5t24.5 81.5q5 10 10 18.5t10 16.5q3 124 74.5 211t171.5 87q101 0 172.5 -87
t74.5 -211q3 -5 6.5 -10.5t6.5 -11.5t6 -13q10 -21 16.5 -42.5t8.5 -39.5t0 -31.5t-9 -20.5z" />
    <glyph glyph-name="uniE61F" unicode="&#xe61f;" 
d="M958 403l-309 45l-137 279l-138 -279l-308 -45l223 -217l-53 -307l276 145l275 -145l-52 307zM512 93l-195 -103l37 217l-157 154l217 31l98 198l97 -198l218 -31l-158 -154l37 -217z" />
    <glyph glyph-name="uniE624" unicode="&#xe624;" 
d="M518 8q13 0 24 6.5t17.5 17.5t6.5 24v96h96q13 0 24.5 6.5t18 17.5t6.5 24q0 20 -14.5 34t-34.5 14h-96v48h96q20 0 34.5 14t14.5 34t-14.5 34t-34.5 14h-72l66 67q4 4 7 8.5t4.5 9.5t2 10.5t0 10.5t-2 10t-4.5 10t-7 9q-14 14 -34 14t-34 -14l-64 -64l-63 64
q-15 14 -34.5 14t-34 -14t-14.5 -34t15 -34l66 -67h-85q-20 0 -34 -14t-14 -34t14 -34t34 -14h95v-48h-95q-13 0 -24.5 -6.5t-17.5 -17.5t-6 -24q0 -20 14 -34t34 -14h95v-96q1 -32 30 -44q9 -4 19 -4zM940 513q-3 7 -7 13q-1 1 -1 2q-14 17 -36 17q-9 0 -17.5 -4t-15 -10
t-10 -14.5t-3.5 -18.5q0 -17 12 -30q40 -81 40 -171q0 -105 -52 -193.5t-140.5 -140t-193 -51.5t-193 51.5t-140 140t-51.5 193t51.5 193t140 140t193.5 51.5q41 0 80.5 -8.5t75 -24t66.5 -38.5q15 -19 38 -19q13 0 24 6.5t17.5 17.5t6.5 24q0 10 -4 18.5t-10 15.5h-1v1
q-3 2 -7 5q-128 99 -291 99q-97 0 -185.5 -38t-152.5 -102t-102 -152.5t-38 -185.5q0 -78 24 -151t68.5 -131.5t103 -102.5t131.5 -68.5t151 -24.5q97 0 185.5 38t152.5 102t102 152.5t38 185.5q0 112 -50 213z" />
    <glyph glyph-name="uniE633" unicode="&#xe633;" 
d="M383 768h-255v-255h255v255zM352 544h-193v193h193v-193zM192 192h127v-127h-127v127zM160 384h64v-63h-64v63zM479 768h64v-63h-64v63zM895 768h-256v-255h256v255zM863 544h-192v193h192v-193zM192 704h127v-127h-127v127zM703 704h128v-127h-128v127zM415 577h65v-64
h63v64h64v63h-128v64h-64v-71v-56zM704 257v64h-33v63v1h97v-64h63v64v64h-160h-64v-65h-64v65h-64v-65h-63v42h-1v23h-191v-64h128v-1v-27v-36h127v-64h1v-64h63v64h96v-64h-63v-128h63v64h65v64h63v64h-63zM831 128h64v-128h-64v128zM768 192h63v-63h-63v63zM831 321h64
v-128h-64v128zM128 1h255v255h-255v-255zM159 225h193v-193h-193v193zM480 64h63v-64h-63v64zM543 512h64v-63h-64v63zM415 193h64v-128h-64v128zM704 64h-65v-64h65h63v128h-63v-64z" />
    <glyph glyph-name="uniE635" unicode="&#xe635;" 
d="M960 493q-29 164 -155 270.5t-293 106.5q-110 0 -206 -50t-159.5 -136t-82.5 -191q-19 -16 -33.5 -39.5t-22.5 -51.5t-8 -56q0 -62 32.5 -114.5t82.5 -52.5q16 0 27 5t18 17.5t11 24t6 35t2 38.5v47v44q0 14 -1.5 36.5t-4 34t-7.5 24.5t-13 19t-19 8q29 131 134.5 216
t243.5 85q91 0 171 -39t133.5 -106t73.5 -150q-11 -3 -19 -9.5t-13 -19.5t-7.5 -24t-4 -33.5t-1.5 -36.5v-43q0 -41 0.5 -60t3.5 -42.5t9 -38.5q-29 -45 -66 -80.5t-82 -60.5t-96 -38q-9 13 -24.5 23t-35.5 16t-42 6q-31 0 -58 -9.5t-42 -26t-15 -35.5q0 -29 33.5 -49.5
t81.5 -20.5t81.5 20.5t33.5 49.5q76 19 141 68t109 118q6 -6 32 -6q25 0 47 15t36.5 39t23 53.5t8.5 58.5q0 39 -17.5 78t-46.5 63z" />
    <glyph glyph-name="uniE636" unicode="&#xe636;" 
d="M116 218q-25 -59 -28.5 -108.5t16.5 -59.5q14 -7 34.5 7.5t40.5 45.5q16 -66 76 -116q-31 -12 -48.5 -29t-17.5 -38q0 -16 12.5 -31t33.5 -26t50.5 -17.5t61.5 -6.5q13 0 25.5 1t24.5 3t23 5t20.5 7t18 8t16 9.5t13 11t9.5 11.5t6 12h5h8h6q4 -14 18 -26.5t34.5 -21.5
t47.5 -14.5t56 -5.5q65 0 111 24t46 57q0 21 -17.5 38t-48.5 29q60 50 76 116q21 -31 41 -45.5t34 -7.5q20 10 16.5 59.5t-28.5 108.5q-20 46 -44.5 78t-45.5 40q1 6 1 12q0 12 -2 23.5t-6 21.5t-10 19v4q0 17 -7 31q-5 125 -81.5 207t-200.5 82q-50 0 -93.5 -14.5t-77 -41
t-58 -62.5t-38 -79.5t-15.5 -91.5q-7 -14 -7 -31v-4q-8 -14 -13 -30t-5 -34q0 -6 1 -12q-21 -8 -45.5 -40t-44.5 -78z" />
    <glyph glyph-name="uniE638" unicode="&#xe638;" 
d="M944 780h-864q-33 0 -56.5 -23.5t-23.5 -56.5v-592q0 -34 23.5 -57.5t56.5 -23.5h219l199 -201q6 -6 14 -6t14 6l199 201h219q22 0 40.5 11t29 29.5t10.5 40.5v592q0 16 -6.5 31t-17 25.5t-25 17t-31.5 6.5v0zM950 701v-583h-210q-46 0 -78 -33l-150 -151l-150 151
q-32 33 -78 33h-210v583h876zM206 402q0 29 20 49t48 20t48 -20t20 -48.5t-20 -49t-48 -20.5t-48 20.5t-20 48.5v0zM444 402q0 29 20 49t48 20q19 0 34.5 -9t24.5 -25t9 -35q0 -28 -20 -48.5t-48 -20.5t-48 20.5t-20 48.5zM683 402q0 14 5.5 27t14.5 22t22 14.5t27 5.5
q28 0 48 -20t20 -49q0 -19 -9.5 -34.5t-25 -25t-34 -9.5t-34 9.5t-25 25t-9.5 34.5v0z" />
    <glyph glyph-name="uniE63A" unicode="&#xe63a;" 
d="M960 585q-6 8 -13.5 13t-17 7.5t-19.5 2.5h-648q-8 29 -33.5 48.5t-55.5 19.5h-109v-30h109q20 0 38 -14t22 -33l108 -446q7 -30 33 -50t56 -20h461v30h-461q-19 0 -37 14t-23 33l-14 58h463q31 0 57 20t33 50l61 243q2 6 2.5 12t0 11.5t-2 11t-4 10.5t-6.5 9zM531 372
l-9 94h202l-12 -94h-181zM708 342l-12 -94h-154l-9 94h175zM297 466h194l9 -94h-181zM269 578h212l7 -82h-199zM519 496l-8 82h227l-10 -82h-209zM327 342h176l9 -94h-163zM880 295q-5 -19 -23 -33t-38 -14h-92l12 94h152zM899 372h-157l12 94h169zM941 539l-11 -43h-172
l10 82h142q17 0 26 -11t5 -28zM370 45q-25 0 -43 -17.5t-18 -42.5t18 -42.5t43 -17.5t42.5 17.5t17.5 42.5t-17.5 42.5t-42.5 17.5zM778 45q-25 0 -43 -17.5t-18 -42.5t18 -42.5t43 -17.5t42.5 17.5t17.5 42.5t-17.5 42.5t-42.5 17.5z" />
    <glyph glyph-name="uniE645" unicode="&#xe645;" horiz-adv-x="1054" 
d="M937 659l31 -30l-537 -537l-98 -11v-14h-24v25h13l11 97l537 538l31 -31zM968 812l-61 -49l98 -97l48 61zM818 -212h-636q-75 0 -128.5 53.5t-53.5 128.5v636q0 75 53.5 128.5t128.5 53.5h546q14 0 23.5 -9.5t9.5 -22.5q0 -9 -4.5 -16.5t-12 -11.5t-16.5 -4h-546
q-23 0 -45 -9.5t-37.5 -25.5t-25 -37.5t-9.5 -45.5v-636q0 -48 34.5 -82.5t82.5 -34.5h636q49 0 83.5 34.5t34.5 82.5v539q0 6 2.5 12t6.5 10.5t10 7t13 2.5q13 0 22.5 -9.5t9.5 -22.5v-538q0 -50 -24 -92t-66.5 -66.5t-91.5 -24.5z" />
    <glyph glyph-name="uniE654" unicode="&#xe654;" horiz-adv-x="1025" 
d="M320 504q-5 0 -11 -1.5t-11 -4.5t-8.5 -7t-6 -9t-2.5 -11q0 -10 6 -17.5t15 -11.5t18.5 -4t17 4t11.5 11.5t4 17.5q0 15 -9 24t-24 9zM502 438q6 0 11 1.5t9 4.5t7 7t4.5 9t1.5 11q0 15 -9 24t-24 9t-27 -9.5t-12 -23.5t12 -23.5t27 -9.5zM512 812q-139 0 -257 -68.5
t-186.5 -186.5t-68.5 -257t68.5 -257t186.5 -186.5t257 -68.5q104 0 199 40.5t163.5 109t109 163.5t40.5 199q0 188 -122 332q-116 136 -292 171q-49 9 -98 9zM405 168q-9 0 -18 0.5t-20 2.5t-15.5 2.5t-19.5 4t-18 3.5l-91 -46l26 79q-104 74 -104 178q0 93 76 158.5
t184 65.5q96 0 170.5 -53t91.5 -132q-4 0 -8 0.5t-9 0.5h-8q-92 0 -156.5 -60.5t-64.5 -147.5q0 -27 8 -55q-12 -1 -24 -1zM788 76l20 -66l-72 39q-52 -13 -78 -13t-51 5t-46.5 14.5t-41 22.5t-34.5 29.5t-25.5 35.5t-16.5 40.5t-6 43.5q0 20 4.5 39t13 35.5t20.5 32
t26.5 28.5t32.5 23.5t37.5 17.5t41.5 11t45 4q89 0 155 -56.5t66 -134.5q0 -82 -91 -151zM730 313q-10 0 -18 -8.5t-8 -17.5q0 -7 3.5 -13t9.5 -10t13 -4q14 0 23 8t9 18.5t-9 18.5t-23 8zM587 313q-10 0 -18 -8.5t-8 -17.5q0 -7 3.5 -13t9.5 -10t13 -4q5 0 10.5 1.5t9.5 4
t6.5 6t4 7.5t1.5 8q0 10 -9 18t-23 8z" />
    <glyph glyph-name="uniE671" unicode="&#xe671;" 
d="M0 314q0 -53 37.5 -90.5t90.5 -37.5v262q-35 0 -64.5 -17.5t-46.5 -48.5t-17 -68zM896 448v-262q53 0 90.5 37.5t37.5 90.5q0 34 -17 65t-47 50t-64 19zM294 192q2 1 5 3.5t11 10.5t15.5 16.5t17.5 22.5t17.5 28.5t14 33.5t9.5 39q0 102 -96 102q-32 0 -83 -26v-57
q32 32 70 32q13 0 23 -4.5t16 -15t6 -25.5v-4l-2 -6q0 -2 -0.5 -4t-1.5 -5t-2 -5l-2 -5q-2 -3 -2.5 -4.5t-2.5 -4.5q-6 -13 -38 -45l-77 -77v-64h192v64h-90zM397 192h115v-64h64v64h32v64h-32v192h-64l-115 -192v-64zM512 320v-64h-38zM640 576v-256h64v122q0 9 10 14t22 5
t22 -5t10 -14v-122h64v128q0 32 -26.5 50.5t-56.5 13.5q-8 0 -14.5 -0.5t-11 -2t-8 -2.5t-5.5 -2.5t-3.5 -2.5t-2.5 -2v-1v77h-64zM806 102q-89 -89 -192 -115q-15 20 -38.5 32.5t-50.5 12.5q-42 0 -72.5 -23.5t-30.5 -53.5q0 -33 29.5 -55t73.5 -22q34 0 60 14t36 38
q66 14 126 49.5t104 84.5q10 10 10 22.5t-10 22.5q-1 1 -4.5 2t-7 1.5t-8 0t-9 -1.5t-9 -3.5t-7.5 -5.5zM102 544q-12 1 -12 6q-14 5 -19.5 17.5t-0.5 27.5q43 78 112.5 133.5t151 81t172 20.5t172.5 -43q64 -29 115 -71.5t84 -94.5q5 -5 9 -13t4 -13q8 -15 6 -27t-13 -18
q-27 -13 -45 13q-1 8 -12 19q-28 47 -73.5 85t-99.5 63q-71 30 -148.5 33.5t-147.5 -18.5t-130.5 -69t-98.5 -113q-4 -9 -12 -14t-14 -5z" />
    <glyph glyph-name="uniE679" unicode="&#xe679;" 
d="M757 774h-454h-3t-9.5 -1.5t-13 -3.5t-14 -7t-12.5 -12t-9 -18t-4 -25v-814q1 -1 0 -7t2 -16.5t8.5 -20t19 -16.5t32.5 -7h460h2q2 0 6.5 0.5t8.5 1.5t9.5 3t10.5 5t10 8t8.5 11.5t6 15.5t2.5 19v817v7q-1 7 -4 16.5t-9.5 19.5t-20.5 17t-33 7zM465 741h130v-32h-130v32z
M416 741q3 0 6 -1t5.5 -3t3.5 -5.5t1 -6.5q0 -7 -4.5 -11.5t-11.5 -4.5q-3 0 -6 1t-5.5 3.5t-3.5 5.5t-1 6q0 7 4.5 11.5t11.5 4.5zM530 -109q-13 0 -22.5 9.5t-9.5 23t9.5 23.5t22.5 10q9 0 16.5 -4.5t12 -12t4.5 -16.5q0 -23 -22 -31q-6 -2 -11 -2zM760 22h-459v654h459
v-654zM760 22z" />
    <glyph glyph-name="uniE686" unicode="&#xe686;" 
d="M512 -146q91 0 173.5 35.5t142 95t95 142t35.5 173.5q0 52 -12 102t-34 94t-52.5 82.5t-69 69t-82.5 52.5t-94 34t-102 12q-72 0 -140 -22.5t-123 -64t-96.5 -96.5t-64 -123t-22.5 -140q0 -52 12 -102t34 -94t52.5 -82.5t69 -69t82.5 -52.5t94 -34t102 -12zM512 690
q79 0 151.5 -31t124.5 -83t83 -124.5t31 -151.5t-31 -151.5t-83 -124.5t-124.5 -83t-151.5 -31q-106 0 -195.5 52.5t-142 142t-52.5 195.5q0 40 8 78.5t22.5 73t36 66t48 58t58 48t66 36t73 22.5t78.5 8zM512 594q72 0 123 -50.5t51 -122t-51 -122t-123 -50.5t-123 50.5
t-51 122t51 122t123 50.5zM512 298q51 0 87.5 36t36.5 87q0 25 -9.5 48t-26.5 39.5t-40 26t-48 9.5q-34 0 -62.5 -16.5t-45 -44.5t-16.5 -62q0 -51 36.5 -87t87.5 -36zM512 298q103 0 176 -72t73 -175h-50q0 82 -58.5 140t-140.5 58q-54 0 -100 -26.5t-72.5 -72t-26.5 -99.5
h-50q0 51 20 96.5t53 78.5t79 52.5t97 19.5zM512 298z" />
    <glyph glyph-name="uniE6C3" unicode="&#xe6c3;" 
d="M557 383l266 264q6 6 8 14t0 16.5t-8 14.5q-10 9 -23 9t-23 -9l-265 -264l-263 264q-4 5 -10 7t-12.5 2t-12.5 -2t-10 -7q-10 -9 -10 -22.5t10 -22.5l263 -264l-265 -264q-10 -9 -10 -22.5t9.5 -22.5t22.5 -9h5q2 0 5 1l4 2q3 1 5 2.5t4 3.5l265 264l265 -267
q10 -9 23 -9q6 0 12 2.5t11 6.5q9 10 9 23t-9 23z" />
    <glyph glyph-name="uniE6DD" unicode="&#xe6dd;" 
d="M506 233q-105 0 -179 74t-74 178t74 178t179 74q68 0 126.5 -33.5t92 -91.5t33.5 -127q0 -51 -20 -98t-53.5 -80.5t-80.5 -53.5t-98 -20zM506 681q-81 0 -139 -57.5t-58 -138.5t58 -138.5t139 -57.5t138.5 57.5t57.5 138.5t-57.5 138.5t-138.5 57.5zM849 -160h-674
q-12 0 -21 9q-3 5 -5 10.5t-1 11.5l28 253q0 7 5 13.5t12 8.5l140 57q11 4 21.5 -0.5t15 -15.5t0 -21.5t-15.5 -14.5l-125 -50l-22 -205h610l-23 205l-124 49q-11 5 -15.5 15.5t0 21.5t15 15.5t21.5 0.5l140 -57q7 -3 12 -9t5 -13l28 -253q1 -4 0.5 -8t-2.5 -7.5t-4 -6.5
q-5 -4 -10 -6.5t-11 -2.5z" />
    <glyph glyph-name="uniE6DF" unicode="&#xe6df;" 
d="M767 -64q-8 0 -15 4l-242 134l-242 -133q-17 -10 -33.5 1.5t-13.5 31.5l47 285l-196 202q-6 6 -8 15t0.5 17.5t9.5 14t15 7.5l156 26q13 3 23.5 -5t12.5 -21q2 -8 -1 -16t-9.5 -13.5t-15.5 -7.5l-95 -16l166 -170q11 -12 8 -28l-39 -235l200 110q15 8 31 -1l199 -110
l-38 236q-3 16 9 27l164 169l-225 34q-17 3 -24 18l-100 213l-100 -212q-5 -12 -17.5 -16.5t-24.5 1.5q-8 3 -13 10.5t-5.5 15.5t2.5 16l130 274q8 18 29 18q9 0 17 -5t12 -13l120 -259l271 -42q6 -1 11 -3.5t8.5 -7.5t5.5 -10q6 -19 -7 -33l-197 -201l46 -285
q3 -20 -14 -31q-4 -3 -8.5 -4.5t-9.5 -1.5z" />
    <glyph glyph-name="uniE6FA" unicode="&#xe6fa;" 
d="M191 -65q-14 0 -23 9.5t-9 22.5q0 53 59 89t167 51v10q-23 18 -41 41.5t-28 51.5t-16.5 52t-9 56.5t-3 50t-0.5 47.5q0 104 58.5 163.5t161.5 59.5h7q69 0 118.5 -26.5t75.5 -77t26 -119.5v-11v-10v-11q-1 -13 -10.5 -22t-22.5 -8.5t-22.5 10t-8.5 22.5v8v7v7v8
q0 159 -156 159h-7q-156 0 -156 -159q0 -36 1 -62t6 -58t13.5 -54.5t24.5 -44.5t38 -36q5 -3 8.5 -7.5t5 -9.5t1.5 -10v-55q0 -12 -8 -21.5t-21 -10.5q-91 -9 -144 -32.5t-53 -47.5q0 -8 -4.5 -15.5t-12 -12t-15.5 -4.5zM833.5 -65q-13.5 0 -22.5 9.5t-9 22.5
q0 24 -53.5 47.5t-144.5 32.5q-8 1 -14.5 5.5t-10.5 11.5t-4 15v55q0 13 9.5 22.5t23 9.5t22.5 -9.5t9 -22.5v-27q54 -7 96.5 -20t71 -31t44 -40.5t15.5 -48.5q0 -13 -9.5 -22.5t-23 -9.5zM612 223q-60 0 -78 4q-11 4 -17.5 14.5t-3.5 22.5q1 6 4 11t8 8.5t10.5 5t11.5 1.5
q70 -8 139.5 2t83.5 41q4 8 11 12.5t15.5 5t16.5 -2.5q12 -6 16.5 -18.5t-1.5 -24.5q-12 -25 -36.5 -42t-56.5 -25.5t-61.5 -11.5t-61.5 -3zM896 256q-13 0 -22.5 9.5t-9.5 22.5v112l-43 15q-21 8 -21 30q0 121 -84.5 206t-203.5 85q-78 0 -144.5 -39t-105 -106t-38.5 -146
q-1 -16 -13 -26l-19 -13v-118q0 -13 -9.5 -22.5t-22.5 -9.5q-4 0 -8.5 1t-8 3t-6.5 5t-5 6.5t-3 8t-1 8.5v134q0 4 1 8t2.5 7t4 6t5.5 5l19 14q5 93 52.5 170.5t127 122.5t172.5 45q69 0 132 -26t109.5 -70.5t76 -106t33.5 -129.5l44 -15q21 -8 21 -31v-134
q0 -13 -9.5 -22.5t-22.5 -9.5z" />
    <glyph glyph-name="uniE704" unicode="&#xe704;" 
d="M325 34zM882 34zM236 19zM960 19zM64 107zM958 107zM65 37zM163 607q-31 0 -44.5 -31t9.5 -54l349 -350q8 -7 17 -11t18 -4t18.5 4t16.5 11l349 350q23 22 10 53.5t-45 31.5h-698zM960 37z" />
    <glyph glyph-name="uniE707" unicode="&#xe707;" 
d="M887 279l-353 350l-1 1h-1v1q-10 9 -23 9t-22 -10l-350 -353q-10 -9 -10 -22.5t10 -22.5q1 -2 3 -3t3.5 -2t3.5 -2t4 -1.5t4 -0.5h4q7 0 12.5 2t10.5 7l328 331l332 -330q5 -4 11 -6.5t12 -2.5t12 2.5t11 7.5q9 9 9 22.5t-10 22.5z" />
    <glyph glyph-name="uniE708" unicode="&#xe708;" 
d="M672 -16q-20 0 -34 14l-352 352q-9 9 -12.5 21.5t0 25t12.5 21.5l352 352q14 14 34 14t34 -14q9 -9 12.5 -21.5t0 -25t-12.5 -21.5l-318 -318l318 -318q14 -14 14 -34t-14 -34q-7 -7 -16 -10.5t-18 -3.5z" />
    <glyph glyph-name="uniE70F" unicode="&#xe70f;" 
d="M761 364l1 1t1 2q7 13 4.5 28.5t-14.5 26.5l-353 334q-10 9 -22 12t-24.5 -0.5t-21.5 -13.5q-7 -7 -10 -16t-3 -18t4 -18t11 -16l317 -299l-316 -305q-14 -13 -14.5 -33t13.5 -35q14 -14 35 -14q19 0 33 13l350 338l1 1v1q1 0 1 1h1q1 2 6 10z" />
    <glyph glyph-name="uniE712" unicode="&#xe712;" 
d="M796 372l-259 259q-9 9 -23 9h-1q-1 1 -2 1q-6 0 -13 -3q-6 -2 -11 -7l-259 -259q-10 -10 -10 -23t10 -23q3 -3 6.5 -5t7.5 -3t8 -1q13 0 23 9l206 207v-564q0 -9 4.5 -16.5t11.5 -11.5t16 -4t16.5 4t11.5 11.5t4 16.5v565l208 -208q3 -3 7 -5t8 -3t8 -1q6 0 12 2.5
t10 6.5q10 10 10 23t-10 23zM864 704h-704q-9 0 -16 4.5t-11.5 11.5t-4.5 16q0 7 2.5 12.5t7 10t10 7t12.5 2.5h704q13 0 22.5 -9.5t9.5 -22.5q0 -9 -4.5 -16t-11.5 -11.5t-16 -4.5z" />
    <glyph glyph-name="uniE713" unicode="&#xe713;" 
d="M890 565q-6 6 -14 8t-16.5 0t-14.5 -8l-328 -331l-332 329q-6 7 -14.5 9t-16.5 -0.5t-14 -8.5q-10 -9 -10 -22.5t10 -22.5l353 -350h1l1 -1v-1q5 -4 10.5 -6.5t12 -2.5t12.5 2.5t10 6.5l350 354q10 9 10 22.5t-10 22.5z" />
    <glyph glyph-name="uniE7AD" unicode="&#xe7ad;" 
d="M681 228h-227v248h72v-176h155v-72zM779 54q94 104 94 244q0 98 -48 181.5t-131.5 132t-181.5 48.5q-59 0 -114 -18.5t-99.5 -52t-78 -78t-51.5 -99.5t-18 -114q0 -140 94 -244q-47 -117 -58 -144q-1 -3 -1 -6t1.5 -6t4.5 -5q8 -7 17 -1q15 10 40 27t49.5 33.5t41.5 27.5
q80 -43 172 -43t172 43l131 -88q4 -2 8.5 -2t8.5 3q9 7 5 17zM512 27q-113 0 -192 79.5t-79 192t79 192t192 79.5t192 -79.5t79 -192t-79 -192t-192 -79.5zM350 687q-39 23 -84 23q-68 0 -116 -48t-48 -116q0 -44 22 -82q13 30 30.5 57.5t38.5 52t46 45.5t53 38t58 30z
M900 464q22 38 22 82q0 68 -48 116t-116 48q-45 0 -84 -23q51 -21 94 -54t76.5 -76t55.5 -93z" />
    <glyph glyph-name="uniE7D6" unicode="&#xe7d6;" 
d="M790 208q-10 2 -26.5 -6.5t-27.5 -18.5l-12 -9q35 -22 60 -47.5t36 -46.5t18 -39t7 -28l1 -10q28 14 42 38q8 13 10.5 25.5t-3.5 32t-23 43.5q-42 58 -82 66zM336 605q-7 -1 -14.5 -6.5t-14 -13t-12.5 -15t-9 -12.5l-3 -5q62 -17 103.5 -49t52.5 -55l10 -23q24 30 31 57
q3 10 2.5 19t-5 18.5t-15 20.5t-28.5 25q-57 44 -98 39zM512 745q-91 0 -174 -35t-143 -95t-95.5 -142.5t-35.5 -172.5t35.5 -172.5t95.5 -142.5t143 -95t174 -35q164 0 290 107q32 6 26 32q-3 17 -17 45t-42 62.5t-59 52.5q-3 2 -7.5 3.5t-17.5 -1t-23 -14.5q-1 -1 -4 -1.5
t-13 1.5t-22 7.5t-31.5 19t-41.5 34.5q-6 6 -24.5 23.5t-24.5 24t-21 21.5t-20 22.5t-15 21t-12.5 23t-6 22t-2.5 24t6 23.5v2q0 2 -0.5 7.5t-3 11t-8 14t-14 17.5t-23.5 20t-35 22q-27 15 -47 22t-29.5 7.5t-17 -5t-8.5 -8.5t-4 -10l-4 -12q-5 -12 -7.5 -21.5t-5 -24
t-1 -29.5t6.5 -30q11 -28 29.5 -61.5t69 -97.5t119.5 -129q93 -88 155.5 -127t108.5 -40q-22 -12 -45.5 -21.5t-48.5 -16t-51.5 -10t-53.5 -3.5q-113 0 -209.5 56t-152 151.5t-55.5 207.5t55.5 207.5t152 151.5t209.5 56t209.5 -56t152 -151.5t55.5 -207.5v-4v-4h31v4v4
q0 72 -22.5 140t-64 123t-96.5 96t-123.5 63.5t-141.5 22.5zM512 745z" />
    <glyph glyph-name="uF0050" unicode="&#xf0050;" 
d="M512 -212q-212 0 -362 150.5t-150 361.5q0 103 38.5 196t111.5 166q4 4 10 6.5t12 2.5q13 0 22 -8q6 -6 8 -14.5t0 -16t-8 -13.5q-64 -64 -98 -146t-34 -172q0 -73 23 -141.5t64.5 -124t96.5 -97t123.5 -64t142.5 -22.5q91 0 174 35.5t143.5 95.5t96 143.5t35.5 174.5
q0 117 -55 217.5t-151 162t-212 69.5v-148q0 -5 -1.5 -10t-4.5 -9t-7 -6.5t-8.5 -4.5t-9.5 -2q-9 0 -16 4.5t-11.5 11.5t-4.5 16v210h32q34 0 67.5 -4.5t65.5 -13t62.5 -21.5t59.5 -29.5t55.5 -37t50.5 -44.5q73 -73 111.5 -166.5t38.5 -195.5q1 -139 -67.5 -257
t-186.5 -186.5t-257 -68.5zM552 184q-29 0 -51 21q-15 15 -101 138.5t-109 156.5l-33 50l49 -34q37 -24 159 -109.5t136 -100.5q22 -21 22 -50q0 -15 -5.5 -27.5t-16.5 -23.5q-20 -21 -50 -21z" />
    <glyph glyph-name="uF005E" unicode="&#xf005e;" 
d="M866 227l139 318q11 26 -4 47q-13 21 -39 21h-654l-11 47q-6 28 -29.5 46.5t-52.5 18.5h-167q-7 0 -13 -2.5t-10.5 -7t-7.5 -10.5t-3 -13q0 -14 10 -24t24 -10h167q5 0 10.5 -4t6.5 -8l127 -567q-30 -12 -49 -40.5t-19 -62.5q0 -29 14.5 -54t39.5 -40t54.5 -15t54.5 15
t40 40t15 54q0 21 -8 41h225q-3 -10 -5 -20t-2 -21q0 -45 32 -77t77 -32t77 32t32 77q0 30 -15 55t-40 39.5t-54 14.5h-401l-24 105h404q19 0 35.5 10.5t23.5 26.5v0zM833 18q16 -2 26.5 -14t10.5 -28q0 -17 -12.5 -29.5t-30 -12.5t-30 12.5t-12.5 29.5q0 14 8 25t21 15
q0 1 3 1.5t7 1t9 -0.5v0zM323 546h609l-126 -290h-418l-65 290v0zM400 -66q-12 0 -21.5 5.5t-15.5 15.5t-6 21q0 16 10.5 28t26.5 14l19 -1q9 -3 15.5 -9t10 -14.5t3.5 -17.5q0 -17 -12.5 -29.5t-29.5 -12.5v0zM400 -66z" />
    <glyph glyph-name="uF015C" unicode="&#xf015c;" 
d="M621 512h2l3 -2q10 -4 22 -2t23 8.5t20.5 17.5t16.5 25q15 31 10.5 59t-26.5 39q-22 10 -47 -3t-40 -44q-14 -27 -11 -53q1 -10 4.5 -19t9 -15.5t13.5 -10.5zM645 590q4 10 10.5 16.5t10.5 8.5t6 2q1 -1 2 -4t1 -8t-1.5 -12t-5.5 -14q-4 -10 -10.5 -16.5t-11 -8.5
t-5.5 -2q-1 1 -2 3t-1 5v8q0 5 2 11t5 11zM710 448q4 -3 9 -4q18 -7 37.5 2t32.5 29q7 11 10 23.5t2 23.5t-6.5 20.5t-14.5 15.5q-18 11 -41 3.5t-38 -30.5q-9 -15 -11.5 -31.5t3 -30t17.5 -21.5zM739 507q9 14 17 13q2 0 1 -7t-6 -14q-8 -14 -17 -13q-2 1 -1 7.5t6 13.5z
M850 430q-10 18 -34 22t-46 -9q-23 -13 -32 -34.5t2 -40.5q4 -7 10 -12t14 -8q27 -9 55 7q11 6 18.5 14t12.5 17q11 24 0 44zM798 394q-11 -6 -19 -4q0 3 3.5 7t9.5 8q10 5 19 4q0 -2 -3.5 -6.5t-9.5 -8.5zM627 488l-151 93l-3 2q-62 26 -117 -7q-48 -28 -58 -81
q-6 -36 18 -115q6 -21 9 -32.5t6 -29.5t2 -31t-6 -24q-6 -15 -16.5 -26.5t-19 -17.5t-24.5 -16q-13 -8 -20.5 -13t-19 -15t-20.5 -22t-17 -26q-26 -50 -6 -100q22 -56 94 -82l1 -1q49 -17 99 9t77 64q0 1 1 1v1l3 4h-1q1 1 1 1.5t1 0.5q2 6 1 12t-5 10.5t-10 6.5
q-16 6 -26 -8q-35 -38 -65 -54.5t-62 -4.5q-53 19 -68 56q-4 10 -4.5 20.5t1.5 21.5t8 21q7 15 18 26.5t19 17.5t24 16q18 11 28 18.5t24.5 23.5t24.5 36q6 14 8 29.5t2 28t-4 31t-7 29.5t-9 31q-21 69 -16 95q2 10 7 19.5t12 17t17 13.5q34 20 73 6l3 -1l149 -92
q79 -53 38 -142q-10 -21 -22.5 -40t-23 -33t-24.5 -29.5t-23.5 -25t-24.5 -22.5v-1q-1 -1 -2.5 -3.5t-2.5 -4.5q-3 -9 1 -17.5t13 -11.5q6 -2 12 -0.5t11 5.5q86 81 126 164q28 60 14.5 110.5t-68.5 87.5zM371 598q4 -1 8.5 -2t9.5 -2q36 -2 63.5 30.5t30.5 82.5
q3 42 -14 75.5t-47 43.5q-9 4 -18 4q-38 3 -66 -34q-25 -32 -28 -78q-1 -21 2.5 -40.5t11.5 -35.5t20 -27.5t27 -16.5zM355 715q2 33 18 54q14 18 28 17q3 0 6 -1q14 -5 23.5 -26.5t7.5 -48.5q-2 -31 -16.5 -51.5t-29.5 -19.5q-3 0 -6 1q-14 5 -23.5 26t-7.5 49zM520 572.5
q24 -8.5 49 8.5t37 51q8 23 7 43.5t-10.5 36t-25.5 20.5q-24 9 -49 -8.5t-37 -51t-3.5 -62.5t32.5 -37.5zM562.5 690.5q2.5 -0.5 4.5 -6t1.5 -16t-4.5 -21.5q-2 -7 -5.5 -13t-7 -10t-7 -6t-6 -3t-3.5 -1q-2 1 -4 6.5t-2 15.5t4 21.5t10.5 20t11.5 11t7.5 2z" />
  </font>
</defs>
</svg>
