<?xml version="1.0" standalone="no"?>
<!DOCTYPE svg PUBLIC "-//W3C//DTD SVG 1.1//EN" "http://www.w3.org/Graphics/SVG/1.1/DTD/svg11.dtd" >
<svg xmlns="http://www.w3.org/2000/svg">
    <defs>
        <font id="">
            <font-face font-family=""
                       units-per-em="1000"
                       ascent="888"
                       descent="-237"
                       bbox="-56 -237 1003 888"
                    />
            <missing-glyph horiz-adv-x="0" />
            
            <glyph glyph-name="%" unicode="&#x25;" horiz-adv-x="794" d=" M184,726 Q333,716 340,520 Q333,325 184,315 Q34,323 27,520 Q34,716 184,726 M184,677 Q87,677 87,520 Q87,365 184,365 Q281,363 280,520 Q281,678 184,677 M232,-10 L182,-10 L590,726 L641,726 M638,401 Q787,390 794,195 Q788,0 638,-10 Q488,-2 481,195 Q488,391 638,401 M638,351 Q541,352 541,195.5 Q541,39 638.5,38.5 Q736,38 735,195 Q736,352 638,351"/> 
            <glyph glyph-name="," unicode="&#x2C;" horiz-adv-x="134" d=" M134,52 L134,17 Q133,-46 93,-129 L67,-129 Q96,-54 99,-16 Q101,1 85,0 L66,0 L66,81 L101,81 Q133,80 134,52"/> 
            <glyph glyph-name="0" unicode="&#x30;" horiz-adv-x="489" d=" M264,729 Q485,723 489,361 Q486,-4 264,-10 Q46,-6 43,361 Q47,722 264,729 M264,668 Q112,664 110,361 Q111,54 264,51 Q420,56 422,361 Q420,663 264,668"/> 
            <glyph glyph-name="2" unicode="&#x32;" horiz-adv-x="461" d=" M461,0 L47,0 L47,45 Q109,134 273,318 Q386,442 382,538 Q381,663 243,664 Q173,664 90,616 L73,673 Q161,726 258,725 Q444,718 450,538 Q453,422 333,291 Q242,192 143,62 L461,62"/> 
            <glyph glyph-name="3" unicode="&#x33;" horiz-adv-x="452" d=" M50,32 L67,88 Q134,54 211,52 Q382,54 384,211 Q376,341 222,349 L166,349 L166,411 L222,411 Q364,416 368,547 Q367,663 238,664 Q178,664 95,629 L79,687 Q165,725 242,725 Q430,719 436,553 Q433,426 305,378 Q446,343 452,207 Q441,-1 226,-10 Q123,-9 50,32"/> 
            <glyph glyph-name="5" unicode="&#x35;" horiz-adv-x="463" d=" M441,714 L441,652 L172,652 L162,450 Q193,459 237,459 Q454,450 463,226 Q455,-3 210,-10 Q134,-10 64,22 L79,81 Q149,51 214,52 Q387,60 395,226 Q394,397 211,398 Q157,398 94,383 L114,714"/> 
            <glyph glyph-name="7" unicode="&#x37;" horiz-adv-x="467" d=" M58,714 L467,714 L467,674 L203,0 L125,0 L397,652 L58,652"/> 
            <glyph glyph-name="F" unicode="&#x46;" horiz-adv-x="443" d=" M85,0 L85,714 L443,714 L443,652 L153,652 L153,407 L389,407 L389,345 L153,345 L153,0"/> 
            <glyph glyph-name="I" unicode="&#x49;" horiz-adv-x="169" d=" M101,714 L169,714 L169,0 L101,0"/> 
            <glyph glyph-name="M" unicode="&#x4D;" horiz-adv-x="761" d=" M686,0 L657,641 L449,0 L363,0 L156,642 L126,0 L52,0 L100,714 L197,714 L406,57 L616,714 L713,714 L761,0"/> 
            <glyph glyph-name="U" unicode="&#x55;" horiz-adv-x="583" d=" M80,714 L148,714 L148,290 Q148,51 329,52 Q514,50 513,290 L513,714 L581,714 L581,298 Q583,-13 328,-10 Q80,-10 80,295"/> 
            <glyph glyph-name="W" unicode="&#x57;" horiz-adv-x="856" d=" M266,0 L196,0 L15,714 L88,714 L231,81 L401,714 L471,714 L641,81 L783,714 L856,714 L677,0 L607,0 L436,641"/> 
            <glyph glyph-name="“" unicode="&#x201C;" horiz-adv-x="850" d=" M593,535 L593,576 Q594,657 641,735 L679,735 Q638,664 638,607 Q639,589 659,588 L680,588 L680,497 L636,497 Q595,499 593,535 M763,535 L763,576 Q764,657 811,735 L849,735 Q808,664 808,607 Q809,589 829,588 L850,588 L850,497 L806,497 Q765,499 763,535"/> 
            <glyph glyph-name="”" unicode="&#x201D;" horiz-adv-x="407" d=" M237,697 L237,656 Q236,575 189,497 L151,497 Q192,568 192,625 Q191,643 171,644 L150,644 L150,735 L194,735 Q235,733 237,697 M407,697 L407,656 Q406,575 359,497 L321,497 Q362,568 362,625 Q361,643 341,644 L320,644 L320,735 L364,735 Q405,733 407,697"/> 
            <glyph glyph-name="、" unicode="&#x3001;" horiz-adv-x="360" d=" M307,-30 L144,162 L192,204 L360,14"/> 
            <glyph glyph-name="一" unicode="&#x4E00;" horiz-adv-x="932" d=" M67,345 L67,413 L932,413 L932,345"/> 
            <glyph glyph-name="万" unicode="&#x4E07;" horiz-adv-x="927" d=" M72,652 L72,715 L927,715 L927,652 L414,652 Q412,538 406,454 L809,454 L792,78 Q785,-72 643,-72 Q614,-72 549,-67 Q546,-67 544,-67 Q543,-30 526,3 Q591,-8 635,-8 Q720,-7 723,86 L738,394 L400,394 Q375,74 137,-93 Q113,-67 70,-55 Q322,109 337,448 Q344,580 345,652"/> 
            <glyph glyph-name="上" unicode="&#x4E0A;" horiz-adv-x="938" d=" M61,-57 L61,6 L432,6 L432,794 L502,794 L502,486 L852,486 L852,424 L502,424 L502,6 L938,6 L938,-57"/> 
            <glyph glyph-name="不" unicode="&#x4E0D;" horiz-adv-x="941" d=" M89,659 L89,721 L919,721 L919,659 L584,659 Q552,569 495,480 L535,480 L535,-96 L466,-96 L466,437 Q328,249 108,124 Q85,155 46,169 Q389,357 510,659 M899,116 Q777,245 589,401 L643,438 Q824,293 941,174"/> 
            <glyph glyph-name="与" unicode="&#x4E0E;" horiz-adv-x="894" d=" M691,-87 Q653,-87 591,-79 Q588,-41 574,-12 Q647,-23 685,-23 Q781,-25 785,76 L801,361 L224,361 L260,794 L328,790 L316,659 L894,659 L894,599 L311,599 L295,421 L871,421 L852,67 Q844,-87 691,-87 M75,135 L75,195 L706,195 L706,135"/> 
            <glyph glyph-name="且" unicode="&#x4E14;" horiz-adv-x="945" d=" M53,-57 L53,5 L235,5 L235,740 L763,740 L763,5 L945,5 L945,-57 M304,192 L304,5 L694,5 L694,192 M304,679 L304,494 L694,494 L694,679 M304,435 L304,251 L694,251 L694,435"/> 
            <glyph glyph-name="为" unicode="&#x4E3A;" horiz-adv-x="873" d=" M691,-71 Q643,-71 599,-66 Q595,-25 577,4 Q641,-6 685,-6 Q781,-8 785,90 L805,482 L487,482 Q428,91 130,-92 Q102,-63 65,-50 Q365,124 421,482 L120,482 L120,543 L429,543 Q443,658 446,796 L515,790 Q506,631 496,543 L873,543 L851,79 Q845,-71 691,-71 M641,139 Q578,240 501,325 L557,355 Q631,272 689,185 M322,574 Q265,644 188,715 L240,749 Q313,687 365,619"/> 
            <glyph glyph-name="主" unicode="&#x4E3B;" horiz-adv-x="932" d=" M108,552 L108,614 L890,614 L890,552 L534,552 L534,323 L830,323 L830,261 L534,261 L534,13 L932,13 L932,-49 L65,-49 L65,13 L465,13 L465,261 L168,261 L168,323 L465,323 L465,552 M536,618 Q470,693 375,776 L442,803 Q539,723 591,659"/> 
            <glyph glyph-name="了" unicode="&#x4E86;" horiz-adv-x="872" d=" M427,-88 Q391,-88 332,-81 Q328,-42 312,-12 Q378,-21 420,-21 Q490,-23 488,44 L488,472 Q632,554 766,661 L117,661 L117,723 L872,723 L872,668 Q746,552 557,437 L557,34 Q558,-89 427,-88"/> 
            <glyph glyph-name="二" unicode="&#x4E8C;" horiz-adv-x="936" d=" M151,610 L151,675 L847,675 L847,610 M63,-6 L63,59 L936,59 L936,-6"/> 
            <glyph glyph-name="亮" unicode="&#x4EAE;" horiz-adv-x="935" d=" M239,399 L239,585 L759,585 L759,399 M133,-97 Q116,-66 84,-44 Q327,-14 321,137 L323,217 L669,217 L669,49 Q665,-17 728,-12 L805,-12 Q858,-13 869,41 Q877,73 880,105 Q901,81 935,68 Q930,34 925,20 Q905,-74 809,-68 L718,-68 Q602,-71 605,37 L605,163 L384,163 L382,123 Q387,-50 133,-97 M105,178 L105,337 L895,337 L895,179 L830,179 L830,284 L170,284 L170,178 M101,646 L101,700 L494,700 Q448,747 404,784 L469,807 Q535,754 570,710 L551,700 L898,700 L898,646 M304,448 L694,448 L694,535 L304,535"/> 
            <glyph glyph-name="仅" unicode="&#x4EC5;" horiz-adv-x="963" d=" M902,-80 Q752,2 647,124 Q543,4 370,-87 Q343,-59 310,-42 Q491,48 604,179 Q465,373 423,646 L371,646 L371,708 L872,708 L872,654 Q830,366 690,178 Q802,47 963,-24 Q925,-46 902,-80 M805,646 L487,646 Q528,406 646,235 Q765,401 805,646 M194,-96 L194,452 Q143,376 90,322 Q70,344 34,358 Q213,550 284,798 L344,770 Q313,664 259,561 L259,-96"/> 
            <glyph glyph-name="众" unicode="&#x4F17;" horiz-adv-x="963" d=" M894,391 Q638,485 496,684 Q363,476 115,381 Q90,414 58,429 Q379,543 481,803 L544,781 Q540,771 532,753 Q528,744 526,739 Q684,530 952,452 Q917,429 894,391 M900,-88 Q746,11 669,197 Q624,14 473,-96 Q445,-72 405,-64 Q596,57 622,294 Q628,367 628,452 L693,446 Q693,370 687,308 Q759,66 963,-40 Q926,-61 900,-88 M454,58 Q392,133 317,211 Q261,24 107,-85 Q76,-59 39,-49 Q226,68 268,278 Q280,341 281,444 L348,436 Q343,348 331,276 Q427,189 499,101"/> 
            <glyph glyph-name="优" unicode="&#x4F18;" horiz-adv-x="943" d=" M329,471 L329,530 L543,530 L543,792 L608,792 L608,530 L922,530 L922,471 L607,471 Q604,119 350,-94 Q323,-71 282,-60 Q539,138 542,471 M197,-95 L197,471 Q149,399 94,342 Q71,365 35,375 Q209,563 288,798 L347,766 Q310,667 262,576 L262,-95 M740,-68 Q628,-69 629,42 L629,421 L692,421 L692,49 Q691,-10 746,-8 L806,-8 Q862,-12 876,60 Q880,76 885,114 Q888,129 889,136 Q915,107 943,97 Q939,64 931,35 Q908,-71 814,-68 M820,569 Q764,639 682,718 L735,748 Q792,697 864,614"/> 
            <glyph glyph-name="低" unicode="&#x4F4E;" horiz-adv-x="959" d=" M861,-79 Q809,-80 769,-13 Q683,123 654,370 L455,370 L455,49 L603,151 L641,108 L456,-21 Q434,-36 402,-68 L368,-21 Q393,7 392,61 L392,707 Q664,712 851,757 L890,703 Q808,685 699,670 Q700,537 711,427 L924,427 L924,370 L718,370 Q744,156 815,32 Q840,-15 861,-13 Q879,-14 893,34 Q902,66 910,111 Q930,83 959,71 Q952,31 941,-2 Q916,-79 861,-79 M193,-96 L193,466 Q138,387 92,347 Q65,372 34,379 Q205,552 287,798 L347,766 Q317,677 257,569 L257,-96 M455,653 L455,427 L648,427 Q638,534 636,664 Q534,655 455,653 M682,-105 Q623,-37 561,13 L608,43 Q668,-6 717,-61"/> 
            <glyph glyph-name="体" unicode="&#x4F53;" horiz-adv-x="970" d=" M183,-96 L183,467 Q131,396 78,346 Q55,370 21,386 Q199,557 287,798 L344,766 Q302,656 247,564 L247,101 Q455,282 539,537 L320,537 L320,596 L573,596 L573,790 L636,790 L636,596 L905,596 L905,537 L669,537 Q761,259 970,115 Q941,98 914,61 Q716,219 634,500 L636,481 L636,138 L809,138 L809,81 L636,81 L636,-96 L573,-96 L573,81 L401,81 L401,138 L573,138 L573,481 L574,499 Q499,231 296,55 Q275,79 247,94 L247,-96"/> 
            <glyph glyph-name="你" unicode="&#x4F60;" horiz-adv-x="944" d=" M195,-96 L195,469 Q136,381 93,344 Q74,368 33,383 Q198,542 285,798 L345,766 Q319,684 261,576 L261,-96 M854,416 Q830,425 790,423 L852,568 L500,568 Q457,487 396,416 Q367,438 331,443 Q467,595 517,797 L578,768 Q558,693 528,626 L922,626 L922,577 M557,-91 Q524,-91 480,-87 Q484,-52 463,-19 Q511,-28 544,-28 Q605,-31 602,33 L602,470 L668,470 L668,25 Q668,-91 557,-91 M889,29 Q827,166 749,297 L813,313 Q894,176 944,66 M374,38 Q341,56 306,57 Q405,178 444,322 L504,301 Q463,161 374,38"/> 
            <glyph glyph-name="免" unicode="&#x514D;" horiz-adv-x="949" d=" M659,-67 Q549,-67 549,35 L549,255 L519,255 Q449,-6 114,-96 Q98,-66 66,-40 Q380,37 451,255 L199,255 L199,509 Q161,482 125,463 Q97,490 67,505 Q292,628 390,810 L449,776 Q420,727 402,704 L762,704 L762,656 L611,522 L843,522 L843,255 L614,255 L614,40 Q615,-8 666,-8 L818,-8 Q871,-10 884,50 Q885,53 886,59 Q891,77 897,113 Q922,85 949,74 Q941,36 935,13 Q913,-70 823,-67 M356,648 Q301,585 217,522 L522,522 L664,648 M548,466 Q547,382 532,312 L778,312 L778,466 M265,312 L467,312 Q483,392 484,466 L265,466"/> 
            <glyph glyph-name="册" unicode="&#x518C;" horiz-adv-x="945" d=" M55,348 L55,408 L171,408 L171,747 L446,747 L446,408 L557,408 L557,747 L841,747 L841,408 L945,408 L945,348 L841,348 L841,19 Q846,-87 740,-82 Q711,-82 685,-79 Q679,-44 665,-18 Q708,-22 730,-22 Q780,-26 777,30 L777,348 L621,348 L621,282 Q623,43 534,-97 Q507,-80 468,-74 Q561,51 557,290 L557,348 L446,348 L446,23 Q450,-83 342,-79 Q318,-79 290,-76 Q286,-42 272,-14 Q299,-18 335,-18 Q384,-22 381,32 L381,348 L235,348 L235,301 Q235,47 133,-97 Q103,-79 66,-73 Q172,65 171,302 L171,348 M621,688 L621,408 L777,408 L777,688 M235,688 L235,408 L381,408 L381,688"/> 
            <glyph glyph-name="出" unicode="&#x51FA;" horiz-adv-x="868" d=" M130,-56 L130,270 L195,270 L195,7 L465,7 L465,366 L159,366 L159,704 L225,704 L225,427 L465,427 L465,796 L532,796 L532,427 L773,427 L773,703 L839,703 L839,366 L532,366 L532,7 L803,7 L803,267 L868,267 L868,-96 L803,-96 L803,-56"/> 
            <glyph glyph-name="分" unicode="&#x5206;" horiz-adv-x="980" d=" M617,-78 Q585,-78 525,-70 Q525,-36 510,-7 Q567,-16 606,-16 Q679,-17 681,55 L698,343 L457,343 Q432,17 152,-96 Q126,-67 92,-50 Q373,48 392,343 L246,343 L246,403 L766,403 L747,47 Q740,-77 617,-78 M912,323 Q675,463 580,764 L638,787 Q733,484 980,375 Q937,358 912,323 M111,317 Q83,346 48,356 Q280,502 363,771 L425,741 Q325,459 111,317"/> 
            <glyph glyph-name="制" unicode="&#x5236;" horiz-adv-x="889" d=" M147,499 Q120,514 84,518 Q168,624 203,766 L261,743 Q249,702 230,650 L334,650 L334,796 L398,796 L398,650 L590,650 L590,593 L398,593 L398,471 L615,471 L615,415 L398,415 L398,304 L588,304 L588,78 Q587,-20 498,-21 Q468,-21 441,-17 Q439,20 427,42 Q464,35 490,35 Q529,34 528,82 L528,247 L398,247 L398,-96 L334,-96 L334,247 L205,247 L205,-29 L145,-29 L145,304 L334,304 L334,415 L77,415 L77,471 L334,471 L334,593 L204,593 Q173,532 147,499 M774,-86 Q735,-86 695,-80 Q692,-39 678,-15 Q734,-23 765,-23 Q827,-24 826,41 L826,796 L889,796 L889,31 Q889,-87 774,-86 M672,125 L672,676 L729,676 L729,125"/> 
            <glyph glyph-name="功" unicode="&#x529F;" horiz-adv-x="904" d=" M753,-67 Q711,-67 671,-62 Q668,-23 650,5 Q715,-4 745,-4 Q823,-5 825,92 L838,520 L661,520 Q659,504 659,487 Q650,78 404,-100 Q370,-76 332,-67 Q591,106 593,491 Q593,505 594,520 L445,520 L445,578 L596,578 Q599,692 599,798 L667,793 Q667,682 663,578 L904,578 L890,85 Q888,-69 753,-67 M75,622 L75,681 L439,681 L439,622 L293,622 L293,176 L442,221 L471,171 L78,43 L41,100 L227,156 L227,622"/> 
            <glyph glyph-name="加" unicode="&#x52A0;" horiz-adv-x="891" d=" M573,-59 L573,692 L891,692 L891,-59 L827,-59 L827,18 L637,18 L637,-59 M106,-80 Q77,-59 39,-52 Q209,133 214,548 Q214,562 215,577 L71,577 L71,636 L216,636 Q218,743 218,797 L281,792 Q281,735 281,703 Q281,667 280,636 L479,636 L470,74 Q470,-59 340,-57 Q306,-57 263,-52 Q260,-17 244,13 Q305,4 337,4 Q410,0 408,80 L417,577 L280,577 Q279,561 279,544 Q270,116 106,-80 M637,633 L637,77 L827,77 L827,633"/> 
            <glyph glyph-name="动" unicode="&#x52A8;" horiz-adv-x="913" d=" M476,-101 Q451,-78 414,-69 Q631,103 634,518 Q634,522 634,530 Q635,541 635,546 L502,546 L502,603 L637,603 Q638,698 638,684 Q638,705 638,731 Q638,753 638,796 L702,791 Q702,732 700,603 L913,603 L897,67 Q894,-73 768,-72 Q747,-72 700,-68 Q691,-67 687,-67 Q685,-34 670,-1 Q728,-10 760,-10 Q833,-12 834,71 L848,546 L698,546 Q698,540 697,528 Q697,518 697,513 Q687,81 476,-101 M453,31 Q451,36 447,46 Q438,72 431,86 L183,42 Q135,32 104,16 L66,72 Q104,91 126,141 Q179,252 231,408 L55,408 L55,465 L504,465 L504,408 L297,408 Q234,222 177,104 L410,140 Q367,241 328,323 L386,333 Q445,220 505,66 M114,646 L114,704 L469,704 L469,646"/> 
            <glyph glyph-name="化" unicode="&#x5316;" horiz-adv-x="953" d=" M388,166 Q368,191 335,207 Q437,264 550,347 L550,795 L616,795 L616,399 Q770,526 864,653 L920,619 Q804,467 616,319 L616,66 Q615,-8 680,-6 L807,-6 Q867,-10 883,71 Q888,88 896,132 Q898,142 899,147 Q922,120 953,106 Q952,102 951,94 Q944,57 940,40 Q914,-70 813,-67 L674,-67 Q550,-68 550,65 L550,270 Q468,210 388,166 M219,-95 L219,468 Q165,390 97,324 Q71,345 36,356 Q229,550 315,798 L375,763 Q337,659 284,570 L284,-95"/> 
            <glyph glyph-name="单" unicode="&#x5355;" horiz-adv-x="944" d=" M172,257 L172,641 L375,641 Q315,703 237,767 L291,799 Q372,734 430,673 L404,641 L556,641 Q633,715 696,802 L753,771 Q698,701 636,641 L827,641 L827,257 L532,257 L532,157 L944,157 L944,100 L532,100 L532,-96 L467,-96 L467,100 L55,100 L55,157 L467,157 L467,257 M532,313 L764,313 L764,423 L532,423 M235,313 L467,313 L467,423 L235,423 M764,585 L532,585 L532,475 L764,475 M235,585 L235,475 L467,475 L467,585"/> 
            <glyph glyph-name="卡" unicode="&#x5361;" horiz-adv-x="928" d=" M72,375 L72,436 L429,436 L429,796 L497,796 L497,648 L823,648 L823,589 L497,589 L497,436 L928,436 L928,375 M428,-96 L428,343 L498,343 L498,-96 M812,36 Q663,137 507,215 L553,262 Q706,183 843,96"/> 
            <glyph glyph-name="变" unicode="&#x53D8;" horiz-adv-x="932" d=" M884,-93 Q660,-57 502,31 Q340,-59 109,-101 Q89,-62 62,-44 Q288,-8 441,69 Q323,152 239,272 L181,272 L181,330 L769,330 L769,280 Q694,159 564,69 Q720,-9 932,-32 Q901,-59 884,-93 M84,617 L84,676 L498,676 Q454,727 391,778 L452,811 Q508,765 562,704 L531,676 L912,676 L912,617 L645,617 L645,370 L580,370 L580,617 L418,617 L418,370 L353,370 L353,617 M685,272 L314,272 Q390,170 501,103 Q612,170 685,272 M99,334 L63,386 Q170,463 258,562 L298,517 Q212,418 99,334 M898,348 Q803,442 697,522 L746,560 Q843,488 932,402"/> 
            <glyph glyph-name="同" unicode="&#x540C;" horiz-adv-x="871" d=" M132,-96 L132,731 L871,731 L871,40 Q871,-90 750,-90 Q717,-90 663,-83 Q660,-52 644,-17 Q704,-25 733,-25 Q808,-27 806,47 L806,671 L197,671 L197,-96 M272,504 L272,559 L730,559 L730,504 M326,94 L326,390 L675,390 L675,94 M388,150 L614,150 L614,334 L388,334"/> 
            <glyph glyph-name="咖" unicode="&#x5496;" horiz-adv-x="904" d=" M677,-74 L677,681 L904,681 L904,-73 L845,-73 L845,7 L735,7 L735,-74 M94,13 L94,702 L304,702 L304,40 L249,40 L249,98 L149,98 L149,13 M347,-90 Q321,-72 287,-71 Q404,95 406,442 L408,563 L334,563 L334,619 L409,619 L412,793 L470,788 L467,619 L612,619 L602,56 Q600,-57 496,-57 Q472,-57 440,-51 Q440,-17 423,12 Q463,3 488,2 Q544,0 544,63 L554,563 L466,563 L464,441 Q461,89 347,-90 M735,624 L735,65 L845,65 L845,624 M149,647 L149,152 L249,152 L249,647"/> 
            <glyph glyph-name="响" unicode="&#x54CD;" horiz-adv-x="904" d=" M99,3 L99,701 L326,701 L326,38 L269,38 L269,105 L157,105 L157,3 M412,-96 L412,646 L552,646 Q595,724 620,799 L682,776 Q659,713 623,646 L903,646 L903,24 Q904,-87 794,-86 Q763,-86 723,-82 Q721,-48 707,-19 Q755,-27 784,-27 Q844,-29 842,33 L842,590 L472,590 L472,-96 M550,106 L550,474 L764,474 L764,106 M157,644 L157,161 L269,161 L269,644 M601,160 L712,160 L712,421 L601,421"/> 
            <glyph glyph-name="唤" unicode="&#x5524;" horiz-adv-x="961" d=" M358,181 L358,237 L427,237 L427,506 L638,506 L739,641 L527,641 Q468,557 401,498 Q374,522 347,531 Q485,643 549,801 L602,771 Q584,732 562,694 L814,694 L814,650 L708,506 L866,506 L866,237 L943,237 L943,181 L691,181 Q769,27 961,-48 Q926,-64 906,-95 Q720,-5 644,163 Q584,-15 366,-98 Q345,-72 309,-54 Q533,19 590,181 M97,53 L97,698 L327,698 L327,75 L269,75 L269,131 L154,131 L154,53 M154,644 L154,186 L269,186 L269,644 M805,453 L674,453 Q675,345 667,237 L805,237 M487,453 L487,237 L604,237 Q607,252 609,269 Q616,363 616,453"/> 
            <glyph glyph-name="啡" unicode="&#x5561;" horiz-adv-x="950" d=" M99,11 L99,704 L321,704 L321,31 L262,31 L262,98 L158,98 L158,11 M703,-96 L703,793 L767,793 L767,614 L932,614 L932,555 L767,555 L767,391 L918,391 L918,332 L767,332 L767,169 L950,169 L950,111 L767,111 L767,-96 M362,555 L362,614 L517,614 L517,793 L580,793 L580,-96 L517,-96 L517,111 L348,111 L348,169 L517,169 L517,332 L377,332 L377,391 L517,391 L517,555 M158,648 L158,154 L262,154 L262,648"/> 
            <glyph glyph-name="在" unicode="&#x5728;" horiz-adv-x="935" d=" M229,-96 L229,314 Q153,241 92,202 Q77,226 31,249 Q233,372 360,607 L100,607 L100,667 L390,667 Q421,737 442,809 L507,785 Q491,726 465,667 L932,667 L932,607 L437,607 Q380,491 294,386 L294,-96 M377,293 L377,351 L601,351 L601,534 L668,534 L668,351 L893,351 L893,293 L668,293 L668,16 L935,16 L935,-43 L339,-43 L339,16 L601,16 L601,293"/> 
            <glyph glyph-name="场" unicode="&#x573A;" horiz-adv-x="921" d=" M353,74 Q333,98 296,110 Q479,214 551,401 L500,401 Q454,401 413,393 L390,451 Q425,460 463,481 Q617,567 767,682 L407,682 L407,739 L863,739 L863,689 Q723,566 531,457 L921,457 L894,53 Q886,-87 760,-84 Q729,-84 689,-79 Q688,-49 668,-13 Q714,-21 754,-21 Q828,-25 832,63 L856,401 L766,401 Q707,72 439,-88 Q418,-63 378,-51 Q646,93 708,401 L610,401 Q539,194 353,74 M63,505 L63,562 L186,562 L186,794 L250,794 L250,562 L365,562 L365,505 L250,505 L250,196 L360,245 L389,199 L72,48 L34,101 L186,169 L186,505"/> 
            <glyph glyph-name="境" unicode="&#x5883;" horiz-adv-x="955" d=" M398,141 L398,426 L862,426 L862,141 L737,141 L737,35 Q736,-15 783,-14 L836,-14 Q879,-17 894,38 Q898,53 905,92 Q906,99 907,102 Q924,78 955,65 Q950,28 944,8 Q924,-73 841,-70 L776,-70 Q676,-70 676,28 L676,141 L577,141 Q561,-34 320,-98 Q303,-68 274,-49 Q503,5 518,141 M57,516 L57,571 L169,571 L169,796 L230,796 L230,571 L324,571 L324,516 L230,516 L230,190 L333,230 L359,183 L70,62 L38,118 L169,168 L169,516 M343,491 L343,543 L519,543 Q479,593 446,624 L502,646 Q549,601 580,558 L560,543 L683,543 Q718,584 760,652 L816,626 Q787,584 755,543 L938,543 L938,491 M375,655 L375,706 L615,706 Q577,743 537,775 L588,805 Q637,768 678,721 L661,706 L900,706 L900,655 M460,189 L800,189 L800,263 L460,263 M460,377 L460,306 L800,306 L800,377"/> 
            <glyph glyph-name="多" unicode="&#x591A;" horiz-adv-x="893" d=" M245,130 Q220,161 194,178 Q453,255 606,426 L663,401 Q630,360 594,327 L893,327 L893,277 Q719,-55 179,-101 Q166,-71 134,-44 Q400,-20 561,56 Q513,100 436,156 L489,189 Q537,158 617,85 Q740,156 816,271 L525,271 Q403,183 245,130 M155,298 Q140,330 110,352 Q315,384 474,454 Q417,501 359,542 L412,574 Q467,537 532,482 Q665,550 750,645 L407,645 Q320,552 208,489 Q176,517 149,527 Q344,636 446,806 L509,781 Q476,728 456,703 L839,703 L839,653 Q637,385 155,298"/> 
            <glyph glyph-name="够" unicode="&#x591F;" horiz-adv-x="944" d=" M331,-75 Q290,-75 257,-70 Q255,-37 237,-6 Q279,-15 325,-15 Q399,-19 396,71 L396,610 L199,610 Q154,519 94,445 Q73,465 40,473 Q157,609 212,796 L265,772 Q247,718 226,667 L454,667 L454,62 Q455,-76 331,-75 M519,153 Q502,178 469,192 Q661,291 760,442 L809,416 Q776,363 739,323 L944,323 L944,276 Q835,-11 487,-97 Q472,-68 442,-46 Q598,-11 704,63 Q647,118 604,152 L649,180 Q709,132 746,94 Q833,166 878,270 L687,270 Q611,202 519,153 M118,132 L118,469 L325,469 L325,132 M524,332 Q505,361 474,377 Q575,415 659,472 Q620,511 574,547 L617,575 Q649,551 700,504 Q784,570 831,649 L636,649 Q587,587 532,545 Q510,567 477,577 Q597,666 665,801 L718,776 Q699,736 674,701 L900,701 L900,654 Q786,447 524,332 M172,185 L271,185 L271,416 L172,416"/> 
            <glyph glyph-name="大" unicode="&#x5927;" horiz-adv-x="960" d=" M892,-83 Q603,62 499,365 Q425,69 106,-89 Q79,-61 42,-40 Q401,120 453,456 L100,456 L100,520 L458,520 Q463,620 461,794 L530,788 Q531,664 525,520 L896,520 L896,456 L529,456 Q633,107 960,-22 Q923,-43 892,-83"/> 
            <glyph glyph-name="天" unicode="&#x5929;" horiz-adv-x="947" d=" M154,664 L154,723 L844,723 L844,664 L530,664 Q530,659 530,648 Q528,481 525,420 L898,420 L898,359 L539,359 Q658,73 947,-18 Q910,-40 887,-77 Q613,36 500,307 Q421,39 115,-84 Q89,-50 57,-31 Q382,78 448,359 L97,359 L97,420 L458,420 L458,422 Q463,511 463,664"/> 
            <glyph glyph-name="套" unicode="&#x5957;" horiz-adv-x="974" d=" M104,644 L104,698 L422,698 Q448,746 464,803 L526,784 Q512,739 492,698 L896,698 L896,644 L611,644 Q746,496 974,445 Q942,420 923,387 Q814,423 728,473 L728,472 L336,472 L336,401 L754,401 L754,351 L336,351 L336,280 L756,280 L756,230 L336,230 L336,159 L931,159 L931,104 L669,104 Q782,15 855,-57 L819,-107 Q796,-81 759,-46 L280,-68 Q231,-70 193,-82 L166,-27 Q203,-20 246,14 Q314,67 352,104 L62,104 L62,159 L273,159 L273,460 Q189,408 80,374 Q62,401 29,423 Q280,493 388,644 M433,104 Q373,41 302,-14 L704,3 Q677,26 626,67 Q621,72 618,74 L666,104 M462,644 Q421,578 359,523 L657,523 Q589,577 540,644"/> 
            <glyph glyph-name="孔" unicode="&#x5B54;" horiz-adv-x="952" d=" M79,237 L37,292 L264,366 L264,515 Q356,598 407,668 L94,668 L94,727 L490,727 L490,674 Q424,580 329,491 L329,387 L515,448 L542,396 L329,323 L329,24 Q330,-85 222,-84 Q177,-84 144,-78 Q140,-42 121,-12 Q173,-19 218,-20 Q265,-22 264,31 L264,300 M708,-67 Q587,-69 589,52 L589,786 L656,786 L656,60 Q654,-5 717,-3 L809,-3 Q865,-5 878,67 Q889,107 895,160 Q922,129 952,119 Q949,88 937,40 Q912,-69 816,-67"/> 
            <glyph glyph-name="字" unicode="&#x5B57;" horiz-adv-x="937" d=" M61,191 L61,250 L490,250 L490,335 Q574,380 651,435 L247,435 L247,494 L755,494 L755,443 Q672,371 556,306 L556,250 L937,250 L937,191 L556,191 L556,29 Q558,-87 438,-85 Q392,-85 351,-78 Q349,-42 333,-13 Q385,-22 430,-22 Q491,-23 490,37 L490,191 M101,449 L101,668 L490,668 Q443,728 395,776 L464,799 Q526,737 574,670 L570,668 L897,668 L897,449 L830,449 L830,609 L168,609 L168,449"/> 
            <glyph glyph-name="定" unicode="&#x5B9A;" horiz-adv-x="951" d=" M222,422 L222,479 L786,479 L786,422 L547,422 L547,257 L840,257 L840,199 L547,199 L547,11 Q559,9 584,7 Q595,6 601,5 Q676,-2 769.5,-3 Q863,-4 951,2 Q932,-30 924,-69 Q721,-67 612,-60 Q363,-46 264,103 Q216,-6 114,-96 Q86,-70 50,-63 Q230,79 252,313 L317,297 Q305,218 289,170 Q360,61 481,26 L481,422 M108,456 L108,673 L498,673 Q456,739 417,785 L483,807 Q529,750 574,681 L558,673 L893,673 L893,456 L827,456 L827,615 L175,615 L175,456"/> 
            <glyph glyph-name="对" unicode="&#x5BF9;" horiz-adv-x="951" d=" M436,27 Q362,129 303,205 Q230,67 102,-45 Q73,-21 37,-12 Q174,92 260,260 Q184,356 84,468 L137,499 Q229,396 288,325 Q348,468 361,631 L84,631 L84,691 L426,691 L426,637 Q406,429 334,268 Q414,166 476,79 M454,526 L454,587 L754,587 L754,793 L819,793 L819,587 L951,587 L951,526 L819,526 L819,31 Q818,-87 697,-88 Q658,-88 612,-83 Q612,-46 594,-16 Q661,-24 687,-24 Q756,-26 754,43 L754,526 M614,194 Q562,283 482,392 L539,417 Q592,348 662,233"/> 
            <glyph glyph-name="小" unicode="&#x5C0F;" horiz-adv-x="957" d=" M116,81 Q84,96 40,99 Q167,307 220,576 L287,547 Q225,267 116,81 M418,-88 Q374,-88 329,-81 Q327,-47 309,-13 Q365,-22 403,-22 Q476,-24 474,43 L474,790 L543,790 L543,35 Q544,-89 418,-88 M895,77 Q792,355 691,552 L760,570 Q867,352 957,117"/> 
            <glyph glyph-name="应" unicode="&#x5E94;" horiz-adv-x="940" d=" M101,-92 Q71,-71 32,-66 Q157,88 160,357 L160,661 L541,661 Q487,730 434,779 L502,801 Q550,756 611,681 L576,661 L917,661 L917,601 L226,601 L226,358 Q222,75 101,-92 M234,-54 L234,5 L622,5 Q747,242 824,495 L885,465 Q813,235 695,5 L940,5 L940,-54 M411,91 Q345,264 265,419 L330,428 Q403,290 468,127 M592,191 Q540,345 465,496 L529,506 Q596,380 649,225"/> 
            <glyph glyph-name="度" unicode="&#x5EA6;" horiz-adv-x="953" d=" M915,-91 Q709,-60 573,7 Q432,-64 226,-98 Q216,-69 183,-42 Q367,-17 508,44 Q403,110 333,210 L279,210 L279,265 L819,265 L819,215 Q749,113 637,43 Q769,-11 953,-30 Q922,-60 915,-91 M223,481 L223,536 L388,536 L388,617 L451,617 L451,536 L687,536 L687,617 L750,617 L750,536 L898,536 L898,481 L750,481 L750,330 L388,330 L388,481 M95,-97 Q69,-79 31,-68 Q151,89 146,362 L146,696 L525,696 Q484,748 445,785 L512,805 Q569,748 608,696 L909,696 L909,639 L211,639 L211,361 Q214,79 95,-97 M735,210 L408,210 Q474,129 571,76 Q675,135 735,210 M451,383 L687,383 L687,481 L451,481"/> 
            <glyph glyph-name="延" unicode="&#x5EF6;" horiz-adv-x="954" d=" M927,-59 Q716,-59 533,-46 Q357,-33 257,56 Q206,-24 110,-90 Q85,-69 47,-57 Q156,11 212,101 Q159,161 105,255 L148,294 Q198,209 242,158 Q280,245 287,366 L184,366 Q156,366 131,360 L109,410 Q145,421 168,461 L282,653 L91,653 L91,710 L357,710 L357,661 L215,422 L348,422 L348,370 Q339,213 288,111 Q374,34 503,22 Q585,12 722,8 Q863,5 954,11 Q933,-20 927,-59 M441,131 L441,521 L504,521 L504,190 L634,190 L634,654 Q526,641 431,637 Q421,669 398,695 Q663,704 831,753 L874,697 Q805,679 697,663 L697,467 L875,467 L875,409 L697,409 L697,190 L885,190 L885,131"/> 
            <glyph glyph-name="开" unicode="&#x5F00;" horiz-adv-x="944" d=" M121,668 L121,731 L881,731 L881,668 L707,668 L707,396 L944,396 L944,334 L707,334 L707,-87 L638,-87 L638,334 L377,334 Q369,65 146,-99 Q122,-73 83,-62 Q303,90 309,334 L57,334 L57,396 L310,396 L310,668 M378,668 L378,396 L638,396 L638,668"/> 
            <glyph glyph-name="式" unicode="&#x5F0F;" horiz-adv-x="945" d=" M84,550 L84,609 L566,609 Q563,694 563,791 L630,797 Q627,706 632,609 L913,609 L913,550 L635,550 Q651,333 693,199 Q733,77 794,7 Q812,-14 831,-14 Q854,-16 869,31 Q881,66 893,123 Q919,89 945,79 Q932,26 921,-6 Q893,-84 834,-85 Q784,-83 741,-36 Q681,32 640,148 Q582,312 569,550 M120,325 L120,384 L511,384 L511,325 L351,325 L351,79 L545,117 L573,67 L102,-36 L63,22 L285,66 L285,325 M797,619 Q734,690 674,741 L726,770 Q791,715 835,664"/> 
            <glyph glyph-name="强" unicode="&#x5F3A;" horiz-adv-x="951" d=" M452,508 L452,744 L851,744 L851,508 L682,508 L682,406 L879,406 L879,164 L682,164 L682,19 Q699,21 732,26 Q798,34 825,38 Q804,75 778,110 L837,129 Q888,56 951,-57 L901,-94 Q886,-63 855,-11 Q608,-51 394,-74 L366,-15 Q457,-8 620,11 L620,164 L424,164 L424,406 L620,406 L620,508 M217,-86 Q200,-86 140,-80 Q137,-47 122,-18 Q187,-27 210,-27 Q269,-27 271,37 L283,237 L81,237 L99,514 L289,514 L289,688 L78,688 L78,743 L349,743 L349,459 L155,459 L144,291 L346,291 L330,35 Q330,-87 217,-86 M512,561 L791,561 L791,691 L512,691 M819,353 L682,353 L682,217 L819,217 M483,217 L620,217 L620,353 L483,353"/> 
            <glyph glyph-name="手" unicode="&#x624B;" horiz-adv-x="946" d=" M148,429 L148,489 L481,489 L481,655 Q281,640 161,641 Q154,665 128,702 Q554,703 806,761 L848,702 Q733,677 550,661 L550,489 L852,489 L852,429 L550,429 L550,270 L946,270 L946,209 L550,209 L550,28 Q550,-89 425,-89 Q387,-89 328,-80 Q323,-40 308,-11 Q376,-22 415,-22 Q483,-24 481,46 L481,209 L51,209 L51,270 L481,270 L481,429"/> 
            <glyph glyph-name="拒" unicode="&#x62D2;" horiz-adv-x="944" d=" M440,-57 L440,735 L918,735 L918,676 L506,676 L506,494 L878,494 L878,194 L506,194 L506,2 L944,2 L944,-57 M68,539 L68,596 L208,596 L208,793 L272,793 L272,596 L393,596 L393,539 L272,539 L272,350 L372,389 L398,344 L272,290 L272,23 Q270,-80 170,-82 Q138,-82 103,-77 Q100,-40 84,-12 Q126,-20 161,-20 Q208,-20 208,31 L208,263 L77,207 L39,260 L208,325 L208,539 M816,437 L506,437 L506,250 L816,250"/> 
            <glyph glyph-name="换" unicode="&#x6362;" horiz-adv-x="961" d=" M333,182 L333,237 L413,237 L413,498 Q407,494 403,489 Q376,512 349,519 Q480,643 534,800 L589,770 Q574,732 555,694 L813,694 L813,651 L705,506 L873,506 L873,237 L957,237 L957,182 L689,182 Q769,25 961,-48 Q926,-63 899,-95 Q714,-6 642,161 Q585,-9 365,-98 Q343,-73 304,-55 Q533,21 588,182 M72,544 L72,601 L191,601 L191,795 L253,795 L253,601 L350,601 L350,544 L253,544 L253,369 L338,414 L368,372 L253,305 L253,18 Q253,-87 161,-87 Q130,-87 88,-82 Q85,-39 73,-17 Q117,-24 147,-24 Q193,-26 191,24 L191,270 L84,209 L44,258 L191,335 L191,544 M812,453 L672,453 Q674,331 666,251 Q665,243 663,237 L812,237 M474,453 L474,237 L602,237 Q605,252 607,269 Q615,363 613,453 M525,642 Q475,559 421,506 L635,506 L736,642"/> 
            <glyph glyph-name="接" unicode="&#x63A5;" horiz-adv-x="946" d=" M357,226 L357,280 L528,280 Q568,351 586,394 L643,370 Q624,325 598,280 L946,280 L946,226 L822,226 Q791,122 724,55 Q820,14 906,-31 L889,-93 Q760,-26 674,11 Q570,-65 375,-97 Q361,-63 332,-40 Q504,-20 607,41 Q510,82 421,117 Q459,165 495,226 M62,539 L62,594 L188,594 L188,795 L249,795 L249,594 L355,594 L355,539 L249,539 L249,359 L339,407 L370,365 L249,294 L249,14 Q251,-85 148,-83 Q114,-83 82,-78 Q81,-49 65,-16 Q67,-16 72,-17 Q119,-21 138,-21 Q190,-22 188,25 L188,259 L80,196 L37,246 L188,326 L188,539 M371,409 L371,465 L560,465 Q509,533 461,585 L518,610 Q569,556 608,499 L567,465 L671,465 Q740,550 782,621 L838,596 Q798,530 744,465 L929,465 L929,409 M390,629 L390,685 L652,685 Q598,733 546,768 L596,806 Q657,760 711,710 L689,685 L907,685 L907,629 M510,141 Q556,126 662,81 Q724,138 758,226 L566,226 Q544,190 510,141"/> 
            <glyph glyph-name="提" unicode="&#x63D0;" horiz-adv-x="954" d=" M440,422 L440,750 L865,750 L865,422 M368,289 L368,344 L928,344 L928,289 L682,289 L682,178 L891,178 L891,126 L682,126 L682,-4 Q685,-4 689,-5 Q731,-11 807,-13 Q889,-15 954,-12 Q940,-41 934,-72 Q771,-73 679,-62 Q530,-42 469,89 Q426,-26 337,-93 Q319,-73 283,-61 Q422,35 448,247 L505,232 Q495,183 490,160 Q535,47 623,12 L623,289 M64,539 L64,595 L196,595 L196,796 L256,796 L256,595 L371,595 L371,539 L256,539 L256,370 L352,419 L384,378 L256,307 L256,17 Q258,-89 159,-86 Q138,-86 94,-80 Q90,-45 76,-18 Q79,-18 86,-19 Q133,-26 151,-26 Q198,-29 196,25 L196,275 L85,214 L40,261 L196,339 L196,539 M502,472 L803,472 L803,562 L502,562 M502,698 L502,610 L803,610 L803,698"/> 
            <glyph glyph-name="方" unicode="&#x65B9;" horiz-adv-x="932" d=" M68,581 L68,644 L516,644 Q448,715 380,770 L440,805 Q530,729 579,675 L544,644 L932,644 L932,581 L403,581 Q402,521 394,417 L808,417 L788,74 Q782,-77 641,-74 Q596,-74 543,-67 Q540,-33 527,-1 Q584,-11 634,-11 Q719,-12 722,80 L737,357 L388,357 Q358,58 133,-98 Q105,-71 69,-57 Q310,100 327,419 Q328,435 329,470 Q333,541 334,581"/> 
            <glyph glyph-name="无" unicode="&#x65E0;" horiz-adv-x="934" d=" M166,665 L166,723 L843,723 L843,665 L526,665 Q524,565 513,442 L912,442 L912,382 L505,382 Q449,43 129,-91 Q105,-64 68,-43 Q378,75 438,382 L98,382 L98,442 L446,442 Q455,551 459,665 M664,-67 Q533,-71 537,55 L537,343 L603,343 L603,64 Q600,-8 672,-5 L791,-5 Q853,-7 867,55 Q874,89 880,123 Q903,94 934,80 Q929,53 922,27 Q900,-68 794,-67"/> 
            <glyph glyph-name="时" unicode="&#x65F6;" horiz-adv-x="950" d=" M110,-32 L110,720 L414,720 L414,-10 L352,-10 L352,59 L171,59 L171,-32 M457,527 L457,587 L753,587 L753,793 L819,793 L819,587 L950,587 L950,527 L819,527 L819,34 Q818,-83 694,-83 Q661,-83 609,-75 Q608,-43 592,-10 Q642,-18 684,-19 Q756,-22 753,50 L753,527 M171,364 L171,118 L352,118 L352,364 M171,663 L171,420 L352,420 L352,663 M613,193 Q557,293 485,391 L542,415 Q594,345 662,229"/> 
            <glyph glyph-name="智" unicode="&#x667A;" horiz-adv-x="893" d=" M211,-96 L211,309 L803,309 L803,-96 L740,-96 L740,-42 L274,-42 L274,-96 M569,385 L569,713 L893,713 L893,385 M140,575 Q121,592 86,602 Q168,689 204,800 L255,776 Q253,771 249,761 Q242,741 229,712 L505,712 L505,659 L358,659 Q356,601 348,553 L530,553 L530,500 L335,500 Q334,498 334,495 Q331,485 329,481 Q442,430 527,374 L498,322 Q424,373 305,434 Q257,355 110,290 Q91,316 57,332 Q233,395 273,500 L65,500 L65,553 L287,553 Q296,602 297,659 L201,659 Q175,616 140,575 M274,111 L274,10 L740,10 L740,111 M274,257 L274,159 L740,159 L740,257 M628,439 L833,439 L833,659 L628,659"/> 
            <glyph glyph-name="机" unicode="&#x673A;" horiz-adv-x="973" d=" M377,-95 Q348,-70 313,-62 Q487,82 483,372 Q485,457 485,558 Q485,657 482,739 L800,739 L800,48 Q798,-6 845,-4 L860,-4 Q895,-7 906,47 Q916,87 922,151 Q941,130 973,114 Q969,58 960,23 Q940,-71 864,-67 L836,-67 Q733,-70 736,41 L736,679 L549,679 Q551,507 547,374 Q547,51 377,-95 M216,-96 L216,388 Q164,236 90,146 Q66,167 33,176 Q153,311 207,527 L67,527 L67,585 L216,585 L216,795 L279,795 L279,585 L415,585 L415,527 L279,527 L279,412 L313,426 Q378,354 419,289 L378,252 Q333,319 279,385 L279,-96"/> 
            <glyph glyph-name="每" unicode="&#x6BCF;" horiz-adv-x="949" d=" M54,272 L54,328 L229,328 L258,567 L804,567 L792,328 L949,328 L949,272 L789,272 L780,87 L889,87 L889,31 L777,31 Q770,-96 663,-92 Q624,-92 584,-88 Q580,-59 561,-29 Q615,-36 650,-36 Q708,-38 713,31 L193,31 L222,272 M287,272 L266,87 L716,87 L724,272 M316,510 L294,328 L727,328 L736,510 M133,463 Q108,484 69,495 Q227,632 298,804 L360,777 Q341,738 325,708 L883,708 L883,650 L290,650 Q224,545 133,463 M550,102 Q482,163 404,221 L452,255 Q511,213 586,146 M561,341 Q501,397 419,458 L465,491 Q536,439 595,386"/> 
            <glyph glyph-name="游" unicode="&#x6E38;" horiz-adv-x="950" d=" M274,574 L274,629 L582,629 L582,574 L397,574 L397,433 L551,433 L539,34 Q536,-65 440,-65 Q419,-65 385,-63 Q382,-27 367,0 Q400,-4 431,-5 Q477,-5 479,47 L490,378 L396,378 Q391,78 273,-91 Q244,-73 211,-68 Q339,88 337,432 L337,574 M581,203 L581,257 L741,257 L741,336 Q797,392 832,447 L628,447 L628,500 L907,500 L907,452 Q863,383 802,315 L802,257 L950,257 L950,203 L802,203 L802,6 Q801,-86 716,-87 Q696,-87 648,-81 Q642,-46 627,-20 Q675,-28 703,-28 Q743,-31 741,14 L741,203 M601,468 Q571,483 539,488 Q645,621 681,797 L736,776 Q720,708 703,662 L938,662 L938,607 L680,607 Q648,532 601,468 M122,-66 L63,-25 Q139,126 183,295 L235,263 Q192,95 122,-66 M201,382 Q119,450 45,490 L92,534 Q161,496 233,437 M230,611 Q159,676 84,722 L130,766 Q198,725 261,665 M437,640 Q400,705 340,765 L401,786 Q449,737 489,675"/> 
            <glyph glyph-name="漂" unicode="&#x6F02;" horiz-adv-x="940" d=" M310,696 L310,748 L931,748 L931,696 L727,696 L727,611 L891,611 L891,406 L342,406 L342,611 L506,611 L506,696 M309,151 L309,203 L932,203 L932,151 L651,151 L651,11 Q649,-90 548,-92 Q528,-92 481,-87 Q481,-56 465,-27 Q509,-33 540,-33 Q591,-34 590,18 L590,151 M384,281 L384,331 L850,331 L850,281 M137,-83 L82,-40 Q159,105 219,285 L269,251 Q209,60 137,-83 M310,-64 Q288,-32 260,-21 Q369,30 468,127 L514,88 Q421,-4 310,-64 M911,-59 Q818,21 715,87 L759,123 Q857,61 940,-9 M219,362 Q142,427 51,483 L95,525 Q173,480 249,417 M252,601 Q161,682 88,727 L134,766 Q203,724 284,653 M835,560 L727,560 L727,456 L835,456 M564,560 L564,456 L671,456 L671,560 M399,456 L506,456 L506,560 L399,560 M564,696 L564,611 L671,611 L671,696"/> 
            <glyph glyph-name="漫" unicode="&#x6F2B;" horiz-adv-x="957" d=" M377,501 L377,751 L839,751 L839,501 M314,261 L314,448 L901,448 L901,261 M919,-95 Q747,-73 623,-14 Q491,-75 304,-100 Q294,-72 263,-47 Q431,-32 559,21 Q470,75 398,155 L345,155 L345,204 L847,204 L847,162 Q780,77 687,22 Q806,-26 957,-38 Q930,-63 919,-95 M140,-87 L81,-46 Q158,99 215,283 L268,249 Q209,55 140,-87 M437,547 L778,547 L778,605 L437,605 M437,705 L437,648 L778,648 L778,705 M764,155 L476,155 Q541,95 623,51 Q709,95 764,155 M259,599 Q186,667 95,726 L142,768 Q216,722 294,653 M212,366 Q133,432 42,486 L88,529 Q166,484 241,423 M547,402 L547,308 L668,308 L668,402 M842,402 L721,402 L721,308 L842,308 M374,308 L493,308 L493,402 L374,402"/> 
            <glyph glyph-name="照" unicode="&#x7167;" horiz-adv-x="939" d=" M137,170 L137,745 L400,745 L400,170 M487,171 L487,420 L862,420 L862,171 M753,468 Q724,468 697,471 Q694,499 681,527 Q714,521 748,521 Q806,519 809,582 L816,689 L654,689 Q636,506 483,439 Q465,463 428,477 Q580,531 594,689 L466,689 L466,742 L878,742 L868,576 Q863,466 753,468 M547,224 L803,224 L803,367 L547,367 M197,225 L340,225 L340,432 L197,432 M197,690 L197,485 L340,485 L340,690 M107,-97 L52,-55 Q121,27 163,129 L217,97 Q172,-14 107,-97 M885,-94 Q837,-3 767,99 L828,121 Q890,40 939,-54 M622,-82 Q591,3 544,91 L607,106 Q653,22 681,-53 M389,-86 Q367,-9 322,93 L384,104 Q414,50 449,-59"/> 
            <glyph glyph-name="片" unicode="&#x7247;" horiz-adv-x="904" d=" M670,-93 L670,245 L259,245 Q239,53 116,-95 Q90,-73 47,-65 Q208,102 199,385 L199,768 L267,768 L267,538 L581,538 L581,796 L649,796 L649,538 L904,538 L904,475 L267,475 L267,384 Q267,345 265,308 L738,308 L738,-93"/> 
            <glyph glyph-name="版" unicode="&#x7248;" horiz-adv-x="968" d=" M294,-85 L294,255 L175,255 Q170,36 96,-94 Q65,-74 35,-69 Q120,66 115,297 L115,745 L176,745 L176,490 L284,490 L284,783 L342,783 L342,490 L413,490 L413,434 L176,434 L176,311 L353,311 L353,2 Q476,152 470,451 L470,712 Q702,718 862,766 L905,713 Q732,667 531,659 L531,483 L883,483 L883,435 Q856,260 758,120 Q840,24 968,-41 Q934,-58 911,-89 Q792,-16 720,71 Q636,-27 514,-96 Q496,-74 460,-54 Q592,13 680,121 Q588,249 557,427 L528,427 Q531,116 400,-44 Q380,-26 353,-18 L353,-85 M821,427 L611,427 Q642,281 718,171 Q802,296 821,427"/> 
            <glyph glyph-name="独" unicode="&#x72EC;" horiz-adv-x="959" d=" M420,246 L420,606 L616,606 L616,794 L679,794 L679,606 L876,606 L876,246 L679,246 L679,30 Q738,37 829,49 Q797,105 762,157 L819,174 Q894,65 959,-60 L911,-100 Q894,-64 860,-3 Q581,-44 384,-66 L356,-5 Q418,-1 616,22 L616,246 M170,-88 Q151,-88 131,-86 Q128,-52 109,-20 Q135,-24 162,-24 Q230,-26 251,24 Q275,72 274,221 Q274,275 271,323 Q202,209 94,136 Q71,162 41,178 Q180,261 262,416 Q253,483 235,534 Q173,476 96,429 Q75,456 43,472 Q133,519 209,593 Q171,666 80,728 L132,766 Q213,706 254,640 Q314,710 344,774 L387,735 Q349,657 283,584 Q336,466 335,221 Q336,41 299,-24 Q266,-90 170,-88 M817,548 L679,548 L679,305 L817,305 M479,305 L616,305 L616,548 L479,548"/> 
            <glyph glyph-name="用" unicode="&#x7528;" horiz-adv-x="849" d=" M469,-58 L469,207 L225,207 Q214,20 133,-98 Q105,-78 66,-70 Q121,6 141,90 Q162,172 162,315 L162,744 L849,744 L849,29 Q849,-85 735,-85 Q706,-85 664,-81 Q660,-47 644,-17 Q694,-23 722,-23 Q785,-25 783,40 L783,207 L533,207 L533,-58 M533,447 L533,265 L783,265 L783,447 M783,686 L533,686 L533,505 L783,505 M228,313 Q228,288 227,265 L469,265 L469,447 L228,447 M228,686 L228,505 L469,505 L469,686"/> 
            <glyph glyph-name="电" unicode="&#x7535;" horiz-adv-x="950" d=" M152,157 L152,648 L451,648 L451,795 L517,795 L517,648 L823,648 L823,157 L517,157 L517,59 Q516,-6 584,-5 L791,-5 Q861,-7 876,60 Q887,100 892,135 Q916,110 950,96 Q942,54 935,33 Q909,-70 803,-67 L575,-67 Q449,-69 451,51 L451,157 M517,216 L758,216 L758,375 L517,375 M758,590 L517,590 L517,430 L758,430 M218,590 L218,430 L451,430 L451,590 M218,216 L451,216 L451,375 L218,375"/> 
            <glyph glyph-name="界" unicode="&#x754C;" horiz-adv-x="968" d=" M180,368 L180,752 L818,752 L818,368 L561,368 Q730,242 968,202 Q940,177 925,142 Q794,172 682,227 L682,-90 L618,-90 L618,230 L677,230 Q575,284 496,355 Q343,206 78,130 Q60,163 33,183 Q289,246 430,368 M193,-101 Q174,-72 139,-53 Q340,14 329,178 L329,230 L394,230 L394,173 Q398,-21 193,-101 M528,423 L753,423 L753,533 L528,533 M244,423 L468,423 L468,533 L244,533 M753,695 L528,695 L528,586 L753,586 M244,695 L244,586 L468,586 L468,695"/> 
            <glyph glyph-name="略" unicode="&#x7565;" horiz-adv-x="967" d=" M922,280 Q780,331 685,399 Q588,323 449,271 Q429,301 408,315 L408,8 L353,8 L353,74 L152,74 L152,-20 L97,-20 L97,721 L408,721 L408,321 Q539,363 636,437 Q585,481 534,545 Q505,506 473,472 Q451,493 418,505 Q536,622 606,800 L661,770 Q646,733 627,697 L880,697 L880,650 Q824,527 732,439 Q831,375 967,337 Q940,316 922,280 M496,-96 L496,263 L867,263 L867,-96 L805,-96 L805,-36 L558,-36 L558,-96 M558,208 L558,19 L805,19 L805,208 M808,641 L598,641 Q594,634 585,620 Q574,602 569,593 Q615,532 682,475 Q765,549 808,641 M278,374 L278,128 L353,128 L353,374 M152,374 L152,128 L227,128 L227,374 M353,667 L278,667 L278,425 L353,425 M152,667 L152,425 L227,425 L227,667"/> 
            <glyph glyph-name="百" unicode="&#x767E;" horiz-adv-x="933" d=" M66,671 L66,732 L933,732 L933,671 L529,671 Q507,584 475,515 L813,515 L813,-96 L746,-96 L746,-22 L251,-22 L251,-96 L184,-96 L184,515 L405,515 Q436,582 460,671 M251,219 L251,37 L746,37 L746,219 M251,455 L251,276 L746,276 L746,455"/> 
            <glyph glyph-name="的" unicode="&#x7684;" horiz-adv-x="911" d=" M120,-82 L120,629 L216,629 Q271,730 290,798 L351,774 Q321,693 286,629 L450,629 L450,-64 L388,-64 L388,15 L182,15 L182,-82 M755,-83 Q716,-83 679,-78 Q676,-42 658,-12 Q705,-21 747,-21 Q830,-23 831,70 L846,578 L614,578 Q566,483 517,422 Q487,438 454,443 Q569,588 630,800 L690,774 Q667,696 640,637 L911,637 L895,60 Q893,-85 755,-83 M182,296 L182,74 L388,74 L388,296 M182,570 L182,352 L388,352 L388,570 M672,181 Q608,282 534,365 L588,393 Q647,332 719,226"/> 
            <glyph glyph-name="相" unicode="&#x76F8;" horiz-adv-x="901" d=" M489,-92 L489,734 L901,734 L901,-91 L836,-91 L836,-7 L553,-7 L553,-92 M75,527 L75,586 L242,586 L242,793 L306,793 L306,586 L441,586 L441,527 L306,527 L306,418 L328,425 Q412,318 444,263 L405,223 Q349,308 306,367 L306,-96 L242,-96 L242,387 Q188,237 107,133 Q80,156 49,164 Q184,333 233,527 M553,224 L553,52 L836,52 L836,224 M553,449 L553,279 L836,279 L836,449 M553,675 L553,506 L836,506 L836,675"/> 
            <glyph glyph-name="省" unicode="&#x7701;" horiz-adv-x="929" d=" M87,316 Q75,344 40,370 Q435,436 696,615 L743,573 Q612,480 429,412 L808,412 L808,-96 L743,-96 L743,-45 L312,-45 L312,-96 L247,-96 L247,353 Q169,331 87,316 M312,93 L312,9 L743,9 L743,93 M312,358 L312,276 L743,276 L743,358 M312,226 L312,143 L743,143 L743,226 M461,532 L461,796 L525,796 L525,532 M891,512 Q781,623 678,697 L729,731 Q844,645 929,564 M157,505 Q127,530 96,538 Q205,619 283,731 L336,699 Q253,586 157,505"/> 
            <glyph glyph-name="种" unicode="&#x79CD;" horiz-adv-x="908" d=" M654,-96 L654,185 L525,185 L525,109 L465,109 L465,600 L654,600 L654,793 L718,793 L718,600 L908,600 L908,109 L847,109 L847,185 L718,185 L718,-96 M74,468 L74,524 L241,524 L241,675 Q174,664 121,661 Q108,691 84,711 Q279,731 399,771 L439,721 Q381,703 304,687 L304,524 L429,524 L429,468 L304,468 L304,369 L332,382 Q399,309 441,239 L401,196 Q357,265 304,332 L304,-96 L241,-96 L241,353 Q185,211 100,109 Q72,128 36,131 Q172,287 228,468 M847,542 L718,542 L718,243 L847,243 M525,542 L525,243 L654,243 L654,542"/> 
            <glyph glyph-name="秒" unicode="&#x79D2;" horiz-adv-x="958" d=" M104,654 Q93,682 71,704 Q250,721 382,763 L424,714 Q374,698 287,680 L287,522 L420,522 L420,467 L287,467 L287,353 L315,368 Q368,313 420,241 L380,195 Q341,253 287,320 L287,-96 L226,-96 L226,346 Q174,213 99,113 Q73,132 35,139 Q161,289 215,467 L66,467 L66,522 L226,522 L226,668 Q156,659 104,654 M418,-98 Q397,-67 366,-45 Q714,53 824,351 L875,311 Q757,18 418,-98 M637,198 L637,792 L700,792 L700,198 M461,282 Q436,296 398,301 Q481,445 511,615 L569,593 Q531,418 461,282 M909,331 Q839,465 746,612 L799,632 Q886,510 958,367"/> 
            <glyph glyph-name="策" unicode="&#x7B56;" horiz-adv-x="961" d=" M908,-60 Q672,17 530,185 L530,-96 L467,-96 L467,181 Q328,20 97,-67 Q77,-41 41,-20 Q310,70 467,254 L467,312 L249,312 L249,133 L186,133 L186,366 L467,366 L467,445 L97,445 L97,499 L467,499 L467,558 L530,558 L530,499 L902,499 L902,445 L530,445 L530,366 L822,366 L822,240 Q822,145 729,145 Q700,146 674,152 Q671,181 657,206 Q699,199 719,199 Q762,197 761,245 L761,312 L530,312 L530,256 Q695,61 961,-2 Q929,-25 908,-60 M111,536 Q86,558 48,566 Q191,670 250,805 L306,780 Q289,745 274,720 L514,720 L514,668 L237,668 Q179,589 111,536 M522,564 Q494,584 462,590 Q567,687 606,803 L662,780 Q661,778 659,772 Q645,737 636,720 L915,720 L915,668 L607,668 Q570,612 522,564 M768,524 Q715,573 652,616 L701,646 Q761,606 803,567 M361,525 Q325,564 264,614 L313,644 Q368,599 400,568"/> 
            <glyph glyph-name="米" unicode="&#x7C73;" horiz-adv-x="950" d=" M100,370 L100,431 L466,431 L466,795 L533,795 L533,431 L901,431 L901,370 L572,370 Q710,151 950,45 Q914,24 890,-12 Q651,117 533,336 L533,-96 L466,-96 L466,336 Q353,119 108,-23 Q78,10 46,27 Q292,149 427,370 M655,481 Q628,507 602,516 Q704,602 786,714 L840,679 Q743,554 655,481 M346,485 Q249,596 164,673 L218,708 Q298,634 386,534"/> 
            <glyph glyph-name="类" unicode="&#x7C7B;" horiz-adv-x="948" d=" M72,164 L72,222 L462,222 Q466,247 468,285 L531,278 Q530,246 525,222 L925,222 L925,164 L541,164 Q661,4 948,-25 Q921,-48 903,-89 Q618,-45 498,133 Q410,-48 95,-98 Q78,-63 49,-43 Q370,-1 443,164 M94,507 L94,565 L467,565 L467,796 L529,796 L529,565 L901,565 L901,507 L529,507 L529,314 L467,314 L467,472 Q344,345 162,276 Q142,302 105,321 Q297,385 429,507 M850,278 Q693,376 536,443 L579,484 Q710,430 870,335 M644,600 Q627,622 600,637 Q691,695 770,770 L816,734 Q742,664 644,600 M369,604 Q311,649 186,724 L229,764 Q319,711 395,655"/> 
            <glyph glyph-name="系" unicode="&#x7CFB;" horiz-adv-x="926" d=" M133,205 L108,266 Q176,279 223,305 Q318,353 473,442 L233,432 Q194,431 158,423 L135,479 Q184,489 219,512 Q328,578 434,660 Q280,651 128,651 Q118,685 94,712 Q540,713 854,757 L890,702 Q717,678 536,667 Q431,577 285,489 L567,497 Q681,568 747,616 L801,574 Q576,416 285,276 L748,297 Q689,354 647,391 L700,421 Q801,336 909,218 L869,171 Q827,217 800,244 L550,232 L550,6 Q550,-96 443,-96 Q416,-96 370,-90 Q368,-57 351,-26 Q395,-34 433,-35 Q485,-36 485,18 L485,229 L227,217 Q179,216 133,205 M124,-68 Q104,-46 68,-29 Q216,57 309,170 L361,134 Q261,13 124,-68 M892,-64 Q770,43 638,132 L688,170 Q813,87 926,-10"/> 
            <glyph glyph-name="绝" unicode="&#x7EDD;" horiz-adv-x="947" d=" M442,459 Q421,480 382,484 Q509,630 563,803 L621,778 Q620,775 618,768 Q598,715 586,689 L842,689 L842,644 L750,493 L893,493 L893,210 L512,210 L512,46 Q510,-11 572,-9 L798,-9 Q862,-12 877,58 Q885,87 892,126 Q916,97 947,82 Q946,75 942,58 Q938,41 936,34 Q913,-72 809,-68 L564,-68 Q445,-72 449,43 L449,467 Q447,465 445,462.5 Q443,460 442,459 M106,190 L76,246 Q111,259 138,291 Q189,347 245,425 L141,419 Q111,417 83,406 L54,458 Q81,467 104,501 Q205,642 272,793 L330,768 Q245,596 156,474 L284,481 Q309,517 352,589 Q359,600 362,605 L415,577 Q312,409 194,268 L369,292 L383,238 L169,207 Q135,202 106,190 M560,634 Q518,554 470,493 L679,493 L766,634 M512,437 L512,265 L643,265 L643,437 M830,437 L699,437 L699,265 L830,265 M88,-53 L51,4 L380,120 L406,72"/> 
            <glyph glyph-name="统" unicode="&#x7EDF;" horiz-adv-x="963" d=" M369,599 L369,657 L645,657 Q596,715 529,776 L588,804 Q660,739 700,691 L666,657 L929,657 L929,599 L629,599 L654,588 Q571,470 484,377 L788,392 Q755,428 688,495 L738,523 Q831,438 928,324 L891,277 Q883,286 867,305 Q847,329 836,340 L748,335 L748,41 Q747,-10 793,-9 L841,-9 Q885,-13 899,46 Q900,49 901,56 Q909,93 912,114 Q931,89 963,78 Q955,36 950,17 Q927,-71 846,-68 L788,-68 Q686,-68 686,34 L686,331 L581,326 Q580,282 578,243 Q568,9 353,-95 Q334,-68 300,-48 Q510,38 517,250 Q519,284 520,323 L475,321 Q437,319 399,308 L370,365 Q405,374 427,400 Q505,481 586,599 M97,186 L68,243 Q106,257 132,287 Q182,343 240,428 L131,421 Q100,418 72,407 L42,460 Q74,473 94,506 Q207,661 264,795 L323,768 Q239,604 145,476 L278,484 Q283,492 293,509 Q327,563 342,591 L396,565 Q266,352 187,264 L357,292 L373,238 L160,203 Q137,199 101,187 Q98,186 97,186 M83,-44 L43,12 L370,129 L396,82"/> 
            <glyph glyph-name="续" unicode="&#x7EED;" horiz-adv-x="943" d=" M438,634 L438,688 L629,688 L629,796 L692,796 L692,688 L889,688 L889,634 L692,634 L692,537 L924,537 L924,487 L874,335 Q847,343 815,343 L862,482 L401,482 L401,537 L629,537 L629,634 M104,182 L74,235 Q106,248 125,274 Q176,342 237,436 L142,430 Q110,428 80,420 L53,469 Q81,479 100,510 Q199,674 247,795 L307,770 Q244,633 154,487 L274,493 Q321,568 342,608 L394,580 Q286,393 183,257 L352,279 L368,227 L169,199 Q130,193 104,182 M379,136 L379,190 L645,190 Q655,225 660,281 Q665,351 665,452 L726,449 Q726,342 721,275 Q716,218 709,190 L943,190 L943,136 L693,136 Q640,-21 428,-97 Q412,-70 378,-48 Q578,20 626,136 M83,-45 L48,14 L359,106 L385,56 M905,-98 Q781,4 686,60 L726,101 Q836,38 932,-39 M554,212 Q475,268 402,302 L433,340 Q507,306 575,258 M603,314 Q531,368 461,403 L492,440 Q561,408 624,360"/> 
            <glyph glyph-name="网" unicode="&#x7F51;" horiz-adv-x="880" d=" M118,-92 L118,741 L880,741 L880,33 Q879,-86 770,-87 Q728,-87 690,-81 Q687,-43 672,-16 Q723,-22 758,-22 Q817,-23 816,42 L816,682 L182,682 L182,-92 M532,61 Q506,79 475,83 Q546,175 617,327 Q554,445 489,544 L543,560 Q585,500 645,392 Q696,518 716,603 L771,581 Q739,462 679,329 Q738,226 785,121 L736,81 Q706,151 649,265 Q594,149 532,61 M253,71 Q230,86 194,90 Q264,186 333,341 Q271,446 199,547 L254,568 Q318,476 361,406 Q402,512 423,603 L478,584 Q444,458 397,345 Q450,257 500,166 L454,124 Q414,201 369,281 Q310,157 253,71"/> 
            <glyph glyph-name="而" unicode="&#x800C;" horiz-adv-x="925" d=" M73,668 L73,726 L925,726 L925,668 L536,668 Q504,583 457,507 L857,507 L857,24 Q859,-89 748,-87 Q712,-87 682,-84 Q681,-51 666,-18 Q704,-23 741,-24 Q794,-26 792,31 L792,448 L637,448 L637,-21 L574,-21 L574,448 L423,448 L423,-21 L360,-21 L360,448 L208,448 L208,-92 L143,-92 L143,507 L383,507 Q426,575 465,668"/> 
            <glyph glyph-name="耗" unicode="&#x8017;" horiz-adv-x="946" d=" M478,428 L472,485 L620,496 L620,652 Q551,645 476,639 Q468,668 447,695 Q712,712 862,759 L902,704 Q778,672 683,661 L683,501 L889,518 L895,460 L683,444 L683,279 L942,297 L946,239 L683,221 L683,45 Q680,-9 739,-6 L803,-6 Q851,-9 867,42 Q868,48 873,65 Q880,96 883,108 Q905,82 936,69 Q929,41 918,7 Q893,-68 809,-67 L730,-67 Q617,-70 620,39 L620,217 L445,205 L439,263 L620,275 L620,439 M91,618 L91,670 L241,670 L241,796 L301,796 L301,670 L433,670 L433,618 L301,618 L301,522 L413,522 L413,471 L301,471 L301,374 L445,374 L445,321 L301,321 L301,233 L333,251 Q397,188 446,123 L406,82 Q365,141 301,209 L301,-95 L241,-95 L241,225 Q182,99 92,4 Q70,24 35,35 Q168,165 230,321 L63,321 L63,374 L241,374 L241,471 L113,471 L113,522 L241,522 L241,618"/> 
            <glyph glyph-name="能" unicode="&#x80FD;" horiz-adv-x="945" d=" M132,-96 L132,431 L477,431 L477,10 Q480,-93 382,-90 Q363,-90 329,-88 Q327,-56 311,-28 Q342,-32 372,-32 Q418,-33 417,17 L417,89 L192,89 L192,-96 M680,-69 Q575,-71 577,33 L577,351 L639,351 L639,182 Q783,239 866,297 L909,251 Q800,182 639,125 L639,37 Q640,-11 687,-12 L813,-12 Q863,-14 877,42 Q885,68 892,103 Q916,71 945,61 Q942,47 936,24 Q933,15 932,11 Q909,-71 819,-69 M684,390 Q574,386 578,492 L578,793 L640,793 L640,620 Q780,676 868,742 L910,696 Q789,617 640,562 L640,496 Q641,448 688,447 L806,447 Q852,444 867,500 Q868,506 872,519 Q879,544 882,558 Q904,529 935,516 Q930,495 921,469 Q899,386 814,390 M497,474 Q487,490 476,509 L162,495 Q121,493 83,485 L59,544 Q99,555 133,594 Q213,681 287,803 L344,772 Q263,646 167,549 L438,559 Q407,599 347,668 L397,695 Q491,593 545,511 M192,234 L192,138 L417,138 L417,234 M192,378 L192,283 L417,283 L417,378"/> 
            <glyph glyph-name="自" unicode="&#x81EA;" horiz-adv-x="818" d=" M182,-96 L182,675 L385,675 Q425,739 449,809 L522,791 Q489,717 464,675 L818,675 L818,-96 L752,-96 L752,-27 L249,-27 L249,-96 M249,189 L249,32 L752,32 L752,189 M249,403 L249,247 L752,247 L752,403 M249,617 L249,461 L752,461 L752,617"/> 
            <glyph glyph-name="航" unicode="&#x822A;" horiz-adv-x="958" d=" M54,309 L54,363 L134,363 L134,680 L220,680 Q252,742 269,798 L327,776 Q312,730 286,680 L416,680 L416,18 Q417,-81 318,-80 Q296,-80 266,-76 Q263,-42 249,-13 Q276,-18 312,-19 Q359,-20 358,32 L358,309 L193,309 L193,273 Q195,41 106,-96 Q77,-76 43,-72 Q137,54 134,284 L134,309 M468,-98 Q445,-77 409,-68 Q480,3 503,72 Q529,140 528,266 Q528,366 526,460 L792,460 L792,34 Q791,-10 831,-9 L846,-9 Q889,-12 897,40 Q904,77 909,114 Q933,85 958,77 Q953,41 947,15 Q933,-73 847,-67 L822,-67 Q726,-71 730,29 L730,403 L588,403 Q589,370 589,261 Q594,18 468,-98 M193,626 L193,363 L358,363 L358,626 M450,574 L450,632 L688,632 Q632,707 565,769 L622,799 Q688,736 737,671 L692,632 L910,632 L910,574 M286,87 Q257,160 214,235 L261,251 Q299,187 329,116 M281,411 Q257,471 212,549 L259,563 Q295,503 324,437"/> 
            <glyph glyph-name="计" unicode="&#x8BA1;" horiz-adv-x="950" d=" M383,404 L383,465 L631,465 L631,793 L698,793 L698,465 L950,465 L950,404 L698,404 L698,-96 L631,-96 L631,404 M208,-72 L168,-18 Q194,8 192,69 L192,399 L50,399 L50,459 L257,459 L257,61 L382,176 L422,135 L247,-29 Q235,-39 211,-68 Q209,-71 208,-72 M316,563 Q238,641 136,720 L189,760 Q290,679 352,617"/> 
            <glyph glyph-name="设" unicode="&#x8BBE;" horiz-adv-x="956" d=" M908,-91 Q740,-41 623,45 Q506,-44 337,-97 Q319,-67 284,-47 Q456,3 573,86 Q464,184 404,318 L363,318 L363,376 L840,376 L840,324 Q782,187 673,87 Q787,10 956,-32 Q924,-56 908,-91 M370,403 Q352,426 313,441 Q449,517 447,620 Q452,682 447,753 L775,753 L770,570 Q766,494 832,498 Q877,498 942,507 Q930,478 930,444 Q875,439 826,439 Q701,435 708,561 L712,695 L512,695 Q512,642 509,606 Q503,484 370,403 M183,-62 L147,-9 Q181,23 179,72 L179,416 L49,416 L49,474 L242,474 L242,68 L356,157 L395,114 L228,-18 Q207,-33 183,-62 M770,318 L472,318 Q532,202 623,126 Q718,208 770,318 M261,575 Q179,664 103,724 L156,762 Q228,705 304,626"/> 
            <glyph glyph-name="调" unicode="&#x8C03;" horiz-adv-x="898" d=" M314,-95 Q286,-74 251,-69 Q376,96 371,342 L371,747 L895,747 L895,27 Q898,-92 791,-89 Q759,-89 723,-85 Q720,-52 703,-24 Q745,-30 781,-31 Q835,-32 834,31 L834,693 L431,693 L431,338 Q434,76 314,-95 M498,73 L498,303 L764,303 L764,73 M175,-10 L133,39 Q163,71 161,117 L161,438 L49,438 L49,495 L222,495 L222,121 L305,208 L345,169 L214,37 Q193,17 175,-10 M480,525 L480,577 L604,577 L604,667 L661,667 L661,577 L785,577 L785,525 L661,525 L661,434 L798,434 L798,382 L468,382 L468,434 L604,434 L604,525 M554,124 L708,124 L708,252 L554,252 M240,584 Q161,670 84,733 L142,767 Q224,697 283,631"/> 
            <glyph glyph-name="费" unicode="&#x8D39;" horiz-adv-x="903" d=" M575,303 L575,422 L393,422 Q357,339 230,281 L799,281 L799,47 L733,47 L733,227 L270,227 L270,45 L204,45 L204,270 Q163,254 113,237 Q91,268 59,282 Q269,338 322,422 L127,422 L145,590 L355,590 L355,661 L128,661 L128,710 L355,710 L355,796 L417,796 L417,710 L575,710 L575,796 L637,796 L637,710 L856,710 L856,542 L637,542 L637,471 L903,471 L896,383 Q892,302 811,303 Q775,303 747,306 Q745,334 729,360 Q766,355 798,355 Q834,354 836,388 L839,422 L637,422 L637,303 M148,-98 Q138,-64 109,-42 Q415,-29 454,129 Q463,159 464,189 L528,182 Q523,132 515,111 Q466,-78 148,-98 M835,-100 Q653,-9 516,40 L548,88 Q713,29 853,-42 M417,542 Q417,503 409,471 L575,471 L575,542 M417,661 L417,590 L575,590 L575,661 M795,661 L637,661 L637,590 L795,590 M345,471 Q354,503 355,542 L200,542 L192,471"/> 
            <glyph glyph-name="身" unicode="&#x8EAB;" horiz-adv-x="942" d=" M91,212 L91,268 L220,268 L220,700 L373,700 Q415,756 436,803 L501,782 Q474,732 450,700 L773,700 L773,311 Q837,368 888,436 L942,405 Q867,308 773,232 L773,18 Q772,-87 653,-88 Q612,-88 579,-85 Q574,-46 561,-21 Q612,-28 645,-28 Q708,-27 709,28 L709,183 Q475,22 106,-63 Q86,-29 53,-6 Q414,64 643,212 M283,360 L283,268 L709,268 L709,360 M283,644 L283,554 L709,554 L709,644 M283,502 L283,412 L709,412 L709,502"/> 
            <glyph glyph-name="连" unicode="&#x8FDE;" horiz-adv-x="956" d=" M327,605 L327,662 L505,662 Q537,733 561,802 L623,784 Q606,735 573,662 L907,662 L907,605 L546,605 Q494,493 441,413 L603,413 L603,543 L667,543 L667,413 L881,413 L881,357 L667,357 L667,235 L924,235 L924,178 L667,178 L667,39 L603,39 L603,178 L310,178 L310,235 L603,235 L603,357 L364,357 L364,411 Q426,500 477,605 M102,-74 L53,-29 Q114,41 183,101 L183,407 L51,407 L51,466 L247,466 L247,99 Q363,2 573,1 Q669,-2 774,0 Q876,3 956,10 Q935,-29 932,-62 Q855,-64 753,-65 Q654,-65 583,-63 Q337,-58 214,49 Q154,-7 102,-74 M243,567 Q174,655 98,726 L155,759 Q236,683 289,612"/> 
            <glyph glyph-name="速" unicode="&#x901F;" horiz-adv-x="951" d=" M329,636 L329,692 L577,692 L577,795 L641,795 L641,692 L896,692 L896,636 L641,636 L641,541 L851,541 L851,308 L641,308 L641,255 L670,278 Q785,208 901,117 L871,62 Q787,132 641,231 L641,26 L577,26 L577,259 Q497,144 370,66 Q342,91 313,102 Q461,186 550,308 L368,308 L368,541 L577,541 L577,636 M112,-75 L63,-29 Q137,51 190,100 L190,410 L65,410 L65,468 L252,468 L252,100 Q361,0 589,-2 Q679,-5 780,-3 Q879,-1 951,6 Q935,-26 931,-64 Q865,-66 766,-67 Q670,-67 600,-65 Q341,-66 224,48 Q175,0 112,-75 M791,488 L641,488 L641,361 L791,361 M428,361 L577,361 L577,488 L428,488 M253,567 Q178,655 100,720 L150,757 Q231,689 293,615"/> 
            <glyph glyph-name="醒" unicode="&#x9192;" horiz-adv-x="947" d=" M505,399 L505,746 L885,746 L885,399 L731,399 L731,298 L903,298 L903,245 L731,245 L731,146 L882,146 L882,94 L731,94 L731,-12 L947,-12 L947,-66 L456,-66 L456,-12 L672,-12 L672,94 L517,94 L517,146 L672,146 L672,245 L542,245 Q516,197 483,158 Q462,172 427,178 L427,-83 L374,-83 L374,-12 L139,-12 L139,-85 L86,-85 L86,566 L184,566 L184,683 L60,683 L60,738 L448,738 L448,683 L329,683 L329,566 L427,566 L427,179 Q510,267 548,396 L599,374 Q589,345 569,298 L672,298 L672,399 M348,282 Q279,281 280,356 L280,513 L233,513 Q234,345 170,257 Q156,268 139,272 L139,201 L374,201 L374,282 M563,694 L563,597 L826,597 L826,694 M139,150 L139,41 L374,41 L374,150 M563,452 L826,452 L826,548 L563,548 M374,513 L329,513 L329,365 Q328,329 355,330 L374,330 M139,513 L139,302 Q185,365 184,513 M233,683 L233,566 L280,566 L280,683"/> 
            <glyph glyph-name="量" unicode="&#x91CF;" horiz-adv-x="935" d=" M191,137 L191,374 L807,374 L807,137 L530,137 L530,82 L848,82 L848,38 L530,38 L530,-18 L918,-18 L918,-67 L82,-67 L82,-18 L467,-18 L467,38 L151,38 L151,82 L467,82 L467,137 M191,519 L191,750 L807,750 L807,519 M65,422 L65,473 L935,473 L935,422 M255,706 L255,656 L744,656 L744,706 M255,564 L744,564 L744,613 L255,613 M530,181 L744,181 L744,235 L530,235 M255,181 L467,181 L467,235 L255,235 M744,330 L530,330 L530,277 L744,277 M255,330 L255,277 L467,277 L467,330"/> 
            <glyph glyph-name="针" unicode="&#x9488;" horiz-adv-x="950" d=" M474,404 L474,465 L675,465 L675,793 L742,793 L742,465 L950,465 L950,404 L742,404 L742,-96 L675,-96 L675,404 M142,422 L142,477 L419,477 L419,422 L295,422 L295,295 L452,295 L452,238 L295,238 L295,31 L427,118 L464,74 L279,-55 Q256,-71 240,-91 L204,-38 Q234,-14 232,38 L232,238 L86,238 L86,295 L232,295 L232,422 M90,418 Q68,437 34,446 Q174,595 239,800 L298,771 Q279,715 252,659 L455,659 L455,602 L223,602 Q161,492 90,418"/> 
            <glyph glyph-name="长" unicode="&#x957F;" horiz-adv-x="963" d=" M65,366 L65,427 L268,427 L268,796 L336,796 L336,427 L919,427 L919,366 L522,366 Q674,135 963,43 Q926,19 900,-18 Q601,105 450,366 L336,366 L336,20 L521,123 L561,72 L328,-61 Q299,-76 276,-102 L238,-44 Q270,-14 268,43 L268,366 M480,475 Q455,499 424,511 Q602,630 742,791 L798,754 Q659,597 480,475"/> 
            <glyph glyph-name="降" unicode="&#x964D;" horiz-adv-x="960" d=" M917,329 Q763,372 657,442 Q544,369 401,325 Q387,355 357,374 Q492,410 606,478 Q545,526 495,586 Q463,550 423,516 Q404,536 369,548 Q492,646 560,800 L612,766 Q596,732 576,700 L862,700 L862,655 Q804,554 708,479 Q818,414 960,385 Q927,361 917,329 M96,-96 L96,744 L374,744 L374,693 L265,448 Q363,341 363,231 Q361,106 243,103 Q224,103 190,109 Q189,143 173,174 Q211,164 236,164 Q302,162 301,235 Q302,339 199,441 L307,687 L158,687 L158,-96 M418,237 L418,291 L629,291 L629,370 L693,370 L693,291 L881,291 L881,237 L693,237 L693,101 L909,101 L909,46 L693,46 L693,-96 L629,-96 L629,46 L385,46 L428,207 L488,196 L463,101 L629,101 L629,237 M787,646 L542,646 Q540,643 535.5,636.5 Q531,630 528,626 Q588,560 656,513 Q743,577 787,646"/> 
            <glyph glyph-name="雅" unicode="&#x96C5;" horiz-adv-x="949" d=" M458,430 Q437,457 410,466 Q528,606 576,804 L635,780 Q609,696 571,613 L931,613 L931,557 L775,557 L775,423 L915,423 L915,368 L775,368 L775,232 L915,232 L915,177 L775,177 L775,33 L949,33 L949,-23 L570,-23 L570,-96 L508,-96 L508,500 Q485,463 458,430 M73,673 L73,727 L458,727 L458,673 L363,673 L363,411 L465,411 L465,356 L363,356 L363,20 Q362,-79 266,-80 Q227,-80 197,-75 Q196,-43 177,-13 Q213,-20 257,-20 Q304,-22 302,27 L302,327 Q235,140 85,0 Q62,25 29,32 Q186,170 256,356 L89,356 L139,614 L197,600 L159,411 L302,411 L302,673 M570,177 L570,33 L714,33 L714,177 M570,368 L570,232 L714,232 L714,368 M570,557 L570,423 L714,423 L714,557 M781,624 Q730,693 663,752 L716,780 Q775,728 824,666"/> 
            <glyph glyph-name="面" unicode="&#x9762;" horiz-adv-x="938" d=" M63,678 L63,736 L938,736 L938,678 L507,678 Q477,601 446,548 L860,548 L860,-95 L796,-95 L796,-22 L203,-22 L203,-95 L139,-95 L139,548 L376,548 Q419,623 439,678 M796,491 L649,491 L649,34 L796,34 M203,491 L203,34 L349,34 L349,491 M409,154 L409,34 L589,34 L589,154 M409,323 L409,204 L589,204 L589,323 M409,491 L409,373 L589,373 L589,491"/> 
            <glyph glyph-name="题" unicode="&#x9898;" horiz-adv-x="954" d=" M76,310 L76,364 L493,364 L493,310 L345,310 L345,202 L476,202 L476,149 L345,149 L345,28 Q411,2 543,-4 Q633,-8 747.5,-6 Q862,-4 954,3 Q935,-26 928,-67 Q865,-68 693,-67 Q625,-67 598,-67 Q276,-75 180,81 Q154,-7 95,-87 Q69,-71 34,-65 Q145,62 147,264 L203,255 Q202,199 194,149 Q235,89 287,55 L287,310 M133,431 L133,753 L449,753 L449,431 M504,685 L504,739 L918,739 L918,685 L732,685 Q717,622 694,566 L889,566 L889,220 L830,220 L830,513 L590,513 L590,208 L532,208 L532,566 L633,566 Q661,632 672,685 M519,30 Q500,59 470,75 Q592,123 636,184 Q683,245 682,359 L682,465 L738,465 L738,356 Q738,252 705,186 L752,219 Q843,150 918,78 L883,28 Q783,125 705,184 Q660,93 519,30 M191,481 L392,481 L392,569 L191,569 M191,702 L191,616 L392,616 L392,702"/> 
            <glyph glyph-name="馆" unicode="&#x9986;" horiz-adv-x="925" d=" M817,-92 L817,-26 L521,-26 L521,-92 L458,-92 L458,518 L845,518 L845,296 L521,296 L521,211 L878,211 L878,-92 M863,493 L863,619 L452,619 L452,494 L389,494 L389,674 L658,674 Q633,703 583,753 Q566,771 558,779 L615,803 Q619,799 626,792 Q686,735 716,698 L680,674 L925,674 L925,493 M309,442 Q282,452 251,449 L299,585 L182,585 Q140,478 83,397 Q60,421 29,428 Q143,599 182,798 L243,779 Q221,687 203,640 L362,640 L362,592 M187,-83 L149,-31 Q178,-5 176,43 L176,428 L237,428 L237,32 L349,110 L386,66 L228,-46 Q208,-59 187,-83 M817,157 L521,157 L521,28 L817,28 M521,464 L521,350 L783,350 L783,464"/> 
            <glyph glyph-name="齐" unicode="&#x9F50;" horiz-adv-x="967" d=" M923,259 Q668,295 502,386 Q343,290 93,245 Q77,278 43,305 Q277,335 442,423 Q356,479 259,578 L306,612 L96,612 L96,670 L504,670 Q476,713 406,785 L467,813 Q521,760 565,694 L519,670 L903,670 L903,612 L727,612 Q659,500 561,426 Q718,349 967,325 Q935,296 923,259 M500,459 Q595,524 653,612 L309,612 Q399,517 500,459 M196,-101 Q169,-74 133,-62 Q303,17 313,158 Q316,180 317,206.5 Q318,233 318,289 L382,289 Q382,196 378,155 Q360,-20 196,-101 M639,-89 L639,289 L705,289 L705,-89"/> 
            <glyph glyph-name="，" unicode="&#xFF0C;" horiz-adv-x="294" d=" M294,72 L294,31 Q293,-50 246,-128 L208,-128 Q249,-57 249,0 Q248,18 228,19 L207,19 L207,110 L251,110 Q292,108 294,72"/> 
        </font>
</defs>
</svg>
