<?xml version="1.0" standalone="no"?>
<!DOCTYPE svg PUBLIC "-//W3C//DTD SVG 1.1//EN" "http://www.w3.org/Graphics/SVG/1.1/DTD/svg11.dtd" >
<svg xmlns="http://www.w3.org/2000/svg">
    <defs>
        <font id="">
            <font-face font-family=""
                       units-per-em="1000"
                       ascent="882"
                       descent="-241"
                       bbox="-61 -241 1003 882"
                    />
            <missing-glyph horiz-adv-x="0" />
            
            <glyph glyph-name="-" unicode="&#x2D;" horiz-adv-x="480" d=" M480,395 L480,325 L35,325 L35,395"/> 
            <glyph glyph-name="." unicode="&#x2E;" horiz-adv-x="140" d=" M140,0 L61,0 L61,92 L140,92"/> 
            <glyph glyph-name="/" unicode="&#x2F;" horiz-adv-x="345" d=" M63,-10 L2,-10 L285,726 L345,726"/> 
            <glyph glyph-name="0" unicode="&#x30;" horiz-adv-x="488" d=" M266,726 Q485,720 488,359 Q485,-4 266,-10 Q48,-6 44,359 Q48,719 266,726 M266,654 Q124,651 123,359 Q123,63 266,62 Q409,63 409,359 Q408,651 266,654"/> 
            <glyph glyph-name="1" unicode="&#x31;" horiz-adv-x="306" d=" M228,0 L228,621 L91,558 L91,635 L269,715 L306,715 L306,0"/> 
            <glyph glyph-name="2" unicode="&#x32;" horiz-adv-x="461" d=" M461,0 L48,0 L48,48 Q75,87 196,233 Q247,295 279,334 Q374,447 371,538 Q370,652 242,653 Q169,653 90,603 L71,672 Q159,727 258,726 Q444,720 450,537 Q452,424 336,290 Q312,260 261,201 Q190,119 155,73 L461,73"/> 
            <glyph glyph-name="3" unicode="&#x33;" horiz-adv-x="454" d=" M51,35 L70,100 Q154,62 214,62 Q371,65 374,217 Q367,338 224,344 L165,344 L165,417 L224,417 Q355,421 359,543 Q358,652 235,653 Q174,653 97,617 L79,685 Q166,726 244,726 Q432,719 439,553 Q438,434 318,380 Q450,337 454,209 Q442,0 228,-10 Q141,-10 51,35"/> 
            <glyph glyph-name="4" unicode="&#x34;" horiz-adv-x="496" d=" M415,0 L337,0 L337,170 L28,170 L28,235 L329,715 L415,715 L415,241 L496,241 L496,170 L415,170 M105,241 L337,241 L337,613"/> 
            <glyph glyph-name="5" unicode="&#x35;" horiz-adv-x="463" d=" M442,715 L442,642 L177,642 L168,450 Q199,459 237,459 Q455,454 463,225 Q454,-2 212,-10 Q135,-10 62,26 L80,94 Q157,60 215,62 Q377,70 384,225 Q382,384 213,386 Q147,386 92,371 L111,715"/> 
            <glyph glyph-name="6" unicode="&#x36;" horiz-adv-x="490" d=" M428,726 L439,656 Q171,655 130,368 Q195,457 299,457 Q479,445 490,233 Q477,2 276,-10 Q58,-4 53,292 Q66,706 428,726 M276,61 Q408,68 414,233 Q413,384 273,385 Q176,378 133,283 Q135,65 276,61"/> 
            <glyph glyph-name="7" unicode="&#x37;" horiz-adv-x="468" d=" M59,715 L468,715 L468,667 L212,0 L122,0 L387,642 L59,642"/> 
            <glyph glyph-name="A" unicode="&#x41;" horiz-adv-x="580" d=" M499,0 L434,216 L165,216 L100,0 L19,0 L257,714 L342,714 L580,0 M300,651 L187,288 L414,288"/> 
            <glyph glyph-name="C" unicode="&#x43;" horiz-adv-x="557" d=" M538,87 L557,17 Q478,-10 401,-10 Q59,11 42,359 Q59,707 395,725 Q486,725 549,699 L531,629 Q471,652 398,653 Q129,644 120,359 Q130,73 405,63 Q468,63 538,87"/> 
            <glyph glyph-name="E" unicode="&#x45;" horiz-adv-x="460" d=" M390,413 L390,340 L161,340 L161,73 L460,73 L460,0 L81,0 L81,714 L449,714 L449,641 L161,641 L161,413"/> 
            <glyph glyph-name="G" unicode="&#x47;" horiz-adv-x="602" d=" M602,371 L602,35 Q515,-8 411,-10 Q58,7 42,361 Q59,711 411,726 Q507,725 581,697 Q578,682 569,657 Q563,637 560,627 Q493,654 411,654 Q125,649 120,361 Q126,69 411,62 Q471,62 526,85 L526,300 L405,300 L405,371"/> 
            <glyph glyph-name="I" unicode="&#x49;" horiz-adv-x="176" d=" M98,716 L176,716 L176,0 L98,0"/> 
            <glyph glyph-name="L" unicode="&#x4C;" horiz-adv-x="455" d=" M81,0 L81,714 L161,714 L161,73 L455,73 L455,0"/> 
            <glyph glyph-name="N" unicode="&#x4E;" horiz-adv-x="592" d=" M161,0 L81,0 L81,714 L168,714 L512,130 L512,714 L592,714 L592,0 L505,0 L161,585"/> 
            <glyph glyph-name="P" unicode="&#x50;" horiz-adv-x="509" d=" M81,0 L81,699 Q181,725 252,725 Q508,724 509,511 Q507,294 252,292 Q203,292 160,302 L160,0 M160,642 L160,373 Q200,363 252,364 Q428,365 429.5,511 Q431,657 252,655 Q198,655 160,642"/> 
            <glyph glyph-name="S" unicode="&#x53;" horiz-adv-x="447" d=" M37,32 L56,99 Q141,61 206,62 Q363,62 363,188 Q366,283 217,346 Q43,427 46,551 Q54,719 263,725 Q349,724 414,696 L396,627 Q338,654 261,653 Q130,649 124,554 Q115,477 258,417 Q447,337 442,192 Q433,-3 212,-10 Q129,-10 37,32"/> 
            <glyph glyph-name="T" unicode="&#x54;" horiz-adv-x="520" d=" M230,0 L230,641 L18,641 L18,714 L520,714 L520,641 L309,641 L309,0"/> 
            <glyph glyph-name="V" unicode="&#x56;" horiz-adv-x="574" d=" M337,0 L256,0 L19,714 L106,714 L296,77 L487,714 L574,714"/> 
            <glyph glyph-name="[" unicode="&#x5B;" horiz-adv-x="272" d=" M272,798 L272,733 L150,733 L150,-61 L272,-61 L272,-126 L82,-126 L82,798"/> 
            <glyph glyph-name="]" unicode="&#x5D;" horiz-adv-x="210" d=" M21,798 L210,798 L210,-126 L21,-126 L21,-61 L142,-61 L142,733 L21,733"/> 
            <glyph glyph-name="d" unicode="&#x64;" horiz-adv-x="498" d=" M414,746 L491,746 L491,164 Q492,79 498,0 L430,0 L418,64 Q359,-14 251,-10 Q48,6 37,250 Q49,494 251,510 Q361,511 414,437 M414,197 L414,302 Q405,430 268,438 Q115,436 115,250 Q116,62 268,60 Q403,69 414,197"/> 
            <glyph glyph-name="e" unicode="&#x65;" horiz-adv-x="473" d=" M473,228 L118,228 Q130,55 292,55 Q361,56 429,83 L447,21 Q378,-10 292,-10 Q47,-3 41,250 Q55,495 262,510 Q463,497 473,273 M117,293 L398,293 Q393,436 261,441 Q134,435 117,293"/> 
            <glyph glyph-name="n" unicode="&#x6E;" horiz-adv-x="486" d=" M75,0 L75,334 Q76,413 68,498 L135,498 L148,429 Q200,507 314,508 Q479,499 486,285 L486,0 L409,0 L409,285 Q411,442 288,439 Q161,430 151,285 L151,0"/> 
            <glyph glyph-name="o" unicode="&#x6F;" horiz-adv-x="500" d=" M269,510 Q489,498 500,250 Q490,1 269,-10 Q47,1 37,250 Q47,499 269,510 M269,439 Q121,434 115,250 Q120,66 269,60 Q417,64 423,250 Q417,433 269,439"/> 
            <glyph glyph-name="r" unicode="&#x72;" horiz-adv-x="315" d=" M76,0 L76,334 Q76,390 67,498 L135,498 L147,423 Q186,508 265,508 Q294,508 315,498 L298,427 Q278,433 257,435 Q157,432 152,296 L152,0"/> 
            <glyph glyph-name="t" unicode="&#x74;" horiz-adv-x="304" d=" M99,626 L176,650 L176,498 L304,498 L304,430 L176,430 L176,146 Q174,57 249,60 Q263,60 291,64 Q295,65 297,65 L302,-1 Q272,-10 226,-10 Q99,-11 99,134 L99,430 L23,430 L23,498 L99,498"/> 
            <glyph glyph-name="x" unicode="&#x78;" horiz-adv-x="450" d=" M33,498 L116,498 L237,297 L358,498 L441,498 L280,256 L450,0 L362,0 L237,210 L113,0 L24,0 L195,256"/> 
            <glyph glyph-name="万" unicode="&#x4E07;" horiz-adv-x="927" d=" M72,646 L72,718 L927,718 L927,646 L419,646 Q417,526 412,458 L814,458 L797,83 Q791,-72 643,-72 Q615,-72 549,-67 Q545,-67 543,-67 Q542,-25 524,14 Q584,3 632,3 Q715,3 718,93 L730,388 L405,388 Q375,71 145,-95 Q116,-64 69,-49 Q318,116 332,449 Q338,557 339,646"/> 
            <glyph glyph-name="上" unicode="&#x4E0A;" horiz-adv-x="938" d=" M61,-58 L61,16 L427,16 L427,795 L509,795 L509,491 L853,491 L853,420 L509,420 L509,16 L938,16 L938,-58"/> 
            <glyph glyph-name="位" unicode="&#x4F4D;" horiz-adv-x="945" d=" M189,-96 L189,450 Q138,377 95,338 Q74,367 31,385 Q194,551 274,799 L344,766 Q317,677 263,572 L263,-96 M316,-53 L316,15 L623,15 Q696,219 751,469 L830,445 Q766,195 700,15 L945,15 L945,-53 M356,530 L356,598 L913,598 L913,530 M499,88 Q461,271 402,435 L478,444 Q532,299 573,113 M628,600 Q588,687 525,784 L603,802 Q655,729 698,636"/> 
            <glyph glyph-name="体" unicode="&#x4F53;" horiz-adv-x="970" d=" M181,-96 L181,450 Q130,383 85,339 Q59,370 22,386 Q196,559 279,797 L346,762 Q307,656 253,562 L253,115 Q450,284 534,533 L322,533 L322,601 L569,601 L569,795 L642,795 L642,601 L907,601 L907,533 L675,533 Q770,264 970,126 Q940,106 910,62 Q722,211 639,480 L642,463 L642,143 L808,143 L808,78 L642,78 L642,-96 L569,-96 L569,78 L405,78 L405,143 L569,143 L569,463 L571,477 Q495,224 304,56 Q282,84 253,102 L253,-96"/> 
            <glyph glyph-name="便" unicode="&#x4FBF;" horiz-adv-x="964" d=" M356,673 L356,736 L919,736 L919,673 L671,673 L671,579 L885,579 L885,211 L662,211 Q646,116 598,55 Q641,37 692,28 Q803,6 964,1 Q940,-28 928,-72 Q784,-63 679,-41 Q603,-25 546,4 Q474,-52 338,-96 Q322,-62 282,-39 Q412,-5 481,42 Q416,89 360,160 L406,208 Q465,128 533,86 Q577,135 590,211 L384,211 L384,579 L600,579 L600,673 M188,-96 L188,451 Q142,381 100,334 Q75,367 36,377 Q203,564 270,804 L337,773 Q310,681 260,576 L260,-96 M668,271 L818,271 L818,368 L671,368 L671,334 Q671,300 668,271 M454,271 L598,271 Q600,297 600,326 L600,368 L454,368 M818,520 L671,520 L671,423 L818,423 M454,520 L454,423 L600,423 L600,520"/> 
            <glyph glyph-name="信" unicode="&#x4FE1;" horiz-adv-x="945" d=" M380,-96 L380,228 L894,228 L894,-96 L819,-96 L819,-39 L455,-39 L455,-96 M190,-96 L190,452 Q148,386 99,328 Q73,359 35,375 Q191,552 264,799 L334,766 Q302,669 265,589 L265,-96 M328,611 L328,678 L614,678 Q585,732 551,777 L627,797 Q662,749 699,678 L945,678 L945,611 M455,161 L455,29 L819,29 L819,161 M382,315 L382,378 L894,378 L894,315 M382,463 L382,526 L894,526 L894,463"/> 
            <glyph glyph-name="像" unicode="&#x50CF;" horiz-adv-x="966" d=" M380,379 L380,536 Q367,525 352,516 Q327,542 292,556 Q447,652 523,799 L583,768 Q568,740 549,714 L811,714 L811,668 L726,580 L886,580 L886,379 L595,379 Q588,372 580,364 Q638,322 672,258 Q779,308 845,366 L900,327 Q847,285 791,255 Q840,100 966,26 Q927,11 897,-17 Q791,68 737,227 Q715,216 692,207 Q709,155 710,80 Q714,-95 553,-90 Q530,-90 502,-88 Q500,-49 480,-21 Q517,-28 544,-28 Q644,-35 639,82 Q639,108 636,130 Q512,13 329,-50 Q315,-23 277,0 Q477,57 622,193 Q612,221 597,247 Q500,157 333,97 Q316,126 280,144 Q454,190 566,290 Q551,308 532,324 Q453,264 337,224 Q336,225 335,227 Q315,258 287,272 Q424,311 508,379 M181,-96 L181,443 Q134,370 97,327 Q73,355 32,369 Q183,538 262,799 L330,768 Q303,677 250,569 L250,-96 M508,659 Q475,618 433,580 L638,580 L714,659 M818,525 L674,525 Q663,476 637,434 L818,434 M449,434 L562,434 Q594,476 609,525 L449,525"/> 
            <glyph glyph-name="元" unicode="&#x5143;" horiz-adv-x="950" d=" M695,-66 Q570,-70 573,67 L573,396 L417,396 Q429,23 113,-93 Q88,-59 47,-34 Q216,32 275,123 Q337,212 339,396 L77,396 L77,466 L923,466 L923,396 L649,396 L649,77 Q647,6 712,8 L799,8 Q860,6 871,70 Q878,103 883,142 Q912,113 950,100 Q944,71 939,40 Q920,-70 805,-66 M180,660 L180,728 L819,728 L819,660"/> 
            <glyph glyph-name="光" unicode="&#x5149;" horiz-adv-x="936" d=" M69,364 L69,431 L467,431 L467,796 L544,796 L544,431 L929,431 L929,364 L650,364 L650,62 Q649,4 706,5 L787,5 Q841,4 856,64 Q861,82 870,135 Q872,141 872,144 Q903,115 936,102 Q931,74 921,36 Q896,-69 795,-67 L698,-67 Q574,-68 575,48 L575,364 L416,364 L416,360 Q427,24 105,-97 Q90,-69 47,-37 Q354,54 341,360 L341,364 M683,477 Q656,500 617,510 Q721,619 792,741 L858,708 Q785,587 683,477 M327,481 Q248,595 146,704 L213,733 Q299,641 380,532"/> 
            <glyph glyph-name="全" unicode="&#x5168;" horiz-adv-x="973" d=" M227,386 L227,444 Q160,404 92,375 Q71,406 32,432 Q342,564 488,812 L554,777 Q545,761 535,745 Q712,540 973,456 Q933,422 914,387 Q656,496 498,690 Q398,554 240,453 L771,453 L771,386 L536,386 L536,232 L788,232 L788,167 L536,167 L536,2 L893,2 L893,-66 L106,-66 L106,2 L461,2 L461,167 L210,167 L210,232 L461,232 L461,386"/> 
            <glyph glyph-name="准" unicode="&#x51C6;" horiz-adv-x="943" d=" M384,-95 L384,461 Q352,412 304,359 Q278,388 236,401 Q390,562 469,794 L537,762 Q517,701 476,617 L924,617 L924,553 L726,553 L726,424 L904,424 L904,363 L726,363 L726,233 L905,233 L905,171 L726,171 L726,37 L943,37 L943,-26 L460,-26 L460,-95 M117,-23 L52,33 Q140,166 210,367 L269,323 Q209,139 117,-23 M460,171 L460,37 L651,37 L651,171 M460,363 L460,233 L651,233 L651,363 M460,553 L460,424 L651,424 L651,553 M206,458 Q143,581 62,694 L133,725 Q205,628 266,507 M704,621 Q661,685 592,758 L658,786 Q719,723 759,666"/> 
            <glyph glyph-name="动" unicode="&#x52A8;" horiz-adv-x="914" d=" M480,-102 Q452,-76 410,-67 Q628,108 629,519 Q629,528 630,540 L503,540 L503,606 L632,606 Q633,700 633,686 Q633,707 633,732 Q633,754 633,796 L707,791 Q707,700 704,606 L914,606 L899,73 Q896,-74 766,-72 Q747,-72 703,-68 Q691,-67 686,-67 Q683,-31 667,8 Q716,0 755,0 Q825,-3 826,78 L840,540 L702,540 Q702,535 701,525 Q701,517 701,513 Q691,79 480,-102 M448,31 Q445,38 439,54 Q431,74 427,85 L192,40 Q140,30 108,12 L65,76 Q102,96 126,149 Q178,256 226,404 L55,404 L55,470 L505,470 L505,404 L302,404 Q246,236 187,112 L403,146 Q357,257 324,323 L390,334 Q454,210 508,70 M113,641 L113,707 L470,707 L470,641"/> 
            <glyph glyph-name="千" unicode="&#x5343;" horiz-adv-x="941" d=" M172,632 Q166,668 135,706 Q512,712 802,766 L847,696 Q719,674 540,656 L540,403 L941,403 L941,330 L540,330 L540,-96 L459,-96 L459,330 L57,330 L57,403 L459,403 L459,648 Q300,635 172,632"/> 
            <glyph glyph-name="升" unicode="&#x5347;" horiz-adv-x="944" d=" M55,345 L55,417 L305,417 L305,646 Q211,632 146,627 Q133,662 102,694 Q362,709 507,764 L557,703 Q493,680 382,660 L382,417 L632,417 L632,790 L710,790 L710,417 L944,417 L944,345 L710,345 L710,-93 L632,-93 L632,345 L381,345 Q377,62 161,-99 Q131,-69 85,-53 Q304,98 304,345"/> 
            <glyph glyph-name="卡" unicode="&#x5361;" horiz-adv-x="928" d=" M72,373 L72,442 L427,442 L427,796 L505,796 L505,656 L826,656 L826,587 L505,587 L505,442 L928,442 L928,373 M426,-96 L426,340 L506,340 L506,-96 M812,31 Q654,137 509,211 L563,264 Q734,174 847,99"/> 
            <glyph glyph-name="双" unicode="&#x53CC;" horiz-adv-x="974" d=" M902,-75 Q772,10 683,130 Q587,6 428,-84 Q402,-55 357,-34 Q529,52 638,199 Q537,370 500,614 L567,637 Q601,417 683,268 Q777,428 799,643 L470,643 L470,715 L877,715 L877,652 Q847,380 729,195 Q824,63 974,-18 Q933,-39 902,-75 M427,89 Q376,157 318,226 Q238,69 107,-41 Q74,-15 30,-1 Q175,110 264,289 Q174,395 93,475 L152,518 Q212,459 296,366 Q346,496 355,635 L97,635 L97,706 L431,706 L431,642 Q416,456 352,302 Q439,199 476,149"/> 
            <glyph glyph-name="器" unicode="&#x5668;" horiz-adv-x="964" d=" M145,-96 L145,202 Q140,201 129,200 Q100,197 84,196 Q70,227 39,254 Q294,270 398,367 L87,367 L87,427 L442,427 Q460,469 465,512 L535,494 Q528,459 517,427 L702,427 Q668,453 635,474 L692,502 Q750,465 787,428 L785,427 L911,427 L911,367 L586,367 Q729,268 964,270 Q935,235 925,199 Q890,202 858,206 L858,-96 L790,-96 L790,-42 L603,-42 L603,-96 L535,-96 L535,208 L845,208 Q623,239 507,367 L487,367 Q407,246 179,208 L464,208 L464,-96 L396,-96 L396,-42 L212,-42 L212,-96 M538,503 L538,753 L856,753 L856,503 M146,503 L146,753 L462,753 L462,503 M603,150 L603,16 L790,16 L790,150 M212,150 L212,16 L396,16 L396,150 M606,561 L788,561 L788,695 L606,695 M214,561 L394,561 L394,695 L214,695"/> 
            <glyph glyph-name="图" unicode="&#x56FE;" horiz-adv-x="884" d=" M114,-96 L114,749 L884,749 L884,-96 L811,-96 L811,-43 L187,-43 L187,-96 M759,273 Q604,310 505,370 Q388,301 241,265 Q220,299 191,316 Q330,342 448,407 Q400,440 355,490 Q322,455 283,425 Q261,447 228,462 Q356,561 409,683 L187,683 L187,22 L811,22 L811,683 L411,683 L466,650 Q455,626 440,604 L694,604 L694,555 Q646,472 560,408 Q670,352 805,333 Q777,310 759,273 M620,29 Q484,92 327,134 L364,184 Q516,143 636,86 M610,545 L400,545 Q399,544 398,542 Q397,540 393,535 Q442,482 503,440 Q571,487 610,545 M608,168 Q524,215 400,259 L437,304 Q543,268 623,223"/> 
            <glyph glyph-name="境" unicode="&#x5883;" horiz-adv-x="956" d=" M394,138 L394,429 L865,429 L865,138 L742,138 L742,41 Q741,-9 786,-8 L832,-8 Q874,-10 887,42 Q894,68 901,109 Q922,80 956,68 Q952,38 944,8 Q924,-75 838,-72 L776,-72 Q672,-72 672,31 L672,138 L580,138 Q561,-36 324,-99 Q302,-64 271,-44 Q499,10 512,138 M57,511 L57,574 L164,574 L164,796 L232,796 L232,574 L324,574 L324,511 L232,511 L232,196 L331,234 L361,180 L71,57 L36,123 L164,171 L164,511 M342,488 L342,547 L510,547 Q506,553 498,565 Q470,605 453,625 L516,646 Q551,607 589,547 L683,547 Q725,601 751,650 L817,623 Q791,583 764,547 L938,547 L938,488 M374,652 L374,710 L600,710 Q570,751 541,782 L613,801 Q616,797 624,787 Q666,736 681,710 L900,710 L900,652 M466,192 L793,192 L793,260 L466,260 M466,374 L466,307 L793,307 L793,374"/> 
            <glyph glyph-name="处" unicode="&#x5904;" horiz-adv-x="956" d=" M109,-98 Q83,-65 45,-44 Q195,38 281,146 Q219,234 180,367 Q144,296 102,234 Q74,262 41,276 Q194,499 244,793 L318,770 Q303,695 280,618 L496,618 L496,558 Q478,309 374,146 Q471,44 641,26 Q768,10 956,11 Q936,-27 930,-68 Q772,-66 650,-50 Q442,-25 331,87 Q247,-18 109,-98 M884,283 Q786,430 691,536 L691,78 L615,78 L615,795 L691,795 L691,549 L748,576 Q843,473 937,337 M257,550 Q241,505 223,461 Q261,299 324,207 Q413,351 425,550"/> 
            <glyph glyph-name="对" unicode="&#x5BF9;" horiz-adv-x="951" d=" M433,24 Q374,107 305,196 Q230,59 110,-49 Q80,-23 36,-9 Q172,95 254,259 Q171,362 83,460 L143,498 Q208,428 287,332 Q341,467 352,624 L84,624 L84,694 L426,694 L426,631 Q408,427 340,269 Q415,174 480,83 M456,522 L456,592 L748,592 L748,793 L823,793 L823,592 L951,592 L951,522 L823,522 L823,34 Q821,-87 696,-88 Q656,-88 610,-83 Q610,-41 589,-6 Q648,-14 682,-15 Q750,-17 748,51 L748,522 M608,190 Q546,297 478,389 L544,417 Q607,333 665,234"/> 
            <glyph glyph-name="屏" unicode="&#x5C4F;" horiz-adv-x="937" d=" M107,-88 Q72,-64 31,-57 Q163,109 158,390 L158,754 L870,754 L870,532 L235,532 L235,389 Q237,93 107,-88 M284,325 L284,389 L476,389 Q423,442 366,491 L430,527 Q492,479 538,424 L501,389 L616,389 Q691,469 731,527 L800,495 Q752,437 706,389 L893,389 L893,325 L749,325 L749,198 L937,198 L937,134 L749,134 L749,-94 L675,-94 L675,134 L495,134 Q475,-7 319,-98 Q291,-71 249,-57 Q398,19 421,134 L243,134 L243,198 L428,198 Q429,209 429,219 L429,325 M235,689 L235,595 L796,595 L796,689 M502,218 Q502,214 501.5,207.5 Q501,201 501,198 L675,198 L675,325 L502,325"/> 
            <glyph glyph-name="度" unicode="&#x5EA6;" horiz-adv-x="953" d=" M102,-97 Q67,-74 29,-65 Q148,93 143,364 L143,701 L513,701 Q475,753 444,787 L525,805 Q575,748 606,701 L910,701 L910,637 L755,637 L755,542 L901,542 L901,479 L755,479 L755,329 L385,329 L385,479 L219,479 L219,363 Q222,77 102,-97 M911,-91 Q710,-62 574,4 Q435,-66 234,-98 Q223,-65 187,-35 Q371,-10 500,45 Q397,112 333,205 L279,205 L279,268 L822,268 L822,212 Q755,112 648,44 Q772,-6 953,-22 Q923,-54 911,-91 M727,205 L417,205 Q485,128 572,80 Q668,134 727,205 M458,637 L458,542 L682,542 L682,637 M458,389 L682,389 L682,479 L458,479 M219,637 L219,542 L385,542 L385,637"/> 
            <glyph glyph-name="形" unicode="&#x5F62;" horiz-adv-x="954" d=" M90,663 L90,729 L572,729 L572,663 L475,663 L475,400 L588,400 L588,333 L475,333 L475,-89 L405,-89 L405,333 L262,333 Q268,69 121,-94 Q91,-69 48,-57 Q197,89 191,333 L68,333 L68,400 L191,400 L191,663 M262,663 L262,400 L405,400 L405,663 M589,-96 Q567,-69 523,-43 Q749,55 892,246 L954,205 Q813,8 589,-96 M619,488 Q593,514 557,532 Q729,645 831,776 L893,731 Q785,596 619,488 M632,222 Q606,250 570,269 Q739,362 856,501 L915,460 Q817,336 632,222"/> 
            <glyph glyph-name="影" unicode="&#x5F71;" horiz-adv-x="953" d=" M126,493 L126,755 L544,755 L544,493 L343,493 Q366,463 386,432 L618,432 L618,374 L50,374 L50,432 L304,432 Q286,458 268,480 L319,493 M129,144 L129,325 L542,325 L542,144 L381,144 L381,10 Q386,-93 282,-91 Q262,-91 224,-87 Q221,-42 207,-20 Q236,-26 270,-27 Q312,-29 310,18 L310,144 M595,-98 Q569,-64 532,-44 Q763,55 890,230 L953,188 Q820,9 595,-98 M635,497 Q612,525 573,546 Q741,642 847,779 L910,736 Q785,589 635,497 M635,222 Q614,253 577,274 Q748,360 857,493 L918,449 Q805,313 635,222 M197,194 L473,194 L473,275 L197,275 M195,545 L476,545 L476,601 L195,601 M195,703 L195,648 L476,648 L476,703 M114,-58 Q86,-37 44,-25 Q134,45 182,122 L246,93 Q192,8 114,-58 M530,-23 Q481,41 427,91 L490,122 Q545,70 584,20"/> 
            <glyph glyph-name="待" unicode="&#x5F85;" horiz-adv-x="943" d=" M398,604 L398,668 L604,668 L604,796 L679,796 L679,668 L888,668 L888,604 L679,604 L679,477 L943,477 L943,413 L359,413 L359,477 L604,477 L604,604 M375,228 L375,293 L729,293 L729,384 L805,384 L805,293 L930,293 L930,228 L805,228 L805,26 Q805,-90 686,-90 Q639,-90 606,-84 Q603,-44 584,-9 Q627,-18 672,-18 Q729,-18 729,38 L729,228 M199,-96 L199,296 Q148,242 100,204 Q78,230 35,249 Q198,372 298,555 L355,510 Q316,443 272,382 L272,-96 M120,494 Q90,520 52,531 Q200,646 280,792 L336,747 Q250,601 120,494 M547,27 Q482,103 413,163 L473,200 Q553,130 597,76"/> 
            <glyph glyph-name="快" unicode="&#x5FEB;" horiz-adv-x="955" d=" M353,269 L353,334 L570,334 Q570,335 570.5,337.5 Q571,340 571,342 Q574,421 574,564 L403,564 L403,628 L575,628 L575,797 L648,790 Q648,760 648,705 Q648,653 647,628 L854,628 L854,334 L935,334 L935,269 L653,269 Q737,63 955,-27 Q917,-47 888,-88 Q693,16 615,203 Q567,13 365,-97 Q334,-63 299,-47 Q519,54 562,269 M201,-95 L201,796 L273,796 L273,-95 M647,564 Q645,424 642,334 L782,334 L782,564 M105,297 L38,329 Q87,453 99,587 L163,570 Q144,394 105,297 M363,396 Q326,501 284,584 L345,600 Q389,516 419,431"/> 
            <glyph glyph-name="态" unicode="&#x6001;" horiz-adv-x="952" d=" M104,594 L104,660 L426,660 Q442,723 445,802 L521,793 Q512,718 500,660 L896,660 L896,594 L594,594 Q697,421 952,361 Q915,334 892,293 Q620,381 517,594 L480,594 Q398,391 110,283 Q91,315 46,343 Q319,426 401,594 M427,-67 Q310,-68 311,43 L311,228 L384,228 L384,50 Q383,-2 436,-1 L612,-1 Q668,-3 683,51 Q692,77 702,121 Q732,85 762,74 Q751,29 741,6 Q717,-70 621,-67 M117,-33 L61,21 Q139,114 189,227 L244,184 Q196,68 117,-33 M893,4 Q808,112 719,198 L779,231 Q868,151 940,59 M563,113 Q507,176 422,251 L478,286 Q549,231 606,168 M544,301 Q485,363 412,422 L468,459 Q538,408 585,355"/> 
            <glyph glyph-name="持" unicode="&#x6301;" horiz-adv-x="943" d=" M68,529 L68,594 L197,594 L197,794 L270,794 L270,594 L374,594 L374,529 L270,529 L270,352 L355,393 L391,343 L270,278 L270,19 Q269,-87 166,-88 Q130,-88 95,-83 Q93,-47 78,-10 Q122,-18 152,-18 Q198,-19 197,28 L197,240 L88,182 L40,240 L197,317 L197,529 M406,604 L406,668 L607,668 L607,796 L681,796 L681,668 L890,668 L890,604 L681,604 L681,477 L943,477 L943,413 L369,413 L369,477 L607,477 L607,604 M388,228 L388,292 L730,292 L730,385 L805,385 L805,292 L930,292 L930,228 L805,228 L805,26 Q805,-90 687,-90 Q644,-90 610,-85 Q605,-42 588,-10 Q632,-18 672,-18 Q730,-18 730,38 L730,228 M552,27 Q491,99 420,162 L480,198 Q558,132 603,76"/> 
            <glyph glyph-name="支" unicode="&#x652F;" horiz-adv-x="951" d=" M77,589 L77,659 L459,659 L459,795 L537,795 L537,659 L917,659 L917,589 L537,589 L537,443 L794,443 L794,380 Q716,222 569,112 Q728,19 951,-18 Q913,-45 894,-88 Q661,-36 502,65 Q335,-39 103,-97 Q84,-61 46,-33 Q275,18 435,112 Q313,205 212,363 L238,376 L161,376 L161,443 L459,443 L459,589 M707,376 L291,376 Q374,246 502,154 Q637,252 707,376"/> 
            <glyph glyph-name="整" unicode="&#x6574;" horiz-adv-x="944" d=" M77,676 L77,729 L278,729 L278,796 L345,796 L345,729 L541,729 L541,676 L345,676 L345,621 L507,621 L507,537 Q599,652 637,799 L701,780 Q700,777 698,772 Q682,721 672,697 L917,697 L917,637 L850,637 Q828,509 766,427 Q834,373 944,339 Q912,320 887,281 Q793,321 722,378 Q662,323 572,280 Q547,309 515,326 Q619,372 673,424 Q627,475 595,548 Q593,545 590,541 Q578,523 560,500 Q534,518 507,523 L507,451 L345,451 L345,407 L368,435 Q443,401 512,357 L490,301 Q424,346 345,385 L345,284 L278,284 L278,406 Q206,326 100,273 Q80,297 45,314 Q166,364 250,451 L116,451 L116,621 L278,621 L278,676 M154,198 L154,256 L852,256 L852,198 L553,198 L553,122 L802,122 L802,70 L553,70 L553,-9 L930,-9 L930,-67 L67,-67 L67,-9 L235,-9 L235,136 L308,136 L308,-9 L479,-9 L479,198 M646,637 Q637,619 632,610 Q664,531 717,472 Q766,540 784,637 M178,500 L278,500 L278,572 L178,572 M445,572 L345,572 L345,500 L445,500"/> 
            <glyph glyph-name="新" unicode="&#x65B0;" horiz-adv-x="948" d=" M765,-95 L765,405 L640,405 L640,342 Q643,64 535,-88 Q506,-70 460,-64 Q571,80 569,331 L569,699 Q759,713 870,757 L917,694 Q805,658 640,640 L640,469 L948,469 L948,405 L836,405 L836,-95 M61,404 L61,467 L326,467 Q389,557 411,618 L477,596 Q448,531 403,467 L534,467 L534,404 L350,404 L350,308 L517,308 L517,246 L350,246 L350,21 Q353,-80 247,-77 Q221,-77 190,-72 Q189,-36 174,-3 Q211,-10 236,-10 Q280,-11 279,36 L279,246 L91,246 L91,308 L279,308 L279,404 M94,627 L94,690 L299,690 Q269,736 233,778 L305,798 Q352,744 380,693 L374,690 L525,690 L525,627 M115,-11 Q84,9 46,13 Q128,105 164,203 L226,180 Q183,73 115,-11 M461,39 Q421,113 376,177 L433,199 Q485,132 514,73 M220,473 Q185,538 148,589 L214,610 Q250,561 281,501"/> 
            <glyph glyph-name="方" unicode="&#x65B9;" horiz-adv-x="930" d=" M70,574 L70,646 L505,646 Q452,707 382,769 L455,806 Q541,727 580,678 L538,646 L930,646 L930,574 L409,574 Q407,496 401,419 L812,419 L793,78 Q786,-77 642,-75 Q595,-75 542,-68 Q539,-31 524,8 Q594,-2 631,-2 Q712,-2 716,87 L730,350 L395,350 Q363,57 144,-98 Q113,-69 69,-51 Q306,104 323,420 Q329,508 329,574"/> 
            <glyph glyph-name="旗" unicode="&#x65D7;" horiz-adv-x="944" d=" M442,472 L442,529 L510,529 L510,596 L578,596 L578,529 L768,529 L768,595 L835,595 L835,529 L907,529 L907,472 L835,472 L835,140 L944,140 L944,80 L415,80 L415,140 L510,140 L510,472 M64,573 L64,638 L410,638 L410,599 Q498,694 535,804 L601,778 Q586,739 567,701 L934,701 L934,639 L529,639 Q493,583 447,538 Q417,561 379,569 L384,573 L225,573 L225,454 L384,454 L378,43 Q378,-66 280,-66 Q261,-66 235,-63 Q231,-21 217,13 Q250,8 271,8 Q313,7 312,58 L317,390 L224,390 Q222,88 105,-88 Q76,-66 41,-55 Q161,120 158,455 L158,573 M466,-98 Q437,-68 407,-51 Q517,6 584,75 L641,33 Q565,-44 466,-98 M578,217 L578,140 L768,140 L768,217 M578,344 L578,269 L768,269 L768,344 M578,472 L578,396 L768,396 L768,472 M899,-99 Q816,-33 716,31 L767,75 Q880,4 933,-38 M254,644 Q211,720 167,772 L238,796 Q281,743 319,676"/> 
            <glyph glyph-name="无" unicode="&#x65E0;" horiz-adv-x="936" d=" M164,660 L164,728 L845,728 L845,660 L531,660 Q526,529 519,449 L911,449 L911,379 L510,379 Q455,44 134,-93 Q109,-62 65,-36 Q372,82 431,379 L98,379 L98,449 L440,449 Q449,533 453,660 M665,-67 Q528,-71 532,60 L532,339 L609,339 L609,72 Q605,0 675,4 L785,4 Q845,2 859,65 Q865,86 872,130 Q873,133 873,135 Q901,102 936,87 Q931,58 922,31 Q900,-68 790,-67"/> 
            <glyph glyph-name="明" unicode="&#x660E;" horiz-adv-x="881" d=" M440,-97 Q409,-70 367,-58 Q459,31 488,121 Q520,209 519,384 L519,752 L881,752 L881,36 Q881,-84 767,-84 Q729,-84 694,-80 Q691,-41 674,-3 Q725,-11 754,-11 Q810,-13 809,50 L809,218 L583,218 Q569,31 440,-97 M110,31 L110,743 L416,743 L416,59 L345,59 L345,120 L181,120 L181,31 M591,385 Q591,331 588,283 L809,283 L809,452 L591,452 M591,685 L591,518 L809,518 L809,685 M181,677 L181,464 L345,464 L345,677 M181,399 L181,185 L345,185 L345,399"/> 
            <glyph glyph-name="春" unicode="&#x6625;" horiz-adv-x="977" d=" M138,646 L138,709 L444,709 Q449,751 452,800 L528,790 Q527,779 525,758 Q522,724 520,709 L857,709 L857,646 L510,646 Q502,607 494,577 L807,577 L807,519 L476,519 Q463,482 445,449 L919,449 L919,386 L669,386 Q814,260 977,221 Q944,195 919,157 Q835,188 758,236 L758,-95 L684,-95 L684,-41 L314,-41 L314,-95 L240,-95 L240,224 Q183,185 91,144 Q71,171 27,194 Q219,268 318,386 L75,386 L75,449 L362,449 Q376,471 397,519 L185,519 L185,577 L418,577 Q426,607 434,646 M314,105 L314,18 L684,18 L684,105 M314,246 L314,160 L684,160 L684,246 M409,386 Q379,342 342,306 L665,306 Q625,338 584,386"/> 
            <glyph glyph-name="更" unicode="&#x66F4;" horiz-adv-x="948" d=" M92,682 L92,748 L912,748 L912,682 L547,682 L547,599 L836,599 L836,230 L539,230 Q525,125 474,58 Q539,34 632,21 Q717,10 802,5 Q885,1 948,4 Q921,-30 913,-77 Q738,-67 617,-48 Q509,-32 421,7 Q324,-66 100,-101 Q80,-63 46,-36 Q254,-8 344,45 Q259,96 186,174 L236,215 Q309,139 401,90 Q451,138 463,230 L180,230 L180,599 L470,599 L470,682 M255,295 L469,295 Q470,314 470,358 L470,384 L255,384 M545,295 L761,295 L761,384 L547,384 L547,357 Q547,334 545,295 M255,534 L255,447 L470,447 L470,534 M761,534 L547,534 L547,447 L761,447"/> 
            <glyph glyph-name="机" unicode="&#x673A;" horiz-adv-x="974" d=" M385,-96 Q356,-69 312,-57 Q484,88 480,377 Q482,464 481,561 Q480,658 477,740 L803,740 L803,53 Q801,3 844,5 L857,5 Q891,2 900,54 Q909,96 917,155 Q939,131 974,114 Q968,56 960,25 Q940,-71 862,-67 L832,-67 Q726,-71 730,45 L730,672 L555,672 Q555,565 555,503 Q554,434 553,381 Q553,54 385,-96 M211,-96 L211,367 Q165,228 94,141 Q66,166 31,178 Q149,310 201,523 L67,523 L67,589 L211,589 L211,795 L282,795 L282,589 L415,589 L415,523 L282,523 L282,412 L321,426 Q376,363 423,289 L374,249 Q332,315 282,378 L282,-96"/> 
            <glyph glyph-name="构" unicode="&#x6784;" horiz-adv-x="906" d=" M64,534 L64,600 L217,600 L217,795 L287,795 L287,600 L408,600 L408,534 L287,534 L287,428 L314,438 Q375,361 419,284 L371,243 Q331,313 287,374 L287,-95 L217,-95 L217,395 Q166,239 94,148 Q66,173 30,187 Q155,336 204,534 M753,-85 Q712,-85 671,-78 Q670,-39 654,-5 Q710,-14 746,-14 Q822,-16 822,73 L832,570 L537,570 Q498,493 449,428 Q422,447 380,455 Q494,594 551,799 L618,770 Q598,705 569,637 L906,637 L894,60 Q891,-85 753,-85 M729,88 Q726,94 719,110 Q709,133 703,145 L496,120 Q455,114 423,103 L390,162 Q424,175 447,215 Q519,340 573,483 L634,460 Q577,309 498,182 L673,202 Q626,293 602,328 L662,348 Q728,246 783,129"/> 
            <glyph glyph-name="架" unicode="&#x67B6;" horiz-adv-x="957" d=" M85,215 L85,281 L461,281 L461,369 L537,369 L537,281 L914,281 L914,215 L582,215 Q727,63 957,14 Q922,-10 902,-51 Q664,23 537,187 L537,-96 L461,-96 L461,185 Q334,29 100,-55 Q80,-20 41,1 Q269,72 418,215 M567,400 L567,715 L868,715 L868,400 M129,344 Q102,373 65,385 Q219,479 241,622 L110,622 L110,687 L250,687 Q254,736 254,796 L324,790 Q324,734 320,687 L497,687 L487,498 Q481,379 380,379 Q352,379 314,385 Q314,423 291,455 Q331,446 365,446 Q419,444 420,506 L425,622 L312,622 Q288,451 129,344 M635,465 L801,465 L801,650 L635,650"/> 
            <glyph glyph-name="标" unicode="&#x6807;" horiz-adv-x="951" d=" M68,521 L68,585 L212,585 L212,795 L280,795 L280,585 L393,585 L393,521 L280,521 L280,405 L313,419 Q381,327 409,280 L360,234 Q316,311 280,361 L280,-96 L212,-96 L212,369 Q168,243 95,147 Q66,175 35,185 Q157,328 202,521 M387,412 L387,479 L933,479 L933,412 L694,412 L694,23 Q695,-88 583,-87 Q555,-87 519,-83 Q517,-45 501,-10 Q547,-18 574,-18 Q623,-21 621,35 L621,412 M447,654 L447,720 L873,720 L873,654 M409,5 Q381,21 333,30 Q436,157 481,303 L547,281 Q496,123 409,5 M894,8 Q813,179 747,277 L811,299 Q881,199 951,49"/> 
            <glyph glyph-name="止" unicode="&#x6B62;" horiz-adv-x="944" d=" M55,-58 L55,15 L219,15 L219,586 L297,586 L297,15 L512,15 L512,792 L592,792 L592,472 L872,472 L872,401 L592,401 L592,15 L944,15 L944,-58"/> 
            <glyph glyph-name="比" unicode="&#x6BD4;" horiz-adv-x="945" d=" M672,-67 Q536,-72 541,66 L541,788 L619,788 L619,459 Q777,532 864,602 L924,552 Q794,461 619,384 L619,67 Q618,6 678,7 L797,7 Q849,5 863,71 Q874,121 879,156 Q909,122 945,108 Q939,72 933,44 Q910,-70 805,-67 M150,-87 L112,-21 Q147,8 146,60 L146,762 L224,762 L224,483 L472,483 L472,413 L224,413 L224,43 L444,146 L481,85 L208,-49 Q170,-67 150,-87"/> 
            <glyph glyph-name="焦" unicode="&#x7126;" horiz-adv-x="930" d=" M89,405 Q69,438 35,456 Q205,595 282,799 L346,768 Q324,714 296,665 L552,665 Q512,725 459,774 L528,798 Q580,751 620,691 L572,665 L885,665 L885,601 L599,601 L599,513 L837,513 L837,450 L599,450 L599,362 L841,362 L841,299 L599,299 L599,211 L916,211 L916,147 L275,147 L275,116 L200,116 L200,521 Q148,453 89,405 M275,601 L275,513 L525,513 L525,601 M275,299 L275,211 L525,211 L525,299 M275,450 L275,362 L525,362 L525,450 M866,-95 Q805,14 749,83 L820,110 Q882,31 930,-51 M133,-102 L70,-56 Q138,18 180,108 L243,74 Q201,-26 133,-102 M615,-87 Q581,10 539,83 L611,95 Q656,18 682,-56 M391,-92 Q366,-10 327,77 L399,88 Q433,19 461,-65"/> 
            <glyph glyph-name="版" unicode="&#x7248;" horiz-adv-x="970" d=" M291,-84 L291,253 L181,253 Q176,36 103,-94 Q73,-73 35,-65 Q118,75 113,299 L113,746 L182,746 L182,497 L283,497 L283,784 L349,784 L349,497 L417,497 L417,433 L182,433 L182,317 L359,317 L359,8 Q474,157 469,446 L469,714 Q701,720 861,769 L908,707 Q731,661 540,653 L540,487 L885,487 L885,432 Q860,258 765,122 Q847,30 970,-32 Q935,-51 906,-88 Q794,-19 721,65 Q641,-27 525,-95 Q501,-66 463,-47 Q591,20 676,122 Q587,252 557,423 L536,423 Q540,112 408,-50 Q382,-29 359,-20 L359,-84 M815,423 L619,423 Q649,284 720,179 Q797,299 815,423"/> 
            <glyph glyph-name="理" unicode="&#x7406;" horiz-adv-x="951" d=" M422,308 L422,747 L896,747 L896,308 L694,308 L694,198 L909,198 L909,132 L694,132 L694,8 L951,8 L951,-58 L361,-58 L361,8 L623,8 L623,132 L409,132 L409,198 L623,198 L623,308 M60,653 L60,717 L376,717 L376,653 L256,653 L256,430 L363,430 L363,367 L256,367 L256,134 L368,170 L391,113 L76,1 L37,66 L185,112 L185,367 L71,367 L71,430 L185,430 L185,653 M694,373 L825,373 L825,498 L694,498 M492,373 L623,373 L623,498 L492,498 M825,682 L694,682 L694,558 L825,558 M492,682 L492,558 L623,558 L623,682"/> 
            <glyph glyph-name="电" unicode="&#x7535;" horiz-adv-x="950" d=" M148,157 L148,652 L445,652 L445,795 L522,795 L522,652 L825,652 L825,157 L522,157 L522,68 Q520,3 587,5 L785,5 Q852,2 868,66 Q873,88 883,143 Q909,115 950,100 Q942,56 935,35 Q908,-70 799,-67 L576,-67 Q443,-69 445,57 L445,157 M522,225 L750,225 L750,374 L522,374 M750,586 L522,586 L522,437 L750,437 M224,225 L445,225 L445,374 L224,374 M224,586 L224,437 L445,437 L445,586"/> 
            <glyph glyph-name="画" unicode="&#x753B;" horiz-adv-x="901" d=" M281,128 L281,583 L721,583 L721,128 M114,-39 L114,546 L188,546 L188,29 L815,29 L815,546 L889,546 L889,-96 L815,-96 L815,-39 M104,673 L104,741 L901,741 L901,673 M531,189 L655,189 L655,327 L531,327 M655,521 L531,521 L531,385 L655,385 M348,189 L470,189 L470,327 L348,327 M348,521 L348,385 L470,385 L470,521"/> 
            <glyph glyph-name="的" unicode="&#x7684;" horiz-adv-x="912" d=" M755,-86 Q715,-86 676,-82 Q673,-39 654,-6 Q707,-16 744,-16 Q821,-16 824,73 L838,576 L621,576 Q573,483 524,419 Q492,437 453,444 L453,-64 L382,-64 L382,13 L188,13 L188,-83 L117,-83 L117,632 L216,632 Q269,731 287,798 L357,773 Q328,692 296,632 L453,632 L453,445 Q568,592 629,801 L698,772 Q674,698 652,644 L912,644 L897,62 Q894,-87 755,-86 M188,293 L188,80 L382,80 L382,293 M188,565 L188,357 L382,357 L382,565 M672,178 Q600,287 532,364 L593,397 Q653,335 723,228"/> 
            <glyph glyph-name="相" unicode="&#x76F8;" horiz-adv-x="902" d=" M485,-92 L485,737 L902,737 L902,-91 L828,-91 L828,-9 L560,-9 L560,-92 M75,521 L75,588 L237,588 L237,794 L312,794 L312,588 L441,588 L441,521 L312,521 L312,418 L334,426 Q413,325 448,264 L403,219 Q371,270 312,355 L312,-96 L237,-96 L237,371 Q185,228 111,130 Q84,155 46,168 Q178,333 228,521 M560,220 L560,58 L828,58 L828,220 M560,445 L560,285 L828,285 L828,445 M560,669 L560,510 L828,510 L828,669"/> 
            <glyph glyph-name="移" unicode="&#x79FB;" horiz-adv-x="935" d=" M238,-95 L238,332 Q174,187 94,104 Q69,131 35,145 Q166,283 227,461 L73,461 L73,524 L238,524 L238,665 Q181,653 129,647 Q114,681 84,706 Q261,727 391,775 L441,717 Q380,696 308,679 L308,524 L448,524 L448,461 L308,461 L308,375 L331,390 Q393,329 439,260 L389,215 Q366,251 308,324 L308,-95 M476,136 Q453,167 417,178 Q641,287 748,441 L810,414 Q779,366 735,323 L935,323 L935,269 Q810,-18 431,-92 Q416,-61 378,-32 Q541,-7 667,68 Q620,116 573,156 L631,185 Q680,146 721,104 Q810,173 853,261 L670,261 Q577,182 476,136 M490,325 Q470,356 431,377 Q539,413 622,466 Q578,512 532,545 L590,574 Q635,542 674,502 Q761,567 808,640 L598,640 Q540,580 478,539 Q453,566 414,577 Q548,660 632,804 L701,772 Q680,736 652,701 L893,701 L893,646 Q771,433 490,325"/> 
            <glyph glyph-name="米" unicode="&#x7C73;" horiz-adv-x="951" d=" M99,365 L99,435 L460,435 L460,795 L538,795 L538,436 L538,435 L901,435 L901,365 L579,365 Q717,153 951,49 Q907,22 884,-17 Q649,112 533,328 L538,302 L538,-96 L460,-96 L460,302 L463,324 Q349,112 115,-27 Q82,8 43,30 Q282,150 419,365 M660,481 Q626,513 600,521 Q702,609 784,720 L846,679 Q749,557 660,481 M342,484 Q251,588 158,674 L220,714 Q306,635 388,541"/> 
            <glyph glyph-name="素" unicode="&#x7D20;" horiz-adv-x="938" d=" M194,116 L165,177 Q207,183 253,203 Q257,204 264,208 Q368,249 436,278 L263,272 Q227,271 194,263 L170,318 Q211,326 258,347 Q308,370 372,406 L59,406 L59,464 L461,464 L461,531 L212,531 L212,588 L461,588 L461,654 L145,654 L145,713 L461,713 L461,795 L535,795 L535,713 L853,713 L853,654 L535,654 L535,588 L787,588 L787,531 L535,531 L535,464 L938,464 L938,406 L725,406 L770,373 Q600,284 372,191 Q368,190 361,188 Q346,184 339,182 L700,201 Q656,234 629,252 L682,286 Q746,246 861,154 L828,101 Q815,112 780,140 Q769,148 764,152 L549,141 L549,6 Q551,-93 443,-92 Q415,-92 378,-87 Q375,-49 359,-18 Q395,-25 427,-25 Q478,-28 475,21 L475,137 L293,129 Q242,126 194,116 M129,-80 Q105,-47 75,-30 Q218,26 327,103 L376,62 Q272,-14 129,-80 M877,-81 Q764,-8 623,58 L668,104 Q770,60 901,-18 M493,406 Q414,359 334,325 L556,332 Q661,381 704,406"/> 
            <glyph glyph-name="红" unicode="&#x7EA2;" horiz-adv-x="954" d=" M453,635 L453,706 L915,706 L915,635 L722,635 L722,28 L954,28 L954,-43 L407,-43 L407,28 L644,28 L644,635 M116,183 L80,249 Q123,265 160,309 Q204,357 261,432 L142,423 Q106,419 83,411 L56,472 Q87,486 109,516 Q210,656 276,795 L343,766 Q257,603 171,489 L309,498 Q361,573 383,611 L445,581 Q349,427 217,273 L399,299 L416,236 L180,200 Q156,197 116,183 M92,-46 L54,21 L406,128 L433,69"/> 
            <glyph glyph-name="级" unicode="&#x7EA7;" horiz-adv-x="973" d=" M916,-85 Q809,-36 723,44 Q634,-48 511,-98 Q486,-67 449,-48 Q589,8 673,96 Q597,185 553,296 Q512,71 363,-79 Q333,-59 288,-50 Q501,149 501,494 Q501,519 503,579 Q504,643 505,670 L396,670 L396,734 L844,734 L844,678 L764,452 L884,452 L884,391 Q859,223 768,98 Q854,18 973,-20 Q939,-46 916,-85 M113,210 L82,274 Q122,288 153,328 Q194,377 237,436 L132,430 Q109,428 79,420 L52,477 Q83,491 103,521 Q197,664 258,794 L324,764 Q252,617 166,495 L283,501 Q318,550 361,621 L422,590 Q323,428 213,295 L372,314 L385,251 L182,226 Q145,222 113,210 M766,670 L576,670 Q576,647 575,598 Q574,519 573,484 Q573,478 572,466 Q571,441 570,429 Q623,261 719,149 Q792,250 813,389 L739,389 Q718,389 683,381 L659,432 Q691,448 708,500 M93,-11 L53,55 L369,160 L399,106"/> 
            <glyph glyph-name="细" unicode="&#x7EC6;" horiz-adv-x="895" d=" M419,-73 L419,716 L895,716 L895,-73 L823,-73 L823,3 L491,3 L491,-73 M105,183 L75,247 Q112,261 143,304 Q185,356 231,426 L130,421 Q102,419 76,411 L49,468 Q79,483 100,517 Q182,640 247,793 L313,764 Q247,617 156,484 L271,489 Q314,562 337,611 L399,582 Q299,393 198,270 L357,289 L375,228 L174,199 Q135,194 105,183 M491,329 L491,71 L623,71 L623,329 M692,329 L692,71 L823,71 L823,329 M491,648 L491,397 L623,397 L623,648 M823,648 L692,648 L692,397 L823,397 M88,-49 L50,17 L369,116 L396,60"/> 
            <glyph glyph-name="络" unicode="&#x7EDC;" horiz-adv-x="968" d=" M403,255 Q387,288 351,313 Q507,364 607,438 Q548,491 505,543 Q465,491 436,464 Q413,484 373,498 Q502,621 570,800 L633,771 Q618,734 600,696 L866,696 L866,639 Q805,523 717,439 Q828,365 968,327 Q936,298 920,262 Q767,317 664,394 Q558,311 403,255 M455,-96 L455,268 L860,268 L860,-96 L787,-96 L787,-39 L528,-39 L528,-96 M99,181 L67,243 Q98,256 128,289 Q177,348 237,436 L141,430 Q101,426 77,418 L47,474 Q82,490 105,525 Q186,646 250,798 L317,769 Q238,602 161,493 L280,500 Q322,566 341,606 L402,577 Q306,405 188,265 L352,285 L368,227 L167,198 Q137,196 99,181 M528,204 L528,26 L787,26 L787,204 M84,-42 L49,26 L373,113 L398,54 M566,633 Q555,614 543,596 Q598,532 661,481 Q733,545 784,633"/> 
            <glyph glyph-name="网" unicode="&#x7F51;" horiz-adv-x="882" d=" M115,-92 L115,743 L882,743 L882,41 Q882,-87 767,-87 Q724,-87 684,-81 Q683,-40 666,-6 Q715,-13 751,-13 Q809,-14 808,51 L808,674 L189,674 L189,-92 M535,60 Q511,78 471,86 Q541,175 610,327 Q554,435 487,539 L548,558 Q594,487 642,401 Q685,505 707,602 L770,577 Q734,449 681,329 Q732,238 784,126 L729,80 Q691,167 647,255 Q597,149 535,60 M261,68 Q233,86 195,90 Q265,189 331,339 Q267,447 201,543 L262,567 Q266,560 276,546 Q330,465 362,414 Q401,515 421,602 L481,580 Q449,457 404,344 Q408,337 416,323 Q476,220 502,170 L450,124 Q421,183 372,271 Q315,150 261,68"/> 
            <glyph glyph-name="联" unicode="&#x8054;" horiz-adv-x="968" d=" M55,677 L55,740 L456,740 L456,677 L389,677 L389,166 L451,181 L476,127 L389,101 L389,-95 L321,-95 L321,81 L75,12 L35,76 L119,96 L119,677 M468,524 L468,591 L680,591 Q756,687 807,796 L870,764 Q822,673 760,591 L904,591 L904,524 L712,524 Q711,451 707,365 L928,365 L928,298 L716,298 Q784,59 968,-36 Q928,-57 898,-90 Q742,18 680,220 Q628,11 468,-94 Q441,-66 397,-49 Q597,63 627,298 L443,298 L443,365 L634,365 Q638,452 639,524 M187,277 L187,114 L321,148 L321,277 M187,477 L187,338 L321,338 L321,477 M187,677 L187,538 L321,538 L321,677 M598,612 Q552,686 488,760 L550,789 Q610,718 654,653"/> 
            <glyph glyph-name="聪" unicode="&#x806A;" horiz-adv-x="954" d=" M58,682 L58,746 L466,746 L466,682 L402,682 L402,190 L439,202 L466,147 L402,125 L402,-95 L332,-95 L332,100 L81,12 L42,76 L131,103 L131,682 M485,324 L485,610 L697,610 Q762,694 813,797 L874,772 Q829,683 772,610 L887,610 L887,324 M555,384 L819,384 L819,549 L555,549 M667,-67 Q567,-68 568,31 L568,227 L632,227 L632,40 Q630,-9 675,-6 L738,-6 Q775,-10 790,41 Q798,64 806,99 Q829,69 858,57 Q851,28 844,9 Q817,-71 745,-67 M198,290 L198,125 L332,168 L332,290 M198,486 L198,350 L332,350 L332,486 M198,682 L198,547 L332,547 L332,682 M487,-13 L430,24 Q473,106 494,224 L549,200 Q524,73 487,-13 M903,31 Q850,146 799,228 L857,244 Q904,175 954,67 M612,613 Q552,700 492,766 L550,795 Q604,739 663,658 M714,124 Q677,208 623,289 L681,307 Q720,252 766,160"/> 
            <glyph glyph-name="腻" unicode="&#x817B;" horiz-adv-x="966" d=" M101,-92 Q71,-70 36,-61 Q113,47 110,265 L110,751 L337,751 L337,28 Q341,-88 246,-83 Q223,-83 203,-80 Q199,-40 183,-11 Q187,-11 194,-12 Q220,-16 232,-16 Q277,-18 276,37 L276,219 L171,219 Q168,16 101,-92 M365,590 L365,652 L716,652 Q716,675 716.5,721.5 Q717,768 717,792 L782,798 Q782,772 781,722 Q781,675 781,652 L941,652 L941,590 L781,590 Q782,286 815,135 Q832,3 874,-4 Q891,-3 902,37 Q913,69 919,104 Q935,80 966,60 Q960,36 948,-2 Q919,-85 870,-84 Q795,-77 763,80 Q719,226 717,590 M396,79 L396,335 L676,335 L676,85 L621,85 L621,282 L451,282 L451,79 M386,-91 Q369,-65 337,-45 Q498,11 508,142 Q512,182 512,244 L566,238 Q566,171 560,131 Q545,-21 386,-91 M172,453 L172,280 L276,280 L276,453 M172,687 L172,516 L276,516 L276,687 M392,385 L392,439 L680,439 L680,385 M416,487 L416,541 L656,541 L656,487 M693,-83 Q643,-37 540,35 L584,73 Q588,70 595,65 Q685,2 721,-28 M883,663 Q848,710 802,756 L850,781 Q887,749 922,702"/> 
            <glyph glyph-name="舰" unicode="&#x8230;" horiz-adv-x="962" d=" M438,-97 Q421,-69 383,-50 Q361,-74 304,-74 Q282,-74 256,-70 Q252,-33 236,-2 Q272,-8 299,-8 Q345,-9 344,42 L344,317 L191,317 L191,289 Q193,50 112,-87 Q78,-62 40,-57 Q129,71 126,303 L126,317 L49,317 L49,379 L126,379 L126,698 L208,698 Q233,748 252,803 L320,781 Q303,736 283,698 L409,698 L409,26 Q409,-19 390,-42 Q663,107 648,426 L648,600 L713,600 L713,415 Q713,334 701,267 L749,267 L749,44 Q748,-9 795,-7 L835,-7 Q883,-9 894,46 Q900,69 907,120 Q934,88 962,77 Q956,39 948,10 Q927,-72 842,-70 L784,-70 Q682,-71 683,34 L683,192 Q629,18 438,-97 M806,208 L806,687 L555,687 L555,215 L487,215 L487,751 L874,751 L874,208 M191,636 L191,379 L344,379 L344,636 M279,101 Q243,183 201,247 L251,264 Q285,217 325,130 M275,423 Q244,495 202,560 L253,576 Q277,541 317,459 Q319,454 320,452"/> 
            <glyph glyph-name="语" unicode="&#x8BED;" horiz-adv-x="950" d=" M344,687 L344,748 L910,748 L910,687 L597,687 L580,586 L839,586 L839,394 L950,394 L950,333 L319,333 L319,394 L476,394 L497,526 L377,526 L377,586 L507,586 L524,687 M400,-95 L400,254 L869,254 L869,-95 L796,-95 L796,-32 L474,-32 L474,-95 M181,-68 L134,-14 Q167,23 166,72 L166,421 L49,421 L49,487 L236,487 L236,80 L332,164 L376,114 L224,-20 Q200,-40 181,-68 M474,192 L474,30 L796,30 L796,192 M768,526 L571,526 L549,394 L768,394 M235,574 Q161,669 90,733 L153,770 Q231,697 288,624"/> 
            <glyph glyph-name="调" unicode="&#x8C03;" horiz-adv-x="900" d=" M325,-95 Q293,-70 254,-65 Q373,93 368,342 L368,749 L898,749 L898,32 Q900,-92 790,-89 Q757,-89 721,-85 Q718,-47 700,-17 Q750,-23 775,-23 Q828,-24 827,36 L827,687 L437,687 L437,338 Q441,72 325,-95 M498,70 L498,303 L764,303 L764,70 M177,-12 L130,45 Q161,78 159,128 L159,431 L49,431 L49,496 L229,496 L229,131 L305,209 L349,163 L217,36 Q196,17 177,-12 M484,521 L484,579 L600,579 L600,663 L666,663 L666,579 L781,579 L781,521 L666,521 L666,435 L793,435 L793,377 L473,377 L473,435 L600,435 L600,521 M560,128 L701,128 L701,245 L560,245 M238,578 Q163,665 85,731 L153,768 Q228,703 290,631"/> 
            <glyph glyph-name="质" unicode="&#x8D28;" horiz-adv-x="921" d=" M117,-84 Q84,-58 43,-47 Q179,114 174,385 L174,726 Q600,731 825,773 L876,712 Q793,696 631,680 L621,564 L918,564 L918,502 L615,502 L605,398 L849,398 L849,91 L775,91 L775,337 L414,337 L414,91 L340,91 L340,398 L531,398 L541,502 L277,502 L277,564 L547,564 L558,674 Q421,664 250,661 L250,382 Q254,94 117,-84 M293,-96 Q276,-65 240,-34 Q541,16 554,198 Q561,238 561,289 L633,279 Q633,230 626,182 Q604,-30 293,-96 M897,-96 Q754,-9 602,56 L648,110 Q779,55 921,-24"/> 
            <glyph glyph-name="进" unicode="&#x8FDB;" horiz-adv-x="954" d=" M339,559 L339,625 L467,625 L467,793 L540,793 L540,625 L695,625 L695,793 L768,793 L768,625 L895,625 L895,559 L768,559 L768,378 L913,378 L913,311 L768,311 L768,58 L695,58 L695,311 L533,311 Q521,167 422,64 Q393,85 348,97 Q447,190 459,311 L318,311 L318,378 L465,378 Q467,414 467,459 L467,559 M119,-78 L59,-25 Q127,52 188,105 L188,408 L59,408 L59,476 L261,476 L261,107 Q355,28 487,17 Q676,-2 954,18 Q930,-27 926,-66 Q813,-69 710,-68 Q609,-67 541,-63 Q348,-58 227,45 Q167,-9 119,-78 M540,459 Q540,427 538,378 L695,378 L695,559 L540,559 M248,560 Q179,648 100,721 L167,760 Q241,691 303,611"/> 
            <glyph glyph-name="通" unicode="&#x901A;" horiz-adv-x="952" d=" M359,58 L359,548 L595,548 Q504,603 450,629 L494,671 Q526,655 592,617 Q609,607 618,602 Q684,640 754,693 L352,693 L352,752 L861,752 L861,701 Q793,642 674,566 Q675,565 678,563.5 Q681,562 687,558 L679,548 L872,548 L872,154 Q870,56 775,54 Q762,54 734,56 Q726,57 722,57 Q721,92 705,120 Q743,115 761,115 Q804,114 804,160 L804,207 L647,207 L647,80 L580,80 L580,207 L427,207 L427,58 M116,-78 L58,-26 Q125,50 182,103 L182,408 L56,408 L56,474 L252,474 L252,106 Q349,23 488,11 Q576,3 704.5,4 Q833,5 952,14 Q929,-29 926,-65 Q817,-68 709,-67 Q606,-67 538,-63 Q335,-58 221,44 Q154,-21 116,-78 M238,557 Q167,647 91,719 L155,757 Q239,679 291,608 M647,350 L647,262 L804,262 L804,350 M427,350 L427,262 L580,262 L580,350 M804,490 L647,490 L647,405 L804,405 M427,490 L427,405 L580,405 L580,490"/> 
            <glyph glyph-name="阳" unicode="&#x9633;" horiz-adv-x="885" d=" M478,-77 L478,734 L885,734 L885,-77 L812,-77 L812,5 L553,5 L553,-77 M105,-96 L105,747 L412,747 L412,685 L305,431 Q414,321 411,212 Q408,81 280,78 Q256,78 226,83 Q225,116 207,156 Q244,146 268,146 Q338,147 339,217 Q339,312 228,423 L335,679 L178,679 L178,-96 M553,337 L553,74 L812,74 L812,337 M553,665 L553,403 L812,403 L812,665"/> 
            <glyph glyph-name="青" unicode="&#x9752;" horiz-adv-x="948" d=" M207,-96 L207,354 L793,354 L793,13 Q794,-92 684,-92 Q654,-92 614,-88 Q611,-57 595,-23 Q638,-28 673,-28 Q721,-31 718,18 L718,54 L282,54 L282,-96 M139,662 L139,721 L461,721 L461,796 L537,796 L537,721 L859,721 L859,662 L537,662 L537,596 L807,596 L807,541 L537,541 L537,472 L948,472 L948,414 L50,414 L50,472 L461,472 L461,541 L191,541 L191,596 L461,596 L461,662 M282,297 L282,229 L718,229 L718,297 M282,176 L282,108 L718,108 L718,176"/> 
            <glyph glyph-name="音" unicode="&#x97F3;" horiz-adv-x="941" d=" M212,-96 L212,318 L788,318 L788,-96 L714,-96 L714,-40 L286,-40 L286,-96 M59,394 L59,456 L354,456 Q312,519 251,583 L321,609 Q380,545 423,484 L375,456 L561,456 Q625,530 676,615 L745,585 Q706,525 649,456 L941,456 L941,394 M137,628 L137,688 L479,688 Q451,741 419,787 L492,802 Q523,756 558,688 L861,688 L861,628 M286,259 L286,167 L714,167 L714,259 M286,111 L286,19 L714,19 L714,111"/> 
            <glyph glyph-name="骁" unicode="&#x9A81;" horiz-adv-x="963" d=" M256,-84 Q229,-84 187,-80 Q188,-43 169,-10 Q223,-18 247,-18 Q307,-20 308,54 L321,299 L98,299 L130,631 L196,625 L170,360 L268,360 L296,683 L81,683 L81,745 L368,745 L335,360 L391,360 L375,40 Q369,-84 256,-84 M421,588 L408,650 L573,673 Q560,728 551,789 L621,797 Q627,742 640,683 L880,717 L891,659 L655,623 Q673,562 696,517 Q779,556 839,605 L883,563 Q820,509 727,464 Q780,389 836,388 Q867,387 879,428 Q883,440 892,482 Q893,489 894,492 Q917,465 945,456 Q941,425 932,401 Q910,327 840,325 Q743,325 667,435 Q544,383 447,369 Q434,399 406,424 Q529,448 634,489 Q608,543 588,613 M795,-68 Q700,-66 699,31 L699,228 L610,228 Q610,218 609,199 Q609,183 609,175 Q610,-34 411,-97 Q395,-64 361,-41 Q547,10 542,175 Q543,199 543,228 L419,228 L419,291 L912,291 L912,228 L765,228 L765,43 Q764,-8 806,-6 L842,-6 Q884,-9 897,48 Q905,77 909,110 Q930,81 963,69 Q962,66 961,60 Q955,24 951,10 Q933,-72 846,-68 M70,80 L41,142 L273,201 L297,144"/> 
            <glyph glyph-name="验" unicode="&#x9A8C;" horiz-adv-x="979" d=" M256,-86 Q226,-86 192,-83 Q189,-47 173,-14 Q209,-20 249,-20 Q307,-23 309,46 L322,293 L103,293 L132,630 L197,625 L174,355 L271,355 L297,677 L81,677 L81,740 L370,740 L345,461 Q548,595 633,804 L699,772 Q697,768 694,760 Q691,755 683,737 Q803,557 979,482 Q941,458 917,421 Q744,522 649,674 Q549,514 401,410 Q380,433 344,451 L336,355 L390,355 L375,35 Q370,-87 256,-86 M409,-58 L409,8 L689,8 Q755,152 807,343 L874,313 Q819,137 761,8 L917,8 L917,-58 M482,404 L482,467 L824,467 L824,404 M66,81 L33,146 L280,204 L305,148 M524,61 Q482,197 436,300 L500,314 Q553,194 585,89 M653,122 Q624,242 590,331 L654,340 Q691,245 714,146"/> 
            <glyph glyph-name="高" unicode="&#x9AD8;" horiz-adv-x="934" d=" M116,-96 L116,329 L881,329 L881,24 Q880,-91 770,-92 Q737,-92 701,-87 Q697,-46 682,-16 Q689,-17 703,-18 Q739,-21 752,-21 Q804,-22 803,34 L803,266 L194,266 L194,-96 M235,391 L235,583 L762,583 L762,391 M304,6 L304,203 L692,203 L692,6 M64,644 L64,709 L471,709 Q435,746 399,778 L480,803 Q526,765 573,709 L934,709 L934,644 M312,447 L685,447 L685,528 L312,528 M378,61 L619,61 L619,148 L378,148"/> 
            <glyph glyph-name="龙" unicode="&#x9F99;" horiz-adv-x="932" d=" M84,508 L84,574 L366,574 Q367,578 367.5,586.5 Q368,595 368,599 Q372,687 372,798 L447,791 Q447,698 442,593 Q441,583 441,574 L925,574 L925,508 L589,508 L589,207 Q714,319 787,450 L851,416 Q755,250 589,112 L589,66 Q588,-3 664,-2 L780,-2 Q837,-4 854,56 Q867,101 873,141 Q900,109 932,98 Q920,46 914,26 Q884,-67 790,-67 L653,-67 Q518,-68 519,57 L519,58 Q450,8 377,-28 Q355,3 316,19 Q420,70 519,147 L519,508 L435,508 Q403,111 97,-99 Q76,-70 32,-55 Q327,142 360,508 M751,584 Q661,669 577,728 L634,770 Q718,711 790,642"/> 
            <glyph glyph-name="＋" unicode="&#xFF0B;" horiz-adv-x="722" d=" M465,579 L534,579 L534,388 L722,388 L722,318 L534,318 L534,128 L465,128 L465,318 L277,318 L277,388 L465,388"/> 
        </font>
</defs>
</svg>
