<?xml version="1.0" standalone="no"?>
<!DOCTYPE svg PUBLIC "-//W3C//DTD SVG 1.1//EN" "http://www.w3.org/Graphics/SVG/1.1/DTD/svg11.dtd" >
<svg xmlns="http://www.w3.org/2000/svg">
    <defs>
        <font id="">
            <font-face font-family=""
                       units-per-em="256"
                       ascent="229"
                       descent="-67"
                       bbox="-14 -67 266 229"
                    />
            <missing-glyph horiz-adv-x="0" />
            
            <glyph glyph-name="&quot;" unicode="&#x22;" horiz-adv-x="72" d=" M33,192 L13,192 L17,121 L29,121 M72,192 L53,192 L57,121 L69,121"/> 
            <glyph glyph-name="0" unicode="&#x30;" horiz-adv-x="144" d=" M78,0 Q129,-1 128,89 Q129,181 77,180 Q29,178 28,89 Q28,0 78,0 M78,193 Q144,193 144,89 Q143,-10 79,-12 Q13,-10 12,89 Q14,190 78,193"/> 
            <glyph glyph-name="1" unicode="&#x31;" horiz-adv-x="105" d=" M90,-9 L105,-9 L105,193 L94,193 Q82,160 31,135 L31,121 Q77,142 90,164"/> 
            <glyph glyph-name="2" unicode="&#x32;" horiz-adv-x="144" d=" M140,-9 L140,2 L27,2 Q44,36 87,67 Q144,107 139,140 Q136,191 80,193 Q30,194 13,146 L27,138 Q38,179 75,180 Q122,179 123,137 Q127,112 75,75 Q30,44 9,0 L9,-9"/> 
            <glyph glyph-name="3" unicode="&#x33;" horiz-adv-x="143" d=" M99,95 L99,96 Q133,106 135,141 Q133,192 76,193 Q25,193 14,143 L29,138 Q35,181 77,180 Q119,180 119,141 Q118,100 67,100 L56,100 L56,88 L74,88 Q126,88 127,48 Q126,1 75,0 Q32,0 25,44 L10,40 Q21,-11 77,-12 Q140,-9 143,46 Q141,87 99,95"/> 
            <glyph glyph-name="4" unicode="&#x34;" horiz-adv-x="144" d=" M21,52 L102,52 L102,171 Q102,168 98,162 M144,39 L116,39 L116,-10 L102,-10 L102,39 L4,39 L4,48 L105,193 L116,193 L116,52 L144,52"/> 
            <glyph glyph-name="5" unicode="&#x35;" horiz-adv-x="144" d=" M35,102 L43,176 L134,176 L134,189 L31,189 L19,85 L29,83 Q45,110 78,110 Q127,108 129,56 Q127,2 77,0 Q32,0 25,45 L11,41 Q23,-12 79,-12 Q142,-9 144,58 Q140,120 82,123 Q52,123 35,102"/> 
            <glyph glyph-name="6" unicode="&#x36;" horiz-adv-x="144" d=" M26,61 Q28,2 79,0 Q127,1 129,54 Q127,106 81,108 Q30,105 26,61 M140,148 L126,143 Q117,181 82,180 Q25,180 25,87 Q43,121 84,121 Q140,117 144,55 Q140,-8 81,-12 Q10,-13 11,82 Q11,193 83,193 Q127,191 140,148"/> 
            <glyph glyph-name="7" unicode="&#x37;" horiz-adv-x="143" d=" M143,180 L143,189 L13,189 L13,176 L125,176 Q59,76 47,-10 L63,-10 Q74,80 143,180"/> 
            <glyph glyph-name="8" unicode="&#x38;" horiz-adv-x="147" d=" M79,89 Q30,88 28,43 Q30,0 80,0 Q130,1 132,41 Q129,87 79,89 M79,181 Q38,179 36,140 Q37,100 80,99 Q121,101 123,140 Q121,179 79,181 M52,94 Q22,108 20,139 Q24,189 79,193 Q133,189 139,139 Q137,106 108,94 Q144,82 147,41 Q145,-10 80,-12 Q14,-10 12,43 Q16,84 52,94"/> 
            <glyph glyph-name="B" unicode="&#x42;" horiz-adv-x="171" d=" M97,88 L35,88 L35,3 L101,3 Q155,3 155,48 Q152,87 97,88 M94,177 L35,177 L35,101 L94,101 Q145,101 146,142 Q145,176 94,177 M104,-9 L21,-9 L21,190 L99,190 Q158,187 162,142 Q161,102 119,95 Q169,86 171,45 Q170,-8 104,-9"/> 
            <glyph glyph-name="F" unicode="&#x46;" horiz-adv-x="158" d=" M158,177 L38,177 L38,100 L143,100 L143,87 L38,87 L38,-9 L22,-9 L22,190 L158,190"/> 
            <glyph glyph-name="G" unicode="&#x47;" horiz-adv-x="199" d=" M114,94 L199,94 L199,21 Q176,-11 114,-12 Q19,-7 15,89 Q19,188 110,193 Q178,192 199,135 L182,130 Q167,179 109,179 Q35,174 31,89 Q35,6 112,0 Q165,1 184,27 L184,81 L114,81"/> 
            <glyph glyph-name="H" unicode="&#x48;" horiz-adv-x="179" d=" M164,190 L179,190 L179,-9 L164,-9 L164,87 L38,87 L38,-9 L23,-9 L23,190 L38,190 L38,100 L164,100"/> 
            <glyph glyph-name="I" unicode="&#x49;" horiz-adv-x="40" d=" M25,-9 L40,-9 L40,190 L25,190"/> 
            <glyph glyph-name="M" unicode="&#x4D;" horiz-adv-x="214" d=" M188,190 L214,190 L214,-10 L199,-10 L199,178 L197,178 L124,-9 L111,-9 L38,178 L36,178 L36,-10 L22,-10 L22,190 L47,190 L117,7 L118,7"/> 
            <glyph glyph-name="N" unicode="&#x4E;" horiz-adv-x="180" d=" M39,179 L156,-10 L180,-10 L180,190 L165,190 L165,0 L164,0 L46,190 L22,190 L22,-10 L38,-10 L38,179"/> 
            <glyph glyph-name="S" unicode="&#x53;" horiz-adv-x="175" d=" M150,135 L167,140 Q156,192 91,193 Q23,191 20,140 Q18,98 92,87 Q159,78 156,44 Q152,2 97,0 Q37,0 29,54 L12,48 Q26,-14 98,-12 Q167,-9 172,42 Q175,90 97,100 Q34,110 36,140 Q41,177 92,179 Q142,178 150,135"/> 
            <glyph glyph-name="U" unicode="&#x55;" horiz-adv-x="182" d=" M166,190 L166,74 Q167,0 101,0 Q37,0 38,74 L38,190 L23,190 L23,74 Q22,-13 101,-12 Q182,-13 181,74 L181,190"/> 
            <glyph glyph-name="W" unicode="&#x57;" horiz-adv-x="262" d=" M245,190 L262,190 L201,-9 L186,-9 L136,164 Q136,166 135,171 Q134,177 133,178 Q132,176 131,170 Q130,167 130,166 L77,-9 L62,-9 L4,190 L20,190 L66,18 Q68,14 69,4 Q70,2 70,1 L71,1 Q71,4 73,14 Q74,17 74,18 L124,190 L142,190 L189,18 Q192,6 193,1 Q193,2 194,4 Q195,14 197,18"/> 
            <glyph glyph-name="a" unicode="&#x61;" horiz-adv-x="145" d=" M123,49 L123,78 Q116,66 74,61 Q23,57 26,27 Q24,-1 65,0 Q119,2 123,49 M30,93 L16,98 Q25,141 80,140 Q140,142 137,88 L137,23 Q136,2 145,-8 L130,-8 Q122,1 122,19 Q106,-11 58,-12 Q13,-11 12,27 Q12,67 65,73 Q115,77 122,89 Q125,130 80,128 Q36,129 30,93"/> 
            <glyph glyph-name="c" unicode="&#x63;" horiz-adv-x="137" d=" M120,92 L135,96 Q122,138 75,140 Q14,137 11,63 Q12,-10 76,-12 Q128,-13 137,37 L122,41 Q117,1 77,0 Q28,2 27,63 Q28,126 77,127 Q110,125 120,92"/> 
            <glyph glyph-name="d" unicode="&#x64;" horiz-adv-x="135" d=" M121,55 L121,78 Q116,120 73,128 Q26,126 24,62 Q24,0 73,0 Q119,1 121,55 M135,-9 L121,-9 L121,19 Q106,-12 67,-12 Q12,-9 10,62 Q12,137 70,140 Q105,139 121,108 L121,191 L135,191"/> 
            <glyph glyph-name="e" unicode="&#x65;" horiz-adv-x="145" d=" M27,70 L129,70 Q128,126 79,127 Q30,124 27,70 M129,35 L144,31 Q132,-12 80,-12 Q12,-9 10,62 Q13,136 79,140 Q143,138 145,61 Q145,59 145,58 L26,58 Q28,2 79,0 Q121,0 129,35"/> 
            <glyph glyph-name="i" unicode="&#x69;" horiz-adv-x="33" d=" M18,-9 L33,-9 L33,137 L18,137 M18,169 L33,169 L33,191 L18,191"/> 
            <glyph glyph-name="m" unicode="&#x6D;" horiz-adv-x="216" d=" M215,84 L215,-9 L200,-9 L200,82 Q201,130 165,128 Q129,126 123,81 L123,-9 L109,-9 L109,82 Q110,130 74,128 Q35,127 33,80 L33,-9 L18,-9 L18,137 L33,137 L33,108 Q44,139 77,140 Q116,140 122,104 Q132,139 168,140 Q216,141 215,84"/> 
            <glyph glyph-name="n" unicode="&#x6E;" horiz-adv-x="138" d=" M137,84 L137,-9 L123,-9 L123,82 Q124,129 82,128 Q40,125 33,81 L33,-9 L19,-9 L19,136 L33,136 L33,106 Q50,139 86,140 Q138,141 137,84"/> 
            <glyph glyph-name="o" unicode="&#x6F;" horiz-adv-x="145" d=" M78,127 Q26,125 25,61 Q27,2 78,-1 Q128,0 130,62 Q127,123 78,127 M77,-12 Q12,-8 9,61 Q12,138 80,140 Q142,137 145,63 Q144,-11 77,-12"/> 
            <glyph glyph-name="s" unicode="&#x73;" horiz-adv-x="132" d=" M109,97 L123,102 Q115,140 67,140 Q18,138 15,99 Q12,67 71,58 Q118,51 115,28 Q113,0 71,0 Q30,-1 23,35 L9,31 Q21,-13 71,-12 Q128,-11 130,29 Q132,61 76,70 Q25,78 29,99 Q30,127 69,127 Q102,127 109,97"/> 
            <glyph glyph-name="t" unicode="&#x74;" horiz-adv-x="74" d=" M72,0 L74,-6 Q67,-12 53,-12 Q25,-13 26,18 L26,124 L3,124 L3,136 L26,136 L26,179 L41,187 L41,136 L71,136 L71,124 L41,124 L41,18 Q40,-3 58,-1 Q66,-1 72,0"/> 
            <glyph glyph-name="w" unicode="&#x77;" horiz-adv-x="201" d=" M201,137 L186,137 L143,2 L142,2 L109,137 L94,137 L59,2 L58,2 L16,137 L1,137 L51,-9 L66,-9 L101,124 L102,124 L134,-9 L150,-9"/> 
            <glyph glyph-name="x" unicode="&#x78;" horiz-adv-x="138" d=" M134,137 L117,137 L71,71 L25,137 L8,137 L62,64 L2,-9 L20,-9 L71,57 L120,-9 L138,-9 L79,64"/> 
            <glyph glyph-name="~" unicode="&#x7E;" horiz-adv-x="152" d=" M12,91 L12,75 Q27,90 49,90 Q67,90 81,83 Q104,72 118,73 Q139,73 152,86 L152,101 Q138,88 118,87 Q107,87 86,95 Q68,104 49,104 Q29,104 12,91"/> 
            <glyph glyph-name="、" unicode="&#x3001;" horiz-adv-x="99" d=" M39,37 L49,46 L99,-10 L88,-19"/> 
            <glyph glyph-name="一" unicode="&#x4E00;" horiz-adv-x="249" d=" M7,104 L249,104 L249,89 L7,89"/> 
            <glyph glyph-name="万" unicode="&#x4E07;" horiz-adv-x="246" d=" M12,189 L246,189 L246,175 L103,175 Q102,145 99,118 L216,118 Q215,85 210,24 Q207,-22 164,-22 Q141,-22 120,-22 Q119,-12 117,-6 Q137,-7 162,-7 Q194,-9 196,25 Q200,61 200,104 L98,104 Q91,19 20,-29 Q19,-28 18,-27 Q12,-22 9,-18 Q82,29 84,114 Q87,140 88,175 L12,175"/> 
            <glyph glyph-name="下" unicode="&#x4E0B;" horiz-adv-x="247" d=" M9,190 L247,190 L247,176 L124,176 L124,-27 L109,-27 L109,176 L9,176 M221,57 Q174,86 129,110 L137,123 Q144,119 157,112 Q206,87 231,72"/> 
            <glyph glyph-name="不" unicode="&#x4E0D;" horiz-adv-x="247" d=" M14,189 L245,189 L245,175 L153,175 Q102,94 17,37 Q11,43 7,49 Q95,107 135,175 L14,175 M120,126 L134,126 L134,-30 L120,-30 M238,44 Q176,87 153,100 L162,111 Q168,107 180,99 Q228,69 247,56"/> 
            <glyph glyph-name="两" unicode="&#x4E24;" horiz-adv-x="247" d=" M9,194 L247,194 L247,181 L171,181 Q171,175 171,162 Q170,149 170,142 L231,142 L231,3 Q232,-25 203,-24 Q189,-25 169,-25 Q169,-17 167,-11 Q171,-11 180,-11 Q192,-12 197,-12 Q220,-13 218,4 L218,129 L169,129 Q168,107 163,87 Q170,80 168,82 Q194,54 210,38 L199,28 Q175,57 159,74 Q150,43 123,10 Q117,15 112,19 Q153,62 156,129 L100,129 Q98,110 95,94 Q104,87 119,73 Q126,66 130,62 L121,52 Q117,56 110,63 Q99,75 92,81 Q83,48 56,17 Q49,24 45,26 Q84,65 87,129 L37,129 L37,-26 L24,-26 L24,142 L87,142 Q88,155 88,181 L9,181 M102,181 Q101,160 101,142 L156,142 Q157,159 157,181"/> 
            <glyph glyph-name="个" unicode="&#x4E2A;" horiz-adv-x="248" d=" M238,93 Q166,131 130,185 Q88,126 17,88 Q10,97 7,100 Q91,145 129,209 L143,206 L137,196 Q178,139 248,105 Q247,103 243,99 Q239,95 238,93 M121,119 L135,119 L135,-29 L121,-29"/> 
            <glyph glyph-name="为" unicode="&#x4E3A;" horiz-adv-x="233" d=" M116,210 L130,210 Q130,174 126,144 L233,144 Q233,97 229,25 Q228,-24 182,-23 Q150,-24 138,-24 Q137,-15 134,-7 Q138,-7 152,-7 Q172,-8 180,-8 Q215,-11 215,25 Q217,50 219,124 Q219,121 219,130 L125,130 Q116,25 24,-31 Q23,-29 19,-25 Q15,-20 13,-18 Q105,36 111,130 L17,130 L17,144 L112,144 Q116,174 116,210 M136,83 L147,91 Q156,83 175,64 Q183,55 187,51 L175,41 Q156,64 136,83 M36,196 L47,205 Q48,204 50,202 Q66,188 84,170 L73,159 Q55,178 36,196"/> 
            <glyph glyph-name="主" unicode="&#x4E3B;" horiz-adv-x="247" d=" M19,164 L236,164 L236,151 L135,151 L135,85 L227,85 L227,72 L135,72 L135,-1 L247,-1 L247,-14 L8,-14 L8,-1 L121,-1 L121,72 L29,72 L29,85 L121,85 L121,151 L19,151 M113,205 L126,210 Q141,180 144,173 L130,168 Q127,177 113,205"/> 
            <glyph glyph-name="乐" unicode="&#x4E50;" horiz-adv-x="249" d=" M235,84 L137,84 L137,5 Q138,-25 109,-25 Q94,-25 78,-25 Q78,-20 75,-11 Q92,-11 105,-11 Q125,-13 123,6 L123,84 L27,84 L41,187 Q117,188 222,196 L227,183 Q123,175 53,174 L43,97 L123,97 L123,154 L137,154 L137,97 L235,97 M237,-14 Q234,-11 228,-3 Q193,37 175,56 L186,64 Q199,49 225,20 Q242,2 249,-5 M68,63 L81,56 Q48,12 19,-15 Q16,-11 8,-5 Q44,28 68,63"/> 
            <glyph glyph-name="九" unicode="&#x4E5D;" horiz-adv-x="249" d=" M88,209 L103,209 Q103,197 101,167 Q101,161 101,158 L182,158 L182,11 Q180,-9 199,-7 L211,-7 Q229,-7 231,8 Q234,21 235,45 Q243,43 249,40 Q248,18 245,2 Q240,-23 214,-22 L196,-22 Q166,-23 167,9 L167,145 L101,145 Q99,129 99,111 Q96,20 18,-28 Q16,-25 11,-20 Q8,-17 8,-16 Q84,28 84,114 Q86,129 86,145 L14,145 L14,158 L87,158 Q88,187 88,209"/> 
            <glyph glyph-name="也" unicode="&#x4E5F;" horiz-adv-x="250" d=" M7,112 L43,121 L43,181 L57,181 L57,125 L122,141 L122,209 L136,209 L136,145 L224,166 Q224,164 224,161 Q222,109 220,86 Q219,48 185,49 Q171,49 159,49 Q158,53 157,59 Q156,62 156,64 Q160,64 169,64 Q178,63 183,63 Q206,62 206,87 Q209,114 209,150 L136,131 L136,24 L122,24 L122,127 L57,111 L57,17 Q56,-7 83,-6 L197,-6 Q227,-7 230,13 Q233,28 234,48 Q242,45 250,43 Q248,25 243,6 Q238,-21 200,-20 L79,-20 Q42,-21 43,13 L43,108 L9,99"/> 
            <glyph glyph-name="亮" unicode="&#x4EAE;" horiz-adv-x="249" d=" M51,152 L203,152 L203,105 L51,105 M172,49 L172,3 Q172,-10 188,-10 L214,-10 Q231,-11 233,3 Q235,13 236,29 Q238,29 243,27 Q247,26 249,25 Q248,10 245,0 Q241,-23 216,-22 L185,-22 Q158,-23 159,2 L159,37 L86,37 L86,33 Q92,-19 16,-30 Q15,-25 10,-17 Q80,-9 73,33 L73,49 M17,83 L239,83 L239,48 L226,48 L226,71 L30,71 L30,48 L17,48 M13,186 L123,186 Q122,190 120,197 Q117,205 116,208 L130,211 Q131,207 134,199 Q136,190 137,186 L243,186 L243,174 L13,174 M64,141 L64,117 L190,117 L190,141"/> 
            <glyph glyph-name="亿" unicode="&#x4EBF;" horiz-adv-x="249" d=" M231,19 Q233,31 236,62 Q240,60 249,57 Q248,39 245,13 Q240,-18 200,-18 Q163,-20 128,-18 Q89,-16 88,10 Q88,26 105,50 Q142,99 212,176 L101,176 L101,189 L228,189 L228,173 Q153,91 121,48 Q103,23 103,11 Q102,-4 135,-5 Q176,-5 196,-4 Q231,-5 231,19 M14,71 Q13,73 9,80 Q7,84 6,86 Q46,138 67,208 L81,205 Q78,198 73,183 Q64,160 59,149 L59,-28 L45,-28 L45,121 Q32,96 14,71"/> 
            <glyph glyph-name="仅" unicode="&#x4EC5;" horiz-adv-x="250" d=" M87,179 L87,191 L232,191 L232,178 Q213,90 172,42 Q200,11 250,-13 Q248,-15 242,-23 Q241,-26 240,-27 Q185,5 162,31 Q134,1 79,-29 Q78,-28 75,-24 Q70,-17 69,-16 Q122,11 153,42 Q116,87 100,179 M218,179 L114,179 Q128,96 163,53 Q201,96 218,179 M12,79 Q11,81 9,87 Q6,92 5,94 Q43,143 65,209 L79,205 Q67,175 54,148 L54,-29 L40,-29 L40,122 Q27,98 12,79"/> 
            <glyph glyph-name="从" unicode="&#x4ECE;" horiz-adv-x="249" d=" M156,207 L170,207 Q170,187 170,163 Q177,31 249,-13 Q243,-19 239,-25 Q173,22 164,116 Q159,33 88,-28 Q83,-23 77,-17 Q154,44 155,145 Q156,167 156,207 M59,207 L73,207 Q72,170 70,137 Q70,133 69,126 Q69,119 68,115 L77,122 Q105,90 128,62 L116,53 Q94,82 68,112 Q62,32 18,-25 Q16,-24 12,-20 Q8,-17 6,-15 Q53,40 56,144 Q59,177 59,207"/> 
            <glyph glyph-name="他" unicode="&#x4ED6;" horiz-adv-x="250" d=" M70,110 L95,117 L95,178 L109,178 L109,121 L157,136 L157,208 L171,208 L171,140 L236,160 Q236,153 235,138 Q234,94 233,86 Q232,50 205,51 Q195,51 187,51 Q187,54 186,62 Q187,57 185,64 Q194,63 202,63 Q219,62 220,85 Q222,121 222,143 L171,127 L171,21 L157,21 L157,123 L109,108 L109,15 Q106,-11 136,-8 L199,-8 Q228,-9 232,10 Q235,26 237,44 Q244,41 250,40 Q250,38 249,34 Q247,13 244,5 Q240,-22 203,-21 L131,-21 Q93,-23 95,10 L95,104 L72,97 M12,73 Q11,75 10,77 Q7,84 5,88 Q46,146 65,208 L79,204 Q78,200 75,193 Q62,160 54,144 L54,-29 L40,-29 L40,118 Q26,93 12,73"/> 
            <glyph glyph-name="件" unicode="&#x4EF6;" horiz-adv-x="250" d=" M168,209 L182,209 L182,151 L241,151 L241,138 L182,138 L182,70 L250,70 L250,57 L182,57 L182,-29 L168,-29 L168,57 L77,57 L77,70 L168,70 L168,138 L115,138 Q110,123 97,98 Q95,94 94,92 Q92,93 88,96 Q83,98 81,99 Q106,142 116,190 L130,187 Q125,169 119,151 L168,151 M13,71 Q9,80 6,87 Q40,137 61,207 L75,204 Q66,176 55,150 L55,-29 L42,-29 L42,121 Q27,92 13,71"/> 
            <glyph glyph-name="任" unicode="&#x4EFB;" horiz-adv-x="250" d=" M88,-2 L162,-2 L162,81 L84,81 L84,94 L162,94 L162,175 Q131,174 95,171 Q95,178 93,184 Q195,190 236,195 L239,182 Q209,179 176,176 L176,94 L250,94 L250,81 L176,81 L176,-2 L246,-2 L246,-15 L88,-15 M12,75 Q11,79 8,87 Q7,90 6,91 Q45,143 66,208 L80,204 Q70,176 57,149 L57,-29 L44,-29 L44,123 Q28,96 12,75"/> 
            <glyph glyph-name="优" unicode="&#x4F18;" horiz-adv-x="249" d=" M134,208 L148,208 Q148,179 146,140 L244,140 L244,127 L175,127 L175,6 Q174,-8 193,-7 L211,-7 Q228,-8 232,11 Q233,18 235,40 Q234,38 235,46 Q238,45 244,44 Q247,42 249,42 Q248,22 244,4 Q240,-20 211,-20 L191,-20 Q161,-21 162,6 L162,127 L145,127 Q145,120 144,113 Q141,32 78,-28 Q73,-23 67,-18 Q127,37 131,114 Q131,121 131,127 L76,127 L76,140 L132,140 Q134,181 134,208 M13,77 Q10,85 6,92 Q45,142 65,208 L79,203 Q68,172 54,143 L54,-29 L40,-29 L40,118 Q32,103 15,79 Q13,78 13,77 M213,159 Q193,177 175,190 L183,199 Q198,189 222,169"/> 
            <glyph glyph-name="伪" unicode="&#x4F2A;" horiz-adv-x="238" d=" M142,209 L156,209 Q155,196 154,169 Q153,151 153,142 L238,142 Q238,132 238,135 Q236,50 234,15 Q234,-24 195,-23 Q173,-23 160,-23 Q160,-20 159,-16 Q158,-11 157,-8 Q170,-9 193,-9 Q221,-10 221,19 Q223,75 223,129 L151,129 Q146,29 81,-28 Q74,-22 69,-18 Q135,36 137,129 L79,129 L79,142 L138,142 Q141,170 142,209 M12,75 Q11,77 10,80 Q6,89 5,90 Q46,147 64,210 L78,206 Q68,175 54,146 L54,-30 L41,-30 L41,119 Q28,95 12,75 M193,45 Q179,62 156,87 L167,95 Q192,68 204,53 M113,153 Q102,171 88,189 L99,195 Q117,173 125,161"/> 
            <glyph glyph-name="体" unicode="&#x4F53;" horiz-adv-x="250" d=" M70,13 Q69,15 63,19 Q60,22 59,23 Q116,74 137,145 L76,145 L76,157 L148,157 L148,209 L162,209 L162,157 L239,157 L239,145 L174,145 Q198,72 250,28 Q246,25 240,17 Q185,67 163,145 L162,145 L162,35 L204,35 L204,22 L162,22 L162,-29 L148,-29 L148,22 L107,22 L107,35 L148,35 L148,145 Q127,65 70,13 M12,77 Q10,81 6,89 Q5,91 5,91 Q41,141 63,209 L76,206 Q66,173 52,145 L52,-29 L39,-29 L39,119 Q26,95 12,77"/> 
            <glyph glyph-name="作" unicode="&#x4F5C;" horiz-adv-x="249" d=" M86,101 Q81,106 75,110 Q111,153 129,210 L143,207 Q141,203 139,197 Q134,186 127,170 L249,170 L249,157 L158,157 L158,109 L236,109 L236,96 L158,96 L158,46 L242,46 L242,33 L158,33 L158,-29 L144,-29 L144,157 L121,157 Q108,128 86,101 M14,74 Q13,78 8,84 Q7,87 6,88 Q40,136 65,210 L78,206 Q67,176 55,149 L55,-29 L42,-29 L42,121 Q29,96 14,74"/> 
            <glyph glyph-name="你" unicode="&#x4F60;" horiz-adv-x="249" d=" M13,73 Q12,76 10,81 Q9,85 7,89 Q47,146 66,210 L80,205 Q71,175 57,148 L57,-29 L44,-29 L44,121 Q29,93 13,73 M214,116 L231,157 L121,157 Q109,133 94,110 Q89,114 82,118 Q111,161 129,208 L143,204 Q142,201 139,196 Q136,187 127,170 L245,170 L245,156 L228,112 Q225,113 219,114 Q216,116 214,116 M159,133 L173,133 L173,4 Q174,-25 142,-26 Q125,-26 115,-26 Q114,-18 112,-12 Q124,-12 139,-12 Q160,-13 159,5 M82,16 Q103,54 119,97 L131,93 Q112,42 95,9 Q89,13 82,16 M236,12 Q213,64 198,92 L210,98 Q226,69 249,18"/> 
            <glyph glyph-name="使" unicode="&#x4F7F;" horiz-adv-x="248" d=" M76,175 L154,175 L154,209 L167,209 L167,175 L248,175 L248,163 L167,163 L167,133 L235,133 L235,59 L222,59 L222,69 L166,69 Q163,31 147,11 Q175,-7 246,-14 Q241,-22 239,-27 Q171,-19 138,1 Q122,-12 73,-30 Q71,-26 67,-21 Q66,-19 65,-18 Q112,-2 126,10 Q109,25 94,49 L106,56 Q117,36 136,19 Q149,35 153,69 L86,69 L86,133 L154,133 L154,163 L76,163 M13,77 Q12,81 8,89 Q7,90 7,91 Q44,148 60,209 L74,206 Q63,173 51,145 L51,-30 L38,-30 L38,118 Q26,96 13,77 M167,111 Q167,95 167,81 L222,81 L222,121 L167,121 M153,81 Q154,94 154,110 L154,121 L100,121 L100,81"/> 
            <glyph glyph-name="保" unicode="&#x4FDD;" horiz-adv-x="249" d=" M93,196 L227,196 L227,117 L93,117 M75,-13 Q74,-12 72,-10 Q68,-4 65,-2 Q117,22 143,67 L70,67 L70,80 L153,80 L153,108 L166,108 L166,80 L249,80 L249,67 L177,67 Q200,23 249,1 Q244,-3 240,-10 Q187,16 166,64 L166,-29 L153,-29 L153,63 Q127,10 75,-13 M107,184 L107,130 L213,130 L213,184 M13,77 Q13,79 10,84 Q7,89 6,90 Q41,139 60,208 L73,205 Q60,164 52,146 L52,-29 L39,-29 L39,119 Q28,98 13,77"/> 
            <glyph glyph-name="信" unicode="&#x4FE1;" horiz-adv-x="249" d=" M95,54 L231,54 L231,-29 L218,-29 L218,-14 L108,-14 L108,-29 L95,-29 M108,42 L108,-2 L218,-2 L218,42 M13,77 Q10,85 7,91 Q42,142 61,209 L74,205 Q65,175 52,147 L52,-29 L39,-29 L39,120 Q26,96 13,77 M148,205 L161,210 Q165,201 173,185 Q172,187 175,180 L164,176 L249,176 L249,163 L78,163 L78,176 L162,176 Q162,177 161,179 Q155,192 148,205 M92,135 L234,135 L234,123 L92,123 M92,95 L234,95 L234,82 L92,82"/> 
            <glyph glyph-name="储" unicode="&#x50A8;" horiz-adv-x="249" d=" M161,209 L174,209 L174,177 L208,177 L208,166 L174,166 L174,126 L185,126 Q210,152 230,189 L242,183 Q224,153 202,126 L249,126 L249,115 L191,115 Q178,100 160,87 L230,87 L230,-28 L217,-28 L217,-11 L156,-11 L156,-28 L143,-28 L143,74 Q131,65 115,56 Q112,60 108,66 Q146,88 174,115 L117,115 L117,126 L161,126 L161,166 L125,166 L125,177 L161,177 M12,79 Q11,81 7,89 Q6,92 5,93 Q36,140 52,210 L65,208 Q60,186 48,151 L48,-29 L35,-29 L35,122 Q25,101 12,79 M96,10 Q103,16 119,28 Q122,30 123,31 Q125,24 126,18 Q119,14 104,2 Q98,-1 95,-3 Q89,-8 85,-12 L77,-3 Q83,3 83,14 L83,115 L61,115 L61,127 L96,127 M156,75 L156,42 L217,42 L217,75 M156,31 L156,0 L217,0 L217,31 M99,151 Q97,156 92,164 Q83,182 77,192 L88,197 Q98,179 110,157"/> 
            <glyph glyph-name="像" unicode="&#x50CF;" horiz-adv-x="246" d=" M76,136 Q72,140 66,146 Q106,174 128,210 L141,207 Q135,198 129,189 L200,189 L200,178 L177,152 L232,152 L232,103 L154,103 Q151,99 147,94 Q162,82 170,67 Q196,80 223,98 L230,88 Q224,84 212,77 Q204,72 199,69 Q210,23 246,0 Q240,-3 236,-9 Q200,17 188,63 Q187,62 184,61 Q182,60 174,56 Q180,39 180,12 Q181,-24 142,-25 Q133,-25 121,-25 Q121,-19 119,-12 Q128,-13 141,-13 Q168,-14 167,13 Q167,27 166,37 Q135,3 74,-18 Q73,-17 70,-13 Q67,-10 66,-8 Q130,13 163,50 Q160,59 155,68 Q123,33 74,17 Q71,24 66,28 Q119,46 149,76 Q145,82 139,87 Q123,71 74,52 Q73,54 70,58 Q67,62 66,63 Q120,82 139,103 L88,103 L88,145 Q82,141 76,136 M12,77 Q7,87 5,90 Q38,138 60,208 L72,205 Q66,185 52,151 Q51,149 51,148 L51,-28 L38,-28 L38,121 Q27,98 12,77 M184,178 L120,178 Q108,165 95,152 L161,152 M219,142 L169,142 Q166,126 161,114 L219,114 M100,142 L100,114 L147,114 Q155,126 156,142"/> 
            <glyph glyph-name="兔" unicode="&#x5154;" horiz-adv-x="249" d=" M16,115 Q12,121 7,127 Q59,162 90,211 L105,206 Q98,196 90,187 L186,187 L186,173 L154,140 L217,140 L217,64 L144,64 L144,6 Q143,-11 166,-10 L207,-10 Q229,-11 231,6 Q232,11 234,25 Q235,34 236,39 Q242,36 249,35 Q248,21 244,2 Q238,-24 210,-23 L162,-23 Q130,-23 130,4 L130,64 L123,64 Q104,2 17,-31 Q13,-23 8,-17 Q88,10 108,64 L37,64 L37,131 Q27,124 16,115 M204,128 L133,128 Q133,100 127,76 L204,76 M50,128 L50,76 L112,76 Q119,100 120,128 M169,175 L81,175 Q65,157 47,140 L135,140 M167,41 L176,50 Q192,37 210,22 L201,12 Q182,30 167,41"/> 
            <glyph glyph-name="入" unicode="&#x5165;" horiz-adv-x="249" d=" M79,197 L89,206 Q121,182 148,120 Q187,27 249,-6 Q243,-14 237,-21 Q175,21 137,112 Q136,115 133,120 Q132,124 126,134 Q96,34 18,-22 Q12,-13 7,-10 Q88,44 117,152 Q100,181 79,197"/> 
            <glyph glyph-name="全" unicode="&#x5168;" horiz-adv-x="249" d=" M48,115 L207,115 L207,102 L135,102 L135,57 L217,57 L217,44 L135,44 L135,-3 L239,-3 L239,-16 L17,-16 L17,-3 L121,-3 L121,44 L39,44 L39,57 L121,57 L121,102 L48,102 M239,107 Q165,143 129,193 Q83,139 16,105 Q11,111 6,116 Q88,159 126,212 L141,209 Q139,206 136,203 Q177,151 249,120 Q246,115 239,107"/> 
            <glyph glyph-name="其" unicode="&#x5176;" horiz-adv-x="249" d=" M13,176 L52,176 L52,209 L66,209 L66,176 L190,176 L190,209 L203,209 L203,176 L243,176 L243,164 L203,164 L203,43 L249,43 L249,31 L8,31 L8,43 L52,43 L52,164 L13,164 M66,76 L66,43 L190,43 L190,76 M66,120 L66,88 L190,88 L190,120 M66,164 L66,132 L190,132 L190,164 M94,20 L103,8 Q44,-19 16,-30 Q13,-22 8,-17 Q59,0 94,20 M153,8 L160,20 Q165,18 177,13 Q228,-7 248,-16 L240,-29 Q211,-14 153,8"/> 
            <glyph glyph-name="册" unicode="&#x518C;" horiz-adv-x="249" d=" M7,107 L36,107 L36,197 L112,197 L112,107 L144,107 L144,197 L222,197 L222,107 L249,107 L249,94 L222,94 L222,0 Q223,-25 197,-24 Q184,-25 172,-25 Q172,-23 171,-18 Q170,-13 169,-11 Q174,-11 182,-12 Q189,-12 193,-12 Q210,-13 209,2 L209,94 L158,94 Q157,43 152,20 Q147,-3 130,-29 Q124,-24 118,-21 Q135,3 139,25 Q144,46 144,94 L112,94 L112,5 Q113,-17 89,-18 Q81,-18 66,-18 Q66,-16 65,-11 Q64,-6 63,-4 Q72,-5 83,-5 Q99,-6 98,8 L98,94 L50,94 Q49,44 44,21 Q39,-3 24,-29 Q21,-27 15,-23 Q13,-22 12,-21 Q27,4 31,25 Q36,47 36,94 L7,94 M158,184 L158,107 L209,107 L209,184 M50,184 L50,107 L98,107 L98,184"/> 
            <glyph glyph-name="冻" unicode="&#x51BB;" horiz-adv-x="249" d=" M170,137 L170,93 L244,93 L244,80 L170,80 L170,1 Q171,-24 145,-25 Q133,-26 115,-26 Q115,-23 113,-13 Q112,-12 112,-11 Q122,-12 140,-12 Q158,-13 156,4 L156,80 L82,80 L82,94 Q99,124 115,161 L73,161 L73,174 L121,174 Q129,192 135,211 L150,208 Q144,192 135,174 L246,174 L246,161 L130,161 Q121,142 104,106 Q100,97 98,93 L156,93 L156,137 M10,-12 Q30,34 49,90 Q50,89 53,88 Q59,86 63,84 Q60,75 52,55 Q33,3 25,-19 M110,56 L122,49 Q96,10 74,-15 L63,-6 Q91,25 110,56 M191,52 L202,58 Q227,27 249,-3 L237,-11 Q231,-3 214,20 Q197,44 191,52 M47,137 Q29,168 13,189 L25,196 Q43,172 60,145"/> 
            <glyph glyph-name="净" unicode="&#x51C0;" horiz-adv-x="248" d=" M76,130 Q72,134 66,140 Q101,168 128,211 L141,207 Q134,195 126,185 L203,185 L203,172 L173,139 L224,139 L224,94 L248,94 L248,82 L224,82 L224,22 L210,22 L210,36 L156,36 L156,6 Q157,-25 122,-25 Q108,-25 99,-25 Q99,-23 98,-18 Q97,-13 96,-11 Q106,-11 119,-11 Q145,-12 143,9 L143,36 L79,36 L79,48 L143,48 L143,82 L67,82 L67,94 L143,94 L143,127 L85,127 L85,137 M188,174 L118,174 Q104,155 86,139 L157,139 M156,82 L156,48 L210,48 L210,82 M210,127 L156,127 L156,94 L210,94 M12,0 Q26,39 38,89 Q43,86 52,83 Q38,33 26,-5 M43,129 Q27,163 13,186 L25,192 Q42,160 56,135"/> 
            <glyph glyph-name="准" unicode="&#x51C6;" horiz-adv-x="248" d=" M66,100 Q65,101 62,104 Q57,108 55,110 Q91,149 117,209 L130,205 Q120,183 109,164 L246,164 L246,152 L181,152 L181,109 L243,109 L243,97 L181,97 L181,55 L243,55 L243,43 L181,43 L181,0 L248,0 L248,-10 L103,-10 L103,-29 L90,-29 L90,132 Q78,115 66,100 M103,43 L103,0 L167,0 L167,43 M103,97 L103,55 L167,55 L167,97 M103,152 L103,109 L167,109 L167,152 M11,-13 Q32,40 45,84 Q51,81 59,79 Q42,30 26,-19 M45,134 Q29,166 15,189 L26,195 Q42,168 57,141 M156,202 L168,209 Q171,204 178,193 Q187,179 190,173 L178,166 Q167,187 156,202"/> 
            <glyph glyph-name="出" unicode="&#x51FA;" horiz-adv-x="229" d=" M33,100 L33,184 L47,184 L47,113 L121,113 L121,207 L134,207 L134,113 L209,113 L209,184 L222,184 L222,100 L134,100 L134,-3 L216,-3 L216,67 L229,67 L229,-25 L216,-25 L216,-16 L26,-16 L26,67 L40,67 L40,-3 L121,-3 L121,100"/> 
            <glyph glyph-name="分" unicode="&#x5206;" horiz-adv-x="248" d=" M39,99 L200,99 Q199,52 196,19 Q195,-22 152,-22 Q129,-23 114,-23 Q114,-16 112,-8 Q116,-8 126,-8 Q141,-9 151,-9 Q181,-11 182,21 Q185,51 185,87 L101,87 Q100,3 23,-30 Q22,-28 17,-22 Q15,-19 14,-18 Q86,8 87,87 L39,87 M148,205 L161,210 Q188,143 248,111 Q242,104 237,98 Q175,138 148,205 M17,98 Q16,100 12,104 Q9,108 7,109 Q63,147 95,206 L108,200 Q71,137 17,98"/> 
            <glyph glyph-name="别" unicode="&#x522B;" horiz-adv-x="237" d=" M24,196 L132,196 L132,117 L24,117 M15,81 L56,81 Q56,85 56,93 Q57,102 57,107 L70,107 Q70,93 70,81 L134,81 Q134,58 132,12 Q131,-23 95,-23 Q78,-23 65,-23 Q65,-16 62,-8 Q80,-10 92,-10 Q117,-12 118,13 Q120,43 118,18 Q120,43 120,69 L69,69 Q68,7 17,-29 Q16,-28 13,-25 Q8,-21 6,-19 Q55,13 55,69 L15,69 M38,183 L38,129 L119,129 L119,183 M221,208 L235,208 L235,4 Q237,-25 202,-25 Q185,-25 170,-25 Q169,-17 167,-11 Q175,-12 198,-12 Q222,-13 221,5 M169,183 L182,183 L182,29 L169,29"/> 
            <glyph glyph-name="剪" unicode="&#x526A;" horiz-adv-x="246" d=" M43,55 L30,55 L30,152 L131,152 L131,77 Q132,56 106,55 Q97,55 87,55 Q87,56 86,61 Q85,66 85,67 Q87,67 91,67 Q98,66 103,66 Q119,65 118,80 L118,83 L43,83 M18,40 L226,40 Q225,31 223,13 Q222,4 222,1 Q218,-24 185,-24 Q176,-25 137,-25 Q137,-17 135,-11 Q142,-12 183,-12 Q206,-13 209,5 Q210,8 211,18 Q212,25 212,28 L109,28 Q104,-16 22,-31 Q21,-28 16,-22 Q15,-20 14,-19 Q94,-4 95,28 L18,28 M70,203 L81,211 Q98,194 103,187 L95,181 L155,181 Q161,188 173,205 Q176,209 177,211 L190,204 Q187,201 181,193 Q174,185 171,181 L246,181 L246,170 L11,170 L11,181 L90,181 Q82,191 70,203 M213,157 L226,157 L226,85 Q227,56 201,56 Q182,56 169,56 Q169,58 168,63 Q168,67 167,69 Q174,68 197,68 Q214,67 213,86 M43,112 L43,94 L118,94 L118,112 M43,141 L43,123 L118,123 L118,141 M164,150 L177,150 L177,89 L164,89"/> 
            <glyph glyph-name="力" unicode="&#x529B;" horiz-adv-x="229" d=" M103,209 L117,209 Q117,171 116,152 L229,152 Q229,144 228,126 Q227,61 225,32 Q224,-22 176,-20 Q148,-21 134,-21 Q133,-17 132,-12 Q131,-8 131,-5 Q149,-6 174,-6 Q211,-9 211,36 Q211,43 212,58 Q214,114 214,139 L115,139 Q114,136 114,135 Q113,22 21,-27 Q20,-26 17,-23 Q12,-17 10,-16 Q99,33 100,131 Q100,134 100,139 L18,139 L18,152 L101,152 Q103,190 103,209"/> 
            <glyph glyph-name="务" unicode="&#x52A1;" horiz-adv-x="248" d=" M241,86 Q173,93 130,113 Q83,93 14,82 Q11,89 6,95 Q74,105 115,121 Q86,139 65,166 Q47,147 22,126 Q21,127 18,130 Q16,133 12,136 Q58,171 86,211 L99,206 Q92,196 84,187 L216,187 L216,173 Q178,138 145,121 Q181,104 248,100 Q247,99 246,96 Q245,94 241,86 M26,67 L97,67 Q99,78 100,93 L113,93 Q113,78 111,67 L214,67 Q214,55 212,33 Q211,24 211,19 Q210,-26 166,-24 Q151,-25 129,-25 Q129,-23 128,-20 Q127,-13 126,-10 Q137,-11 164,-11 Q196,-13 197,19 Q199,35 199,54 L109,54 Q103,-4 19,-31 Q13,-22 9,-19 Q90,5 95,54 L26,54 M198,175 L74,175 Q101,144 130,128 Q165,144 198,175"/> 
            <glyph glyph-name="动" unicode="&#x52A8;" horiz-adv-x="241" d=" M162,210 L175,210 Q175,187 175,157 L241,157 Q241,153 241,145 Q239,41 237,15 Q235,-22 201,-23 Q186,-23 170,-23 Q168,-14 165,-7 Q171,-7 182,-8 Q193,-8 199,-8 Q222,-9 223,15 Q227,88 227,144 L174,144 Q174,132 173,119 Q173,25 119,-29 Q117,-27 111,-23 Q108,-21 107,-20 Q158,28 159,120 Q160,124 160,132 Q161,140 161,144 L122,144 L122,157 L161,157 Q161,165 161,182 Q162,200 162,210 M108,0 Q105,5 102,11 Q80,10 47,7 Q36,6 30,5 Q25,4 18,3 Q19,3 14,2 L8,14 Q16,20 21,32 Q35,61 52,104 L8,104 L8,118 L123,118 L123,104 L67,104 Q48,58 28,17 Q61,19 97,23 Q93,32 84,52 Q79,61 77,66 L89,71 Q100,51 119,10 Q120,7 121,5 M19,188 L113,188 L113,175 L19,175"/> 
            <glyph glyph-name="包" unicode="&#x5305;" horiz-adv-x="248" d=" M42,132 L148,132 L148,62 L56,62 L56,13 Q55,-8 81,-7 L199,-7 Q227,-8 229,9 Q233,26 234,45 Q236,44 240,43 Q246,41 248,40 Q246,23 242,4 Q238,-21 202,-21 L78,-21 Q41,-22 42,12 M68,211 L83,207 Q77,193 71,181 L217,181 Q217,175 216,163 Q215,98 213,63 Q212,21 172,23 Q159,22 141,22 Q141,30 138,37 Q142,37 152,37 Q164,36 171,36 Q198,35 199,63 Q202,114 202,168 L64,168 Q46,134 15,99 Q11,105 6,111 Q47,154 68,211 M56,119 L56,74 L135,74 L135,119"/> 
            <glyph glyph-name="化" unicode="&#x5316;" horiz-adv-x="249" d=" M84,44 Q79,52 76,56 Q109,73 137,91 L137,205 L151,205 L151,101 Q190,130 224,175 L237,167 Q199,120 151,84 L151,15 Q149,-8 175,-6 L203,-6 Q227,-7 230,9 Q232,18 236,53 Q240,50 249,48 Q248,24 243,5 Q239,-20 204,-20 L171,-20 Q136,-21 137,13 L137,74 Q112,58 84,44 M15,71 Q13,76 8,82 Q7,84 6,85 Q50,137 77,207 L91,203 Q76,169 60,140 L60,-29 L47,-29 L47,116 Q32,92 15,71"/> 
            <glyph glyph-name="十" unicode="&#x5341;" horiz-adv-x="247" d=" M121,209 L135,209 L135,116 L247,116 L247,101 L135,101 L135,-29 L121,-29 L121,101 L9,101 L9,116 L121,116"/> 
            <glyph glyph-name="单" unicode="&#x5355;" horiz-adv-x="248" d=" M8,34 L121,34 L121,65 L33,65 L33,172 L154,172 Q156,175 161,181 Q168,190 183,211 L195,204 Q182,186 170,172 L223,172 L223,65 L135,65 L135,34 L248,34 L248,21 L135,21 L135,-31 L121,-31 L121,21 L8,21 M135,113 L135,78 L210,78 L210,113 M46,113 L46,78 L121,78 L121,113 M210,159 L135,159 L135,125 L210,125 M46,159 L46,125 L121,125 L121,159 M60,203 L71,211 Q74,207 83,198 Q97,184 100,180 L88,172 Q74,191 60,203"/> 
            <glyph glyph-name="卡" unicode="&#x5361;" horiz-adv-x="247" d=" M111,210 L125,210 L125,172 L231,172 L231,159 L125,159 L125,114 L247,114 L247,101 L10,101 L10,114 L111,114 M222,10 Q188,30 125,60 L125,-29 L111,-29 L111,91 L125,91 L125,62 L131,71 Q172,52 231,23"/> 
            <glyph glyph-name="即" unicode="&#x5373;" horiz-adv-x="236" d=" M124,-4 Q122,-1 115,7 Q108,17 104,22 Q60,0 41,-8 Q39,-9 36,-12 Q30,-16 27,-18 L17,-6 Q25,1 24,12 L24,193 L118,193 L118,77 L38,77 L38,3 Q45,6 66,17 Q87,28 96,32 Q93,36 88,43 Q80,52 77,56 L88,63 Q119,25 135,2 M152,189 L234,189 L234,41 Q236,12 205,12 Q193,12 180,12 Q179,18 177,26 Q189,25 200,25 Q222,24 221,44 L221,176 L165,176 L165,-29 L152,-29 M38,89 L104,89 L104,129 L38,129 M38,181 L38,141 L104,141 L104,181"/> 
            <glyph glyph-name="压" unicode="&#x538B;" horiz-adv-x="247" d=" M57,-1 L145,-1 L145,91 L76,91 L76,104 L145,104 L145,160 L159,160 L159,104 L237,104 L237,91 L159,91 L159,-1 L247,-1 L247,-15 L57,-15 M51,111 Q51,54 45,28 Q39,1 20,-26 Q19,-25 15,-23 Q8,-18 7,-17 Q26,8 31,32 Q37,56 37,106 L37,192 L246,192 L246,178 L51,178 M186,60 L197,68 Q206,59 222,41 Q228,34 231,31 L219,22 Q203,42 186,60"/> 
            <glyph glyph-name="双" unicode="&#x53CC;" horiz-adv-x="250" d=" M118,177 L118,190 L233,190 L233,177 Q219,85 185,41 Q208,9 250,-12 Q247,-14 241,-24 Q240,-25 240,-25 Q197,1 176,30 Q152,-1 99,-30 Q97,-27 93,-22 Q90,-18 90,-17 Q142,9 168,42 Q135,88 126,177 M13,144 L25,151 Q32,140 46,118 Q63,92 71,80 Q87,118 94,177 L9,177 L9,190 L108,190 L108,177 Q99,107 80,66 Q98,36 114,11 L101,3 Q97,9 90,21 Q78,41 72,50 Q54,16 18,-21 Q14,-16 7,-11 Q45,28 64,64 Q52,84 25,125 Q17,138 13,144 M219,177 L140,177 Q147,96 177,53 Q208,96 219,177"/> 
            <glyph glyph-name="台" unicode="&#x53F0;" horiz-adv-x="250" d=" M215,78 L215,-29 L201,-29 L201,-13 L55,-13 L55,-29 L41,-29 L41,78 M55,65 L55,0 L201,0 L201,65 M237,94 Q228,105 217,115 Q121,114 45,109 Q32,109 21,106 L14,121 Q26,127 33,133 Q79,172 111,211 L125,204 Q91,166 42,123 Q81,124 173,127 Q194,128 205,128 Q199,135 185,148 Q172,161 165,167 L176,175 Q193,160 225,128 Q242,112 250,104"/> 
            <glyph glyph-name="号" unicode="&#x53F7;" horiz-adv-x="249" d=" M46,198 L210,198 L210,130 L46,130 M45,44 L61,88 L7,88 L7,102 L249,102 L249,88 L76,88 L65,57 L214,57 Q213,43 211,22 Q210,14 210,10 Q207,-24 159,-24 Q135,-25 108,-25 Q107,-18 105,-9 Q121,-10 158,-10 Q194,-12 196,13 Q197,18 198,29 Q199,40 199,44 M60,185 L60,143 L196,143 L196,185"/> 
            <glyph glyph-name="名" unicode="&#x540D;" horiz-adv-x="224" d=" M110,210 L124,205 Q114,193 103,182 L224,182 L224,168 Q171,109 89,77 L224,77 L224,-30 L210,-30 L210,-13 L71,-13 L71,-30 L57,-30 L57,64 Q51,62 37,57 Q22,52 14,49 Q11,56 7,62 Q137,96 207,169 L90,169 Q84,163 76,156 Q94,141 114,122 L102,112 Q93,122 77,137 Q70,144 66,148 Q45,132 20,116 Q16,122 11,127 Q73,163 110,210 M71,63 L71,0 L210,0 L210,63"/> 
            <glyph glyph-name="后" unicode="&#x540E;" horiz-adv-x="247" d=" M79,77 L224,77 L224,-27 L210,-27 L210,-11 L93,-11 L93,-27 L79,-27 M51,115 Q51,63 45,35 Q39,7 19,-27 Q18,-26 15,-24 Q9,-20 7,-18 Q25,9 31,37 Q37,64 37,115 L37,188 Q133,190 227,202 L233,188 Q138,178 51,174 L51,135 L247,135 L247,122 L51,122 M93,64 L93,0 L210,0 L210,64"/> 
            <glyph glyph-name="启" unicode="&#x542F;" horiz-adv-x="235" d=" M124,208 L137,211 Q139,208 143,197 Q148,186 150,181 L235,181 L235,112 L48,112 Q48,58 42,29 Q36,0 18,-29 Q16,-27 10,-23 Q7,-21 6,-20 Q24,6 29,32 Q35,58 35,111 L35,181 L134,181 Q130,193 124,208 M232,71 L232,-29 L218,-29 L218,-11 L86,-11 L86,-29 L72,-29 L72,71 M86,59 L86,0 L218,0 L218,59 M48,169 L48,125 L221,125 L221,169"/> 
            <glyph glyph-name="周" unicode="&#x5468;" horiz-adv-x="238" d=" M44,104 Q44,51 39,24 Q34,-2 18,-29 Q16,-28 12,-26 Q8,-23 6,-22 Q21,1 25,26 Q30,51 30,104 L30,199 L236,199 L236,6 Q238,-25 204,-25 Q188,-26 170,-26 Q170,-25 169,-22 Q168,-15 166,-11 Q172,-11 186,-12 Q197,-12 201,-12 Q223,-13 222,6 L222,187 L44,187 M80,73 L185,73 L185,10 L80,10 M73,153 L126,153 L126,177 L140,177 L140,153 L194,153 L194,141 L140,141 L140,111 L205,111 L205,99 L61,99 L61,111 L126,111 L126,141 L73,141 M93,61 L93,22 L172,22 L172,61"/> 
            <glyph glyph-name="响" unicode="&#x54CD;" horiz-adv-x="234" d=" M19,177 L74,177 L74,10 L61,10 L61,29 L32,29 L32,6 L19,6 M100,174 L144,174 Q145,178 147,186 Q151,202 153,210 L166,208 Q165,204 163,197 Q159,182 156,174 L233,174 L233,0 Q234,-24 209,-26 Q197,-26 182,-26 Q182,-24 181,-20 Q180,-15 179,-13 Q187,-14 205,-14 Q222,-15 221,1 L221,162 L112,162 L112,-29 L100,-29 M136,126 L197,126 L197,28 L136,28 M32,165 L32,41 L61,41 L61,165 M148,114 L148,40 L185,40 L185,114"/> 
            <glyph glyph-name="器" unicode="&#x5668;" horiz-adv-x="248" d=" M241,53 Q153,57 131,98 L125,98 Q115,63 14,51 Q13,53 11,57 Q8,61 7,63 Q99,73 111,98 L15,98 L15,109 L116,109 Q119,118 120,130 L133,130 Q132,118 129,109 L180,109 Q176,116 170,126 L182,131 Q188,121 194,109 L243,109 L243,98 L145,98 Q168,67 248,66 Q247,64 243,57 Q241,54 241,53 M143,45 L227,45 L227,-29 L214,-29 L214,-16 L156,-16 L156,-28 L143,-28 M28,45 L111,45 L111,-28 L99,-28 L99,-16 L41,-16 L41,-29 L28,-29 M143,196 L226,196 L226,135 L143,135 M28,196 L110,196 L110,135 L28,135 M156,34 L156,-5 L214,-5 L214,34 M41,34 L41,-5 L99,-5 L99,34 M156,185 L156,146 L213,146 L213,185 M41,185 L41,146 L98,146 L98,185"/> 
            <glyph glyph-name="在" unicode="&#x5728;" horiz-adv-x="248" d=" M103,210 L117,208 Q111,190 104,175 L248,175 L248,162 L98,162 Q84,130 63,103 L63,-28 L49,-28 L49,87 Q30,65 16,54 Q13,59 7,65 Q60,111 83,162 L18,162 L18,175 L89,175 Q97,191 103,210 M154,142 L167,142 L167,92 L234,92 L234,80 L167,80 L167,2 L248,2 L248,-9 L75,-9 L75,2 L154,2 L154,80 L88,80 L88,92 L154,92"/> 
            <glyph glyph-name="均" unicode="&#x5747;" horiz-adv-x="240" d=" M105,106 Q104,107 101,109 Q94,113 91,114 Q121,153 138,209 L152,205 Q150,200 147,190 Q141,175 138,168 L240,168 Q237,57 236,18 Q236,-24 190,-23 Q166,-23 151,-23 Q151,-19 149,-11 Q148,-9 148,-8 Q160,-9 190,-9 Q222,-11 222,20 Q222,29 223,57 Q226,144 226,155 L132,155 Q120,128 105,106 M13,0 L8,15 Q13,17 23,21 Q37,26 45,29 L45,133 L11,133 L11,145 L45,145 L45,208 L59,208 L59,145 L91,145 L91,133 L59,133 L59,34 Q77,42 95,48 Q95,39 96,33 Q60,21 13,0 M111,18 L105,32 Q124,39 184,64 Q197,70 204,73 Q204,68 206,58 Q169,44 111,18 M129,116 L139,123 Q146,117 158,105 Q170,94 177,87 L165,77 Q158,85 142,103 Q133,112 129,116"/> 
            <glyph glyph-name="基" unicode="&#x57FA;" horiz-adv-x="248" d=" M9,84 L59,84 L59,172 L17,172 L17,184 L59,184 L59,210 L72,210 L72,184 L184,184 L184,210 L198,210 L198,184 L240,184 L240,172 L198,172 L198,84 L247,84 L247,72 L170,72 Q199,42 248,25 Q247,23 245,19 Q242,15 241,13 Q181,37 155,72 L100,72 Q69,36 16,9 Q13,15 8,21 Q56,42 84,72 L9,72 M122,59 L135,59 L135,35 L193,35 L193,24 L135,24 L135,-5 L232,-5 L232,-16 L23,-16 L23,-5 L122,-5 L122,24 L63,24 L63,35 L122,35 M72,106 L72,84 L184,84 L184,106 M72,139 L72,117 L184,117 L184,139 M72,172 L72,150 L184,150 L184,172"/> 
            <glyph glyph-name="增" unicode="&#x589E;" horiz-adv-x="239" d=" M87,175 L135,175 Q124,190 112,204 L123,211 Q135,197 146,182 L136,175 L176,175 Q187,187 203,211 L215,204 Q211,199 203,189 Q195,179 191,175 L239,175 L239,94 L87,94 M97,71 L228,71 L228,-30 L216,-30 L216,-18 L110,-18 L110,-30 L97,-30 M11,2 L6,15 Q21,20 39,24 L39,130 L10,130 L10,142 L39,142 L39,208 L52,208 L52,142 L77,142 L77,130 L52,130 L52,27 Q55,28 62,30 Q76,35 82,36 Q82,31 82,23 Q47,14 11,2 M226,164 L169,164 L169,104 L226,104 M100,164 L100,104 L156,104 L156,164 M110,20 L110,-7 L216,-7 L216,20 M110,60 L110,31 L216,31 L216,60 M215,145 Q212,140 197,123 Q193,118 192,117 L182,125 Q197,140 205,152 M111,146 L121,153 Q128,144 143,126 L133,118 Q126,128 111,146"/> 
            <glyph glyph-name="多" unicode="&#x591A;" horiz-adv-x="238" d=" M157,115 L169,108 Q157,98 145,89 L238,89 L238,75 Q166,-5 22,-30 Q21,-28 19,-24 Q17,-19 16,-17 Q151,4 221,77 L127,77 Q116,68 104,62 Q112,56 128,45 Q138,38 143,34 L133,24 Q112,42 92,55 Q67,41 37,29 Q29,42 29,42 Q102,69 157,115 M127,213 L142,209 Q129,197 114,186 L227,186 L227,173 Q157,108 18,73 Q17,76 14,83 Q12,85 12,86 Q139,116 208,173 L98,173 Q92,169 84,164 Q105,152 125,137 L116,127 Q109,132 97,140 Q82,151 73,157 Q65,152 46,142 Q37,138 32,135 Q29,141 24,147 Q84,172 127,213"/> 
            <glyph glyph-name="大" unicode="&#x5927;" horiz-adv-x="248" d=" M20,-28 Q18,-26 15,-23 Q11,-18 9,-16 Q114,34 119,127 L10,127 L10,141 L120,141 Q123,174 122,209 L136,209 Q136,164 135,141 L246,141 L246,127 L135,127 Q150,30 248,-11 Q239,-21 238,-24 Q144,19 128,104 Q117,19 20,-28"/> 
            <glyph glyph-name="天" unicode="&#x5929;" horiz-adv-x="248" d=" M20,-28 Q14,-19 9,-16 Q108,25 117,99 L9,99 L9,113 L119,113 Q121,133 121,180 L23,180 L23,193 L234,193 L234,180 L135,180 Q135,135 133,113 L247,113 L247,99 L138,99 Q155,14 248,-12 Q245,-16 241,-21 Q239,-24 238,-25 Q144,7 128,89 Q115,13 20,-28"/> 
            <glyph glyph-name="套" unicode="&#x5957;" horiz-adv-x="249" d=" M12,39 L60,39 L60,130 Q40,119 13,107 Q10,113 6,119 Q61,138 94,170 L15,170 L15,183 L104,183 Q114,196 120,212 L134,208 Q128,193 120,183 L241,183 L241,170 L162,170 Q193,137 249,125 Q245,119 242,113 Q177,132 148,170 L112,170 Q97,152 72,137 L184,137 L184,125 L74,125 L74,104 L204,104 L204,92 L74,92 L74,72 L205,72 L205,60 L74,60 L74,39 L245,39 L245,27 L106,27 Q87,9 62,-6 Q74,-6 99,-5 Q160,-4 186,-3 Q185,-2 183,-1 Q175,6 163,15 L173,24 Q182,16 199,2 Q216,-12 225,-20 L214,-30 L198,-14 Q164,-15 97,-18 Q74,-19 62,-19 Q56,-19 44,-21 Q52,-19 42,-21 L37,-8 Q45,-5 52,0 Q69,10 87,27 L12,27"/> 
            <glyph glyph-name="好" unicode="&#x597D;" horiz-adv-x="249" d=" M109,10 L98,0 Q88,7 65,27 Q50,3 17,-24 Q12,-19 6,-13 Q40,10 55,36 Q49,41 37,52 Q24,62 18,67 Q24,91 34,144 L10,144 L10,157 L37,157 Q39,166 41,183 Q44,201 45,209 L59,208 Q55,181 50,157 L97,157 L97,144 Q91,74 72,39 Q92,24 109,10 M154,-11 Q173,-12 172,6 L172,84 L103,84 L103,97 L172,97 L172,137 L222,180 L113,180 L113,192 L239,192 L239,177 L186,132 L186,97 L249,97 L249,84 L186,84 L186,4 Q187,-24 156,-25 Q139,-25 127,-25 Q126,-18 124,-10 Q139,-11 154,-11 M83,144 L48,144 Q40,102 47,138 Q40,102 31,72 Q34,70 41,65 Q45,62 62,48 Q80,85 83,144"/> 
            <glyph glyph-name="始" unicode="&#x59CB;" horiz-adv-x="248" d=" M117,76 L231,76 L231,-29 L217,-29 L217,-12 L131,-12 L131,-29 L117,-29 M104,7 L94,-2 Q79,9 64,24 Q48,0 15,-26 Q12,-22 6,-15 Q38,9 54,33 Q48,39 36,49 Q23,60 17,65 Q27,102 34,143 L7,143 L7,156 L36,156 Q37,166 40,185 Q42,201 43,209 L57,207 Q54,180 49,156 L96,156 L96,143 Q91,69 71,36 Q82,27 101,10 Q103,8 104,7 M131,64 L131,0 L217,0 L217,64 M126,123 Q137,123 162,125 Q199,126 218,127 Q215,131 210,140 Q199,158 194,166 L205,173 Q226,143 248,103 L236,95 Q231,105 225,114 Q200,114 154,112 Q140,111 133,111 Q130,111 122,110 Q115,110 112,109 L104,122 Q113,128 121,139 Q142,168 163,210 L177,205 Q150,159 126,123 M83,143 L47,143 Q38,100 31,69 Q45,57 60,45 Q78,77 83,143"/> 
            <glyph glyph-name="子" unicode="&#x5B50;" horiz-adv-x="249" d=" M124,126 L201,181 L34,181 L34,195 L223,195 L223,179 L139,119 L139,96 L249,96 L249,82 L139,82 L139,5 Q140,-24 107,-25 Q95,-26 71,-26 Q71,-17 68,-9 Q81,-10 103,-10 Q125,-10 124,8 L124,82 L7,82 L7,96 L124,96"/> 
            <glyph glyph-name="存" unicode="&#x5B58;" horiz-adv-x="249" d=" M95,212 L110,208 Q104,195 100,183 L248,183 L248,170 L94,170 Q79,137 60,108 L60,-29 L46,-29 L46,88 Q32,70 15,50 Q11,56 5,62 Q51,108 79,170 L14,170 L14,183 L84,183 Q90,197 95,212 M163,86 L215,124 L95,124 L95,137 L232,137 L232,122 L176,81 L176,68 L249,68 L249,56 L176,56 L176,0 Q178,-26 148,-26 Q136,-27 117,-27 Q117,-25 116,-22 Q115,-16 114,-12 Q130,-13 145,-13 Q164,-14 163,0 L163,56 L76,56 L76,68 L163,68"/> 
            <glyph glyph-name="完" unicode="&#x5B8C;" horiz-adv-x="248" d=" M10,-17 Q54,-2 68,12 Q82,27 83,63 L14,63 L14,75 L243,75 L243,63 L161,63 L161,10 Q159,-10 183,-8 L208,-8 Q229,-9 231,5 Q233,17 235,33 Q239,31 248,28 Q248,15 244,1 Q242,-22 208,-21 L182,-21 Q146,-22 147,7 L147,63 L97,63 Q102,-4 18,-29 Q17,-27 12,-20 Q11,-18 10,-17 M115,207 L128,211 Q135,196 141,182 L131,179 L236,179 L236,138 L222,138 L222,166 L34,166 L34,138 L20,138 L20,179 L127,179 Q126,181 124,187 Q118,201 115,207 M44,127 L214,127 L214,115 L44,115"/> 
            <glyph glyph-name="家" unicode="&#x5BB6;" horiz-adv-x="246" d=" M20,21 Q15,29 12,34 Q74,51 112,86 Q108,94 102,100 Q63,76 17,63 Q16,65 12,70 Q10,74 9,76 Q73,92 115,125 L41,125 L41,137 L215,137 L215,125 L134,125 Q124,116 112,108 Q125,93 136,72 Q181,92 213,110 L221,99 Q199,87 173,75 Q191,21 246,2 Q242,-3 237,-9 Q181,13 162,69 Q152,65 141,60 Q148,40 148,20 Q149,-26 112,-26 Q98,-26 82,-26 Q81,-23 80,-17 Q78,-14 78,-12 Q85,-12 96,-13 Q105,-13 109,-13 Q136,-15 135,19 Q135,32 132,44 Q90,0 18,-22 Q15,-16 10,-9 Q82,9 128,57 Q127,59 125,64 Q122,72 119,76 Q84,43 20,21 M116,207 L129,212 Q133,206 139,191 Q142,185 143,182 L132,178 L240,178 L240,141 L226,141 L226,166 L29,166 L29,141 L16,141 L16,178 L130,178 Q128,183 123,193 Q119,202 116,207"/> 
            <glyph glyph-name="寸" unicode="&#x5BF8;" horiz-adv-x="246" d=" M173,209 L187,209 L187,161 L246,161 L246,147 L187,147 L187,20 Q189,-24 144,-22 Q131,-23 95,-23 Q94,-20 93,-14 Q91,-9 91,-7 Q96,-7 107,-7 Q127,-8 140,-8 Q175,-11 173,23 L173,147 L10,147 L10,161 L173,161 M99,50 Q69,86 41,116 L52,125 Q84,91 111,59"/> 
            <glyph glyph-name="将" unicode="&#x5C06;" horiz-adv-x="250" d=" M90,138 Q89,139 86,143 Q82,147 81,148 Q123,174 153,211 L165,205 Q163,203 159,198 Q154,191 142,180 L239,180 L239,167 Q192,110 91,87 Q90,90 84,99 Q177,119 222,167 L129,167 Q125,164 120,161 Q124,158 130,153 Q145,142 153,135 L142,126 Q133,135 114,151 Q115,150 111,153 Q102,146 90,138 M199,106 L213,106 L213,75 L250,75 L250,62 L213,62 L213,2 Q214,-24 183,-25 Q177,-25 167,-26 Q158,-26 154,-26 Q154,-24 153,-21 Q152,-15 151,-11 Q165,-12 180,-12 Q200,-13 199,5 L199,62 L82,62 L82,75 L199,75 M5,42 Q37,72 56,92 L56,209 L69,209 L69,-30 L56,-30 L56,73 Q35,52 13,29 M7,164 L18,170 Q20,166 25,157 Q42,128 49,114 L37,108 Q23,135 7,164 M108,46 L118,54 Q125,47 143,29 Q151,21 155,17 L144,8 Q124,30 108,46"/> 
            <glyph glyph-name="小" unicode="&#x5C0F;" horiz-adv-x="249" d=" M63,152 L78,147 Q54,81 23,23 Q16,28 8,31 Q40,82 63,152 M176,145 L189,151 Q208,117 249,34 L234,27 Q207,87 176,145 M123,207 L138,207 L138,4 Q139,-25 107,-26 Q91,-26 73,-26 Q72,-19 69,-11 Q85,-11 101,-11 Q125,-13 123,8"/> 
            <glyph glyph-name="就" unicode="&#x5C31;" horiz-adv-x="250" d=" M25,137 L119,137 L119,72 L78,72 L78,0 Q80,-25 53,-25 Q43,-25 35,-25 Q35,-18 32,-12 Q35,-12 43,-13 Q49,-13 51,-13 Q66,-13 65,0 L65,72 L25,72 M160,210 L173,210 Q173,163 172,138 L242,138 L242,126 L198,126 L198,4 Q197,-11 212,-10 L217,-10 Q232,-11 234,6 Q237,23 237,39 Q239,39 244,37 Q248,36 250,35 Q249,17 246,2 Q243,-24 218,-23 L209,-23 Q185,-23 185,0 L185,126 L171,126 Q168,25 115,-29 Q110,-26 104,-20 Q158,33 158,126 L131,126 L131,138 L159,138 Q160,161 160,210 M38,125 L38,83 L106,83 L106,125 M70,176 L132,176 L132,164 L9,164 L9,176 L70,176 Q70,177 69,179 Q65,198 61,208 L74,211 Q76,204 80,191 Q82,183 83,179 M34,54 L46,49 Q37,28 20,0 Q17,0 12,3 Q9,4 8,5 Q22,26 34,54 M189,184 L198,193 Q217,179 232,167 L223,157 Q215,164 189,184 M91,51 L101,57 Q103,55 106,50 Q117,35 122,27 L112,20 Q110,24 102,34 Q95,46 91,51"/> 
            <glyph glyph-name="屏" unicode="&#x5C4F;" horiz-adv-x="249" d=" M236,138 L48,138 L48,101 Q48,50 42,25 Q35,-1 16,-28 Q11,-23 5,-20 Q24,5 29,29 Q35,52 35,101 L35,196 L236,196 M67,99 L164,99 Q182,125 188,137 L200,130 Q190,115 177,99 L234,99 L234,87 L192,87 L192,48 L249,48 L249,36 L192,36 L192,-29 L179,-29 L179,36 L118,36 Q117,-1 76,-30 Q69,-23 66,-21 Q104,4 105,36 L56,36 L56,48 L106,48 Q106,53 106,59 L106,87 L67,87 M48,184 L48,150 L223,150 L223,184 M119,59 Q119,53 119,48 L179,48 L179,87 L119,87 M97,130 L107,136 Q121,120 129,109 L118,101 Q117,103 114,107 Q104,122 97,130"/> 
            <glyph glyph-name="属" unicode="&#x5C5E;" horiz-adv-x="242" d=" M94,-3 L92,7 Q100,8 118,8 Q135,9 144,9 L144,35 L78,35 L78,-29 L65,-29 L65,45 L144,45 L144,64 L77,64 L77,105 L144,105 L144,124 Q129,124 101,123 Q76,123 65,123 L63,133 Q163,135 232,138 L234,127 Q195,125 156,125 L156,105 L224,105 L224,64 L156,64 L156,45 L240,45 L240,-1 Q242,-27 215,-27 Q204,-27 189,-27 Q189,-26 188,-22 Q187,-18 186,-16 Q194,-16 211,-16 Q229,-18 227,0 L227,35 L156,35 L156,10 Q162,10 174,11 Q185,11 191,12 Q190,13 189,16 Q186,20 185,24 L195,28 Q204,12 210,-1 L200,-6 Q199,-4 197,0 Q196,1 196,2 Q184,1 159,0 Q118,-1 94,-3 M36,197 L235,197 L235,153 L49,153 L49,111 Q49,54 43,28 Q37,1 17,-29 Q10,-22 6,-20 Q24,5 30,31 Q36,56 36,109 M49,187 L49,163 L223,163 L223,187 M212,95 L156,95 L156,74 L212,74 M89,95 L89,74 L144,74 L144,95"/> 
            <glyph glyph-name="幕" unicode="&#x5E55;" horiz-adv-x="249" d=" M242,18 Q239,19 233,21 Q223,24 208,29 L208,7 Q209,-11 184,-12 Q172,-12 159,-12 L157,0 Q160,0 181,0 Q197,-1 196,11 L196,28 L134,28 L134,-30 L122,-30 L122,28 L60,28 L60,-14 L47,-14 L47,30 Q40,26 25,20 Q18,17 14,16 Q11,22 7,28 Q53,43 80,65 L15,65 L15,76 L93,76 Q102,85 109,94 L42,94 L42,162 L214,162 L214,94 L123,94 Q117,85 109,76 L242,76 L242,65 L168,65 Q198,38 249,31 Q248,30 247,28 Q244,24 242,18 M159,210 L172,210 L172,193 L244,193 L244,182 L172,182 L172,168 L159,168 L159,182 L98,182 L98,168 L85,168 L85,182 L13,182 L13,193 L85,193 L85,210 L98,210 L98,193 L159,193 M55,151 L55,133 L201,133 L201,151 M55,123 L55,105 L201,105 L201,123 M122,57 L134,57 L134,39 L186,39 Q168,49 153,65 L99,65 Q84,51 63,39 L122,39"/> 
            <glyph glyph-name="平" unicode="&#x5E73;" horiz-adv-x="247" d=" M21,198 L236,198 L236,184 L135,184 L135,74 L247,74 L247,60 L135,60 L135,-30 L121,-30 L121,60 L9,60 L9,74 L121,74 L121,184 L21,184 M173,93 L161,102 Q192,137 209,162 L221,154 Q211,140 188,111 Q178,99 173,93 M35,154 L46,162 Q69,133 91,103 L78,94 Q57,126 35,154"/> 
            <glyph glyph-name="应" unicode="&#x5E94;" horiz-adv-x="247" d=" M127,207 L140,211 Q141,207 146,195 Q151,180 153,174 L244,174 L244,161 L48,161 L48,111 Q48,55 42,27 Q36,0 17,-28 Q14,-26 6,-20 Q24,7 29,31 Q35,56 35,106 L35,174 L139,174 Q133,192 127,207 M211,132 L225,128 Q199,38 184,0 L247,0 L247,-13 L53,-13 L53,0 L170,0 Q197,74 211,132 M68,122 L81,125 Q95,80 108,28 L95,25 Q82,76 68,122 M128,134 L141,136 Q146,114 155,72 Q160,51 162,40 L148,37 Q137,94 128,134"/> 
            <glyph glyph-name="庭" unicode="&#x5EAD;" horiz-adv-x="248" d=" M164,-19 Q116,-18 91,3 Q79,-10 56,-29 Q54,-26 49,-22 Q47,-20 46,-19 Q72,0 82,12 Q69,27 59,54 L70,59 Q78,38 89,23 Q100,39 106,74 L61,74 L61,85 L104,133 L61,133 L61,145 L119,145 L119,131 L79,86 L118,86 L118,74 Q112,37 98,13 Q119,-7 165,-6 Q200,-8 248,-6 Q245,-14 243,-20 Q194,-20 164,-19 M131,208 L144,211 Q147,196 151,180 L246,180 L246,168 L44,168 L44,98 Q44,48 38,23 Q33,-2 16,-29 Q11,-25 5,-20 Q22,6 26,28 Q31,49 31,100 L31,180 L137,180 Q136,185 134,194 Q132,203 131,208 M130,33 L178,33 L178,76 L136,76 L136,88 L178,88 L178,129 Q166,129 139,127 Q159,129 136,127 L134,140 Q172,140 233,145 L236,133 Q214,132 191,130 L191,88 L234,88 L234,76 L191,76 L191,33 L239,33 L239,20 L130,20"/> 
            <glyph glyph-name="延" unicode="&#x5EF6;" horiz-adv-x="248" d=" M145,-19 Q85,-17 54,9 Q41,-8 17,-29 Q16,-27 12,-24 Q9,-20 7,-18 Q34,5 44,19 Q25,41 12,78 L25,83 Q37,50 51,31 Q66,56 70,99 L12,99 L12,113 L71,176 L12,176 L12,189 L86,189 L86,174 L28,111 L84,111 L84,98 Q79,51 61,20 Q87,-4 147,-6 Q185,-8 248,-6 Q247,-9 245,-13 Q244,-18 243,-20 Q182,-20 145,-19 M115,139 L129,139 L129,42 L169,42 L169,179 Q140,178 107,176 Q106,181 104,189 Q190,193 236,198 L239,185 Q229,184 207,182 Q192,181 183,180 L183,122 L237,122 L237,110 L183,110 L183,42 L241,42 L241,30 L115,30"/> 
            <glyph glyph-name="开" unicode="&#x5F00;" horiz-adv-x="250" d=" M21,191 L240,191 L240,178 L188,178 L188,99 L250,99 L250,85 L188,85 L188,-28 L174,-28 L174,85 L89,85 Q94,5 24,-30 Q22,-26 17,-21 Q15,-18 14,-17 Q51,2 62,22 Q75,43 75,85 L10,85 L10,99 L75,99 L75,178 L21,178 M90,178 L90,99 L174,99 L174,178"/> 
            <glyph glyph-name="式" unicode="&#x5F0F;" horiz-adv-x="249" d=" M145,210 L159,210 Q159,183 159,158 L248,158 L248,145 L160,145 Q161,112 165,86 Q172,35 186,10 Q198,-15 214,-14 Q225,-14 230,1 Q235,20 236,33 Q237,32 240,31 Q243,30 249,28 Q246,9 242,-3 Q235,-29 214,-28 Q190,-29 173,5 Q158,34 151,84 Q148,114 146,145 L8,145 L8,158 L146,158 Q145,183 145,210 M12,-8 L8,4 Q20,5 50,9 Q61,10 66,11 L66,87 L17,87 L17,100 L129,100 L129,87 L80,87 L80,13 Q108,16 140,21 Q140,18 140,8 Q110,4 43,-4 Q21,-7 12,-8 M182,195 L192,204 Q212,188 226,175 L216,165 Q199,182 182,195"/> 
            <glyph glyph-name="张" unicode="&#x5F20;" horiz-adv-x="248" d=" M122,207 L135,207 L135,103 L247,103 L247,91 L175,91 Q193,24 248,-5 Q242,-11 237,-17 Q176,23 163,91 L135,91 L135,-5 Q137,-4 142,-1 Q163,9 173,15 Q174,13 175,8 Q176,4 176,1 Q158,-6 137,-19 Q130,-24 124,-28 L115,-17 Q122,-10 122,1 L122,91 L95,91 L95,103 L122,103 M13,194 L87,194 L87,123 L31,123 L26,77 L86,77 Q85,67 84,46 Q82,20 81,10 Q80,-24 43,-24 Q30,-24 16,-24 Q15,-20 14,-15 Q13,-12 13,-10 Q22,-11 41,-11 Q67,-11 68,10 Q70,22 71,53 Q72,61 72,65 L12,65 L19,135 L74,135 L74,181 L13,181 M159,122 Q157,125 150,132 Q196,163 227,192 L236,183 Q210,158 159,122"/> 
            <glyph glyph-name="强" unicode="&#x5F3A;" horiz-adv-x="250" d=" M101,103 L162,103 L162,135 L110,135 L110,197 L226,197 L226,135 L175,135 L175,103 L236,103 L236,36 L175,36 L175,-2 Q199,-2 220,0 Q213,8 205,20 L217,26 Q219,23 224,16 Q240,-6 250,-22 L238,-29 Q234,-20 229,-13 Q163,-16 88,-21 L86,-6 Q123,-5 162,-3 L162,36 L101,36 M31,123 L26,77 L79,77 Q78,34 75,8 Q74,-26 39,-24 Q29,-25 19,-25 Q18,-18 15,-10 Q27,-11 38,-11 Q61,-12 62,9 Q62,13 63,22 Q65,49 65,65 L12,65 L19,135 L69,135 L69,184 L13,184 L13,196 L82,196 L82,123 M123,185 L123,147 L213,147 L213,185 M114,91 L114,48 L162,48 L162,91 M223,91 L175,91 L175,48 L223,48"/> 
            <glyph glyph-name="录" unicode="&#x5F55;" horiz-adv-x="249" d=" M13,-4 L7,8 Q58,25 123,54 L123,98 L9,98 L9,110 L195,110 L195,141 L41,141 L41,153 L195,153 L195,184 L37,184 L37,196 L209,196 L209,110 L248,110 L248,98 L137,98 L137,93 Q151,63 165,48 Q203,74 218,84 L228,74 Q196,53 173,39 Q195,18 249,2 Q243,-4 241,-8 Q161,13 137,69 L137,4 Q139,-24 109,-24 Q103,-25 81,-25 Q80,-16 78,-11 Q88,-11 103,-11 Q124,-12 123,7 L123,40 Q109,35 68,18 Q27,1 13,-4 M74,45 Q54,60 30,75 L39,85 Q71,65 84,56"/> 
            <glyph glyph-name="彩" unicode="&#x5F69;" horiz-adv-x="248" d=" M16,-6 Q15,-4 11,0 Q8,2 7,4 Q45,33 69,81 L15,81 L15,93 L70,93 L70,113 L83,113 L83,93 L135,93 L135,81 L83,81 L83,50 L89,57 Q111,42 138,22 L129,11 Q104,32 83,47 L83,-29 L70,-29 L70,62 Q51,22 16,-6 M132,-29 Q131,-27 127,-22 Q125,-18 124,-16 Q197,10 237,64 L248,56 Q206,1 132,-29 M15,179 Q14,185 12,191 Q87,194 137,199 L140,187 Q116,185 65,182 Q32,180 15,179 M147,69 Q200,96 229,132 L240,123 Q205,84 157,58 Q156,60 152,64 Q149,68 147,69 M144,139 Q191,162 223,199 L233,190 Q202,155 153,127 Q150,133 144,139 M113,114 L101,121 Q120,148 129,168 L141,162 Q136,153 125,135 Q118,122 113,114 M14,156 L26,161 Q43,131 48,120 L36,114 Q26,136 14,156 M62,168 L74,172 Q80,156 89,130 L77,126 Q71,148 62,168"/> 
            <glyph glyph-name="影" unicode="&#x5F71;" horiz-adv-x="249" d=" M21,199 L139,199 L139,129 L21,129 M25,78 L136,78 L136,35 L89,35 L89,-4 Q90,-27 66,-28 Q53,-28 45,-28 Q44,-26 43,-20 Q42,-17 42,-16 Q52,-16 61,-16 Q78,-17 77,-3 L77,35 L25,35 M37,68 L37,45 L124,45 L124,68 M33,188 L33,169 L127,169 L127,188 M149,-30 Q143,-22 140,-19 Q200,11 238,65 L249,57 Q212,4 149,-30 M33,158 L33,139 L127,139 L127,158 M71,122 L83,125 Q87,116 90,107 L156,107 L156,97 L7,97 L7,107 L77,107 Q76,109 75,112 Q72,118 71,122 M167,60 Q166,61 163,65 Q159,69 157,71 Q200,99 231,141 L242,132 Q208,89 167,60 M164,134 Q158,141 154,144 Q194,169 221,205 L232,197 Q203,160 164,134 M17,-19 L8,-10 Q29,6 45,24 L55,16 Q47,7 30,-7 Q22,-15 17,-19 M105,16 L113,25 Q120,20 132,9 Q140,3 144,0 L135,-8 Q127,-1 113,10 Q108,14 105,16"/> 
            <glyph glyph-name="待" unicode="&#x5F85;" horiz-adv-x="249" d=" M97,175 L159,175 L159,210 L173,210 L173,175 L238,175 L238,163 L173,163 L173,122 L249,122 L249,110 L85,110 L85,122 L159,122 L159,163 L97,163 M194,97 L207,97 L207,73 L249,73 L249,61 L207,61 L207,1 Q208,-25 175,-26 Q158,-26 143,-26 Q143,-20 140,-12 Q157,-12 172,-12 Q196,-13 194,5 L194,61 L84,61 L84,73 L194,73 M15,51 Q14,52 13,55 Q8,62 7,63 Q43,94 70,145 L82,138 Q70,118 58,100 L58,-29 L45,-29 L45,83 Q32,66 15,51 M19,128 Q16,134 11,140 Q44,167 70,210 L82,202 Q54,157 19,128 M102,40 L112,49 Q126,37 147,15 L136,6 Q130,12 112,30 Q105,37 102,40"/> 
            <glyph glyph-name="得" unicode="&#x5F97;" horiz-adv-x="249" d=" M104,199 L229,199 L229,111 L104,111 M90,87 L244,87 L244,75 L213,75 L213,50 L249,50 L249,38 L213,38 L213,1 Q214,-26 184,-25 Q180,-25 170,-25 Q157,-26 151,-26 Q150,-18 147,-12 Q154,-12 167,-13 Q177,-13 181,-13 Q201,-14 200,1 L200,38 L80,38 L80,50 L200,50 L200,75 L90,75 M13,53 Q12,55 10,60 Q8,64 7,66 Q44,103 68,147 L80,141 Q68,121 56,103 L56,-29 L43,-29 L43,86 Q28,68 13,53 M117,187 L117,161 L216,161 L216,187 M117,149 L117,123 L216,123 L216,149 M18,133 Q15,139 11,144 Q46,172 70,210 L82,203 Q55,164 18,133 M102,23 L112,31 Q127,18 140,3 L129,-5 Q113,12 102,23"/> 
            <glyph glyph-name="微" unicode="&#x5FAE;" horiz-adv-x="251" d=" M194,209 L207,207 Q201,183 194,162 L251,162 L251,150 L237,150 Q232,74 210,34 Q222,11 250,-16 Q249,-18 246,-22 Q242,-26 241,-27 Q216,-1 203,22 Q192,1 161,-28 Q160,-27 158,-25 Q152,-20 151,-18 Q182,9 197,35 Q182,66 176,119 Q174,115 170,108 Q166,100 164,96 Q160,102 155,107 Q181,148 194,209 M132,54 L92,54 L92,42 Q94,1 66,-22 Q61,-16 56,-12 Q82,4 79,47 L79,66 L144,66 L144,16 Q150,22 168,38 Q168,35 169,31 Q169,27 170,24 Q145,2 135,-6 L125,4 Q133,12 132,25 M110,206 L122,206 L122,142 L147,142 L147,187 L159,187 L159,130 L72,130 L72,187 L84,187 L84,142 L110,142 M12,53 Q9,60 5,65 Q34,98 52,143 L64,137 Q56,118 47,102 L47,-30 L35,-30 L35,82 Q24,67 12,53 M204,49 Q221,86 225,150 L190,150 Q187,144 185,138 Q191,82 204,49 M16,133 Q14,138 8,145 Q35,170 54,209 L65,202 Q46,163 16,133 M76,104 L153,104 L153,92 L76,92"/> 
            <glyph glyph-name="心" unicode="&#x5FC3;" horiz-adv-x="250" d=" M71,162 L86,162 L86,17 Q85,-8 111,-7 L160,-7 Q186,-8 190,14 Q193,27 195,48 Q198,47 203,46 Q208,44 210,43 Q209,32 206,16 Q205,9 204,6 Q198,-21 162,-21 L107,-21 Q71,-21 71,14 M235,47 Q215,93 194,135 L208,141 Q212,132 222,113 Q241,74 250,54 M34,134 L48,130 Q35,80 22,32 Q15,35 7,37 Q20,73 34,134 M150,135 Q136,161 109,204 L122,211 Q125,206 131,197 Q145,176 164,143"/> 
            <glyph glyph-name="快" unicode="&#x5FEB;" horiz-adv-x="248" d=" M147,209 L161,209 Q161,185 161,165 L222,165 L222,86 L247,86 L247,73 L165,73 Q186,13 248,-12 Q245,-15 241,-21 Q239,-24 238,-25 Q172,9 154,69 Q144,13 80,-29 Q79,-27 75,-23 Q72,-19 70,-17 Q132,21 142,73 L81,73 L81,86 L144,86 Q147,104 147,153 L100,153 L100,165 L147,165 Q147,183 147,209 M44,209 L57,209 L57,159 L65,165 Q67,162 71,157 Q87,139 94,129 L83,121 Q69,141 57,156 L57,-29 L44,-29 M209,153 L161,153 Q161,107 158,86 L209,86 M17,151 L29,149 Q26,120 19,91 Q13,93 6,93 Q11,116 17,151"/> 
            <glyph glyph-name="您" unicode="&#x60A8;" horiz-adv-x="250" d=" M87,132 Q82,137 76,141 Q103,171 122,210 L136,207 Q134,202 128,193 Q125,186 123,183 L239,183 L239,171 L223,137 Q217,140 210,142 L225,171 L116,171 Q103,152 87,132 M68,45 L81,45 L81,7 Q81,-8 101,-8 L151,-8 Q175,-9 178,8 Q180,15 182,31 Q182,32 182,33 Q188,30 196,27 Q194,16 191,4 Q185,-22 153,-21 L97,-21 Q68,-21 68,5 M64,211 L77,205 Q72,197 62,181 Q56,173 54,169 L54,65 L40,65 L40,152 Q28,136 15,122 Q13,126 6,133 Q41,168 64,211 M158,154 L171,154 L171,94 Q172,68 143,68 Q134,68 122,68 Q122,75 119,81 Q132,81 141,81 Q159,81 158,95 M119,135 L130,127 Q109,102 84,79 Q83,81 79,84 Q76,87 74,88 Q95,106 119,135 M190,122 L199,131 Q216,117 247,88 L237,78 Q207,108 190,122 M201,47 L211,54 Q234,28 250,7 L238,0 Q223,21 201,47 M35,49 L47,44 Q34,12 22,-9 L9,-4 Q24,20 35,49 M109,49 L118,58 Q136,43 152,27 L142,18 Q128,33 109,49"/> 
            <glyph glyph-name="悬" unicode="&#x60AC;" horiz-adv-x="249" d=" M7,101 L42,101 L42,199 L213,199 L213,101 L249,101 L249,89 L98,89 Q77,73 59,60 Q107,61 188,63 Q185,65 179,69 Q170,75 165,79 L173,88 Q176,86 182,82 Q216,59 234,46 L225,36 Q222,39 215,44 Q208,50 204,52 Q106,50 52,48 Q46,48 34,46 Q42,48 32,46 L28,58 Q37,60 45,65 Q61,76 77,89 L7,89 M56,155 L56,134 L200,134 L200,155 M56,187 L56,166 L200,166 L200,187 M56,122 L56,101 L200,101 L200,122 M71,36 L84,36 L84,5 Q83,-10 106,-9 L152,-9 Q172,-10 175,4 Q175,5 176,7 Q178,19 179,26 Q181,25 186,23 Q190,22 192,21 Q191,17 189,10 Q188,2 187,0 Q181,-22 155,-21 L102,-21 Q70,-22 71,3 M31,32 L43,27 Q34,6 21,-17 Q15,-13 9,-10 Q21,8 31,32 M207,24 L217,31 Q234,14 249,-3 L238,-11 Q236,-8 231,-2 Q216,15 207,24 M113,39 L123,46 Q137,32 148,18 L138,10 Q126,25 113,39"/> 
            <glyph glyph-name="情" unicode="&#x60C5;" horiz-adv-x="249" d=" M110,-29 L97,-29 L97,92 L230,92 L230,0 Q231,-27 202,-26 Q198,-26 187,-26 Q175,-27 170,-27 Q169,-20 166,-13 Q178,-14 199,-14 Q218,-15 217,0 L217,15 L110,15 M93,156 L156,156 L156,177 L86,177 L86,188 L156,188 L156,210 L169,210 L169,188 L245,188 L245,177 L169,177 L169,156 L238,156 L238,145 L169,145 L169,123 L249,123 L249,112 L80,112 L80,123 L156,123 L156,145 L93,145 M42,209 L55,209 L55,156 L63,163 Q75,152 86,140 L76,131 Q66,144 55,154 L55,-29 L42,-29 M110,81 L110,59 L217,59 L217,81 M110,48 L110,26 L217,26 L217,48 M18,152 L30,150 Q26,118 19,91 Q13,93 6,94 Q13,119 18,152"/> 
            <glyph glyph-name="成" unicode="&#x6210;" horiz-adv-x="249" d=" M145,210 L158,210 Q158,201 159,185 Q159,168 160,160 L247,160 L247,147 L161,147 Q165,80 175,45 Q197,74 217,120 L230,114 Q205,59 180,30 Q195,-14 214,-14 Q225,-14 230,1 Q235,20 236,33 Q237,32 240,31 Q243,30 249,28 Q246,9 242,-3 Q234,-28 214,-27 Q188,-28 170,18 Q154,0 122,-24 Q117,-19 112,-13 Q143,7 165,33 Q151,71 147,147 L47,147 L47,105 L118,105 Q118,76 115,36 Q115,0 82,1 Q75,0 60,0 Q59,7 57,15 Q69,14 80,14 Q102,13 102,35 Q102,39 103,46 Q104,74 104,92 L47,92 Q46,45 40,22 Q35,0 17,-29 Q16,-28 12,-25 Q8,-21 6,-20 Q24,7 28,30 Q33,51 33,106 L33,160 L146,160 Q146,167 146,183 Q145,201 145,210 M180,194 L188,203 Q212,188 226,178 L217,168 Q215,170 210,173 Q191,187 180,194"/> 
            <glyph glyph-name="截" unicode="&#x622A;" horiz-adv-x="248" d=" M88,120 L100,124 Q101,121 103,116 Q106,107 108,100 L147,100 L147,89 L102,89 L102,65 L144,65 L144,54 L102,54 L102,30 L145,30 L145,19 L102,19 L102,-3 L151,-3 L151,-14 L45,-14 L45,-28 L33,-28 L33,72 Q30,69 24,61 Q17,54 14,50 Q11,55 6,60 Q33,88 51,125 L62,121 Q57,109 51,100 L95,100 Q95,101 94,105 Q92,109 88,120 M158,-2 Q154,2 148,6 Q166,20 179,33 Q169,73 166,134 L9,134 L9,145 L77,145 L77,172 L24,172 L24,183 L77,183 L77,208 L90,208 L90,183 L138,183 L138,172 L90,172 L90,145 L165,145 Q164,155 164,178 Q163,198 163,210 L177,210 Q177,173 178,145 L246,145 L246,134 L179,134 Q180,94 189,45 Q208,67 223,106 L236,101 Q214,53 193,29 Q204,-11 220,-12 Q228,-12 230,-1 Q232,6 236,36 Q237,35 240,35 Q245,33 248,31 Q246,11 242,-6 Q238,-25 221,-25 Q197,-27 183,18 Q172,6 158,-2 M45,54 L45,30 L89,30 L89,54 M45,89 L45,65 L89,65 L89,89 M45,19 L45,-3 L89,-3 L89,19 M193,190 L202,198 Q223,179 234,166 L225,157 Q221,161 211,171 Q199,184 193,190"/> 
            <glyph glyph-name="户" unicode="&#x6237;" horiz-adv-x="229" d=" M116,205 L128,211 Q139,195 150,178 L138,173 L229,173 L229,67 L215,67 L215,80 L51,80 Q50,13 18,-29 Q15,-26 6,-20 Q25,7 31,31 Q37,55 37,103 L37,173 L135,173 Q132,180 122,196 Q118,202 116,205 M51,160 L51,103 L51,93 L215,93 L215,160"/> 
            <glyph glyph-name="房" unicode="&#x623F;" horiz-adv-x="247" d=" M122,207 L135,211 Q143,195 148,181 L231,181 L231,126 L47,126 L47,94 Q47,46 41,22 Q35,-2 16,-28 Q11,-23 5,-19 Q23,5 28,26 Q34,48 34,93 L34,181 L133,181 Q128,193 122,207 M47,-19 Q82,0 91,20 Q102,38 102,84 L59,84 L59,96 L147,96 Q146,99 144,107 Q142,115 141,119 L154,121 Q156,113 156,116 Q159,102 161,96 L247,96 L247,84 L116,84 Q116,67 114,55 L220,55 Q220,43 217,15 Q217,12 217,11 Q215,-24 178,-23 Q160,-23 145,-23 Q145,-21 143,-16 Q142,-10 141,-8 Q151,-9 176,-9 Q202,-11 204,13 Q204,16 204,27 Q205,39 205,43 L113,43 Q108,0 57,-30 Q52,-24 47,-19 M47,169 L47,138 L218,138 L218,169"/> 
            <glyph glyph-name="手" unicode="&#x624B;" horiz-adv-x="249" d=" M225,185 Q212,185 184,183 Q152,182 136,181 L136,129 L227,129 L227,117 L136,117 L136,65 L249,65 L249,52 L136,52 L136,4 Q137,-25 103,-25 Q82,-25 66,-25 Q65,-19 62,-10 Q74,-11 100,-11 Q123,-12 122,7 L122,52 L8,52 L8,65 L122,65 L122,117 L26,117 L26,129 L122,129 L122,180 Q69,179 24,177 Q24,184 22,190 Q133,192 222,198"/> 
            <glyph glyph-name="扫" unicode="&#x626B;" horiz-adv-x="235" d=" M110,96 L221,96 L221,176 L104,176 L104,189 L235,189 L235,-29 L221,-29 L221,-16 L93,-16 L93,-2 L221,-2 L221,83 L110,83 M9,158 L44,158 L44,208 L58,208 L58,158 L93,158 L93,146 L58,146 L58,90 Q76,96 93,101 Q93,95 94,87 Q76,82 58,76 L58,2 Q59,-26 32,-25 Q20,-25 12,-25 Q11,-18 9,-10 Q13,-10 21,-11 Q28,-11 31,-11 Q44,-12 44,3 L44,72 Q39,70 30,67 Q15,63 8,60 L6,75 Q12,77 27,81 Q38,84 44,86 L44,146 L9,146"/> 
            <glyph glyph-name="护" unicode="&#x62A4;" horiz-adv-x="237" d=" M152,203 L164,209 Q169,202 180,186 Q183,180 185,178 L173,172 L237,172 L237,65 L223,65 L223,77 L121,77 Q120,13 87,-28 Q86,-27 84,-26 Q78,-21 75,-20 Q96,8 102,34 Q108,59 108,110 L108,172 L172,172 Q162,188 152,203 M121,159 L121,109 Q121,99 121,90 L223,90 L223,159 M8,63 L6,77 Q10,78 20,81 Q36,85 44,87 L44,150 L11,150 L11,162 L44,162 L44,209 L57,209 L57,162 L89,162 L89,150 L57,150 L57,91 Q74,96 90,100 Q90,95 91,87 Q86,86 74,83 Q63,80 57,78 L57,0 Q58,-26 32,-25 Q22,-25 14,-25 Q14,-23 13,-19 Q12,-13 11,-11 Q13,-11 18,-11 Q26,-12 30,-12 Q45,-13 44,1 L44,73 Q37,71 24,67 Q13,64 8,63"/> 
            <glyph glyph-name="报" unicode="&#x62A5;" horiz-adv-x="247" d=" M102,196 L234,196 Q234,189 233,178 Q233,166 232,160 Q231,132 196,132 Q178,132 159,132 Q158,138 156,146 Q159,146 168,146 Q184,145 194,145 Q219,144 219,163 Q220,168 220,184 L115,184 L115,108 L236,108 L236,94 Q220,47 194,19 Q207,6 247,-14 Q243,-19 238,-26 Q199,-3 184,9 Q159,-12 130,-28 Q128,-24 121,-16 Q160,5 174,18 Q149,47 136,95 L115,95 L115,-31 L102,-31 M9,60 L7,74 Q8,74 10,75 Q31,81 43,84 L43,141 L9,141 L9,153 L43,153 L43,208 L57,208 L57,153 L86,153 L86,141 L57,141 L57,89 Q71,94 86,98 Q86,93 86,84 Q72,81 57,76 L57,-1 Q58,-24 33,-25 Q21,-26 13,-26 Q12,-22 11,-16 Q10,-13 10,-11 Q18,-12 29,-12 Q44,-12 43,0 L43,71 Q25,65 9,60 M222,95 L150,95 Q161,53 184,28 Q208,54 222,95"/> 
            <glyph glyph-name="拍" unicode="&#x62CD;" horiz-adv-x="235" d=" M101,176 L143,176 Q150,196 153,210 L167,208 Q163,191 157,176 L235,176 L235,-28 L221,-28 L221,-8 L115,-8 L115,-28 L101,-28 M115,79 L115,2 L221,2 L221,79 M115,163 L115,92 L221,92 L221,163 M9,62 L7,77 Q24,82 44,88 L44,147 L9,147 L9,160 L44,160 L44,208 L57,208 L57,160 L86,160 L86,147 L57,147 L57,92 Q72,97 87,101 Q87,93 87,87 Q72,83 57,78 L57,1 Q58,-25 31,-25 Q23,-25 13,-25 Q13,-23 12,-21 Q11,-15 10,-11 Q20,-12 29,-12 Q45,-13 44,1 L44,73 Q37,71 24,67 Q14,64 9,62"/> 
            <glyph glyph-name="捷" unicode="&#x6377;" horiz-adv-x="250" d=" M60,-20 Q99,4 101,48 L114,46 Q113,42 112,34 Q110,27 110,24 Q126,-5 154,-7 L154,63 L96,63 L96,75 L154,75 L154,100 L87,100 L87,112 L154,112 L154,137 L96,137 L96,148 L154,148 L154,175 L86,175 L86,186 L154,186 L154,210 L167,210 L167,186 L239,186 L239,175 L167,175 L167,148 L226,148 L226,112 L249,112 L249,100 L226,100 L226,63 L167,63 L167,34 L234,34 L234,22 L167,22 L167,-8 Q194,-9 250,-9 Q247,-16 245,-22 Q212,-22 195,-22 Q177,-21 162,-20 Q124,-20 105,9 Q95,-11 70,-30 Q69,-28 64,-24 Q61,-21 60,-20 M9,62 L7,76 Q23,80 38,86 L38,149 L10,149 L10,161 L38,161 L38,210 L51,210 L51,161 L79,161 L79,149 L51,149 L51,90 Q55,91 62,94 Q73,98 79,100 Q79,94 79,87 Q66,83 51,78 L51,-2 Q51,-25 31,-25 Q28,-25 21,-26 Q13,-26 10,-26 Q9,-24 9,-19 Q8,-14 8,-12 Q13,-13 25,-13 Q39,-13 38,-1 L38,73 Q33,71 22,67 Q13,64 9,62 M167,100 L167,75 L213,75 L213,100 M213,137 L167,137 L167,112 L213,112"/> 
            <glyph glyph-name="推" unicode="&#x63A8;" horiz-adv-x="248" d=" M81,106 Q77,110 71,116 Q104,152 126,209 L139,205 Q130,182 120,164 L246,164 L246,152 L185,152 L185,109 L243,109 L243,97 L185,97 L185,55 L243,55 L243,43 L185,43 L185,0 L248,0 L248,-10 L112,-10 L112,-29 L99,-29 L99,130 Q97,127 93,122 Q86,112 81,106 M9,60 L7,73 Q24,79 40,83 L40,144 L9,144 L9,156 L40,156 L40,209 L54,209 L54,156 L81,156 L81,144 L54,144 L54,87 Q67,92 82,96 Q82,89 82,83 Q78,82 68,79 Q59,76 54,74 L54,-2 Q55,-26 31,-26 Q23,-26 11,-26 Q11,-20 9,-12 Q19,-12 28,-12 Q41,-13 40,-1 L40,70 Q36,69 27,66 Q15,62 9,60 M112,43 L112,0 L172,0 L172,43 M113,152 L112,150 L112,109 L172,109 L172,152 M112,97 L112,55 L172,55 L172,97 M161,202 L173,209 Q176,204 183,193 Q192,179 195,173 L183,166 Q172,187 161,202"/> 
            <glyph glyph-name="插" unicode="&#x63D2;" horiz-adv-x="250" d=" M187,49 L226,49 L226,89 L186,89 L186,101 L239,101 L239,-30 L226,-30 L226,-16 L105,-16 L105,-31 L92,-31 L92,98 Q120,101 140,109 L146,97 Q127,92 105,88 L105,49 L144,49 L144,37 L105,37 L105,-4 L158,-4 L158,133 L86,133 L86,145 L158,145 L158,180 Q148,180 126,179 Q105,178 94,177 L92,190 Q159,192 238,199 L241,186 Q227,185 190,182 Q178,181 171,181 L171,145 L250,145 L250,133 L171,133 L171,-4 L226,-4 L226,37 L187,37 M9,61 L7,76 Q14,78 28,83 Q36,86 40,87 L40,152 L10,152 L10,164 L40,164 L40,209 L53,209 L53,164 L78,164 L78,152 L53,152 L53,92 Q57,94 66,97 Q74,100 78,101 Q78,100 78,96 Q79,91 79,87 Q75,86 66,83 Q58,80 53,78 L53,0 Q54,-26 30,-26 Q21,-27 14,-27 Q12,-15 11,-13 Q17,-13 28,-13 Q40,-14 40,0 L40,73 Q25,69 9,61"/> 
            <glyph glyph-name="摄" unicode="&#x6444;" horiz-adv-x="252" d=" M81,82 L78,94 Q91,94 104,95 L104,187 L80,187 L80,198 L242,198 L242,187 L218,187 L218,101 Q232,103 245,103 Q245,97 245,92 Q241,92 232,91 Q223,91 218,90 L218,73 L205,73 L205,90 Q182,89 135,86 Q100,83 81,82 M8,63 L6,79 Q8,80 13,82 Q22,85 37,92 L37,150 L8,150 L8,162 L37,162 L37,210 L50,210 L50,162 L78,162 L78,150 L50,150 L50,98 Q62,104 76,110 Q76,102 77,96 Q64,90 50,84 L50,-3 Q51,-28 28,-27 Q22,-28 11,-28 Q11,-22 9,-14 Q16,-15 25,-15 Q38,-16 37,-3 L37,78 Q33,76 25,72 Q14,66 8,63 M157,52 L157,63 L240,63 L240,52 Q230,21 210,3 Q227,-8 252,-17 Q252,-18 250,-19 Q249,-22 245,-28 Q221,-17 202,-3 Q183,-18 152,-30 Q149,-25 145,-19 Q175,-8 193,3 Q174,22 165,52 M74,32 L82,41 Q99,30 115,18 Q127,33 134,52 L75,52 L75,63 L147,63 L147,51 Q135,23 125,11 Q128,9 133,5 Q142,-1 147,-4 L138,-14 Q128,-5 116,1 Q100,-14 69,-29 Q68,-28 66,-25 Q62,-21 61,-18 Q89,-7 107,9 Q102,13 91,21 Q80,28 74,32 M116,154 L116,131 L205,131 L205,154 M116,187 L116,165 L205,165 L205,187 M116,95 Q164,98 205,101 L205,121 L116,121 M228,52 L177,52 Q186,27 202,11 Q218,28 228,52"/> 
            <glyph glyph-name="播" unicode="&#x64AD;" horiz-adv-x="249" d=" M94,73 L231,73 L231,-29 L218,-29 L218,-16 L106,-16 L106,-29 L94,-29 M80,70 Q76,77 71,81 Q116,96 143,124 L83,124 L83,135 L155,135 L155,182 Q145,181 123,181 Q102,180 91,180 Q90,187 88,191 Q187,195 232,198 L235,187 Q209,185 168,183 L168,135 L247,135 L247,124 L180,124 Q202,100 249,85 Q245,81 241,73 Q189,94 168,124 L168,85 L155,85 L155,124 Q129,90 80,70 M40,209 L53,209 L53,159 L78,159 L78,147 L53,147 L53,95 Q57,97 66,101 Q72,104 75,105 Q75,99 77,92 Q68,89 53,82 L53,0 Q55,-26 28,-26 Q21,-27 12,-27 Q12,-18 10,-14 Q16,-14 26,-14 Q41,-15 40,0 L40,77 Q35,75 25,71 Q14,66 9,64 L6,77 Q21,84 40,90 L40,147 L10,147 L10,159 L40,159 M169,23 L169,-5 L218,-5 L218,23 M106,23 L106,-5 L156,-5 L156,23 M218,62 L169,62 L169,34 L218,34 M106,62 L106,34 L156,34 L156,62 M197,142 L188,151 Q202,162 215,175 L224,167 Q219,162 197,142 M100,165 L109,173 Q124,160 135,151 L125,142 Q118,151 100,165"/> 
            <glyph glyph-name="操" unicode="&#x64CD;" horiz-adv-x="249" d=" M104,199 L217,199 L217,147 L104,147 M75,-22 Q71,-14 66,-10 Q110,5 146,40 L76,40 L76,52 L153,52 L153,71 L166,71 L166,52 L247,52 L247,40 L173,40 Q205,4 249,-7 Q248,-10 245,-15 Q243,-18 242,-20 Q189,0 166,35 L166,-29 L153,-29 L153,35 Q126,2 75,-22 M8,63 L7,77 Q12,79 23,83 Q33,86 37,88 L37,150 L9,150 L9,162 L37,162 L37,209 L49,209 L49,162 L77,162 L77,150 L49,150 L49,92 Q62,96 75,102 Q75,96 76,88 Q73,87 67,85 Q56,81 49,79 L49,-3 Q51,-26 27,-26 Q13,-26 9,-26 Q9,-23 8,-15 Q9,-20 7,-13 Q16,-14 25,-14 Q38,-15 37,-3 L37,74 Q23,69 8,63 M172,127 L236,127 L236,76 L172,76 M86,127 L148,127 L148,76 L86,76 M116,188 L116,158 L205,158 L205,188 M184,116 L184,87 L223,87 L223,116 M98,116 L98,87 L136,87 L136,116"/> 
            <glyph glyph-name="放" unicode="&#x653E;" horiz-adv-x="249" d=" M240,-28 Q202,-4 181,19 Q158,-6 117,-31 Q111,-22 108,-18 Q153,8 173,31 Q147,67 142,126 Q138,119 130,106 Q125,99 123,95 Q121,98 115,104 Q113,106 113,106 Q145,149 161,211 L175,208 Q168,184 158,162 L248,162 L248,149 L227,149 Q220,73 190,30 Q211,5 249,-14 Q248,-16 245,-21 Q241,-26 240,-28 M9,164 L124,164 L124,151 L53,151 Q53,132 51,104 L109,104 Q109,71 105,12 Q106,-22 72,-21 Q61,-21 53,-21 Q52,-15 50,-7 Q51,-7 56,-7 Q65,-8 69,-8 Q92,-9 92,11 Q95,52 95,92 L50,92 Q47,6 16,-29 Q15,-28 12,-25 Q7,-21 5,-19 Q36,15 37,99 Q39,135 39,151 L9,151 M181,42 Q207,77 214,149 L153,149 Q153,149 152,147 Q152,146 151,145 Q158,78 181,42 M56,207 L69,211 Q71,205 77,188 Q82,174 83,170 L70,166 Q65,182 56,207"/> 
            <glyph glyph-name="效" unicode="&#x6548;" horiz-adv-x="249" d=" M240,-27 Q201,0 186,23 Q168,-1 125,-30 Q124,-29 122,-27 Q117,-21 114,-19 Q160,9 177,35 Q159,65 148,121 Q144,114 139,106 Q131,114 129,115 Q157,156 169,210 L182,207 Q176,183 167,162 L246,162 L246,149 L227,149 Q219,75 194,34 Q210,9 249,-15 Q248,-17 243,-23 Q241,-26 240,-27 M30,78 L40,87 Q49,78 65,62 Q73,54 77,50 Q84,60 96,85 Q99,90 100,93 L112,88 Q101,61 86,40 Q104,22 122,3 L111,-6 Q93,11 78,28 Q59,2 15,-29 Q9,-21 5,-17 Q45,8 68,38 Q48,60 30,78 M162,149 Q162,148 160,145 Q159,142 158,140 Q169,78 186,48 Q208,83 213,149 M13,169 L133,169 L133,157 L13,157 M51,142 L62,134 Q41,106 19,84 L8,93 Q30,113 51,142 M121,89 Q103,113 83,134 L93,142 Q94,141 95,139 Q121,112 132,98 M57,204 L69,210 Q77,197 88,177 L76,171 Q75,173 73,177 Q62,196 57,204"/> 
            <glyph glyph-name="数" unicode="&#x6570;" horiz-adv-x="248" d=" M122,-20 Q165,13 179,34 Q159,67 152,122 Q150,119 146,111 Q142,104 140,100 Q135,105 129,109 Q156,149 173,212 L186,210 Q180,186 172,165 L247,165 L247,153 L226,153 Q218,70 195,34 Q209,11 248,-16 Q243,-21 239,-27 Q202,0 187,21 Q170,-2 132,-30 Q129,-26 122,-20 M9,66 L50,66 Q57,76 61,85 L74,81 Q70,74 65,66 L126,66 Q122,33 99,10 Q113,4 126,0 L118,-12 Q103,-4 88,1 Q57,-19 14,-29 Q13,-26 8,-19 Q7,-18 7,-17 Q52,-5 75,8 Q70,10 58,15 Q52,19 25,30 Q27,32 31,38 Q39,49 43,55 L9,55 M71,208 L83,208 L83,152 L135,152 L135,141 L83,141 L83,119 L89,126 Q114,110 129,100 L121,90 Q109,100 83,116 L83,91 L71,91 L71,129 Q52,103 17,85 Q16,87 11,93 Q9,96 8,97 Q41,109 68,141 L12,141 L12,152 L71,152 M162,141 Q169,77 187,46 Q206,81 213,153 L167,153 Q164,147 162,141 M43,34 Q48,32 59,27 Q77,20 86,16 Q106,32 111,55 L58,55 Q49,42 43,34 M134,190 Q119,174 104,160 L95,168 Q108,180 124,197 M19,190 L28,197 Q47,180 57,168 L47,160 Q38,171 19,190"/> 
            <glyph glyph-name="文" unicode="&#x6587;" horiz-adv-x="246" d=" M10,167 L245,167 L245,153 L199,153 Q184,78 139,36 Q178,6 246,-10 Q244,-13 240,-21 Q239,-23 238,-25 Q160,0 128,26 Q100,2 19,-27 Q15,-19 10,-13 Q80,7 117,35 Q70,83 57,153 L10,153 M128,45 Q174,87 184,153 L71,153 Q83,89 128,45 M112,204 L125,210 Q129,203 138,189 Q144,179 147,174 L133,167 Q123,187 112,204"/> 
            <glyph glyph-name="新" unicode="&#x65B0;" horiz-adv-x="249" d=" M114,-18 Q148,16 146,94 L146,189 Q187,191 238,198 L242,185 Q206,180 159,177 L159,113 L249,113 L249,101 L215,101 L215,-29 L201,-29 L201,101 L159,101 L159,93 Q161,13 126,-27 Q120,-23 114,-18 M64,103 L77,103 L77,77 L125,77 L125,65 L77,65 L77,1 Q78,-24 52,-25 Q43,-25 30,-25 Q30,-19 28,-12 Q38,-12 48,-12 Q64,-12 64,2 L64,65 L13,65 L13,77 L64,77 M7,122 L78,122 Q90,143 101,163 L113,157 Q103,139 92,122 L132,122 L132,111 L7,111 M57,207 L70,211 Q76,197 82,181 L125,181 L125,169 L14,169 L14,181 L68,181 Q62,197 57,207 M33,49 L44,44 Q29,11 19,-2 L8,2 Q16,15 33,49 M113,7 Q104,23 88,44 L98,51 Q106,42 118,23 Q122,18 124,15 M27,157 L38,163 Q48,149 58,131 L47,125 Q37,143 27,157"/> 
            <glyph glyph-name="方" unicode="&#x65B9;" horiz-adv-x="246" d=" M77,99 Q78,110 79,135 Q80,147 80,153 L10,153 L10,166 L246,166 L246,153 L94,153 Q94,129 91,105 L212,105 Q212,83 209,35 Q208,26 208,22 Q205,-23 156,-22 Q133,-22 118,-22 Q117,-13 115,-7 Q132,-7 157,-7 Q192,-9 194,24 Q196,39 198,81 Q198,89 198,92 L90,92 Q87,12 18,-30 Q13,-25 7,-19 Q75,21 77,99 M115,206 L129,210 Q138,190 146,172 L132,167 Q130,172 125,184 Q118,199 115,206"/> 
            <glyph glyph-name="日" unicode="&#x65E5;" horiz-adv-x="214" d=" M42,193 L214,193 L214,-27 L200,-27 L200,-8 L56,-8 L56,-27 L42,-27 M56,87 L56,3 L200,3 L200,87 M56,180 L56,100 L200,100 L200,180"/> 
            <glyph glyph-name="时" unicode="&#x65F6;" horiz-adv-x="249" d=" M17,186 L97,186 L97,-11 L83,-11 L83,9 L30,9 L30,-14 L17,-14 M201,210 L214,210 L214,154 L249,154 L249,142 L214,142 L214,6 Q215,-24 181,-25 Q166,-25 145,-25 Q144,-17 142,-11 Q157,-11 178,-11 Q202,-12 201,9 L201,142 L111,142 L111,154 L201,154 M30,92 L30,22 L83,22 L83,92 M30,174 L30,104 L83,104 L83,174 M150,50 Q140,72 122,105 L133,111 Q135,107 139,100 Q155,73 162,57"/> 
            <glyph glyph-name="明" unicode="&#x660E;" horiz-adv-x="236" d=" M200,-14 Q222,-15 221,3 L221,54 L139,54 Q133,8 92,-30 Q86,-24 80,-20 Q110,6 119,32 Q129,57 129,112 L129,198 L234,198 L234,2 Q236,-27 202,-27 Q186,-28 169,-28 Q169,-26 168,-23 Q167,-17 166,-13 Q179,-14 200,-14 M22,190 L96,190 L96,25 L35,25 L35,3 L22,3 M142,112 Q143,85 140,66 L221,66 L221,120 L142,120 M142,185 L142,132 L221,132 L221,185 M35,37 L83,37 L83,102 L35,102 M35,177 L35,114 L83,114 L83,177"/> 
            <glyph glyph-name="春" unicode="&#x6625;" horiz-adv-x="249" d=" M241,39 Q217,49 201,59 L201,-29 L188,-29 L188,-15 L68,-15 L68,-29 L55,-29 L55,60 Q47,54 29,43 Q21,38 17,35 Q16,37 13,41 Q9,46 8,47 Q53,69 80,100 L13,100 L13,112 L89,112 Q98,124 104,136 L31,136 L31,148 L108,148 Q113,159 116,172 L22,172 L22,183 L118,183 Q121,197 122,210 L136,210 Q135,205 134,195 Q132,187 132,183 L233,183 L233,172 L130,172 Q128,165 125,154 Q124,150 123,148 L224,148 L224,136 L118,136 Q113,124 105,112 L244,112 L244,100 L173,100 Q198,69 249,51 Q244,45 241,39 M68,23 L68,-3 L188,-3 L188,23 M68,61 L68,34 L188,34 L188,61 M184,72 Q170,84 158,100 L97,100 Q86,86 71,72"/> 
            <glyph glyph-name="是" unicode="&#x662F;" horiz-adv-x="249" d=" M46,198 L210,198 L210,110 L46,110 M56,62 L69,60 Q68,57 67,51 Q65,43 64,39 Q84,0 126,-4 L126,72 L11,72 L11,84 L246,84 L246,72 L139,72 L139,40 L229,40 L229,29 L139,29 L139,-5 Q142,-5 143,-5 Q179,-6 249,-6 Q246,-11 245,-20 Q201,-20 143,-18 Q84,-19 59,24 Q48,-6 15,-30 Q14,-29 11,-26 Q8,-22 6,-20 Q49,9 56,62 M59,149 L59,122 L196,122 L196,149 M59,187 L59,160 L196,160 L196,187"/> 
            <glyph glyph-name="智" unicode="&#x667A;" horiz-adv-x="234" d=" M48,77 L210,77 L210,-29 L197,-29 L197,-18 L61,-18 L61,-29 L48,-29 M145,190 L234,190 L234,100 L145,100 M121,86 Q118,88 113,92 Q88,112 74,121 Q62,95 16,73 Q13,79 8,85 Q56,103 65,133 L11,133 L11,145 L68,145 Q71,158 71,176 L38,176 Q31,164 19,154 Q16,157 10,162 Q35,185 45,212 L56,209 Q54,204 50,196 Q47,190 46,187 L123,187 L123,176 L84,176 Q84,158 82,145 L131,145 L131,133 L79,133 Q79,133 79,132 Q78,132 78,131 Q81,129 87,125 Q105,114 129,96 M158,178 L158,112 L221,112 L221,178 M61,65 L61,35 L197,35 L197,65 M61,23 L61,-6 L197,-6 L197,23"/> 
            <glyph glyph-name="曲" unicode="&#x66F2;" horiz-adv-x="231" d=" M154,210 L167,210 L167,168 L231,168 L231,-29 L218,-29 L218,-12 L38,-12 L38,-29 L25,-29 L25,168 L89,168 L89,210 L102,210 L102,168 L154,168 M38,72 L38,0 L89,0 L89,72 M167,72 L167,0 L218,0 L218,72 M102,72 L102,0 L154,0 L154,72 M218,156 L167,156 L167,85 L218,85 M38,156 L38,85 L89,85 L89,156 M102,156 L102,85 L154,85 L154,156"/> 
            <glyph glyph-name="有" unicode="&#x6709;" horiz-adv-x="245" d=" M71,-29 L57,-29 L57,103 Q39,83 15,62 Q9,70 6,73 Q56,113 87,164 L15,164 L15,176 L94,176 Q103,192 111,210 L125,207 Q118,191 109,176 L245,176 L245,164 L102,164 Q92,146 79,130 L216,130 L216,3 Q217,-24 186,-24 Q173,-25 151,-25 Q151,-17 147,-11 Q161,-11 183,-11 Q203,-12 202,5 L202,27 L71,27 M71,73 L71,39 L202,39 L202,73 M71,118 L71,85 L202,85 L202,118"/> 
            <glyph glyph-name="服" unicode="&#x670D;" horiz-adv-x="250" d=" M117,195 L231,195 Q231,188 230,178 Q230,167 229,160 Q228,128 193,130 Q184,129 163,129 Q163,132 162,136 Q162,140 161,142 Q174,142 190,142 Q217,140 216,159 Q218,175 218,183 L130,183 L130,105 L234,105 L234,93 Q218,43 197,20 Q212,4 250,-14 Q245,-20 242,-26 Q207,-8 188,9 Q171,-7 144,-26 Q140,-21 134,-14 Q164,4 179,19 Q158,45 146,93 L130,93 L130,-29 L117,-29 M25,196 L91,196 L91,0 Q92,-25 68,-24 Q59,-25 48,-25 Q48,-19 46,-12 Q48,-12 55,-12 Q62,-13 65,-13 Q79,-14 78,0 L78,58 L38,58 Q40,2 18,-27 Q13,-24 8,-19 Q27,4 25,67 M221,93 L159,93 Q169,53 188,30 Q206,51 221,93 M38,121 L38,70 L78,70 L78,121 M38,184 L38,133 L78,133 L78,184"/> 
            <glyph glyph-name="期" unicode="&#x671F;" horiz-adv-x="237" d=" M154,199 L236,199 L236,0 Q237,-25 211,-26 Q201,-26 187,-26 Q187,-25 186,-24 Q186,-20 183,-12 Q198,-13 209,-13 Q224,-13 223,0 L223,57 L165,57 Q161,7 134,-30 Q128,-25 122,-22 Q142,3 148,29 Q154,55 154,109 M101,207 L115,207 L115,175 L135,175 L135,163 L115,163 L115,43 L136,43 L136,31 L8,31 L8,43 L31,43 L31,163 L11,163 L11,175 L31,175 L31,206 L44,206 L44,175 L101,175 M167,109 Q167,86 166,69 L223,69 L223,122 L167,122 M167,187 L167,134 L223,134 L223,187 M44,75 L44,43 L101,43 L101,75 M44,119 L44,87 L101,87 L101,119 M44,163 L44,131 L101,131 L101,163 M49,23 L60,15 Q29,-17 17,-28 Q11,-22 7,-18 Q33,4 49,23 M81,15 L91,23 Q107,9 119,-2 L109,-12 Q104,-6 90,6 Q84,12 81,15"/> 
            <glyph glyph-name="未" unicode="&#x672A;" horiz-adv-x="248" d=" M10,105 L121,105 L121,154 L25,154 L25,166 L121,166 L121,210 L135,210 L135,166 L232,166 L232,154 L135,154 L135,105 L246,105 L246,92 L146,92 Q183,35 248,3 Q243,-1 238,-7 Q170,29 135,91 L135,-29 L121,-29 L121,91 Q82,24 17,-12 Q15,-8 8,0 Q74,35 110,92 L10,92"/> 
            <glyph glyph-name="机" unicode="&#x673A;" horiz-adv-x="250" d=" M132,180 L132,109 Q132,51 123,25 Q115,-1 86,-28 Q82,-24 74,-18 Q103,8 111,31 Q119,54 119,110 L119,193 L203,193 L203,5 Q203,-8 213,-7 L218,-7 Q232,-7 233,7 Q236,23 237,47 Q244,44 250,42 Q249,15 246,3 Q242,-21 220,-20 L211,-20 Q189,-20 189,3 L189,180 M12,39 Q11,41 9,45 Q7,50 5,53 Q32,89 47,148 L11,148 L11,160 L47,160 L47,209 L60,209 L60,160 L95,160 L95,148 L60,148 L60,107 L67,115 Q89,95 100,84 L91,75 Q85,81 73,92 Q64,101 60,105 L60,-28 L47,-28 L47,122 Q33,67 12,39"/> 
            <glyph glyph-name="来" unicode="&#x6765;" horiz-adv-x="249" d=" M16,-12 Q15,-10 11,-6 Q8,-1 6,0 Q67,26 114,78 L10,78 L10,91 L121,91 L121,162 L25,162 L25,174 L121,174 L121,210 L135,210 L135,174 L233,174 L233,162 L135,162 L135,91 L246,91 L246,78 L142,78 Q185,28 249,4 Q245,-1 240,-8 Q170,21 135,70 L135,-30 L121,-30 L121,70 Q82,20 16,-12 M176,101 L166,111 Q176,121 193,141 Q198,146 200,149 L211,141 Q205,134 191,119 Q181,107 176,101 M47,142 L57,150 Q60,146 67,139 Q81,123 88,113 L77,104 Q62,125 47,142"/> 
            <glyph glyph-name="板" unicode="&#x677F;" horiz-adv-x="249" d=" M72,-19 Q109,22 106,97 L106,190 Q167,190 241,199 L245,186 Q196,181 119,177 L119,131 L234,131 L234,120 Q224,64 193,28 Q211,7 249,-14 Q245,-19 240,-26 Q204,-3 184,18 Q159,-6 119,-28 Q118,-26 115,-23 Q112,-19 110,-17 Q158,8 175,28 Q147,64 137,119 L119,119 L119,98 Q122,17 83,-27 Q82,-26 79,-24 Q75,-20 72,-19 M13,40 Q11,45 6,55 Q29,88 44,148 L7,148 L7,160 L45,160 L45,209 L57,209 L57,160 L91,160 L91,148 L57,148 L57,111 L62,115 Q79,101 94,86 L85,77 Q72,92 57,105 L57,-29 L45,-29 L45,123 Q33,75 13,40 M221,119 L150,119 Q159,71 184,38 Q211,71 221,119"/> 
            <glyph glyph-name="查" unicode="&#x67E5;" horiz-adv-x="248" d=" M45,112 L212,112 L212,18 L45,18 M240,107 Q169,131 134,166 L134,120 L121,120 L121,166 Q86,130 15,104 Q14,106 12,110 Q9,114 8,116 Q70,136 112,171 L15,171 L15,183 L121,183 L121,210 L134,210 L134,183 L242,183 L242,171 L143,171 Q185,136 248,120 Q246,117 242,111 Q241,108 240,107 M58,100 L58,70 L199,70 L199,100 M58,59 L58,29 L199,29 L199,59 M9,-7 L247,-7 L247,-20 L9,-20"/> 
            <glyph glyph-name="标" unicode="&#x6807;" horiz-adv-x="251" d=" M13,39 Q12,41 11,44 Q9,48 5,54 Q31,91 46,145 L10,145 L10,157 L46,157 L46,209 L59,209 L59,157 L91,157 L91,145 L59,145 L59,103 L66,109 Q73,102 86,89 Q93,82 97,78 L87,69 Q72,87 59,100 L59,-29 L46,-29 L46,115 Q36,78 13,39 M97,120 L247,120 L247,108 L178,108 L178,1 Q179,-25 150,-26 Q135,-26 122,-26 Q122,-20 120,-12 Q133,-12 147,-12 Q166,-13 165,4 L165,108 L97,108 M108,190 L235,190 L235,178 L108,178 M122,78 L135,73 Q109,21 95,-2 Q93,0 85,3 Q84,4 83,4 Q106,42 122,78 M202,72 L214,78 Q234,39 251,3 L237,-1 Q218,40 202,72"/> 
            <glyph glyph-name="模" unicode="&#x6A21;" horiz-adv-x="248" d=" M78,36 L152,36 Q155,48 155,61 L97,61 L97,143 L228,143 L228,61 L168,61 Q168,48 165,36 L244,36 L244,24 L171,24 Q190,-7 248,-14 Q246,-17 242,-24 Q241,-26 241,-27 Q180,-15 160,20 Q147,-12 80,-31 Q77,-24 72,-18 Q138,-3 148,24 L78,24 M11,40 Q10,42 9,45 Q6,52 5,55 Q28,94 41,146 L41,147 L10,147 L10,159 L41,159 L41,209 L55,209 L55,159 L82,159 L82,147 L55,147 L55,106 L61,112 Q64,109 71,102 Q76,98 90,83 L80,74 Q67,89 55,102 L55,-29 L41,-29 L41,116 Q29,69 11,40 M82,185 L125,185 L125,209 L138,209 L138,185 L185,185 L185,209 L198,209 L198,185 L243,185 L243,174 L198,174 L198,154 L185,154 L185,174 L138,174 L138,154 L125,154 L125,174 L82,174 M111,132 L111,108 L214,108 L214,132 M111,97 L111,73 L214,73 L214,97"/> 
            <glyph glyph-name="每" unicode="&#x6BCF;" horiz-adv-x="249" d=" M31,9 L42,72 L8,72 L8,85 L44,85 L55,148 L215,148 Q215,141 214,127 Q213,99 212,85 L249,85 L249,72 L212,72 Q211,43 209,22 L240,22 L240,9 L208,9 Q204,-27 168,-27 Q150,-27 134,-27 Q134,-22 132,-12 Q141,-13 165,-13 Q192,-15 194,9 M195,22 Q196,36 198,72 L56,72 L47,22 M67,135 L58,85 L199,85 Q199,94 200,111 Q200,127 200,135 M17,129 Q16,131 12,136 Q9,138 8,140 Q44,171 64,211 L79,209 Q77,206 73,199 Q69,193 67,189 L243,189 L243,176 L59,176 Q41,152 17,129 M108,119 L116,127 Q133,115 148,102 L139,93 Q137,94 134,97 Q123,106 108,119 M105,55 L114,64 Q118,60 127,54 Q140,44 145,39 L136,29 Q121,43 105,55"/> 
            <glyph glyph-name="气" unicode="&#x6C14;" horiz-adv-x="250" d=" M32,88 L32,100 L204,100 L204,77 Q203,9 214,-6 Q218,-14 224,-14 Q230,-14 233,-1 Q233,0 234,2 Q236,22 237,35 Q240,33 248,31 Q249,31 250,31 Q250,16 246,-5 Q242,-29 224,-28 Q209,-28 202,-13 Q189,7 190,77 L190,88 M15,98 Q9,107 7,111 Q45,153 68,211 L82,207 Q76,194 70,182 L237,182 L237,170 L64,170 Q44,133 15,98 M60,142 L217,142 L217,129 L60,129"/> 
            <glyph glyph-name="汇" unicode="&#x6C47;" horiz-adv-x="247" d=" M90,195 L244,195 L244,182 L103,182 L103,-1 L247,-1 L247,-15 L90,-15 M61,159 Q40,177 19,192 L27,202 Q31,199 39,194 Q60,179 70,171 M49,97 Q28,115 7,130 L16,140 Q36,126 59,108 M18,-22 Q31,13 46,72 Q48,71 56,68 Q59,67 60,66 Q45,19 33,-28"/> 
            <glyph glyph-name="池" unicode="&#x6C60;" horiz-adv-x="251" d=" M71,113 L93,120 L93,180 L107,180 L107,124 L156,138 L156,209 L169,209 L169,142 L236,162 Q236,121 233,87 Q233,52 207,54 Q200,53 188,53 Q188,56 187,61 Q187,66 186,68 Q194,68 204,68 Q220,66 220,88 Q222,124 222,146 L169,130 L169,22 L156,22 L156,125 L107,110 L107,14 Q105,-8 134,-7 L200,-7 Q229,-8 232,11 Q235,25 237,46 Q239,45 243,44 Q249,42 251,41 Q248,18 245,3 Q239,-21 205,-21 L128,-21 Q92,-22 93,11 L93,106 L73,100 M16,-20 Q33,20 44,66 Q47,65 51,63 Q56,61 58,60 Q46,24 32,-25 M21,194 L30,204 Q51,189 69,173 L59,162 Q50,171 32,185 Q24,191 21,194 M47,99 Q27,116 9,130 L19,140 Q28,134 43,121 Q52,114 57,110"/> 
            <glyph glyph-name="浮" unicode="&#x6D6E;" horiz-adv-x="248" d=" M152,71 L206,102 L82,102 L82,114 L226,114 L226,100 L165,65 L165,53 L248,53 L248,40 L165,40 L165,4 Q166,-24 134,-24 Q116,-24 105,-24 Q105,-19 103,-11 Q104,-12 103,-9 Q112,-10 132,-10 Q153,-11 152,6 L152,40 L63,40 L63,53 L152,53 M240,187 Q159,181 80,178 Q80,180 78,187 Q77,190 77,191 Q178,194 237,200 M30,-27 L15,-22 Q32,30 40,68 Q46,65 54,62 Q46,37 30,-27 M7,130 L16,139 Q20,136 34,126 Q54,111 59,108 L49,98 Q46,100 41,104 Q16,123 7,130 M202,122 L191,129 Q208,150 220,173 L232,166 Q217,141 202,122 M19,195 L28,204 Q48,189 67,173 L57,163 Q34,184 19,195 M143,169 L155,173 Q162,157 172,132 L159,128 Q156,138 149,155 Q145,164 143,169 M83,159 L94,165 Q110,143 120,128 L107,121 Q98,138 83,159"/> 
            <glyph glyph-name="源" unicode="&#x6E90;" horiz-adv-x="251" d=" M94,180 L94,109 Q96,17 60,-29 Q55,-25 49,-20 Q83,19 81,110 L81,192 L249,192 L249,180 L180,180 L169,147 L231,147 L231,54 L182,54 L182,-1 Q183,-26 158,-27 Q148,-27 136,-27 Q135,-21 133,-14 Q137,-14 145,-15 Q152,-15 156,-15 Q169,-16 169,-1 L169,54 L119,54 L119,147 L156,147 L166,180 M132,135 L132,106 L218,106 L218,135 M132,95 L132,66 L218,66 L218,95 M12,-22 Q26,27 35,70 Q42,67 48,65 Q36,20 26,-27 M251,-8 L240,-17 Q221,7 200,29 L211,37 Q233,13 251,-8 M105,-19 Q100,-14 95,-11 Q116,9 133,36 L144,29 Q126,2 105,-19 M46,98 Q26,116 7,130 L16,140 Q37,125 56,110 M55,162 Q54,163 52,164 Q29,186 17,195 L27,205 Q36,198 53,183 Q61,176 65,173"/> 
            <glyph glyph-name="漂" unicode="&#x6F02;" horiz-adv-x="248" d=" M71,199 L243,199 L243,187 L186,187 L186,159 L236,159 L236,104 L74,104 L74,159 L124,159 L124,187 L71,187 M63,45 L248,45 L248,33 L165,33 L165,0 Q166,-25 135,-25 Q131,-25 124,-25 Q116,-26 111,-26 Q111,-20 109,-12 Q116,-13 134,-13 Q153,-14 152,2 L152,33 L63,33 M82,81 L228,81 L228,69 L82,69 M29,-28 L14,-23 Q29,20 38,65 Q43,62 51,60 Q35,0 29,-28 M223,148 L186,148 L186,115 L223,115 M87,148 L87,115 L124,115 L124,148 M137,148 L137,115 L174,115 L174,148 M137,187 L137,159 L174,159 L174,187 M61,-19 Q60,-18 59,-16 Q54,-10 53,-7 Q79,2 110,22 L119,12 Q106,4 80,-9 Q68,-15 61,-19 M187,12 L195,22 Q218,8 248,-7 L240,-19 Q225,-9 187,12 M52,164 Q47,169 36,180 Q24,191 18,197 L28,205 Q43,191 63,173 M43,99 Q29,113 9,131 L18,140 Q24,135 38,123 Q48,114 54,109"/> 
            <glyph glyph-name="点" unicode="&#x70B9;" horiz-adv-x="244" d=" M118,211 L131,211 L131,178 L244,178 L244,165 L131,165 L131,130 L221,130 L221,49 L39,49 L39,130 L118,130 M52,117 L52,62 L207,62 L207,117 M7,-19 Q30,13 39,30 L51,25 Q40,4 20,-27 M232,-23 Q219,0 204,24 L216,30 Q236,-2 244,-16 M160,-21 Q149,7 140,26 L152,30 Q162,10 174,-15 M92,28 Q106,-6 110,-18 L96,-23 Q92,-6 79,24"/> 
            <glyph glyph-name="照" unicode="&#x7167;" horiz-adv-x="245" d=" M23,197 L98,197 L98,42 L23,42 M126,108 L233,108 L233,41 L126,41 M121,185 L121,197 L236,197 Q236,179 234,157 Q233,127 203,127 Q187,127 175,127 Q175,134 173,140 Q178,140 189,139 Q197,139 200,139 Q219,138 221,157 Q221,162 222,173 Q222,182 222,185 L164,185 Q165,136 121,115 Q117,122 112,126 Q153,143 151,185 M138,96 L138,52 L221,52 L221,96 M36,117 L36,54 L85,54 L85,117 M36,185 L36,128 L85,128 L85,185 M205,24 L216,30 Q220,23 228,11 Q239,-6 245,-16 L232,-23 Q221,-2 205,24 M37,26 L50,21 Q44,9 27,-24 Q41,1 25,-27 L12,-21 Q29,8 37,26 M81,17 L93,23 Q97,15 103,2 Q109,-10 113,-18 L100,-23 Q91,-2 81,17 M143,19 L155,25 Q157,20 162,12 Q170,-3 177,-15 L164,-21 Q164,-20 163,-18 Q152,4 143,19"/> 
            <glyph glyph-name="煲" unicode="&#x7172;" horiz-adv-x="248" d=" M94,197 L221,197 L221,143 L164,143 L164,120 L242,120 L242,109 L164,109 L164,90 L170,100 Q180,96 206,85 Q234,74 242,70 L235,59 Q203,75 164,89 L164,61 L151,61 L151,106 Q122,75 76,60 Q75,61 72,66 Q69,70 68,71 Q118,87 141,109 L72,109 L72,120 L151,120 L151,143 L94,143 M123,56 L136,56 Q135,52 134,46 Q133,43 133,41 Q164,-7 248,-14 Q247,-16 246,-19 Q243,-24 242,-28 Q155,-15 129,27 Q113,-16 19,-31 Q18,-25 12,-18 Q121,-6 123,56 M108,186 L108,154 L208,154 L208,186 M14,113 Q11,119 5,125 Q42,159 65,210 L77,206 Q66,182 54,163 L54,61 L41,61 L41,145 Q29,128 14,113 M178,24 Q197,40 211,55 L221,46 Q212,37 196,22 Q191,18 188,15 M38,44 L47,52 Q58,42 54,45 Q69,33 78,24 L68,15 Q49,34 38,44"/> 
            <glyph glyph-name="片" unicode="&#x7247;" horiz-adv-x="248" d=" M166,209 L180,209 L180,136 L248,136 L248,123 L68,123 L68,104 Q68,87 68,73 L191,73 L191,-29 L176,-29 L176,60 L67,60 Q64,10 28,-28 Q22,-22 16,-19 Q40,5 47,29 Q54,52 54,103 L54,204 L68,204 L68,136 L166,136"/> 
            <glyph glyph-name="版" unicode="&#x7248;" horiz-adv-x="250" d=" M88,-19 Q106,6 112,30 Q118,54 118,102 L118,190 Q176,190 241,199 L245,186 Q199,181 130,177 L130,131 L236,131 L236,119 Q223,63 198,29 Q217,7 250,-13 Q246,-19 241,-26 Q205,0 189,19 Q168,-4 130,-28 Q129,-26 126,-23 Q123,-19 121,-17 Q164,9 180,30 Q156,63 146,119 L130,119 L130,102 Q130,52 124,26 Q117,0 99,-27 Q98,-26 95,-24 Q90,-21 88,-19 M67,208 L80,208 L80,133 L100,133 L100,121 L37,121 L37,77 L82,77 L82,-26 L69,-26 L69,66 L37,66 Q38,5 17,-28 Q12,-23 6,-19 Q26,7 24,77 L24,201 L37,201 L37,133 L67,133 M223,119 L159,119 Q167,74 189,40 Q212,70 223,119"/> 
            <glyph glyph-name="牛" unicode="&#x725B;" horiz-adv-x="247" d=" M9,71 L124,71 L124,142 L57,142 Q49,122 31,91 Q25,96 18,99 Q46,143 60,195 L74,190 Q70,172 62,155 L124,155 L124,208 L138,208 L138,155 L226,155 L226,142 L138,142 L138,71 L247,71 L247,57 L138,57 L138,-29 L124,-29 L124,57 L9,57"/> 
            <glyph glyph-name="特" unicode="&#x7279;" horiz-adv-x="249" d=" M52,209 L65,209 L65,150 L95,150 L95,138 L65,138 L65,81 Q70,83 79,86 Q89,90 93,91 Q95,84 96,78 Q92,77 83,74 Q71,70 65,68 L65,-29 L52,-29 L52,63 Q31,56 9,47 L6,61 Q12,63 24,67 Q42,73 52,77 L52,138 L26,138 Q21,118 15,100 Q10,103 4,106 Q17,142 21,185 L34,184 Q31,166 28,150 L52,150 M167,210 L180,210 L180,175 L238,175 L238,163 L180,163 L180,121 L249,121 L249,109 L99,109 L99,121 L167,121 L167,163 L110,163 L110,175 L167,175 M199,97 L212,97 L212,70 L249,70 L249,58 L212,58 L212,0 Q213,-27 182,-27 Q169,-27 152,-27 Q152,-22 150,-15 Q150,-16 149,-13 Q159,-14 179,-14 Q200,-15 199,2 L199,58 L100,58 L100,70 L199,70 M112,38 L121,46 Q138,31 153,14 L142,5 Q133,18 112,38"/> 
            <glyph glyph-name="率" unicode="&#x7387;" horiz-adv-x="248" d=" M115,207 L129,211 Q131,206 134,197 Q138,187 139,182 L244,182 L244,170 L124,170 L133,164 Q115,145 97,130 Q102,130 116,130 Q134,131 142,131 Q155,143 164,154 L176,144 Q141,111 99,80 Q117,80 159,82 Q153,91 146,100 L157,106 Q177,83 188,67 L176,59 Q172,65 167,71 Q148,70 112,69 Q121,69 94,68 Q85,68 77,66 L72,78 Q81,81 89,86 Q102,94 130,119 Q109,119 91,118 Q84,118 76,116 L71,128 Q77,129 83,134 Q103,149 119,170 L12,170 L12,182 L125,182 Q124,185 121,192 Q117,202 115,207 M121,59 L135,59 L135,36 L248,36 L248,24 L135,24 L135,-29 L121,-29 L121,24 L8,24 L8,36 L121,36 M66,106 L73,95 Q69,92 60,87 Q46,79 17,60 L9,72 Q19,78 38,89 Q56,100 66,106 M239,62 Q212,82 188,96 L196,106 Q221,91 248,73 M190,127 Q212,140 227,155 L236,145 Q218,130 199,116 M19,145 L27,154 Q48,139 63,127 L53,117 Q33,135 19,145"/> 
            <glyph glyph-name="球" unicode="&#x7403;" horiz-adv-x="250" d=" M95,162 L159,162 L159,208 L173,208 L173,162 L245,162 L245,149 L173,149 L173,139 Q179,108 191,84 Q215,107 231,126 L241,117 Q225,99 196,73 Q216,39 250,11 Q249,10 247,8 Q242,4 240,0 Q188,46 173,101 L173,4 Q174,-24 141,-24 Q127,-24 118,-24 Q117,-18 115,-10 Q121,-11 140,-11 Q161,-13 159,7 L159,58 Q128,37 99,18 L90,30 Q136,56 159,73 L159,149 L95,149 M9,-4 L7,8 Q15,9 35,12 Q40,13 42,13 L42,90 L11,90 L11,101 L42,101 L42,169 L8,169 L8,181 L88,181 L88,169 L55,169 L55,101 L83,101 L83,90 L55,90 L55,15 Q73,18 90,22 Q89,19 89,8 Q43,1 9,-4 M98,119 L109,126 Q124,107 138,83 L127,76 Q116,94 98,119 M186,190 L194,199 Q216,186 227,176 L219,167 Q207,176 186,190"/> 
            <glyph glyph-name="理" unicode="&#x7406;" horiz-adv-x="249" d=" M99,44 L162,44 L162,79 L104,79 L104,196 L233,196 L233,79 L175,79 L175,44 L239,44 L239,32 L175,32 L175,-8 L249,-8 L249,-20 L84,-20 L84,-8 L162,-8 L162,32 L99,32 M10,103 L42,103 L42,175 L8,175 L8,187 L88,187 L88,175 L55,175 L55,103 L87,103 L87,92 L55,92 L55,17 Q73,20 88,25 Q88,23 89,18 Q89,13 89,11 Q82,9 67,6 Q31,-1 9,-6 L6,6 Q14,8 33,12 Q39,13 42,14 L42,92 L10,92 M175,132 L175,91 L220,91 L220,132 M117,185 L117,143 L162,143 L162,185 M220,185 L175,185 L175,143 L220,143 M117,132 L117,91 L162,91 L162,132"/> 
            <glyph glyph-name="用" unicode="&#x7528;" horiz-adv-x="235" d=" M141,-26 L127,-26 L127,52 L48,52 Q46,10 19,-30 Q13,-24 6,-21 Q25,6 30,30 Q36,54 36,106 L36,195 L234,195 L234,3 Q235,-26 203,-26 Q189,-27 173,-27 Q173,-20 170,-12 Q180,-13 200,-13 Q221,-14 220,4 L220,52 L141,52 M220,182 L141,182 L141,130 L220,130 M141,117 L141,65 L220,65 L220,117 M50,106 Q50,97 49,82 Q49,70 49,65 L127,65 L127,117 L50,117 M50,182 L50,130 L127,130 L127,182"/> 
            <glyph glyph-name="由" unicode="&#x7531;" horiz-adv-x="229" d=" M28,-26 L28,163 L122,163 L122,210 L135,210 L135,163 L229,163 L229,-26 L215,-26 L215,-11 L42,-11 L42,-26 M135,1 L215,1 L215,69 L135,69 M42,69 L42,1 L122,1 L122,69 M42,150 L42,82 L122,82 L122,150 M215,150 L135,150 L135,82 L215,82"/> 
            <glyph glyph-name="电" unicode="&#x7535;" horiz-adv-x="247" d=" M112,210 L125,210 L125,176 L218,176 L218,42 L125,42 L125,13 Q124,-8 151,-7 L201,-7 Q226,-8 229,7 Q232,22 234,36 Q243,33 247,32 Q244,10 241,0 Q236,-22 204,-21 L147,-21 Q110,-22 112,12 L112,42 L33,42 L33,24 L20,24 L20,176 L112,176 M125,55 L204,55 L204,103 L125,103 M33,103 L33,55 L112,55 L112,103 M204,163 L125,163 L125,115 L204,115 M33,163 L33,115 L112,115 L112,163"/> 
            <glyph glyph-name="画" unicode="&#x753B;" horiz-adv-x="245" d=" M69,154 L186,154 L186,28 L69,28 M232,150 L232,-29 L218,-29 L218,-15 L24,-15 L24,150 L37,150 L37,-3 L218,-3 L218,150 M10,195 L245,195 L245,183 L10,183 M134,85 L134,39 L173,39 L173,85 M173,143 L134,143 L134,97 L173,97 M82,85 L82,39 L121,39 L121,85 M82,143 L82,97 L121,97 L121,143"/> 
            <glyph glyph-name="的" unicode="&#x7684;" horiz-adv-x="239" d=" M17,168 L43,168 Q51,192 55,209 L69,206 Q63,186 57,168 L108,168 L108,-24 L94,-24 L94,-4 L30,-4 L30,-26 L17,-26 M130,114 Q128,115 124,118 Q120,120 118,121 Q140,157 156,209 L170,206 Q164,188 156,169 L239,169 Q239,164 239,153 Q237,64 234,16 Q235,-23 191,-24 Q171,-24 152,-24 Q152,-23 151,-21 Q150,-13 148,-10 Q162,-11 189,-11 Q221,-12 221,18 Q223,43 224,123 Q225,146 225,156 L151,156 Q138,127 130,114 M30,76 L30,7 L94,7 L94,76 M30,156 L30,88 L94,88 L94,156 M141,102 L151,110 Q153,107 157,102 Q179,75 191,57 L180,49 Q161,77 141,102"/> 
            <glyph glyph-name="盒" unicode="&#x76D2;" horiz-adv-x="249" d=" M9,-9 L39,-9 L39,49 L217,49 L217,-9 L247,-9 L247,-20 L9,-20 M51,72 L51,122 L205,122 L205,72 M64,111 L64,83 L192,83 L192,111 M241,134 Q169,156 128,193 Q86,156 15,130 Q12,137 7,143 Q85,169 130,211 L145,207 Q144,206 141,204 Q139,202 137,201 Q180,164 249,147 Q244,141 241,134 M204,38 L162,38 L162,-9 L204,-9 M107,38 L107,-9 L149,-9 L149,38 M52,38 L52,-9 L94,-9 L94,38 M77,143 L77,154 L179,154 L179,143"/> 
            <glyph glyph-name="盖" unicode="&#x76D6;" horiz-adv-x="248" d=" M8,-9 L35,-9 L35,60 L220,60 L220,-9 L248,-9 L248,-21 L8,-21 M27,138 L121,138 L121,165 L16,165 L16,176 L148,176 Q169,194 184,209 L194,201 Q187,194 170,179 Q182,189 167,176 L240,176 L240,165 L135,165 L135,138 L229,138 L229,126 L135,126 L135,98 L243,98 L243,87 L13,87 L13,98 L121,98 L121,126 L27,126 M105,48 L105,-9 L150,-9 L150,48 M48,48 L48,-9 L93,-9 L93,48 M207,48 L163,48 L163,-9 L207,-9 M62,202 L71,210 Q79,204 91,194 Q97,189 100,187 L90,178 Q84,183 73,193 Q65,199 62,202"/> 
            <glyph glyph-name="目" unicode="&#x76EE;" horiz-adv-x="217" d=" M38,197 L217,197 L217,-28 L204,-28 L204,-7 L52,-7 L52,-28 L38,-28 M52,57 L52,3 L204,3 L204,57 M52,185 L52,133 L204,133 L204,185 M52,120 L52,69 L204,69 L204,120"/> 
            <glyph glyph-name="相" unicode="&#x76F8;" horiz-adv-x="238" d=" M112,193 L238,193 L238,-29 L225,-29 L225,-12 L126,-12 L126,-29 L112,-29 M13,39 Q12,42 9,46 Q7,51 5,53 Q34,93 48,146 L10,146 L10,158 L48,158 L48,208 L62,208 L62,158 L97,158 L97,146 L62,146 L62,103 L69,110 Q85,95 101,79 L91,70 Q90,71 89,73 Q77,86 62,101 L62,-29 L48,-29 L48,118 Q36,72 13,39 M126,51 L126,0 L225,0 L225,51 M126,180 L126,128 L225,128 L225,180 M126,116 L126,63 L225,63 L225,116"/> 
            <glyph glyph-name="省" unicode="&#x7701;" horiz-adv-x="249" d=" M12,90 Q11,92 10,97 Q8,101 7,103 Q120,128 192,159 L200,147 Q149,127 78,108 L221,108 L221,-28 L207,-28 L207,-16 L62,-16 L62,-29 L49,-29 L49,99 Q31,95 12,90 M62,20 L62,-4 L207,-4 L207,20 M62,95 L62,69 L207,69 L207,95 M62,58 L62,32 L207,32 L207,58 M80,193 L91,183 Q64,161 23,133 Q22,135 17,141 Q15,144 14,145 Q49,165 80,193 M173,183 L181,193 Q217,172 249,153 L239,141 Q200,167 173,183 M121,209 L134,209 L134,148 L121,148"/> 
            <glyph glyph-name="看" unicode="&#x770B;" horiz-adv-x="248" d=" M27,159 L107,159 Q113,171 117,183 Q73,181 25,181 L23,193 Q158,195 227,200 L230,188 Q184,185 131,184 Q127,171 121,159 L229,159 L229,148 L116,148 Q115,146 114,143 Q107,130 103,124 L248,124 L248,112 L96,112 Q88,100 79,90 L217,90 L217,-30 L204,-30 L204,-19 L74,-19 L74,-30 L61,-30 L61,69 Q42,48 15,29 Q12,32 6,40 Q52,72 81,112 L10,112 L10,124 L88,124 Q95,133 102,148 L27,148 M74,13 L74,-7 L204,-7 L204,13 M74,46 L74,24 L204,24 L204,46 M74,79 L74,57 L204,57 L204,79"/> 
            </font>
</defs>
</svg>
