<?xml version="1.0" standalone="no"?>
<!DOCTYPE svg PUBLIC "-//W3C//DTD SVG 1.1//EN" "http://www.w3.org/Graphics/SVG/1.1/DTD/svg11.dtd" >
<svg xmlns="http://www.w3.org/2000/svg">
    <defs>
        <font id="">
            <font-face font-family=""
                       units-per-em="256"
                       ascent="229"
                       descent="-67"
                       bbox="-14 -67 266 229"
                    />
            <missing-glyph horiz-adv-x="0" />
            
            <glyph glyph-name="." unicode="&#x2E;" horiz-adv-x="49" d=" M49,-8 L49,16 L25,16 L25,-8"/> 
            <glyph glyph-name="/" unicode="&#x2F;" horiz-adv-x="76" d=" M0,-12 L12,-12 L76,194 L63,194"/> 
            <glyph glyph-name="0" unicode="&#x30;" horiz-adv-x="144" d=" M78,0 Q129,-1 128,89 Q129,181 77,180 Q29,178 28,89 Q28,0 78,0 M78,193 Q144,193 144,89 Q143,-10 79,-12 Q13,-10 12,89 Q14,190 78,193"/> 
            <glyph glyph-name="1" unicode="&#x31;" horiz-adv-x="105" d=" M90,-9 L105,-9 L105,193 L94,193 Q82,160 31,135 L31,121 Q77,142 90,164"/> 
            <glyph glyph-name="2" unicode="&#x32;" horiz-adv-x="144" d=" M140,-9 L140,2 L27,2 Q44,36 87,67 Q144,107 139,140 Q136,191 80,193 Q30,194 13,146 L27,138 Q38,179 75,180 Q122,179 123,137 Q127,112 75,75 Q30,44 9,0 L9,-9"/> 
            <glyph glyph-name="3" unicode="&#x33;" horiz-adv-x="143" d=" M99,95 L99,96 Q133,106 135,141 Q133,192 76,193 Q25,193 14,143 L29,138 Q35,181 77,180 Q119,180 119,141 Q118,100 67,100 L56,100 L56,88 L74,88 Q126,88 127,48 Q126,1 75,0 Q32,0 25,44 L10,40 Q21,-11 77,-12 Q140,-9 143,46 Q141,87 99,95"/> 
            <glyph glyph-name="4" unicode="&#x34;" horiz-adv-x="144" d=" M21,52 L102,52 L102,171 Q102,168 98,162 M144,39 L116,39 L116,-10 L102,-10 L102,39 L4,39 L4,48 L105,193 L116,193 L116,52 L144,52"/> 
            <glyph glyph-name="6" unicode="&#x36;" horiz-adv-x="144" d=" M26,61 Q28,2 79,0 Q127,1 129,54 Q127,106 81,108 Q30,105 26,61 M140,148 L126,143 Q117,181 82,180 Q25,180 25,87 Q43,121 84,121 Q140,117 144,55 Q140,-8 81,-12 Q10,-13 11,82 Q11,193 83,193 Q127,191 140,148"/> 
            <glyph glyph-name="8" unicode="&#x38;" horiz-adv-x="147" d=" M79,89 Q30,88 28,43 Q30,0 80,0 Q130,1 132,41 Q129,87 79,89 M79,181 Q38,179 36,140 Q37,100 80,99 Q121,101 123,140 Q121,179 79,181 M52,94 Q22,108 20,139 Q24,189 79,193 Q133,189 139,139 Q137,106 108,94 Q144,82 147,41 Q145,-10 80,-12 Q14,-10 12,43 Q16,84 52,94"/> 
            <glyph glyph-name="A" unicode="&#x41;" horiz-adv-x="188" d=" M49,68 L138,68 L94,174 L93,174 M171,-9 L144,55 L44,55 L16,-9 L0,-9 L85,191 L101,191 L188,-9"/> 
            <glyph glyph-name="B" unicode="&#x42;" horiz-adv-x="171" d=" M97,88 L35,88 L35,3 L101,3 Q155,3 155,48 Q152,87 97,88 M94,177 L35,177 L35,101 L94,101 Q145,101 146,142 Q145,176 94,177 M104,-9 L21,-9 L21,190 L99,190 Q158,187 162,142 Q161,102 119,95 Q169,86 171,45 Q170,-8 104,-9"/> 
            <glyph glyph-name="F" unicode="&#x46;" horiz-adv-x="158" d=" M158,177 L38,177 L38,100 L143,100 L143,87 L38,87 L38,-9 L22,-9 L22,190 L158,190"/> 
            <glyph glyph-name="M" unicode="&#x4D;" horiz-adv-x="214" d=" M188,190 L214,190 L214,-10 L199,-10 L199,178 L197,178 L124,-9 L111,-9 L38,178 L36,178 L36,-10 L22,-10 L22,190 L47,190 L117,7 L118,7"/> 
            <glyph glyph-name="W" unicode="&#x57;" horiz-adv-x="262" d=" M245,190 L262,190 L201,-9 L186,-9 L136,164 Q136,166 135,171 Q134,177 133,178 Q132,176 131,170 Q130,167 130,166 L77,-9 L62,-9 L4,190 L20,190 L66,18 Q68,14 69,4 Q70,2 70,1 L71,1 Q71,4 73,14 Q74,17 74,18 L124,190 L142,190 L189,18 Q192,6 193,1 Q193,2 194,4 Q195,14 197,18"/> 
            <glyph glyph-name="a" unicode="&#x61;" horiz-adv-x="145" d=" M123,49 L123,78 Q116,66 74,61 Q23,57 26,27 Q24,-1 65,0 Q119,2 123,49 M30,93 L16,98 Q25,141 80,140 Q140,142 137,88 L137,23 Q136,2 145,-8 L130,-8 Q122,1 122,19 Q106,-11 58,-12 Q13,-11 12,27 Q12,67 65,73 Q115,77 122,89 Q125,130 80,128 Q36,129 30,93"/> 
            <glyph glyph-name="c" unicode="&#x63;" horiz-adv-x="137" d=" M120,92 L135,96 Q122,138 75,140 Q14,137 11,63 Q12,-10 76,-12 Q128,-13 137,37 L122,41 Q117,1 77,0 Q28,2 27,63 Q28,126 77,127 Q110,125 120,92"/> 
            <glyph glyph-name="h" unicode="&#x68;" horiz-adv-x="137" d=" M136,84 L136,-9 L122,-9 L122,82 Q123,129 82,128 Q36,126 33,74 L33,-9 L18,-9 L18,190 L33,190 L33,107 Q48,138 85,140 Q137,141 136,84"/> 
            <glyph glyph-name="i" unicode="&#x69;" horiz-adv-x="33" d=" M18,-9 L33,-9 L33,137 L18,137 M18,169 L33,169 L33,191 L18,191"/> 
            <glyph glyph-name="l" unicode="&#x6C;" horiz-adv-x="33" d=" M18,-9 L33,-9 L33,190 L18,190"/> 
            <glyph glyph-name="p" unicode="&#x70;" horiz-adv-x="144" d=" M33,77 L33,54 Q34,0 81,0 Q129,0 129,61 Q128,125 78,127 Q37,124 33,77 M33,-60 L18,-60 L18,136 L33,136 L33,109 Q45,140 82,140 Q141,136 144,62 Q142,-9 87,-12 Q47,-12 33,17"/> 
            <glyph glyph-name="s" unicode="&#x73;" horiz-adv-x="132" d=" M109,97 L123,102 Q115,140 67,140 Q18,138 15,99 Q12,67 71,58 Q118,51 115,28 Q113,0 71,0 Q30,-1 23,35 L9,31 Q21,-13 71,-12 Q128,-11 130,29 Q132,61 76,70 Q25,78 29,99 Q30,127 69,127 Q102,127 109,97"/> 
            <glyph glyph-name="、" unicode="&#x3001;" horiz-adv-x="99" d=" M39,37 L49,46 L99,-10 L88,-19"/> 
            <glyph glyph-name="一" unicode="&#x4E00;" horiz-adv-x="249" d=" M7,104 L249,104 L249,89 L7,89"/> 
            <glyph glyph-name="七" unicode="&#x4E03;" horiz-adv-x="246" d=" M9,112 L94,122 L94,208 L109,208 L109,123 L244,138 L246,125 L109,109 L109,23 Q106,-4 139,-2 L192,-2 Q218,-3 221,16 Q225,31 227,51 Q229,51 233,49 Q238,47 241,46 Q240,28 235,10 Q228,-18 195,-17 L134,-17 Q93,-17 94,18 L94,108 L11,98"/> 
            <glyph glyph-name="上" unicode="&#x4E0A;" horiz-adv-x="247" d=" M109,206 L123,206 L123,130 L227,130 L227,116 L123,116 L123,0 L247,0 L247,-14 L9,-14 L9,0 L109,0"/> 
            <glyph glyph-name="下" unicode="&#x4E0B;" horiz-adv-x="247" d=" M9,190 L247,190 L247,176 L124,176 L124,-27 L109,-27 L109,176 L9,176 M221,57 Q174,86 129,110 L137,123 Q144,119 157,112 Q206,87 231,72"/> 
            <glyph glyph-name="不" unicode="&#x4E0D;" horiz-adv-x="247" d=" M14,189 L245,189 L245,175 L153,175 Q102,94 17,37 Q11,43 7,49 Q95,107 135,175 L14,175 M120,126 L134,126 L134,-30 L120,-30 M238,44 Q176,87 153,100 L162,111 Q168,107 180,99 Q228,69 247,56"/> 
            <glyph glyph-name="与" unicode="&#x4E0E;" horiz-adv-x="248" d=" M47,97 L59,210 L73,210 L69,170 L248,170 L248,157 L68,157 L63,111 L230,111 Q226,44 223,15 Q221,-24 172,-24 Q140,-24 119,-24 Q119,-21 118,-16 Q117,-11 116,-8 Q139,-10 170,-10 Q206,-11 209,17 Q210,25 211,42 Q214,79 215,97 M7,53 L186,53 L186,40 L7,40"/> 
            <glyph glyph-name="专" unicode="&#x4E13;" horiz-adv-x="249" d=" M56,62 L56,76 Q64,89 72,111 L9,111 L9,124 L78,124 Q81,132 88,150 Q91,159 93,163 L24,163 L24,176 L98,176 Q104,189 110,211 L124,208 Q119,193 113,176 L233,176 L233,163 L108,163 Q106,159 103,150 Q96,132 93,124 L249,124 L249,111 L87,111 Q79,90 71,75 L219,75 L219,60 L151,0 Q158,-2 171,-9 Q184,-15 190,-18 L182,-30 Q114,3 54,30 L61,41 Q64,40 71,37 Q113,18 138,5 L201,62"/> 
            <glyph glyph-name="个" unicode="&#x4E2A;" horiz-adv-x="248" d=" M238,93 Q166,131 130,185 Q88,126 17,88 Q10,97 7,100 Q91,145 129,209 L143,206 L137,196 Q178,139 248,105 Q247,103 243,99 Q239,95 238,93 M121,119 L135,119 L135,-29 L121,-29"/> 
            <glyph glyph-name="中" unicode="&#x4E2D;" horiz-adv-x="233" d=" M23,156 L121,156 L121,211 L135,211 L135,156 L233,156 L233,47 L219,47 L219,61 L135,61 L135,-31 L121,-31 L121,61 L37,61 L37,47 L23,47 M219,143 L135,143 L135,74 L219,74 M37,143 L37,74 L121,74 L121,143"/> 
            <glyph glyph-name="主" unicode="&#x4E3B;" horiz-adv-x="247" d=" M19,164 L236,164 L236,151 L135,151 L135,85 L227,85 L227,72 L135,72 L135,-1 L247,-1 L247,-14 L8,-14 L8,-1 L121,-1 L121,72 L29,72 L29,85 L121,85 L121,151 L19,151 M113,205 L126,210 Q141,180 144,173 L130,168 Q127,177 113,205"/> 
            <glyph glyph-name="二" unicode="&#x4E8C;" horiz-adv-x="245" d=" M29,176 L227,176 L227,161 L29,161 M10,13 L245,13 L245,0 L10,0"/> 
            <glyph glyph-name="于" unicode="&#x4E8E;" horiz-adv-x="248" d=" M28,191 L229,191 L229,178 L139,178 L139,107 L248,107 L248,93 L139,93 L139,9 Q140,-25 106,-25 Q89,-25 70,-25 Q69,-18 67,-10 Q83,-10 100,-10 Q126,-12 124,11 L124,93 L8,93 L8,107 L124,107 L124,178 L28,178"/> 
            <glyph glyph-name="云" unicode="&#x4E91;" horiz-adv-x="248" d=" M221,-21 Q213,-10 204,0 Q125,-1 56,-4 Q54,-4 51,-5 Q38,-6 34,-7 L26,8 Q39,16 48,27 Q82,64 104,101 L9,101 L9,115 L248,115 L248,101 L110,101 L121,97 Q97,61 50,8 Q132,10 194,13 Q181,29 158,58 Q160,55 154,63 L166,71 Q187,46 234,-12 M33,192 L225,192 L225,178 L33,178"/> 
            <glyph glyph-name="互" unicode="&#x4E92;" horiz-adv-x="245" d=" M42,48 L63,176 L21,176 L21,189 L235,189 L235,176 L77,176 L70,134 L206,134 L197,0 L245,0 L245,-11 L12,-11 L12,0 L182,0 L186,48 M191,121 L68,121 L58,61 L187,61"/> 
            <glyph glyph-name="人" unicode="&#x4EBA;" horiz-adv-x="247" d=" M237,-23 Q141,25 129,134 Q115,27 19,-26 Q18,-25 15,-22 Q11,-16 9,-15 Q104,38 118,144 Q121,164 121,206 L136,206 Q136,199 135,187 Q135,174 134,168 Q150,29 247,-11 Q245,-13 241,-18 Q238,-22 237,-23"/> 
            <glyph glyph-name="价" unicode="&#x4EF7;" horiz-adv-x="250" d=" M6,87 Q43,146 60,209 L74,205 Q65,176 54,150 L54,-29 L40,-29 L40,120 Q28,95 14,73 Q13,75 11,79 Q8,85 6,87 M241,111 Q188,144 161,187 Q133,143 81,108 Q80,110 76,114 Q73,118 71,119 Q134,158 160,211 L175,209 Q174,208 173,205 Q170,201 168,198 Q199,151 250,123 Q244,117 241,111 M130,111 L130,80 Q133,6 89,-30 Q82,-23 77,-20 Q119,10 116,81 L116,111 M188,111 L202,111 L202,-27 L188,-27"/> 
            <glyph glyph-name="份" unicode="&#x4EFD;" horiz-adv-x="249" d=" M93,100 L213,100 Q213,94 212,78 Q211,31 209,11 Q208,-24 169,-24 Q159,-25 139,-25 Q138,-18 135,-10 Q145,-11 167,-11 Q194,-12 196,13 Q197,28 198,62 Q199,80 199,88 L137,88 Q139,13 80,-29 Q75,-23 69,-18 Q126,20 124,88 L93,88 M13,78 Q11,83 6,93 Q42,140 64,207 L78,203 Q68,173 51,140 L51,-29 L38,-29 L38,116 Q35,111 29,101 Q18,86 13,78 M168,203 L180,208 Q203,149 249,117 Q244,113 238,105 Q189,143 168,203 M78,99 Q74,105 68,110 Q110,147 131,198 L144,193 Q124,141 78,99"/> 
            <glyph glyph-name="体" unicode="&#x4F53;" horiz-adv-x="250" d=" M70,13 Q69,15 63,19 Q60,22 59,23 Q116,74 137,145 L76,145 L76,157 L148,157 L148,209 L162,209 L162,157 L239,157 L239,145 L174,145 Q198,72 250,28 Q246,25 240,17 Q185,67 163,145 L162,145 L162,35 L204,35 L204,22 L162,22 L162,-29 L148,-29 L148,22 L107,22 L107,35 L148,35 L148,145 Q127,65 70,13 M12,77 Q10,81 6,89 Q5,91 5,91 Q41,141 63,209 L76,206 Q66,173 52,145 L52,-29 L39,-29 L39,119 Q26,95 12,77"/> 
            <glyph glyph-name="你" unicode="&#x4F60;" horiz-adv-x="249" d=" M13,73 Q12,76 10,81 Q9,85 7,89 Q47,146 66,210 L80,205 Q71,175 57,148 L57,-29 L44,-29 L44,121 Q29,93 13,73 M214,116 L231,157 L121,157 Q109,133 94,110 Q89,114 82,118 Q111,161 129,208 L143,204 Q142,201 139,196 Q136,187 127,170 L245,170 L245,156 L228,112 Q225,113 219,114 Q216,116 214,116 M159,133 L173,133 L173,4 Q174,-25 142,-26 Q125,-26 115,-26 Q114,-18 112,-12 Q124,-12 139,-12 Q160,-13 159,5 M82,16 Q103,54 119,97 L131,93 Q112,42 95,9 Q89,13 82,16 M236,12 Q213,64 198,92 L210,98 Q226,69 249,18"/> 
            <glyph glyph-name="使" unicode="&#x4F7F;" horiz-adv-x="248" d=" M76,175 L154,175 L154,209 L167,209 L167,175 L248,175 L248,163 L167,163 L167,133 L235,133 L235,59 L222,59 L222,69 L166,69 Q163,31 147,11 Q175,-7 246,-14 Q241,-22 239,-27 Q171,-19 138,1 Q122,-12 73,-30 Q71,-26 67,-21 Q66,-19 65,-18 Q112,-2 126,10 Q109,25 94,49 L106,56 Q117,36 136,19 Q149,35 153,69 L86,69 L86,133 L154,133 L154,163 L76,163 M13,77 Q12,81 8,89 Q7,90 7,91 Q44,148 60,209 L74,206 Q63,173 51,145 L51,-30 L38,-30 L38,118 Q26,96 13,77 M167,111 Q167,95 167,81 L222,81 L222,121 L167,121 M153,81 Q154,94 154,110 L154,121 L100,121 L100,81"/> 
            <glyph glyph-name="便" unicode="&#x4FBF;" horiz-adv-x="249" d=" M83,194 L245,194 L245,183 L168,183 L168,154 L234,154 L234,45 L221,45 L221,55 L166,55 Q162,26 147,8 Q177,-6 249,-13 Q244,-18 242,-26 Q167,-18 137,0 Q122,-13 78,-30 Q77,-28 74,-24 Q71,-19 70,-17 Q111,-4 125,6 Q108,20 93,39 L104,47 Q119,28 135,15 Q148,30 152,55 L88,55 L88,154 L155,154 L155,183 L83,183 M12,72 Q11,75 8,82 Q7,85 6,87 Q46,143 63,208 L76,205 Q66,173 54,143 L54,-30 L40,-30 L40,117 Q28,95 12,72 M154,67 Q155,81 155,99 L101,99 L101,67 M167,67 L221,67 L221,99 L168,99 Q168,81 167,67 M101,143 L101,111 L155,111 L155,143 M221,143 L168,143 L168,111 L221,111"/> 
            <glyph glyph-name="信" unicode="&#x4FE1;" horiz-adv-x="249" d=" M95,54 L231,54 L231,-29 L218,-29 L218,-14 L108,-14 L108,-29 L95,-29 M108,42 L108,-2 L218,-2 L218,42 M13,77 Q10,85 7,91 Q42,142 61,209 L74,205 Q65,175 52,147 L52,-29 L39,-29 L39,120 Q26,96 13,77 M148,205 L161,210 Q165,201 173,185 Q172,187 175,180 L164,176 L249,176 L249,163 L78,163 L78,176 L162,176 Q162,177 161,179 Q155,192 148,205 M92,135 L234,135 L234,123 L92,123 M92,95 L234,95 L234,82 L92,82"/> 
            <glyph glyph-name="倍" unicode="&#x500D;" horiz-adv-x="250" d=" M97,66 L227,66 L227,-29 L214,-29 L214,-13 L110,-13 L110,-29 L97,-29 M110,54 L110,-1 L214,-1 L214,54 M11,76 Q8,84 5,91 Q41,142 60,208 L74,205 Q64,172 50,144 L50,-29 L36,-29 L36,117 Q24,96 11,76 M74,108 L250,108 L250,95 L74,95 M83,173 L241,173 L241,161 L83,161 M193,111 L182,119 Q196,136 207,155 L219,148 Q212,138 198,118 Q195,113 193,111 M106,147 L116,155 Q128,140 143,119 L132,112 Q127,120 116,134 Q109,143 106,147 M146,204 L157,210 Q167,196 176,181 L164,174 Q160,181 152,194 Q148,201 146,204"/> 
            <glyph glyph-name="候" unicode="&#x5019;" horiz-adv-x="250" d=" M113,66 Q107,70 101,72 Q122,98 131,129 L144,126 Q141,115 136,106 L237,106 L237,94 L182,94 Q182,74 179,55 L249,55 L249,43 L182,43 Q197,2 250,-14 Q249,-16 246,-21 Q243,-25 241,-27 Q186,-5 173,34 Q164,-6 94,-30 Q91,-24 86,-18 Q157,6 163,43 L97,43 L97,55 L165,55 Q168,73 168,94 L130,94 Q122,79 113,66 M11,79 Q9,85 5,93 Q42,151 55,210 L68,207 Q56,168 48,147 L48,-30 L35,-30 L35,120 Q25,100 11,79 M116,197 L221,197 L215,149 L247,149 L247,137 L102,137 L102,149 L202,149 L207,185 L116,185 M74,174 L86,174 L86,16 L74,16"/> 
            <glyph glyph-name="值" unicode="&#x503C;" horiz-adv-x="249" d=" M152,209 L166,209 L166,184 L244,184 L244,172 L166,172 L166,144 L226,144 L226,-9 L249,-9 L249,-21 L68,-21 L68,-9 L93,-9 L93,144 L152,144 L152,172 L79,172 L79,184 L152,184 M12,78 Q9,84 4,90 Q39,141 61,209 L74,206 Q62,172 49,142 L49,-28 L36,-28 L36,116 Q24,96 12,78 M106,133 L106,105 L212,105 L212,133 M106,94 L106,67 L212,67 L212,94 M106,17 L106,-9 L212,-9 L212,17 M106,55 L106,28 L212,28 L212,55"/> 
            <glyph glyph-name="像" unicode="&#x50CF;" horiz-adv-x="246" d=" M76,136 Q72,140 66,146 Q106,174 128,210 L141,207 Q135,198 129,189 L200,189 L200,178 L177,152 L232,152 L232,103 L154,103 Q151,99 147,94 Q162,82 170,67 Q196,80 223,98 L230,88 Q224,84 212,77 Q204,72 199,69 Q210,23 246,0 Q240,-3 236,-9 Q200,17 188,63 Q187,62 184,61 Q182,60 174,56 Q180,39 180,12 Q181,-24 142,-25 Q133,-25 121,-25 Q121,-19 119,-12 Q128,-13 141,-13 Q168,-14 167,13 Q167,27 166,37 Q135,3 74,-18 Q73,-17 70,-13 Q67,-10 66,-8 Q130,13 163,50 Q160,59 155,68 Q123,33 74,17 Q71,24 66,28 Q119,46 149,76 Q145,82 139,87 Q123,71 74,52 Q73,54 70,58 Q67,62 66,63 Q120,82 139,103 L88,103 L88,145 Q82,141 76,136 M12,77 Q7,87 5,90 Q38,138 60,208 L72,205 Q66,185 52,151 Q51,149 51,148 L51,-28 L38,-28 L38,121 Q27,98 12,77 M184,178 L120,178 Q108,165 95,152 L161,152 M219,142 L169,142 Q166,126 161,114 L219,114 M100,142 L100,114 L147,114 Q155,126 156,142"/> 
            <glyph glyph-name="全" unicode="&#x5168;" horiz-adv-x="249" d=" M48,115 L207,115 L207,102 L135,102 L135,57 L217,57 L217,44 L135,44 L135,-3 L239,-3 L239,-16 L17,-16 L17,-3 L121,-3 L121,44 L39,44 L39,57 L121,57 L121,102 L48,102 M239,107 Q165,143 129,193 Q83,139 16,105 Q11,111 6,116 Q88,159 126,212 L141,209 Q139,206 136,203 Q177,151 249,120 Q246,115 239,107"/> 
            <glyph glyph-name="具" unicode="&#x5177;" horiz-adv-x="249" d=" M7,37 L44,37 L44,198 L212,198 L212,37 L249,37 L249,25 L7,25 M57,146 L57,117 L199,117 L199,146 M57,66 L57,37 L199,37 L199,66 M57,106 L57,77 L199,77 L199,106 M57,186 L57,157 L199,157 L199,186 M93,14 L102,2 Q92,-1 71,-10 Q34,-25 19,-31 Q17,-27 11,-18 Q67,1 93,14 M154,1 L161,13 Q177,7 212,-3 Q236,-12 245,-15 L238,-28 Q193,-10 154,1"/> 
            <glyph glyph-name="册" unicode="&#x518C;" horiz-adv-x="249" d=" M7,107 L36,107 L36,197 L112,197 L112,107 L144,107 L144,197 L222,197 L222,107 L249,107 L249,94 L222,94 L222,0 Q223,-25 197,-24 Q184,-25 172,-25 Q172,-23 171,-18 Q170,-13 169,-11 Q174,-11 182,-12 Q189,-12 193,-12 Q210,-13 209,2 L209,94 L158,94 Q157,43 152,20 Q147,-3 130,-29 Q124,-24 118,-21 Q135,3 139,25 Q144,46 144,94 L112,94 L112,5 Q113,-17 89,-18 Q81,-18 66,-18 Q66,-16 65,-11 Q64,-6 63,-4 Q72,-5 83,-5 Q99,-6 98,8 L98,94 L50,94 Q49,44 44,21 Q39,-3 24,-29 Q21,-27 15,-23 Q13,-22 12,-21 Q27,4 31,25 Q36,47 36,94 L7,94 M158,184 L158,107 L209,107 L209,184 M50,184 L50,107 L98,107 L98,184"/> 
            <glyph glyph-name="净" unicode="&#x51C0;" horiz-adv-x="248" d=" M76,130 Q72,134 66,140 Q101,168 128,211 L141,207 Q134,195 126,185 L203,185 L203,172 L173,139 L224,139 L224,94 L248,94 L248,82 L224,82 L224,22 L210,22 L210,36 L156,36 L156,6 Q157,-25 122,-25 Q108,-25 99,-25 Q99,-23 98,-18 Q97,-13 96,-11 Q106,-11 119,-11 Q145,-12 143,9 L143,36 L79,36 L79,48 L143,48 L143,82 L67,82 L67,94 L143,94 L143,127 L85,127 L85,137 M188,174 L118,174 Q104,155 86,139 L157,139 M156,82 L156,48 L210,48 L210,82 M210,127 L156,127 L156,94 L210,94 M12,0 Q26,39 38,89 Q43,86 52,83 Q38,33 26,-5 M43,129 Q27,163 13,186 L25,192 Q42,160 56,135"/> 
            <glyph glyph-name="减" unicode="&#x51CF;" horiz-adv-x="249" d=" M174,209 L187,209 Q187,180 188,167 L248,167 L248,155 L188,155 Q188,152 188,146 Q189,139 189,135 Q191,86 197,50 Q212,76 228,126 L240,122 Q221,64 201,32 Q202,27 205,19 Q207,13 208,10 Q218,-12 225,-11 Q231,-12 233,0 Q237,27 237,36 Q240,35 243,34 Q247,32 249,31 Q249,22 247,4 Q246,0 246,-3 Q242,-25 226,-25 Q209,-26 197,3 Q194,9 192,17 Q173,-7 152,-27 Q151,-26 147,-22 Q142,-18 141,-17 Q173,10 188,34 Q180,61 176,133 Q176,137 175,145 Q175,152 175,155 L84,155 L84,110 Q84,55 77,29 Q71,1 49,-27 Q48,-26 45,-23 Q40,-20 38,-18 Q58,7 64,32 Q71,57 71,108 L71,167 L175,167 Q174,178 174,209 M102,92 L159,92 L159,18 L102,18 M114,80 L114,29 L147,29 L147,80 M22,-2 L7,2 Q25,44 39,95 Q41,93 49,90 Q51,89 52,89 Q48,76 37,43 Q27,12 22,-2 M13,184 L24,190 Q29,182 44,159 Q52,144 56,139 L44,132 Q22,169 13,184 M99,130 L164,130 L164,118 L99,118 M200,193 L208,202 Q212,199 219,193 Q231,184 236,180 L227,170 Q218,179 200,193"/> 
            <glyph glyph-name="出" unicode="&#x51FA;" horiz-adv-x="229" d=" M33,100 L33,184 L47,184 L47,113 L121,113 L121,207 L134,207 L134,113 L209,113 L209,184 L222,184 L222,100 L134,100 L134,-3 L216,-3 L216,67 L229,67 L229,-25 L216,-25 L216,-16 L26,-16 L26,67 L40,67 L40,-3 L121,-3 L121,100"/> 
            <glyph glyph-name="切" unicode="&#x5207;" horiz-adv-x="237" d=" M97,193 L237,193 Q235,116 230,20 Q229,-22 188,-21 Q167,-22 154,-22 Q153,-13 150,-6 Q158,-7 186,-7 Q215,-8 216,19 Q218,58 221,158 Q222,174 222,180 L157,180 Q157,160 154,110 Q151,15 89,-29 Q87,-25 78,-19 Q139,24 140,109 Q143,142 143,180 L97,180 M54,30 Q71,41 104,67 Q104,66 104,65 Q106,56 108,52 Q72,27 56,14 Q54,12 50,9 Q46,5 44,4 L33,16 Q40,24 40,38 L40,123 L8,120 L7,133 L40,137 L40,210 L54,210 L54,138 L104,144 L106,131 L54,125"/> 
            <glyph glyph-name="制" unicode="&#x5236;" horiz-adv-x="237" d=" M7,119 L80,119 L80,157 L37,157 Q32,144 23,130 Q23,130 22,131 Q16,135 12,136 Q31,166 38,198 L51,196 Q50,193 48,187 Q45,175 42,169 L80,169 L80,208 L93,208 L93,169 L147,169 L147,157 L93,157 L93,119 L158,119 L158,106 L93,106 L93,73 L148,73 L148,15 Q149,-6 125,-7 Q118,-7 107,-7 Q106,-5 105,0 Q104,3 104,4 Q109,3 122,3 Q136,2 135,16 L135,61 L93,61 L93,-30 L80,-30 L80,61 L39,61 L39,-11 L26,-11 L26,73 L80,73 L80,106 L7,106 M222,208 L236,208 L236,4 Q237,-26 208,-25 Q191,-25 177,-25 Q177,-23 176,-18 Q175,-13 174,-11 Q179,-11 189,-12 Q199,-12 204,-12 Q223,-13 222,5 M187,35 L174,35 L174,184 L187,184"/> 
            <glyph glyph-name="功" unicode="&#x529F;" horiz-adv-x="237" d=" M108,157 L143,157 Q144,175 144,208 L158,208 Q158,174 157,157 L237,157 Q235,71 232,15 Q232,-24 191,-23 Q181,-24 155,-24 Q154,-20 153,-14 Q152,-11 152,-9 Q163,-10 190,-10 Q218,-11 218,14 Q221,59 223,144 L156,144 Q156,140 156,132 Q155,124 155,120 Q151,18 79,-29 Q77,-27 72,-22 Q68,-19 67,-18 Q138,22 141,121 Q141,124 141,130 Q142,139 142,144 L108,144 M11,15 L7,29 Q26,34 51,40 L51,165 L9,165 L9,178 L103,178 L103,165 L65,165 L65,44 Q81,48 103,54 Q103,50 105,40 Q74,32 11,15"/> 
            <glyph glyph-name="加" unicode="&#x52A0;" horiz-adv-x="239" d=" M150,176 L239,176 L239,-23 L225,-23 L225,1 L164,1 L164,-23 L150,-23 M164,163 L164,14 L225,14 L225,163 M48,209 L62,209 Q62,188 62,164 L119,164 Q119,87 115,13 Q114,-22 82,-23 Q70,-23 57,-23 Q57,-16 55,-8 Q66,-8 79,-8 Q102,-10 102,14 Q102,18 102,27 Q105,112 105,151 L61,151 Q61,143 61,137 Q59,23 17,-28 Q11,-23 4,-20 Q46,31 47,138 Q47,144 47,151 L12,151 L12,164 L48,164 Q48,187 48,209"/> 
            <glyph glyph-name="务" unicode="&#x52A1;" horiz-adv-x="248" d=" M241,86 Q173,93 130,113 Q83,93 14,82 Q11,89 6,95 Q74,105 115,121 Q86,139 65,166 Q47,147 22,126 Q21,127 18,130 Q16,133 12,136 Q58,171 86,211 L99,206 Q92,196 84,187 L216,187 L216,173 Q178,138 145,121 Q181,104 248,100 Q247,99 246,96 Q245,94 241,86 M26,67 L97,67 Q99,78 100,93 L113,93 Q113,78 111,67 L214,67 Q214,55 212,33 Q211,24 211,19 Q210,-26 166,-24 Q151,-25 129,-25 Q129,-23 128,-20 Q127,-13 126,-10 Q137,-11 164,-11 Q196,-13 197,19 Q199,35 199,54 L109,54 Q103,-4 19,-31 Q13,-22 9,-19 Q90,5 95,54 L26,54 M198,175 L74,175 Q101,144 130,128 Q165,144 198,175"/> 
            <glyph glyph-name="动" unicode="&#x52A8;" horiz-adv-x="241" d=" M162,210 L175,210 Q175,187 175,157 L241,157 Q241,153 241,145 Q239,41 237,15 Q235,-22 201,-23 Q186,-23 170,-23 Q168,-14 165,-7 Q171,-7 182,-8 Q193,-8 199,-8 Q222,-9 223,15 Q227,88 227,144 L174,144 Q174,132 173,119 Q173,25 119,-29 Q117,-27 111,-23 Q108,-21 107,-20 Q158,28 159,120 Q160,124 160,132 Q161,140 161,144 L122,144 L122,157 L161,157 Q161,165 161,182 Q162,200 162,210 M108,0 Q105,5 102,11 Q80,10 47,7 Q36,6 30,5 Q25,4 18,3 Q19,3 14,2 L8,14 Q16,20 21,32 Q35,61 52,104 L8,104 L8,118 L123,118 L123,104 L67,104 Q48,58 28,17 Q61,19 97,23 Q93,32 84,52 Q79,61 77,66 L89,71 Q100,51 119,10 Q120,7 121,5 M19,188 L113,188 L113,175 L19,175"/> 
            <glyph glyph-name="劫" unicode="&#x52AB;" horiz-adv-x="236" d=" M130,157 L163,157 Q164,174 164,210 L178,210 Q178,203 178,187 Q177,167 177,157 L236,157 Q234,65 231,15 Q230,-22 196,-23 Q181,-23 165,-23 Q163,-14 160,-7 Q166,-7 177,-8 Q188,-8 194,-8 Q216,-9 217,15 Q221,88 221,145 L177,145 Q176,131 176,119 Q174,25 122,-29 Q116,-25 110,-20 Q161,29 162,120 Q162,125 163,133 Q163,141 163,145 L130,145 M62,209 L76,209 L76,164 L117,164 L117,151 L76,151 L76,99 L125,99 L125,87 L68,87 Q53,52 31,13 Q65,17 102,20 Q93,40 82,59 L94,64 Q109,37 125,5 L112,0 Q112,1 111,2 Q111,3 108,8 Q87,7 50,3 Q38,2 32,1 Q30,1 27,0 Q21,0 17,-1 L10,10 Q10,10 11,11 Q19,17 22,23 Q39,49 53,87 L8,87 L8,99 L62,99 L62,151 L17,151 L17,164 L62,164"/> 
            <glyph glyph-name="化" unicode="&#x5316;" horiz-adv-x="249" d=" M84,44 Q79,52 76,56 Q109,73 137,91 L137,205 L151,205 L151,101 Q190,130 224,175 L237,167 Q199,120 151,84 L151,15 Q149,-8 175,-6 L203,-6 Q227,-7 230,9 Q232,18 236,53 Q240,50 249,48 Q248,24 243,5 Q239,-20 204,-20 L171,-20 Q136,-21 137,13 L137,74 Q112,58 84,44 M15,71 Q13,76 8,82 Q7,84 6,85 Q50,137 77,207 L91,203 Q76,169 60,140 L60,-29 L47,-29 L47,116 Q32,92 15,71"/> 
            <glyph glyph-name="卡" unicode="&#x5361;" horiz-adv-x="247" d=" M111,210 L125,210 L125,172 L231,172 L231,159 L125,159 L125,114 L247,114 L247,101 L10,101 L10,114 L111,114 M222,10 Q188,30 125,60 L125,-29 L111,-29 L111,91 L125,91 L125,62 L131,71 Q172,52 231,23"/> 
            <glyph glyph-name="即" unicode="&#x5373;" horiz-adv-x="236" d=" M124,-4 Q122,-1 115,7 Q108,17 104,22 Q60,0 41,-8 Q39,-9 36,-12 Q30,-16 27,-18 L17,-6 Q25,1 24,12 L24,193 L118,193 L118,77 L38,77 L38,3 Q45,6 66,17 Q87,28 96,32 Q93,36 88,43 Q80,52 77,56 L88,63 Q119,25 135,2 M152,189 L234,189 L234,41 Q236,12 205,12 Q193,12 180,12 Q179,18 177,26 Q189,25 200,25 Q222,24 221,44 L221,176 L165,176 L165,-29 L152,-29 M38,89 L104,89 L104,129 L38,129 M38,181 L38,141 L104,141 L104,181"/> 
            <glyph glyph-name="友" unicode="&#x53CB;" horiz-adv-x="246" d=" M91,210 L105,208 Q104,202 102,190 Q100,177 99,171 L246,171 L246,158 L96,158 Q92,136 86,115 L218,115 L218,103 Q200,51 161,19 Q188,0 244,-14 Q243,-17 240,-22 Q238,-27 236,-29 Q183,-13 150,10 Q115,-12 58,-30 Q55,-22 50,-16 Q109,0 138,19 Q104,51 88,103 L82,103 Q61,33 16,-18 Q10,-12 5,-7 Q62,53 82,158 L14,158 L14,171 L85,171 Q88,191 91,210 M203,103 L102,103 Q118,54 150,28 Q189,57 203,103"/> 
            <glyph glyph-name="双" unicode="&#x53CC;" horiz-adv-x="250" d=" M118,177 L118,190 L233,190 L233,177 Q219,85 185,41 Q208,9 250,-12 Q247,-14 241,-24 Q240,-25 240,-25 Q197,1 176,30 Q152,-1 99,-30 Q97,-27 93,-22 Q90,-18 90,-17 Q142,9 168,42 Q135,88 126,177 M13,144 L25,151 Q32,140 46,118 Q63,92 71,80 Q87,118 94,177 L9,177 L9,190 L108,190 L108,177 Q99,107 80,66 Q98,36 114,11 L101,3 Q97,9 90,21 Q78,41 72,50 Q54,16 18,-21 Q14,-16 7,-11 Q45,28 64,64 Q52,84 25,125 Q17,138 13,144 M219,177 L140,177 Q147,96 177,53 Q208,96 219,177"/> 
            <glyph glyph-name="发" unicode="&#x53D1;" horiz-adv-x="247" d=" M33,153 L93,153 Q100,180 104,210 L119,208 Q117,200 114,183 Q110,163 108,153 L247,153 L247,140 L104,140 Q99,121 93,103 L218,103 L218,91 Q200,46 164,17 Q189,0 246,-13 Q243,-17 239,-25 Q238,-26 238,-27 Q184,-12 152,8 Q124,-8 59,-30 Q58,-26 53,-20 Q52,-17 51,-16 Q115,0 141,17 Q106,46 91,91 L88,91 Q63,29 16,-18 Q14,-15 9,-11 Q6,-8 5,-7 Q68,52 90,140 L19,140 L19,156 Q30,179 37,201 L51,197 Q50,193 47,186 Q38,163 33,153 M204,91 L104,91 Q119,51 153,25 Q188,52 204,91 M164,196 L172,206 Q194,192 215,177 L206,166 Q178,187 164,196"/> 
            <glyph glyph-name="只" unicode="&#x53EA;" horiz-adv-x="247" d=" M40,194 L218,194 L218,72 L40,72 M54,180 L54,85 L204,85 L204,180 M89,55 L102,47 Q67,8 20,-29 Q12,-21 8,-18 Q55,15 89,55 M236,-28 Q214,-7 174,27 Q160,39 152,46 L163,56 Q176,44 201,22 Q232,-4 247,-17"/> 
            <glyph glyph-name="台" unicode="&#x53F0;" horiz-adv-x="250" d=" M215,78 L215,-29 L201,-29 L201,-13 L55,-13 L55,-29 L41,-29 L41,78 M55,65 L55,0 L201,0 L201,65 M237,94 Q228,105 217,115 Q121,114 45,109 Q32,109 21,106 L14,121 Q26,127 33,133 Q79,172 111,211 L125,204 Q91,166 42,123 Q81,124 173,127 Q194,128 205,128 Q199,135 185,148 Q172,161 165,167 L176,175 Q193,160 225,128 Q242,112 250,104"/> 
            <glyph glyph-name="号" unicode="&#x53F7;" horiz-adv-x="249" d=" M46,198 L210,198 L210,130 L46,130 M45,44 L61,88 L7,88 L7,102 L249,102 L249,88 L76,88 L65,57 L214,57 Q213,43 211,22 Q210,14 210,10 Q207,-24 159,-24 Q135,-25 108,-25 Q107,-18 105,-9 Q121,-10 158,-10 Q194,-12 196,13 Q197,18 198,29 Q199,40 199,44 M60,185 L60,143 L196,143 L196,185"/> 
            <glyph glyph-name="向" unicode="&#x5411;" horiz-adv-x="232" d=" M38,-26 L25,-26 L25,173 L99,173 Q102,183 107,204 Q108,209 109,211 L123,208 Q123,207 122,204 Q116,184 113,173 L231,173 L231,3 Q232,-24 202,-25 Q188,-25 170,-25 Q169,-22 168,-15 Q167,-12 167,-10 Q175,-11 197,-11 Q218,-12 217,4 L217,160 L38,160 M79,118 L176,118 L176,30 L79,30 M92,105 L92,43 L163,43 L163,105"/> 
            <glyph glyph-name="启" unicode="&#x542F;" horiz-adv-x="235" d=" M124,208 L137,211 Q139,208 143,197 Q148,186 150,181 L235,181 L235,112 L48,112 Q48,58 42,29 Q36,0 18,-29 Q16,-27 10,-23 Q7,-21 6,-20 Q24,6 29,32 Q35,58 35,111 L35,181 L134,181 Q130,193 124,208 M232,71 L232,-29 L218,-29 L218,-11 L86,-11 L86,-29 L72,-29 L72,71 M86,59 L86,0 L218,0 L218,59 M48,169 L48,125 L221,125 L221,169"/> 
            <glyph glyph-name="喔" unicode="&#x5594;" horiz-adv-x="249" d=" M108,111 Q108,57 102,29 Q96,2 76,-28 Q74,-26 69,-23 Q67,-21 65,-20 Q83,5 89,31 Q95,55 95,106 L95,197 L239,197 L239,145 L108,145 M17,186 L72,186 L72,25 L29,25 L29,4 L17,4 M29,175 L29,36 L60,36 L60,175 M234,51 Q229,58 223,64 Q190,64 144,62 Q140,62 134,61 Q128,61 126,61 L121,73 Q126,76 133,81 Q147,93 163,112 L118,112 L118,123 L243,123 L243,112 L180,112 Q152,81 141,73 Q174,73 212,75 Q203,86 193,93 L202,101 Q217,89 245,60 M108,186 L108,155 L226,155 L226,186 M119,33 L170,33 L170,54 L183,54 L183,33 L235,33 L235,22 L183,22 L183,-6 L249,-6 L249,-17 L104,-17 L104,-6 L170,-6 L170,22 L119,22"/> 
            <glyph glyph-name="器" unicode="&#x5668;" horiz-adv-x="248" d=" M241,53 Q153,57 131,98 L125,98 Q115,63 14,51 Q13,53 11,57 Q8,61 7,63 Q99,73 111,98 L15,98 L15,109 L116,109 Q119,118 120,130 L133,130 Q132,118 129,109 L180,109 Q176,116 170,126 L182,131 Q188,121 194,109 L243,109 L243,98 L145,98 Q168,67 248,66 Q247,64 243,57 Q241,54 241,53 M143,45 L227,45 L227,-29 L214,-29 L214,-16 L156,-16 L156,-28 L143,-28 M28,45 L111,45 L111,-28 L99,-28 L99,-16 L41,-16 L41,-29 L28,-29 M143,196 L226,196 L226,135 L143,135 M28,196 L110,196 L110,135 L28,135 M156,34 L156,-5 L214,-5 L214,34 M41,34 L41,-5 L99,-5 L99,34 M156,185 L156,146 L213,146 L213,185 M41,185 L41,146 L98,146 L98,185"/> 
            <glyph glyph-name="四" unicode="&#x56DB;" horiz-adv-x="236" d=" M26,191 L236,191 L236,-29 L222,-29 L222,-13 L39,-13 L39,-29 L26,-29 M183,66 L216,66 Q216,64 215,60 Q214,55 213,53 L180,53 Q150,52 151,81 L151,178 L109,178 Q109,152 109,130 Q112,68 58,34 Q57,35 54,39 Q50,43 48,45 Q98,73 96,131 Q96,154 96,178 L39,178 L39,0 L222,0 L222,178 L165,178 L165,83 Q164,65 183,66"/> 
            <glyph glyph-name="在" unicode="&#x5728;" horiz-adv-x="248" d=" M103,210 L117,208 Q111,190 104,175 L248,175 L248,162 L98,162 Q84,130 63,103 L63,-28 L49,-28 L49,87 Q30,65 16,54 Q13,59 7,65 Q60,111 83,162 L18,162 L18,175 L89,175 Q97,191 103,210 M154,142 L167,142 L167,92 L234,92 L234,80 L167,80 L167,2 L248,2 L248,-9 L75,-9 L75,2 L154,2 L154,80 L88,80 L88,92 L154,92"/> 
            <glyph glyph-name="地" unicode="&#x5730;" horiz-adv-x="250" d=" M104,178 L118,178 L118,123 L162,139 L162,209 L175,209 L175,143 L236,165 Q236,159 235,148 Q234,101 233,91 Q232,53 205,55 Q195,55 187,55 Q187,59 186,65 Q185,67 185,68 Q194,68 202,68 Q219,66 220,90 Q222,126 222,147 L175,130 L175,23 L162,23 L162,126 L118,110 L118,16 Q115,-10 145,-7 L199,-7 Q229,-9 232,12 Q235,27 237,46 Q239,45 241,44 Q246,42 250,41 Q250,39 249,36 Q247,16 244,6 Q240,-21 203,-20 L141,-20 Q102,-22 104,12 L104,105 L83,98 L81,111 L104,119 M9,0 L5,12 Q24,17 41,22 L41,126 L12,126 L12,139 L41,139 L41,209 L55,209 L55,139 L82,139 L82,126 L55,126 L55,26 Q61,28 75,33 Q84,35 89,37 Q89,36 90,31 Q91,27 91,25 Q74,19 9,0"/> 
            <glyph glyph-name="场" unicode="&#x573A;" horiz-adv-x="240" d=" M60,3 Q117,40 130,101 L93,101 L93,116 L203,182 L99,182 L99,194 L225,194 L225,180 L114,113 L240,113 Q239,91 237,45 Q236,25 236,17 Q235,-25 198,-23 Q189,-24 172,-24 Q172,-22 171,-17 Q170,-11 169,-9 Q177,-10 196,-10 Q223,-12 222,16 Q222,24 223,43 Q225,83 226,101 L192,101 Q177,9 122,-31 Q114,-23 110,-20 Q163,13 179,101 L143,101 Q127,29 71,-5 Q66,0 60,3 M13,13 L7,26 Q24,34 43,41 L43,132 L10,132 L10,145 L43,145 L43,208 L56,208 L56,145 L87,145 L87,132 L56,132 L56,47 Q62,49 73,55 Q80,58 84,60 Q84,53 86,47 Q67,39 20,16 Q15,14 13,13"/> 
            <glyph glyph-name="堵" unicode="&#x5835;" horiz-adv-x="249" d=" M87,123 L147,123 L147,163 L104,163 L104,174 L147,174 L147,208 L160,208 L160,174 L195,174 L195,163 L160,163 L160,123 L170,123 Q204,153 231,191 L243,184 Q215,146 189,123 L249,123 L249,111 L175,111 Q157,96 135,83 L230,83 L230,-29 L216,-29 L216,-15 L128,-15 L128,-29 L115,-29 L115,70 Q99,61 80,52 Q77,58 73,63 Q121,85 155,111 L87,111 M9,0 L7,12 Q10,13 17,14 Q22,15 42,19 L42,134 L9,134 L9,146 L42,146 L42,209 L55,209 L55,146 L85,146 L85,134 L55,134 L55,22 Q74,25 91,30 Q91,23 91,16 Q69,12 24,2 Q14,0 9,0 M128,71 L128,38 L216,38 L216,71 M128,27 L128,-4 L216,-4 L216,27"/> 
            <glyph glyph-name="增" unicode="&#x589E;" horiz-adv-x="239" d=" M87,175 L135,175 Q124,190 112,204 L123,211 Q135,197 146,182 L136,175 L176,175 Q187,187 203,211 L215,204 Q211,199 203,189 Q195,179 191,175 L239,175 L239,94 L87,94 M97,71 L228,71 L228,-30 L216,-30 L216,-18 L110,-18 L110,-30 L97,-30 M11,2 L6,15 Q21,20 39,24 L39,130 L10,130 L10,142 L39,142 L39,208 L52,208 L52,142 L77,142 L77,130 L52,130 L52,27 Q55,28 62,30 Q76,35 82,36 Q82,31 82,23 Q47,14 11,2 M226,164 L169,164 L169,104 L226,104 M100,164 L100,104 L156,104 L156,164 M110,20 L110,-7 L216,-7 L216,20 M110,60 L110,31 L216,31 L216,60 M215,145 Q212,140 197,123 Q193,118 192,117 L182,125 Q197,140 205,152 M111,146 L121,153 Q128,144 143,126 L133,118 Q126,128 111,146"/> 
            <glyph glyph-name="备" unicode="&#x5907;" horiz-adv-x="248" d=" M40,83 L216,83 L216,-29 L202,-29 L202,-18 L53,-18 L53,-29 L40,-29 M241,91 Q168,102 131,118 Q88,100 13,86 Q11,89 8,96 Q7,99 6,100 Q74,109 116,126 Q90,139 65,168 Q44,145 23,129 Q19,134 13,138 Q58,172 81,212 L94,206 Q87,197 81,188 L215,188 L215,175 Q184,143 148,125 Q188,110 248,106 Q247,104 245,99 Q242,94 241,91 M198,176 L74,176 Q98,148 132,132 Q166,147 198,176 M202,72 L134,72 L134,37 L202,37 M134,26 L134,-6 L202,-6 L202,26 M53,72 L53,37 L121,37 L121,72 M53,26 L53,-6 L121,-6 L121,26"/> 
            <glyph glyph-name="多" unicode="&#x591A;" horiz-adv-x="238" d=" M157,115 L169,108 Q157,98 145,89 L238,89 L238,75 Q166,-5 22,-30 Q21,-28 19,-24 Q17,-19 16,-17 Q151,4 221,77 L127,77 Q116,68 104,62 Q112,56 128,45 Q138,38 143,34 L133,24 Q112,42 92,55 Q67,41 37,29 Q29,42 29,42 Q102,69 157,115 M127,213 L142,209 Q129,197 114,186 L227,186 L227,173 Q157,108 18,73 Q17,76 14,83 Q12,85 12,86 Q139,116 208,173 L98,173 Q92,169 84,164 Q105,152 125,137 L116,127 Q109,132 97,140 Q82,151 73,157 Q65,152 46,142 Q37,138 32,135 Q29,141 24,147 Q84,172 127,213"/> 
            <glyph glyph-name="大" unicode="&#x5927;" horiz-adv-x="248" d=" M20,-28 Q18,-26 15,-23 Q11,-18 9,-16 Q114,34 119,127 L10,127 L10,141 L120,141 Q123,174 122,209 L136,209 Q136,164 135,141 L246,141 L246,127 L135,127 Q150,30 248,-11 Q239,-21 238,-24 Q144,19 128,104 Q117,19 20,-28"/> 
            <glyph glyph-name="天" unicode="&#x5929;" horiz-adv-x="248" d=" M20,-28 Q14,-19 9,-16 Q108,25 117,99 L9,99 L9,113 L119,113 Q121,133 121,180 L23,180 L23,193 L234,193 L234,180 L135,180 Q135,135 133,113 L247,113 L247,99 L138,99 Q155,14 248,-12 Q245,-16 241,-21 Q239,-24 238,-25 Q144,7 128,89 Q115,13 20,-28"/> 
            <glyph glyph-name="套" unicode="&#x5957;" horiz-adv-x="249" d=" M12,39 L60,39 L60,130 Q40,119 13,107 Q10,113 6,119 Q61,138 94,170 L15,170 L15,183 L104,183 Q114,196 120,212 L134,208 Q128,193 120,183 L241,183 L241,170 L162,170 Q193,137 249,125 Q245,119 242,113 Q177,132 148,170 L112,170 Q97,152 72,137 L184,137 L184,125 L74,125 L74,104 L204,104 L204,92 L74,92 L74,72 L205,72 L205,60 L74,60 L74,39 L245,39 L245,27 L106,27 Q87,9 62,-6 Q74,-6 99,-5 Q160,-4 186,-3 Q185,-2 183,-1 Q175,6 163,15 L173,24 Q182,16 199,2 Q216,-12 225,-20 L214,-30 L198,-14 Q164,-15 97,-18 Q74,-19 62,-19 Q56,-19 44,-21 Q52,-19 42,-21 L37,-8 Q45,-5 52,0 Q69,10 87,27 L12,27"/> 
            <glyph glyph-name="好" unicode="&#x597D;" horiz-adv-x="249" d=" M109,10 L98,0 Q88,7 65,27 Q50,3 17,-24 Q12,-19 6,-13 Q40,10 55,36 Q49,41 37,52 Q24,62 18,67 Q24,91 34,144 L10,144 L10,157 L37,157 Q39,166 41,183 Q44,201 45,209 L59,208 Q55,181 50,157 L97,157 L97,144 Q91,74 72,39 Q92,24 109,10 M154,-11 Q173,-12 172,6 L172,84 L103,84 L103,97 L172,97 L172,137 L222,180 L113,180 L113,192 L239,192 L239,177 L186,132 L186,97 L249,97 L249,84 L186,84 L186,4 Q187,-24 156,-25 Q139,-25 127,-25 Q126,-18 124,-10 Q139,-11 154,-11 M83,144 L48,144 Q40,102 47,138 Q40,102 31,72 Q34,70 41,65 Q45,62 62,48 Q80,85 83,144"/> 
            <glyph glyph-name="如" unicode="&#x5982;" horiz-adv-x="236" d=" M143,180 L236,180 L236,-18 L222,-18 L222,0 L157,0 L157,-21 L143,-21 M125,2 L114,-8 Q112,-6 108,-3 Q97,7 76,25 Q60,0 17,-29 Q11,-21 7,-17 Q50,11 65,34 Q56,42 38,57 Q27,66 22,70 Q33,106 41,144 L9,144 L9,158 L44,158 Q49,182 53,209 L68,207 Q64,183 58,158 L114,158 L114,145 Q109,76 84,37 Q94,30 112,13 Q121,6 125,2 M157,167 L157,13 L222,13 L222,167 M101,144 L55,144 Q46,101 37,74 Q55,61 73,46 Q92,78 101,144"/> 
            <glyph glyph-name="子" unicode="&#x5B50;" horiz-adv-x="249" d=" M124,126 L201,181 L34,181 L34,195 L223,195 L223,179 L139,119 L139,96 L249,96 L249,82 L139,82 L139,5 Q140,-24 107,-25 Q95,-26 71,-26 Q71,-17 68,-9 Q81,-10 103,-10 Q125,-10 124,8 L124,82 L7,82 L7,96 L124,96"/> 
            <glyph glyph-name="安" unicode="&#x5B89;" horiz-adv-x="249" d=" M25,-29 Q24,-27 22,-23 Q19,-17 17,-15 Q83,-5 122,19 Q105,27 67,44 Q57,49 51,51 Q56,58 67,75 Q73,85 76,90 L7,90 L7,103 L84,103 Q87,108 92,118 Q102,138 108,148 L121,143 Q119,140 116,133 Q111,123 99,103 L249,103 L249,90 L197,90 Q182,49 149,22 Q158,18 174,11 Q193,3 231,-14 L223,-27 Q215,-23 199,-16 Q158,3 136,12 Q95,-14 25,-29 M70,56 Q82,51 108,40 Q126,32 135,28 Q168,54 182,90 L91,90 Q81,72 70,56 M114,205 L126,211 Q130,206 137,195 Q144,184 147,179 L136,173 L236,173 L236,131 L222,131 L222,160 L35,160 L35,131 L21,131 L21,173 L133,173 Q130,178 124,189 Q117,200 114,205"/> 
            <glyph glyph-name="官" unicode="&#x5B98;" horiz-adv-x="239" d=" M205,137 L205,77 L65,77 L65,48 L214,48 L214,-28 L201,-28 L201,-14 L65,-14 L65,-30 L51,-30 L51,137 M201,36 L65,36 L65,-2 L201,-2 M65,125 L65,89 L191,89 L191,125 M115,206 L128,211 Q136,196 141,181 L131,177 L239,177 L239,135 L225,135 L225,165 L31,165 L31,135 L17,135 L17,177 L128,177 Q122,192 115,206"/> 
            <glyph glyph-name="定" unicode="&#x5B9A;" horiz-adv-x="248" d=" M17,-29 Q16,-28 13,-24 Q9,-20 7,-18 Q49,18 55,86 L70,84 Q66,60 60,41 Q88,-2 127,-6 L127,109 L12,109 L12,121 L244,121 L244,109 L141,109 L141,62 L228,62 L228,49 L141,49 L141,-7 Q192,-9 248,-7 Q245,-15 243,-22 Q164,-22 135,-21 Q85,-19 55,26 Q43,-4 17,-29 M118,207 L133,210 Q134,207 136,200 Q139,187 140,180 L236,180 L236,137 L223,137 L223,167 L34,167 L34,138 L21,138 L21,180 L125,180 Q122,194 118,207"/> 
            <glyph glyph-name="家" unicode="&#x5BB6;" horiz-adv-x="246" d=" M20,21 Q15,29 12,34 Q74,51 112,86 Q108,94 102,100 Q63,76 17,63 Q16,65 12,70 Q10,74 9,76 Q73,92 115,125 L41,125 L41,137 L215,137 L215,125 L134,125 Q124,116 112,108 Q125,93 136,72 Q181,92 213,110 L221,99 Q199,87 173,75 Q191,21 246,2 Q242,-3 237,-9 Q181,13 162,69 Q152,65 141,60 Q148,40 148,20 Q149,-26 112,-26 Q98,-26 82,-26 Q81,-23 80,-17 Q78,-14 78,-12 Q85,-12 96,-13 Q105,-13 109,-13 Q136,-15 135,19 Q135,32 132,44 Q90,0 18,-22 Q15,-16 10,-9 Q82,9 128,57 Q127,59 125,64 Q122,72 119,76 Q84,43 20,21 M116,207 L129,212 Q133,206 139,191 Q142,185 143,182 L132,178 L240,178 L240,141 L226,141 L226,166 L29,166 L29,141 L16,141 L16,178 L130,178 Q128,183 123,193 Q119,202 116,207"/> 
            <glyph glyph-name="宽" unicode="&#x5BBD;" horiz-adv-x="247" d=" M163,158 L176,158 L176,137 L245,137 L245,125 L176,125 L176,106 L163,106 L163,125 L93,125 L93,106 L80,106 L80,125 L12,125 L12,137 L80,137 L80,158 L93,158 L93,137 L163,137 M41,94 L211,94 L211,18 L198,18 L198,82 L55,82 L55,16 L41,16 M118,207 L131,210 Q135,199 138,184 L238,184 L238,150 L225,150 L225,172 L31,172 L31,150 L17,150 L17,184 L124,184 Q121,193 118,207 M131,47 L145,47 L145,9 Q143,-11 167,-9 L201,-9 Q228,-10 229,3 Q232,12 233,27 Q239,24 247,22 Q246,15 243,0 Q238,-23 207,-22 L163,-22 Q130,-22 131,6 M10,-17 Q74,-4 94,12 Q116,28 117,69 L131,69 Q137,-11 18,-30 Q17,-29 16,-26 Q14,-23 10,-17"/> 
            <glyph glyph-name="小" unicode="&#x5C0F;" horiz-adv-x="249" d=" M63,152 L78,147 Q54,81 23,23 Q16,28 8,31 Q40,82 63,152 M176,145 L189,151 Q208,117 249,34 L234,27 Q207,87 176,145 M123,207 L138,207 L138,4 Q139,-25 107,-26 Q91,-26 73,-26 Q72,-19 69,-11 Q85,-11 101,-11 Q125,-13 123,8"/> 
            <glyph glyph-name="少" unicode="&#x5C11;" horiz-adv-x="249" d=" M67,174 L81,168 Q55,107 25,63 Q19,68 12,71 Q44,118 67,174 M170,170 L181,179 Q217,140 249,102 L237,91 Q198,140 170,170 M121,209 L135,209 L135,61 L121,61 M201,92 L214,84 Q149,-1 15,-30 Q13,-25 9,-18 Q8,-16 7,-15 Q140,10 201,92"/> 
            <glyph glyph-name="居" unicode="&#x5C45;" horiz-adv-x="245" d=" M71,55 L138,55 L138,89 L48,89 Q49,13 17,-28 Q15,-26 9,-22 Q6,-20 5,-19 Q36,17 34,99 L34,199 L226,199 L226,137 L48,137 L48,101 L138,101 L138,129 L152,129 L152,101 L245,101 L245,89 L152,89 L152,55 L221,55 L221,-29 L207,-29 L207,-14 L84,-14 L84,-29 L71,-29 M48,187 L48,149 L212,149 L212,187 M84,42 L84,-2 L207,-2 L207,42"/> 
            <glyph glyph-name="屏" unicode="&#x5C4F;" horiz-adv-x="249" d=" M236,138 L48,138 L48,101 Q48,50 42,25 Q35,-1 16,-28 Q11,-23 5,-20 Q24,5 29,29 Q35,52 35,101 L35,196 L236,196 M67,99 L164,99 Q182,125 188,137 L200,130 Q190,115 177,99 L234,99 L234,87 L192,87 L192,48 L249,48 L249,36 L192,36 L192,-29 L179,-29 L179,36 L118,36 Q117,-1 76,-30 Q69,-23 66,-21 Q104,4 105,36 L56,36 L56,48 L106,48 Q106,53 106,59 L106,87 L67,87 M48,184 L48,150 L223,150 L223,184 M119,59 Q119,53 119,48 L179,48 L179,87 L119,87 M97,130 L107,136 Q121,120 129,109 L118,101 Q117,103 114,107 Q104,122 97,130"/> 
            <glyph glyph-name="属" unicode="&#x5C5E;" horiz-adv-x="242" d=" M94,-3 L92,7 Q100,8 118,8 Q135,9 144,9 L144,35 L78,35 L78,-29 L65,-29 L65,45 L144,45 L144,64 L77,64 L77,105 L144,105 L144,124 Q129,124 101,123 Q76,123 65,123 L63,133 Q163,135 232,138 L234,127 Q195,125 156,125 L156,105 L224,105 L224,64 L156,64 L156,45 L240,45 L240,-1 Q242,-27 215,-27 Q204,-27 189,-27 Q189,-26 188,-22 Q187,-18 186,-16 Q194,-16 211,-16 Q229,-18 227,0 L227,35 L156,35 L156,10 Q162,10 174,11 Q185,11 191,12 Q190,13 189,16 Q186,20 185,24 L195,28 Q204,12 210,-1 L200,-6 Q199,-4 197,0 Q196,1 196,2 Q184,1 159,0 Q118,-1 94,-3 M36,197 L235,197 L235,153 L49,153 L49,111 Q49,54 43,28 Q37,1 17,-29 Q10,-22 6,-20 Q24,5 30,31 Q36,56 36,109 M49,187 L49,163 L223,163 L223,187 M212,95 L156,95 L156,74 L212,74 M89,95 L89,74 L144,74 L144,95"/> 
            <glyph glyph-name="工" unicode="&#x5DE5;" horiz-adv-x="246" d=" M10,1 L121,1 L121,173 L24,173 L24,187 L232,187 L232,173 L135,173 L135,1 L246,1 L246,-11 L10,-11"/> 
            <glyph glyph-name="带" unicode="&#x5E26;" horiz-adv-x="248" d=" M57,-8 L44,-8 L44,75 L121,75 L121,99 L134,99 L134,75 L213,75 L213,18 Q214,-6 187,-6 Q176,-6 161,-6 Q161,0 159,5 Q173,5 184,5 Q201,4 200,19 L200,63 L134,63 L134,-29 L121,-29 L121,63 L57,63 M184,209 L196,209 L196,177 L248,177 L248,165 L196,165 L196,136 L184,136 L184,165 L134,165 L134,136 L122,136 L122,165 L73,165 L73,136 L60,136 L60,165 L8,165 L8,177 L60,177 L60,209 L73,209 L73,177 L122,177 L122,209 L134,209 L134,177 L184,177 M16,123 L240,123 L240,82 L227,82 L227,111 L29,111 L29,82 L16,82"/> 
            <glyph glyph-name="并" unicode="&#x5E76;" horiz-adv-x="248" d=" M18,164 L151,164 Q170,188 185,211 L197,204 Q179,180 167,164 L237,164 L237,150 L184,150 L184,83 L248,83 L248,70 L184,70 L184,-29 L170,-29 L170,70 L88,70 Q91,5 29,-30 Q25,-24 19,-19 Q78,12 74,70 L8,70 L8,83 L74,83 L74,150 L18,150 M89,150 L89,83 L170,83 L170,150 M62,202 L72,210 Q88,194 103,176 L92,168 Q86,174 76,186 Q67,197 62,202"/> 
            <glyph glyph-name="广" unicode="&#x5E7F;" horiz-adv-x="246" d=" M125,204 L138,210 Q149,193 158,175 L146,169 L246,169 L246,156 L57,156 L57,108 Q57,58 49,30 Q42,2 20,-27 Q18,-26 14,-22 Q9,-19 7,-17 Q28,8 35,34 Q42,59 42,109 L42,169 L144,169 Q135,189 125,204"/> 
            <glyph glyph-name="度" unicode="&#x5EA6;" horiz-adv-x="246" d=" M240,-27 Q181,-17 145,0 Q114,-16 52,-30 Q51,-29 50,-26 Q48,-23 44,-17 Q90,-9 131,7 Q102,25 81,53 L65,53 L65,65 L215,65 L215,52 Q186,21 159,6 Q197,-7 246,-13 Q245,-15 243,-19 Q241,-25 240,-27 M184,161 L197,161 L197,139 L243,139 L243,127 L197,127 L197,89 L94,89 L94,127 L57,127 L57,139 L94,139 L94,161 L107,161 L107,139 L184,139 M131,208 L144,211 Q148,198 151,182 L246,182 L246,170 L46,170 L46,98 Q46,49 40,24 Q35,-1 17,-29 Q12,-25 6,-20 Q23,6 27,28 Q32,49 32,100 L32,182 L137,182 Q136,187 134,195 Q132,204 131,208 M198,53 L97,53 Q122,26 145,14 Q175,29 198,53 M107,127 L107,100 L184,100 L184,127"/> 
            <glyph glyph-name="庭" unicode="&#x5EAD;" horiz-adv-x="248" d=" M164,-19 Q116,-18 91,3 Q79,-10 56,-29 Q54,-26 49,-22 Q47,-20 46,-19 Q72,0 82,12 Q69,27 59,54 L70,59 Q78,38 89,23 Q100,39 106,74 L61,74 L61,85 L104,133 L61,133 L61,145 L119,145 L119,131 L79,86 L118,86 L118,74 Q112,37 98,13 Q119,-7 165,-6 Q200,-8 248,-6 Q245,-14 243,-20 Q194,-20 164,-19 M131,208 L144,211 Q147,196 151,180 L246,180 L246,168 L44,168 L44,98 Q44,48 38,23 Q33,-2 16,-29 Q11,-25 5,-20 Q22,6 26,28 Q31,49 31,100 L31,180 L137,180 Q136,185 134,194 Q132,203 131,208 M130,33 L178,33 L178,76 L136,76 L136,88 L178,88 L178,129 Q166,129 139,127 Q159,129 136,127 L134,140 Q172,140 233,145 L236,133 Q214,132 191,130 L191,88 L234,88 L234,76 L191,76 L191,33 L239,33 L239,20 L130,20"/> 
            <glyph glyph-name="张" unicode="&#x5F20;" horiz-adv-x="248" d=" M122,207 L135,207 L135,103 L247,103 L247,91 L175,91 Q193,24 248,-5 Q242,-11 237,-17 Q176,23 163,91 L135,91 L135,-5 Q137,-4 142,-1 Q163,9 173,15 Q174,13 175,8 Q176,4 176,1 Q158,-6 137,-19 Q130,-24 124,-28 L115,-17 Q122,-10 122,1 L122,91 L95,91 L95,103 L122,103 M13,194 L87,194 L87,123 L31,123 L26,77 L86,77 Q85,67 84,46 Q82,20 81,10 Q80,-24 43,-24 Q30,-24 16,-24 Q15,-20 14,-15 Q13,-12 13,-10 Q22,-11 41,-11 Q67,-11 68,10 Q70,22 71,53 Q72,61 72,65 L12,65 L19,135 L74,135 L74,181 L13,181 M159,122 Q157,125 150,132 Q196,163 227,192 L236,183 Q210,158 159,122"/> 
            <glyph glyph-name="强" unicode="&#x5F3A;" horiz-adv-x="250" d=" M101,103 L162,103 L162,135 L110,135 L110,197 L226,197 L226,135 L175,135 L175,103 L236,103 L236,36 L175,36 L175,-2 Q199,-2 220,0 Q213,8 205,20 L217,26 Q219,23 224,16 Q240,-6 250,-22 L238,-29 Q234,-20 229,-13 Q163,-16 88,-21 L86,-6 Q123,-5 162,-3 L162,36 L101,36 M31,123 L26,77 L79,77 Q78,34 75,8 Q74,-26 39,-24 Q29,-25 19,-25 Q18,-18 15,-10 Q27,-11 38,-11 Q61,-12 62,9 Q62,13 63,22 Q65,49 65,65 L12,65 L19,135 L69,135 L69,184 L13,184 L13,196 L82,196 L82,123 M123,185 L123,147 L213,147 L213,185 M114,91 L114,48 L162,48 L162,91 M223,91 L175,91 L175,48 L223,48"/> 
            <glyph glyph-name="影" unicode="&#x5F71;" horiz-adv-x="249" d=" M21,199 L139,199 L139,129 L21,129 M25,78 L136,78 L136,35 L89,35 L89,-4 Q90,-27 66,-28 Q53,-28 45,-28 Q44,-26 43,-20 Q42,-17 42,-16 Q52,-16 61,-16 Q78,-17 77,-3 L77,35 L25,35 M37,68 L37,45 L124,45 L124,68 M33,188 L33,169 L127,169 L127,188 M149,-30 Q143,-22 140,-19 Q200,11 238,65 L249,57 Q212,4 149,-30 M33,158 L33,139 L127,139 L127,158 M71,122 L83,125 Q87,116 90,107 L156,107 L156,97 L7,97 L7,107 L77,107 Q76,109 75,112 Q72,118 71,122 M167,60 Q166,61 163,65 Q159,69 157,71 Q200,99 231,141 L242,132 Q208,89 167,60 M164,134 Q158,141 154,144 Q194,169 221,205 L232,197 Q203,160 164,134 M17,-19 L8,-10 Q29,6 45,24 L55,16 Q47,7 30,-7 Q22,-15 17,-19 M105,16 L113,25 Q120,20 132,9 Q140,3 144,0 L135,-8 Q127,-1 113,10 Q108,14 105,16"/> 
            <glyph glyph-name="微" unicode="&#x5FAE;" horiz-adv-x="251" d=" M194,209 L207,207 Q201,183 194,162 L251,162 L251,150 L237,150 Q232,74 210,34 Q222,11 250,-16 Q249,-18 246,-22 Q242,-26 241,-27 Q216,-1 203,22 Q192,1 161,-28 Q160,-27 158,-25 Q152,-20 151,-18 Q182,9 197,35 Q182,66 176,119 Q174,115 170,108 Q166,100 164,96 Q160,102 155,107 Q181,148 194,209 M132,54 L92,54 L92,42 Q94,1 66,-22 Q61,-16 56,-12 Q82,4 79,47 L79,66 L144,66 L144,16 Q150,22 168,38 Q168,35 169,31 Q169,27 170,24 Q145,2 135,-6 L125,4 Q133,12 132,25 M110,206 L122,206 L122,142 L147,142 L147,187 L159,187 L159,130 L72,130 L72,187 L84,187 L84,142 L110,142 M12,53 Q9,60 5,65 Q34,98 52,143 L64,137 Q56,118 47,102 L47,-30 L35,-30 L35,82 Q24,67 12,53 M204,49 Q221,86 225,150 L190,150 Q187,144 185,138 Q191,82 204,49 M16,133 Q14,138 8,145 Q35,170 54,209 L65,202 Q46,163 16,133 M76,104 L153,104 L153,92 L76,92"/> 
            <glyph glyph-name="心" unicode="&#x5FC3;" horiz-adv-x="250" d=" M71,162 L86,162 L86,17 Q85,-8 111,-7 L160,-7 Q186,-8 190,14 Q193,27 195,48 Q198,47 203,46 Q208,44 210,43 Q209,32 206,16 Q205,9 204,6 Q198,-21 162,-21 L107,-21 Q71,-21 71,14 M235,47 Q215,93 194,135 L208,141 Q212,132 222,113 Q241,74 250,54 M34,134 L48,130 Q35,80 22,32 Q15,35 7,37 Q20,73 34,134 M150,135 Q136,161 109,204 L122,211 Q125,206 131,197 Q145,176 164,143"/> 
            <glyph glyph-name="快" unicode="&#x5FEB;" horiz-adv-x="248" d=" M147,209 L161,209 Q161,185 161,165 L222,165 L222,86 L247,86 L247,73 L165,73 Q186,13 248,-12 Q245,-15 241,-21 Q239,-24 238,-25 Q172,9 154,69 Q144,13 80,-29 Q79,-27 75,-23 Q72,-19 70,-17 Q132,21 142,73 L81,73 L81,86 L144,86 Q147,104 147,153 L100,153 L100,165 L147,165 Q147,183 147,209 M44,209 L57,209 L57,159 L65,165 Q67,162 71,157 Q87,139 94,129 L83,121 Q69,141 57,156 L57,-29 L44,-29 M209,153 L161,153 Q161,107 158,86 L209,86 M17,151 L29,149 Q26,120 19,91 Q13,93 6,93 Q11,116 17,151"/> 
            <glyph glyph-name="性" unicode="&#x6027;" horiz-adv-x="249" d=" M163,210 L176,210 L176,154 L242,154 L242,142 L176,142 L176,77 L237,77 L237,64 L176,64 L176,-5 L249,-5 L249,-18 L81,-18 L81,-5 L163,-5 L163,64 L98,64 L98,77 L163,77 L163,142 L117,142 Q109,119 98,98 Q91,102 85,105 Q108,147 118,193 L132,190 Q130,183 126,170 Q123,159 122,154 L163,154 M42,210 L56,210 L56,-30 L42,-30 M17,152 L30,150 Q29,146 28,136 Q26,123 20,92 Q14,94 7,94 Q14,124 17,152 M59,161 L69,167 Q80,153 90,135 L79,128 Q76,134 70,143 Q63,155 59,161"/> 
            <glyph glyph-name="恶" unicode="&#x6076;" horiz-adv-x="248" d=" M19,196 L235,196 L235,184 L165,184 L165,92 L246,92 L246,80 L10,80 L10,92 L91,92 L91,184 L19,184 M104,184 L104,92 L152,92 L152,184 M71,52 L84,52 L84,9 Q84,-9 106,-9 L148,-9 Q173,-10 176,6 Q177,11 179,23 Q180,29 181,33 Q182,33 184,32 Q188,30 195,28 Q192,12 188,0 Q183,-23 151,-22 L102,-22 Q71,-22 71,6 M31,57 L45,53 Q44,49 41,41 Q28,7 21,-9 Q19,-8 15,-6 Q10,-4 8,-3 Q21,22 31,57 M201,52 L212,59 Q229,35 248,7 L236,0 Q218,28 201,52 M195,111 L183,119 Q193,130 214,161 Q217,164 218,166 L230,159 Q219,143 199,116 Q196,113 195,111 M27,159 L38,166 Q46,156 59,137 Q68,125 72,120 L60,111 Q39,144 27,159 M110,62 L121,70 Q138,50 150,34 L138,26 Q123,47 110,62"/> 
            <glyph glyph-name="意" unicode="&#x610F;" horiz-adv-x="250" d=" M41,118 L213,118 L213,43 L41,43 M117,208 L130,211 Q130,210 131,207 Q135,193 138,186 L232,186 L232,175 L182,175 L191,170 Q183,161 173,147 L247,147 L247,136 L8,136 L8,147 L82,147 Q72,161 64,169 L72,175 L24,175 L24,186 L124,186 Q121,196 117,208 M54,75 L54,54 L200,54 L200,75 M54,106 L54,86 L200,86 L200,106 M69,29 L82,29 L82,7 Q80,-12 103,-10 L152,-10 Q173,-11 177,3 Q177,5 178,8 Q178,11 181,23 Q184,22 188,21 Q192,19 194,18 Q193,15 192,10 Q192,6 189,-1 Q183,-23 155,-22 L100,-22 Q67,-24 69,5 M95,153 L87,147 L157,147 Q169,163 178,175 L76,175 Q82,168 80,170 Q92,157 95,153 M36,27 L48,21 Q33,-1 19,-19 Q18,-18 13,-14 Q10,-12 8,-11 Q20,3 36,27 M210,23 L221,30 Q225,25 235,13 Q246,0 250,-5 L238,-13 Q222,8 210,23 M111,31 L121,39 Q125,35 135,26 Q145,16 149,12 L138,3 Q124,19 111,31"/> 
            <glyph glyph-name="戏" unicode="&#x620F;" horiz-adv-x="249" d=" M113,-20 Q107,-14 102,-9 Q138,11 164,38 Q154,71 150,126 L111,121 L108,134 L150,139 Q148,169 148,210 L161,210 Q161,198 162,175 Q162,150 163,140 L243,150 L244,137 L164,127 Q167,78 175,49 Q199,76 219,111 L231,105 Q204,60 179,34 Q194,-11 215,-13 Q225,-14 229,1 Q234,15 236,34 Q237,33 240,32 Q243,31 249,29 Q246,9 241,-5 Q235,-27 215,-27 Q187,-27 169,23 Q155,9 119,-16 Q115,-18 113,-20 M96,6 Q94,10 89,18 Q83,29 68,52 Q48,12 15,-19 Q14,-17 10,-13 Q7,-9 5,-7 Q41,26 59,66 Q37,100 14,134 L25,141 Q27,138 31,132 Q45,113 65,81 Q77,114 85,166 L12,166 L12,179 L98,179 L98,165 Q89,105 74,67 Q86,51 105,20 Q107,17 108,15 M177,185 L185,195 Q214,177 226,167 L217,157 Q214,159 206,165 Q187,179 177,185"/> 
            <glyph glyph-name="房" unicode="&#x623F;" horiz-adv-x="247" d=" M122,207 L135,211 Q143,195 148,181 L231,181 L231,126 L47,126 L47,94 Q47,46 41,22 Q35,-2 16,-28 Q11,-23 5,-19 Q23,5 28,26 Q34,48 34,93 L34,181 L133,181 Q128,193 122,207 M47,-19 Q82,0 91,20 Q102,38 102,84 L59,84 L59,96 L147,96 Q146,99 144,107 Q142,115 141,119 L154,121 Q156,113 156,116 Q159,102 161,96 L247,96 L247,84 L116,84 Q116,67 114,55 L220,55 Q220,43 217,15 Q217,12 217,11 Q215,-24 178,-23 Q160,-23 145,-23 Q145,-21 143,-16 Q142,-10 141,-8 Q151,-9 176,-9 Q202,-11 204,13 Q204,16 204,27 Q205,39 205,43 L113,43 Q108,0 57,-30 Q52,-24 47,-19 M47,169 L47,138 L218,138 L218,169"/> 
            <glyph glyph-name="所" unicode="&#x6240;" horiz-adv-x="250" d=" M5,-18 Q20,3 24,24 Q28,44 28,92 L28,191 Q67,193 110,200 L115,187 Q111,187 104,186 Q67,181 41,179 L41,136 L107,136 L107,57 L41,57 Q40,9 16,-28 Q8,-20 5,-18 M94,-19 Q119,6 126,33 Q135,61 135,113 L135,189 Q195,193 239,200 L244,187 Q214,183 165,179 Q154,178 148,177 L148,117 L250,117 L250,105 L211,105 L211,-29 L198,-29 L198,105 L148,105 Q150,16 105,-29 Q98,-22 94,-19 M94,124 L41,124 L41,91 Q41,79 41,69 L94,69"/> 
            <glyph glyph-name="手" unicode="&#x624B;" horiz-adv-x="249" d=" M225,185 Q212,185 184,183 Q152,182 136,181 L136,129 L227,129 L227,117 L136,117 L136,65 L249,65 L249,52 L136,52 L136,4 Q137,-25 103,-25 Q82,-25 66,-25 Q65,-19 62,-10 Q74,-11 100,-11 Q123,-12 122,7 L122,52 L8,52 L8,65 L122,65 L122,117 L26,117 L26,129 L122,129 L122,180 Q69,179 24,177 Q24,184 22,190 Q133,192 222,198"/> 
            <glyph glyph-name="才" unicode="&#x624D;" horiz-adv-x="247" d=" M18,0 Q14,5 8,10 Q107,62 151,144 L15,144 L15,158 L167,158 L167,209 L182,209 L182,158 L247,158 L247,144 L182,144 L182,15 Q183,-23 144,-22 Q136,-23 107,-23 Q107,-21 106,-15 Q105,-10 104,-7 Q117,-8 140,-8 Q169,-10 167,17 L167,144 L165,144 Q117,50 18,0"/> 
            <glyph glyph-name="打" unicode="&#x6253;" horiz-adv-x="249" d=" M9,57 L5,71 Q9,72 18,75 Q27,78 51,84 L51,145 L10,145 L10,158 L51,158 L51,207 L65,207 L65,158 L103,158 L103,145 L65,145 L65,88 Q73,91 90,96 Q101,99 106,101 Q106,93 108,87 Q105,86 100,85 Q87,81 65,74 L65,0 Q66,-24 39,-26 Q29,-26 15,-26 Q15,-24 14,-19 Q13,-14 12,-12 Q25,-12 36,-12 Q52,-12 51,0 L51,70 Q44,68 30,64 Q16,59 9,57 M111,188 L249,188 L249,175 L205,175 L205,10 Q206,-25 170,-24 Q158,-25 134,-25 Q133,-18 131,-10 Q135,-10 145,-10 Q158,-11 164,-11 Q192,-13 190,14 L190,175 L111,175"/> 
            <glyph glyph-name="护" unicode="&#x62A4;" horiz-adv-x="237" d=" M152,203 L164,209 Q169,202 180,186 Q183,180 185,178 L173,172 L237,172 L237,65 L223,65 L223,77 L121,77 Q120,13 87,-28 Q86,-27 84,-26 Q78,-21 75,-20 Q96,8 102,34 Q108,59 108,110 L108,172 L172,172 Q162,188 152,203 M121,159 L121,109 Q121,99 121,90 L223,90 L223,159 M8,63 L6,77 Q10,78 20,81 Q36,85 44,87 L44,150 L11,150 L11,162 L44,162 L44,209 L57,209 L57,162 L89,162 L89,150 L57,150 L57,91 Q74,96 90,100 Q90,95 91,87 Q86,86 74,83 Q63,80 57,78 L57,0 Q58,-26 32,-25 Q22,-25 14,-25 Q14,-23 13,-19 Q12,-13 11,-11 Q13,-11 18,-11 Q26,-12 30,-12 Q45,-13 44,1 L44,73 Q37,71 24,67 Q13,64 8,63"/> 
            <glyph glyph-name="抱" unicode="&#x62B1;" horiz-adv-x="251" d=" M181,64 L116,64 L116,12 Q115,-11 137,-10 L202,-10 Q228,-11 232,5 Q235,17 238,30 Q245,27 251,25 Q250,20 248,11 Q247,6 246,3 Q237,-23 208,-22 L133,-22 Q101,-23 102,9 L102,131 L181,131 M7,77 Q11,78 21,81 Q35,85 42,87 L42,146 L9,146 L9,159 L42,159 L42,209 L56,209 L56,159 L83,159 L83,146 L56,146 L56,91 Q61,93 70,96 Q80,100 84,101 Q84,93 85,88 Q71,84 56,79 L56,0 Q57,-27 31,-26 Q24,-27 13,-27 Q13,-19 11,-13 Q18,-13 29,-13 Q43,-14 42,0 L42,74 Q37,72 25,68 Q14,64 8,62 M91,117 Q86,122 80,125 Q108,160 124,210 L137,207 Q136,203 133,196 Q132,192 126,179 L230,179 Q230,125 228,66 Q229,25 191,26 Q189,26 181,26 Q166,25 158,25 Q157,33 155,39 Q159,39 171,39 Q183,38 187,38 Q215,36 215,67 Q217,115 217,166 L120,166 Q109,142 91,117 M116,119 L116,76 L168,76 L168,119"/> 
            <glyph glyph-name="拥" unicode="&#x62E5;" horiz-adv-x="235" d=" M205,-13 Q223,-15 221,2 L221,52 L169,52 L169,-17 L156,-17 L156,52 L104,52 Q103,6 80,-29 Q74,-24 67,-21 Q83,1 88,25 Q93,49 93,102 L93,196 L234,196 L234,1 Q235,-26 207,-26 Q197,-26 186,-26 Q186,-20 184,-13 Q195,-13 205,-13 M8,63 L6,77 Q23,82 39,86 L39,146 L9,146 L9,158 L39,158 L39,208 L51,208 L51,158 L80,158 L80,146 L51,146 L51,90 Q65,93 78,98 Q78,92 78,85 Q72,84 60,80 Q54,78 51,77 L51,0 Q52,-26 28,-26 Q18,-26 10,-26 Q10,-24 9,-20 Q8,-15 7,-13 Q17,-13 26,-13 Q40,-14 39,0 L39,73 Q24,69 8,63 M221,184 L169,184 L169,130 L221,130 M169,118 L169,64 L221,64 L221,118 M106,102 Q106,80 105,64 L156,64 L156,118 L106,118 M106,184 L106,130 L156,130 L156,184"/> 
            <glyph glyph-name="持" unicode="&#x6301;" horiz-adv-x="249" d=" M7,76 Q14,78 27,80 Q38,83 44,84 L44,144 L9,144 L9,157 L44,157 L44,210 L57,210 L57,157 L87,157 L87,144 L57,144 L57,88 Q72,91 87,95 Q87,87 87,82 Q82,81 72,78 Q62,76 57,74 L57,-1 Q57,-25 33,-26 Q19,-26 13,-26 Q13,-24 12,-21 Q11,-14 10,-11 Q21,-11 30,-11 Q44,-11 44,0 L44,71 Q28,68 9,62 M102,175 L163,175 L163,210 L177,210 L177,175 L238,175 L238,163 L177,163 L177,122 L249,122 L249,110 L91,110 L91,122 L163,122 L163,163 L102,163 M196,97 L209,97 L209,73 L249,73 L249,61 L209,61 L209,1 Q210,-26 177,-25 Q164,-26 145,-26 Q145,-19 143,-11 Q156,-12 175,-12 Q197,-13 196,6 L196,61 L91,61 L91,73 L196,73 M104,40 L114,49 Q128,37 149,15 L138,6 Q132,12 114,30 Q107,37 104,40"/> 
            <glyph glyph-name="挥" unicode="&#x6325;" horiz-adv-x="249" d=" M80,30 L163,30 L163,67 L98,67 L98,81 Q106,92 126,128 L91,128 L91,140 L132,140 Q144,164 148,173 L162,169 Q156,157 147,140 L244,140 L244,128 L141,128 Q136,120 128,104 Q117,86 113,79 L163,79 L163,111 L177,111 L177,79 L236,79 L236,67 L177,67 L177,30 L249,30 L249,18 L177,18 L177,-29 L163,-29 L163,18 L80,18 M6,75 Q11,77 24,80 Q36,83 42,85 L42,150 L10,150 L10,162 L42,162 L42,209 L56,209 L56,162 L82,162 L82,150 L56,150 L56,89 Q71,94 86,98 Q86,94 86,85 Q74,82 56,76 L56,0 Q58,-26 31,-26 Q22,-27 15,-27 Q13,-15 12,-13 Q18,-13 28,-13 Q43,-14 42,0 L42,72 Q25,67 9,61 M94,196 L239,196 L239,157 L227,157 L227,183 L106,183 L106,157 L94,157"/> 
            <glyph glyph-name="排" unicode="&#x6392;" horiz-adv-x="249" d=" M178,210 L192,210 L192,164 L245,164 L245,151 L192,151 L192,101 L239,101 L239,89 L192,89 L192,38 L249,38 L249,26 L192,26 L192,-29 L178,-29 M86,164 L129,164 L129,210 L142,210 L142,-29 L129,-29 L129,26 L75,26 L75,38 L129,38 L129,89 L89,89 L89,101 L129,101 L129,151 L86,151 M9,65 L6,79 Q13,81 27,86 Q35,89 39,90 L39,149 L9,149 L9,161 L39,161 L39,210 L52,210 L52,161 L76,161 L76,149 L52,149 L52,95 Q64,101 76,105 Q76,99 77,92 Q73,91 64,87 Q56,84 52,83 L52,-3 Q53,-23 30,-24 Q20,-24 12,-24 Q12,-22 11,-18 Q10,-13 9,-11 Q13,-11 19,-12 Q25,-12 28,-12 Q40,-12 39,-2 L39,77 Q17,69 9,65"/> 
            <glyph glyph-name="接" unicode="&#x63A5;" horiz-adv-x="248" d=" M77,-29 Q76,-28 75,-25 Q73,-22 69,-16 Q123,-6 153,8 Q144,12 124,20 Q108,27 99,31 Q100,33 103,36 Q110,45 121,60 L82,60 L82,72 L129,72 Q138,86 145,99 L159,94 Q157,91 152,83 Q148,76 145,72 L247,72 L247,60 L214,60 Q198,28 180,10 Q184,8 192,5 Q212,-1 246,-15 L237,-27 Q230,-24 217,-18 Q184,-3 168,2 Q138,-18 77,-29 M8,63 L6,78 Q13,79 29,83 Q37,85 41,86 L41,148 L9,148 L9,160 L41,160 L41,210 L54,210 L54,160 L80,160 L80,148 L54,148 L54,90 Q60,91 72,95 Q78,96 81,97 Q81,94 82,90 Q82,86 82,84 Q79,83 74,82 Q70,81 54,77 L54,0 Q55,-27 29,-26 Q23,-27 8,-27 Q8,-25 7,-22 Q6,-16 5,-12 Q17,-13 27,-13 Q42,-14 41,0 L41,73 Q25,69 8,63 M83,120 L178,120 Q193,140 206,162 L218,155 Q216,152 212,147 Q199,129 192,120 L248,120 L248,108 L83,108 M118,35 Q142,26 165,16 Q185,32 199,60 L137,60 Q134,56 129,49 Q122,39 118,35 M153,205 L165,210 Q174,195 180,183 L169,178 L240,178 L240,166 L91,166 L91,178 L167,178 Q161,192 153,205 M114,155 L125,162 Q129,158 138,146 Q147,134 150,129 L138,122 Q131,133 114,155"/> 
            <glyph glyph-name="控" unicode="&#x63A7;" horiz-adv-x="248" d=" M8,62 L6,76 Q14,78 33,82 Q39,83 42,84 L42,148 L9,148 L9,160 L42,160 L42,210 L56,210 L56,160 L81,160 L81,148 L56,148 L56,88 Q63,90 76,93 Q81,94 83,95 Q83,87 84,82 Q80,81 72,79 Q62,76 56,75 L56,0 Q57,-27 31,-26 Q24,-27 9,-27 Q9,-21 6,-12 Q18,-13 28,-13 Q43,-14 42,0 L42,71 Q26,67 8,62 M100,72 L236,72 L236,60 L175,60 L175,-6 L248,-6 L248,-18 L83,-18 L83,-6 L161,-6 L161,60 L100,60 M97,172 L241,172 L241,130 L227,130 L227,159 L110,159 L110,130 L97,130 M182,127 L191,136 Q224,112 244,94 L235,83 Q209,106 182,127 M92,93 Q122,113 145,136 L155,126 Q133,105 101,83 Q98,88 92,93 M151,205 L162,210 Q172,195 181,180 L169,173 Q165,182 154,200 Q152,203 151,205"/> 
            <glyph glyph-name="提" unicode="&#x63D0;" horiz-adv-x="250" d=" M102,197 L225,197 L225,111 L102,111 M76,-29 Q75,-28 73,-26 Q71,-24 65,-21 Q99,9 104,62 L117,60 Q116,56 115,49 Q113,39 112,34 Q128,-3 159,-6 L159,74 L80,74 L80,86 L247,86 L247,74 L172,74 L172,41 L237,41 L237,30 L172,30 L172,-7 Q175,-7 178,-7 Q212,-9 250,-7 Q249,-10 247,-16 Q246,-19 246,-20 Q206,-20 172,-20 Q126,-19 107,17 Q98,-7 76,-29 M8,60 L6,74 Q11,76 21,81 Q35,87 42,90 L42,144 L9,144 L9,156 L42,156 L42,209 L55,209 L55,156 L83,156 L83,144 L55,144 L55,96 Q69,102 81,109 Q82,107 82,102 Q83,97 83,95 Q81,94 77,92 Q69,89 55,82 L55,0 Q56,-26 32,-26 Q26,-27 14,-27 Q12,-15 12,-13 Q18,-13 29,-13 Q43,-14 42,0 L42,76 Q35,73 21,66 Q12,62 8,60 M116,148 L116,122 L211,122 L211,148 M116,186 L116,160 L211,160 L211,186"/> 
            <glyph glyph-name="摄" unicode="&#x6444;" horiz-adv-x="252" d=" M81,82 L78,94 Q91,94 104,95 L104,187 L80,187 L80,198 L242,198 L242,187 L218,187 L218,101 Q232,103 245,103 Q245,97 245,92 Q241,92 232,91 Q223,91 218,90 L218,73 L205,73 L205,90 Q182,89 135,86 Q100,83 81,82 M8,63 L6,79 Q8,80 13,82 Q22,85 37,92 L37,150 L8,150 L8,162 L37,162 L37,210 L50,210 L50,162 L78,162 L78,150 L50,150 L50,98 Q62,104 76,110 Q76,102 77,96 Q64,90 50,84 L50,-3 Q51,-28 28,-27 Q22,-28 11,-28 Q11,-22 9,-14 Q16,-15 25,-15 Q38,-16 37,-3 L37,78 Q33,76 25,72 Q14,66 8,63 M157,52 L157,63 L240,63 L240,52 Q230,21 210,3 Q227,-8 252,-17 Q252,-18 250,-19 Q249,-22 245,-28 Q221,-17 202,-3 Q183,-18 152,-30 Q149,-25 145,-19 Q175,-8 193,3 Q174,22 165,52 M74,32 L82,41 Q99,30 115,18 Q127,33 134,52 L75,52 L75,63 L147,63 L147,51 Q135,23 125,11 Q128,9 133,5 Q142,-1 147,-4 L138,-14 Q128,-5 116,1 Q100,-14 69,-29 Q68,-28 66,-25 Q62,-21 61,-18 Q89,-7 107,9 Q102,13 91,21 Q80,28 74,32 M116,154 L116,131 L205,131 L205,154 M116,187 L116,165 L205,165 L205,187 M116,95 Q164,98 205,101 L205,121 L116,121 M228,52 L177,52 Q186,27 202,11 Q218,28 228,52"/> 
            <glyph glyph-name="支" unicode="&#x652F;" horiz-adv-x="247" d=" M123,210 L137,210 L137,174 L246,174 L246,161 L137,161 L137,119 L207,119 L207,106 Q186,53 141,20 Q172,-1 247,-13 Q242,-20 238,-27 Q159,-10 128,10 Q90,-12 18,-31 Q17,-27 12,-21 Q11,-18 10,-17 Q82,-1 116,20 Q79,50 57,106 L34,106 L34,119 L123,119 L123,161 L9,161 L9,174 L123,174 M192,106 L72,106 Q93,52 129,28 Q170,55 192,106"/> 
            <glyph glyph-name="新" unicode="&#x65B0;" horiz-adv-x="249" d=" M114,-18 Q148,16 146,94 L146,189 Q187,191 238,198 L242,185 Q206,180 159,177 L159,113 L249,113 L249,101 L215,101 L215,-29 L201,-29 L201,101 L159,101 L159,93 Q161,13 126,-27 Q120,-23 114,-18 M64,103 L77,103 L77,77 L125,77 L125,65 L77,65 L77,1 Q78,-24 52,-25 Q43,-25 30,-25 Q30,-19 28,-12 Q38,-12 48,-12 Q64,-12 64,2 L64,65 L13,65 L13,77 L64,77 M7,122 L78,122 Q90,143 101,163 L113,157 Q103,139 92,122 L132,122 L132,111 L7,111 M57,207 L70,211 Q76,197 82,181 L125,181 L125,169 L14,169 L14,181 L68,181 Q62,197 57,207 M33,49 L44,44 Q29,11 19,-2 L8,2 Q16,15 33,49 M113,7 Q104,23 88,44 L98,51 Q106,42 118,23 Q122,18 124,15 M27,157 L38,163 Q48,149 58,131 L47,125 Q37,143 27,157"/> 
            <glyph glyph-name="方" unicode="&#x65B9;" horiz-adv-x="246" d=" M77,99 Q78,110 79,135 Q80,147 80,153 L10,153 L10,166 L246,166 L246,153 L94,153 Q94,129 91,105 L212,105 Q212,83 209,35 Q208,26 208,22 Q205,-23 156,-22 Q133,-22 118,-22 Q117,-13 115,-7 Q132,-7 157,-7 Q192,-9 194,24 Q196,39 198,81 Q198,89 198,92 L90,92 Q87,12 18,-30 Q13,-25 7,-19 Q75,21 77,99 M115,206 L129,210 Q138,190 146,172 L132,167 Q130,172 125,184 Q118,199 115,206"/> 
            <glyph glyph-name="无" unicode="&#x65E0;" horiz-adv-x="248" d=" M30,190 L227,190 L227,177 L133,177 Q132,142 126,112 L246,112 L246,99 L148,99 L148,13 Q146,-8 172,-7 L207,-7 Q230,-9 231,12 Q232,20 234,42 Q242,39 248,37 Q247,19 244,4 Q242,-21 208,-20 L167,-20 Q133,-21 134,11 L134,99 L123,99 Q107,17 19,-30 Q18,-29 16,-27 Q11,-21 8,-19 Q94,24 109,99 L10,99 L10,112 L112,112 Q118,141 119,177 L30,177"/> 
            <glyph glyph-name="时" unicode="&#x65F6;" horiz-adv-x="249" d=" M17,186 L97,186 L97,-11 L83,-11 L83,9 L30,9 L30,-14 L17,-14 M201,210 L214,210 L214,154 L249,154 L249,142 L214,142 L214,6 Q215,-24 181,-25 Q166,-25 145,-25 Q144,-17 142,-11 Q157,-11 178,-11 Q202,-12 201,9 L201,142 L111,142 L111,154 L201,154 M30,92 L30,22 L83,22 L83,92 M30,174 L30,104 L83,104 L83,174 M150,50 Q140,72 122,105 L133,111 Q135,107 139,100 Q155,73 162,57"/> 
            <glyph glyph-name="是" unicode="&#x662F;" horiz-adv-x="249" d=" M46,198 L210,198 L210,110 L46,110 M56,62 L69,60 Q68,57 67,51 Q65,43 64,39 Q84,0 126,-4 L126,72 L11,72 L11,84 L246,84 L246,72 L139,72 L139,40 L229,40 L229,29 L139,29 L139,-5 Q142,-5 143,-5 Q179,-6 249,-6 Q246,-11 245,-20 Q201,-20 143,-18 Q84,-19 59,24 Q48,-6 15,-30 Q14,-29 11,-26 Q8,-22 6,-20 Q49,9 56,62 M59,149 L59,122 L196,122 L196,149 M59,187 L59,160 L196,160 L196,187"/> 
            <glyph glyph-name="普" unicode="&#x666E;" horiz-adv-x="247" d=" M44,74 L212,74 L212,-29 L198,-29 L198,-18 L57,-18 L57,-29 L44,-29 M70,204 L80,211 Q90,202 104,186 L95,180 L152,180 Q159,188 171,205 Q175,209 176,211 L188,204 Q179,192 168,180 L239,180 L239,169 L163,169 L163,112 L247,112 L247,100 L8,100 L8,112 L93,112 L93,169 L17,169 L17,180 L91,180 Q88,184 78,196 Q72,202 70,204 M57,22 L57,-6 L198,-6 L198,22 M57,63 L57,34 L198,34 L198,63 M106,169 L106,112 L149,112 L149,169 M194,122 L184,131 Q189,135 206,152 Q210,156 212,158 L223,150 Q203,130 194,122 M33,151 L44,158 Q61,142 71,131 L60,122 Q45,140 33,151"/> 
            <glyph glyph-name="智" unicode="&#x667A;" horiz-adv-x="234" d=" M48,77 L210,77 L210,-29 L197,-29 L197,-18 L61,-18 L61,-29 L48,-29 M145,190 L234,190 L234,100 L145,100 M121,86 Q118,88 113,92 Q88,112 74,121 Q62,95 16,73 Q13,79 8,85 Q56,103 65,133 L11,133 L11,145 L68,145 Q71,158 71,176 L38,176 Q31,164 19,154 Q16,157 10,162 Q35,185 45,212 L56,209 Q54,204 50,196 Q47,190 46,187 L123,187 L123,176 L84,176 Q84,158 82,145 L131,145 L131,133 L79,133 Q79,133 79,132 Q78,132 78,131 Q81,129 87,125 Q105,114 129,96 M158,178 L158,112 L221,112 L221,178 M61,65 L61,35 L197,35 L197,65 M61,23 L61,-6 L197,-6 L197,23"/> 
            <glyph glyph-name="更" unicode="&#x66F4;" horiz-adv-x="248" d=" M16,-31 Q13,-24 9,-18 Q67,-6 87,5 Q73,13 47,36 Q44,39 42,40 L52,49 Q77,25 98,15 Q115,32 118,57 L35,57 L35,157 L122,157 Q123,173 123,185 L16,185 L16,197 L240,197 L240,185 L136,185 Q136,173 136,157 L221,157 L221,45 L208,45 L208,57 L132,57 Q127,29 111,9 Q150,-5 248,-9 Q244,-17 242,-23 Q139,-18 101,0 Q83,-16 16,-31 M133,69 L208,69 L208,101 L135,101 Q135,95 134,85 Q134,74 133,69 M48,145 L48,113 L122,113 Q122,128 122,145 M120,69 Q121,74 121,85 Q122,95 122,101 L48,101 L48,69 M208,145 L136,145 Q135,128 135,113 L208,113"/> 
            <glyph glyph-name="最" unicode="&#x6700;" horiz-adv-x="249" d=" M11,-14 L9,-2 Q21,-1 34,0 L34,98 L7,98 L7,109 L249,109 L249,98 L120,98 L120,8 Q124,9 131,10 Q139,11 142,11 Q142,6 142,0 Q131,0 120,-1 L120,-29 L107,-29 L107,-2 Q62,-8 11,-14 M44,199 L213,199 L213,128 L44,128 M136,67 L136,78 L231,78 L231,67 Q218,32 197,10 Q217,-4 247,-14 Q243,-20 240,-26 Q208,-13 188,1 Q167,-14 137,-29 Q136,-27 134,-24 Q131,-20 130,-18 Q160,-5 179,9 Q157,31 147,67 M58,188 L58,169 L200,169 L200,188 M58,158 L58,139 L200,139 L200,158 M218,67 L159,67 Q168,37 188,18 Q205,35 218,67 M47,0 Q56,1 74,3 Q96,6 107,7 L107,29 L47,29 M47,98 L47,74 L107,74 L107,98 M47,63 L47,40 L107,40 L107,63"/> 
            <glyph glyph-name="有" unicode="&#x6709;" horiz-adv-x="245" d=" M71,-29 L57,-29 L57,103 Q39,83 15,62 Q9,70 6,73 Q56,113 87,164 L15,164 L15,176 L94,176 Q103,192 111,210 L125,207 Q118,191 109,176 L245,176 L245,164 L102,164 Q92,146 79,130 L216,130 L216,3 Q217,-24 186,-24 Q173,-25 151,-25 Q151,-17 147,-11 Q161,-11 183,-11 Q203,-12 202,5 L202,27 L71,27 M71,73 L71,39 L202,39 L202,73 M71,118 L71,85 L202,85 L202,118"/> 
            <glyph glyph-name="服" unicode="&#x670D;" horiz-adv-x="250" d=" M117,195 L231,195 Q231,188 230,178 Q230,167 229,160 Q228,128 193,130 Q184,129 163,129 Q163,132 162,136 Q162,140 161,142 Q174,142 190,142 Q217,140 216,159 Q218,175 218,183 L130,183 L130,105 L234,105 L234,93 Q218,43 197,20 Q212,4 250,-14 Q245,-20 242,-26 Q207,-8 188,9 Q171,-7 144,-26 Q140,-21 134,-14 Q164,4 179,19 Q158,45 146,93 L130,93 L130,-29 L117,-29 M25,196 L91,196 L91,0 Q92,-25 68,-24 Q59,-25 48,-25 Q48,-19 46,-12 Q48,-12 55,-12 Q62,-13 65,-13 Q79,-14 78,0 L78,58 L38,58 Q40,2 18,-27 Q13,-24 8,-19 Q27,4 25,67 M221,93 L159,93 Q169,53 188,30 Q206,51 221,93 M38,121 L38,70 L78,70 L78,121 M38,184 L38,133 L78,133 L78,184"/> 
            <glyph glyph-name="机" unicode="&#x673A;" horiz-adv-x="250" d=" M132,180 L132,109 Q132,51 123,25 Q115,-1 86,-28 Q82,-24 74,-18 Q103,8 111,31 Q119,54 119,110 L119,193 L203,193 L203,5 Q203,-8 213,-7 L218,-7 Q232,-7 233,7 Q236,23 237,47 Q244,44 250,42 Q249,15 246,3 Q242,-21 220,-20 L211,-20 Q189,-20 189,3 L189,180 M12,39 Q11,41 9,45 Q7,50 5,53 Q32,89 47,148 L11,148 L11,160 L47,160 L47,209 L60,209 L60,160 L95,160 L95,148 L60,148 L60,107 L67,115 Q89,95 100,84 L91,75 Q85,81 73,92 Q64,101 60,105 L60,-28 L47,-28 L47,122 Q33,67 12,39"/> 
            <glyph glyph-name="样" unicode="&#x6837;" horiz-adv-x="248" d=" M108,105 L162,105 L162,149 L102,149 L102,162 L177,162 Q195,187 209,210 L221,204 Q208,183 191,162 L240,162 L240,149 L175,149 L175,105 L233,105 L233,92 L175,92 L175,46 L248,46 L248,33 L175,33 L175,-29 L162,-29 L162,33 L89,33 L89,46 L162,46 L162,92 L108,92 M12,39 Q9,48 4,54 Q31,90 46,145 L10,145 L10,157 L46,157 L46,209 L60,209 L60,157 L89,157 L89,145 L60,145 L60,104 L67,110 Q82,95 98,79 L88,70 Q83,76 74,86 Q65,96 60,102 L60,-29 L46,-29 L46,118 Q34,74 12,39 M116,203 L126,210 Q139,195 154,176 L143,168 Q140,172 134,180 Q128,188 116,203"/> 
            <glyph glyph-name="欺" unicode="&#x6B3A;" horiz-adv-x="250" d=" M97,208 L110,208 L110,178 L129,178 L129,166 L110,166 L110,46 L129,46 L129,34 L8,34 L8,46 L29,46 L29,166 L9,166 L9,178 L29,178 L29,208 L42,208 L42,178 L97,178 M176,142 L189,142 Q189,124 189,109 Q201,18 250,-15 Q247,-17 243,-22 Q240,-25 239,-26 Q194,10 184,80 Q177,11 125,-31 Q121,-26 114,-20 Q172,25 175,98 Q176,113 176,142 M137,103 Q131,107 125,110 Q151,153 166,209 L179,206 Q174,188 168,172 L245,172 L245,159 L229,103 Q223,106 215,107 L232,159 L164,159 Q152,130 137,103 M42,78 L42,46 L97,46 L97,78 M42,166 L42,134 L97,134 L97,166 M42,122 L42,90 L97,90 L97,122 M49,24 L60,16 Q39,-6 17,-27 Q13,-21 7,-17 Q33,4 49,24 M80,16 L90,24 Q94,20 104,11 Q115,1 119,-2 L108,-11 Q103,-5 89,7 Q83,13 80,16"/> 
            <glyph glyph-name="歉" unicode="&#x6B49;" horiz-adv-x="251" d=" M14,-13 Q13,-12 10,-8 Q7,-5 5,-3 Q33,22 49,55 L16,55 L16,66 L50,66 L50,92 L10,92 L10,103 L50,103 L50,129 L18,129 L18,140 L50,140 L50,164 L12,164 L12,175 L54,175 Q44,189 33,203 L43,210 Q47,206 54,197 Q62,188 65,183 L55,175 L88,175 Q101,195 109,210 L121,204 Q120,202 117,197 Q113,190 101,175 L145,175 L145,164 L100,164 L100,140 L136,140 L136,103 L151,103 L151,92 L136,92 L136,55 L100,55 L100,35 L106,41 Q128,25 141,11 L131,2 Q111,22 100,32 L100,-29 L87,-29 L87,55 L62,55 L62,-29 L50,-29 L50,38 Q38,10 14,-13 M182,70 Q186,97 186,136 L199,136 Q199,129 198,116 Q198,106 198,101 Q209,23 251,-16 Q250,-18 246,-22 Q243,-25 241,-27 Q200,17 193,74 Q186,11 143,-29 Q142,-28 138,-25 Q135,-22 133,-20 Q173,18 182,70 M157,112 Q156,113 153,114 Q149,117 146,119 Q169,158 181,209 L194,207 Q188,186 182,168 L247,168 L247,156 L234,113 L221,116 L234,157 L178,157 Q167,128 157,112 M62,92 L62,66 L87,66 L87,92 M62,129 L62,103 L87,103 L87,129 M100,92 L100,66 L124,66 L124,92 M124,129 L100,129 L100,103 L124,103 M62,164 L62,140 L87,140 L87,164"/> 
            <glyph glyph-name="止" unicode="&#x6B62;" horiz-adv-x="248" d=" M136,210 L150,210 L150,134 L235,134 L235,121 L150,121 L150,3 L248,3 L248,-8 L9,-8 L9,3 L53,3 L53,163 L67,163 L67,3 L136,3"/> 
            <glyph glyph-name="正" unicode="&#x6B63;" horiz-adv-x="249" d=" M47,134 L61,134 L61,0 L133,0 L133,175 L18,175 L18,188 L240,188 L240,175 L147,175 L147,99 L231,99 L231,86 L147,86 L147,0 L249,0 L249,-13 L6,-13 L6,0 L47,0"/> 
            <glyph glyph-name="毒" unicode="&#x6BD2;" horiz-adv-x="245" d=" M10,57 L41,57 L46,100 L213,100 L211,57 L245,57 L245,46 L211,46 L210,13 L233,13 L233,2 L209,2 Q212,-29 173,-27 Q153,-27 140,-27 Q140,-25 139,-21 Q138,-16 137,-14 Q142,-15 171,-15 Q196,-17 196,2 L35,2 L40,46 L10,46 M24,193 L122,193 L122,208 L135,208 L135,193 L231,193 L231,181 L135,181 L135,161 L218,161 L218,150 L135,150 L135,130 L243,130 L243,118 L13,118 L13,130 L122,130 L122,150 L38,150 L38,161 L122,161 L122,181 L24,181 M50,13 L196,13 L197,46 L53,46 M199,89 L58,89 L55,57 L198,57 M104,77 L110,86 Q128,79 145,69 L139,60 Q136,62 129,65 Q114,73 104,77 M102,34 L107,43 Q130,33 142,26 L136,16 Q127,22 109,30 Q104,33 102,34"/> 
            <glyph glyph-name="比" unicode="&#x6BD4;" horiz-adv-x="248" d=" M132,210 L146,210 L146,101 Q196,134 230,176 L242,167 Q198,118 146,84 L146,11 Q146,-9 169,-8 L204,-8 Q226,-9 230,10 Q230,13 231,20 Q232,24 234,45 Q237,44 243,43 Q246,41 248,41 Q247,20 242,3 Q236,-21 208,-22 L165,-22 Q131,-23 132,8 M39,203 L39,128 L110,128 L110,114 L39,114 L39,0 Q68,14 45,3 Q68,14 108,32 Q108,23 108,16 Q64,-1 45,-11 Q36,-15 29,-21 L18,-8 Q25,0 25,9 L25,203"/> 
            <glyph glyph-name="气" unicode="&#x6C14;" horiz-adv-x="250" d=" M32,88 L32,100 L204,100 L204,77 Q203,9 214,-6 Q218,-14 224,-14 Q230,-14 233,-1 Q233,0 234,2 Q236,22 237,35 Q240,33 248,31 Q249,31 250,31 Q250,16 246,-5 Q242,-29 224,-28 Q209,-28 202,-13 Q189,7 190,77 L190,88 M15,98 Q9,107 7,111 Q45,153 68,211 L82,207 Q76,194 70,182 L237,182 L237,170 L64,170 Q44,133 15,98 M60,142 L217,142 L217,129 L60,129"/> 
            <glyph glyph-name="水" unicode="&#x6C34;" horiz-adv-x="250" d=" M120,209 L134,209 L134,171 Q150,132 161,112 Q184,130 218,166 L229,156 Q199,125 167,100 Q197,48 250,11 Q244,5 238,0 Q166,54 134,140 L134,7 Q135,-24 103,-25 Q86,-25 72,-25 Q71,-17 69,-11 Q82,-11 99,-11 Q121,-12 120,8 M14,135 L14,148 L94,148 L94,135 Q75,54 18,-3 Q16,-1 10,2 Q7,4 6,5 Q64,63 79,135"/> 
            <glyph glyph-name="求" unicode="&#x6C42;" horiz-adv-x="248" d=" M122,210 L136,210 L136,158 L245,158 L245,145 L136,145 L136,138 Q148,105 166,78 Q192,97 221,126 L232,117 Q223,109 198,88 Q181,73 174,67 Q200,34 248,9 Q246,8 241,1 Q239,0 238,-1 Q164,36 136,107 L136,8 Q138,-24 102,-24 Q86,-25 75,-25 Q75,-19 72,-10 Q80,-11 99,-11 Q124,-13 122,12 L122,145 L11,145 L11,158 L122,158 M16,5 L9,19 Q70,48 106,69 Q106,67 107,64 Q108,57 109,54 Q55,27 16,5 M74,76 Q59,94 35,119 L46,127 Q67,106 86,84 M162,190 L171,199 Q197,181 207,172 L197,162 Q181,176 162,190"/> 
            <glyph glyph-name="沃" unicode="&#x6C83;" horiz-adv-x="249" d=" M238,-25 Q171,13 158,83 Q146,14 74,-29 Q69,-23 63,-17 Q138,25 148,97 L80,97 L80,110 L150,110 Q153,134 153,176 Q135,174 98,172 Q101,172 93,172 Q92,180 90,186 Q175,190 226,195 L229,182 Q200,179 167,177 Q167,169 166,156 Q166,125 164,110 L243,110 L243,97 L167,97 Q181,21 249,-12 Q247,-14 243,-19 Q239,-24 238,-25 M15,-18 Q32,18 48,70 Q51,68 56,66 Q60,64 62,63 Q50,33 31,-25 M64,161 Q41,181 19,196 L28,206 Q52,190 74,172 M52,96 Q38,107 10,127 Q7,129 6,130 L15,140 Q19,137 28,131 Q37,125 61,107"/> 
            <glyph glyph-name="泄" unicode="&#x6CC4;" horiz-adv-x="249" d=" M66,144 L90,144 L90,195 L103,195 L103,144 L145,144 L145,208 L158,208 L158,144 L201,144 L201,207 L215,207 L215,144 L249,144 L249,131 L215,131 L215,40 L145,40 L145,131 L103,131 L103,-4 L244,-4 L244,-17 L90,-17 L90,131 L66,131 M158,131 L158,52 L201,52 L201,131 M14,-21 Q28,15 42,67 Q48,63 56,60 Q52,47 44,19 Q33,-15 29,-27 M57,161 Q43,175 19,195 L29,203 Q50,188 68,171 M45,97 Q22,118 7,129 L17,138 Q40,122 56,108"/> 
            <glyph glyph-name="法" unicode="&#x6CD5;" horiz-adv-x="249" d=" M71,93 L153,93 L153,150 L83,150 L83,163 L153,163 L153,210 L166,210 L166,163 L237,163 L237,150 L166,150 L166,93 L249,93 L249,80 L146,80 L161,75 Q138,39 101,-2 Q113,-2 144,0 Q190,0 209,1 Q202,10 189,27 Q181,38 177,43 L188,50 Q219,13 243,-20 L231,-28 Q229,-24 223,-16 Q220,-12 219,-10 Q155,-11 111,-14 Q102,-15 90,-16 Q92,-16 85,-17 L77,-3 Q87,1 96,11 Q126,44 145,80 L71,80 M11,-22 Q26,14 42,69 Q45,67 52,64 Q55,63 56,62 Q46,36 26,-27 M55,162 Q50,167 35,180 Q23,191 18,196 L28,204 Q55,182 66,171 M46,98 Q25,117 8,130 L17,139 Q40,122 56,109"/> 
            <glyph glyph-name="清" unicode="&#x6E05;" horiz-adv-x="249" d=" M99,-29 L85,-29 L85,92 L229,92 L229,0 Q230,-27 200,-26 Q196,-26 183,-27 Q171,-27 166,-27 Q165,-20 162,-13 Q174,-14 197,-14 Q217,-15 216,0 L216,15 L99,15 M81,156 L150,156 L150,177 L75,177 L75,188 L150,188 L150,210 L164,210 L164,188 L245,188 L245,177 L164,177 L164,156 L237,156 L237,145 L164,145 L164,123 L249,123 L249,112 L69,112 L69,123 L150,123 L150,145 L81,145 M99,81 L99,59 L216,59 L216,81 M99,48 L99,26 L216,26 L216,48 M14,-22 Q30,20 41,66 Q43,66 48,63 Q54,61 55,60 Q51,47 43,19 Q32,-15 28,-27 M6,129 L15,139 Q25,132 43,118 Q51,112 55,109 L44,98 Q27,113 6,129 M18,194 L27,204 Q30,201 38,195 Q45,190 65,172 L55,162 Q30,185 18,194"/> 
            <glyph glyph-name="游" unicode="&#x6E38;" horiz-adv-x="249" d=" M59,163 L143,163 L143,152 L92,152 Q92,143 91,127 Q91,114 91,108 L137,108 Q137,92 136,58 Q135,23 134,7 Q133,-22 104,-22 Q97,-22 88,-22 L86,-8 Q95,-9 101,-9 Q121,-10 121,8 Q121,16 122,35 Q124,79 124,97 L90,97 Q89,8 56,-28 Q52,-23 45,-19 Q66,8 72,41 Q79,72 79,152 L59,152 M194,87 L227,120 L162,120 L162,132 L241,132 L241,118 L207,83 L207,70 L249,70 L249,58 L207,58 L207,1 Q208,-24 180,-24 Q173,-25 156,-25 Q156,-23 155,-18 Q154,-13 153,-11 Q156,-11 164,-11 Q174,-12 178,-12 Q195,-13 194,4 L194,58 L148,58 L148,70 L194,70 M180,211 L193,208 Q186,189 178,173 L249,173 L249,161 L173,161 Q161,138 148,120 Q147,121 142,125 Q139,127 137,128 Q164,163 180,211 M12,-22 Q27,26 35,68 Q37,67 41,65 Q46,63 49,62 Q40,34 26,-27 M39,102 Q38,103 35,106 Q17,122 5,131 L14,140 Q36,124 48,112 M89,205 L101,209 Q107,195 115,170 L102,166 Q98,179 89,205 M45,167 Q29,182 14,195 L23,204 Q43,188 55,176"/> 
            <glyph glyph-name="满" unicode="&#x6EE1;" horiz-adv-x="246" d=" M148,27 Q138,39 127,51 Q120,25 99,1 Q97,3 94,6 Q90,9 88,10 Q118,37 120,83 L85,83 L85,-29 L72,-29 L72,95 L121,95 Q121,111 121,126 L67,126 L67,137 L246,137 L246,126 L190,126 Q190,111 190,95 L238,95 L238,0 Q239,-25 213,-26 Q210,-26 201,-26 Q190,-27 186,-27 Q186,-21 183,-13 Q191,-14 209,-14 Q226,-14 225,0 L225,83 L189,83 Q189,69 186,57 Q195,49 209,33 Q217,25 221,21 L212,12 Q201,26 183,45 Q174,18 153,-2 Q151,0 145,3 Q149,1 143,5 Q175,34 177,83 L132,83 Q132,74 130,64 Q145,49 157,36 M185,210 L198,210 L198,182 L246,182 L246,170 L198,170 L198,149 L185,149 L185,170 L128,170 L128,148 L115,148 L115,170 L67,170 L67,182 L115,182 L115,210 L128,210 L128,182 L185,182 M134,126 Q134,119 133,107 Q133,99 133,95 L178,95 Q178,111 178,126 M11,-22 Q20,8 35,70 Q42,67 48,65 Q36,22 25,-27 M49,163 Q28,182 12,196 L22,205 Q39,191 59,173 M43,97 Q30,109 6,128 L15,137 Q17,135 21,132 Q42,117 53,107"/> 
            <glyph glyph-name="玩" unicode="&#x73A9;" horiz-adv-x="250" d=" M96,118 L246,118 L246,105 L192,105 L192,6 Q191,-6 207,-6 L218,-6 Q233,-7 234,6 Q237,18 237,35 Q241,34 250,31 Q248,9 247,3 Q244,-20 219,-19 L204,-19 Q178,-20 179,5 L179,105 L141,105 Q141,48 128,22 Q118,-4 81,-30 Q76,-24 70,-19 Q107,5 116,27 Q127,49 127,105 L96,105 M9,2 L6,16 Q14,18 32,23 Q38,24 41,25 L41,99 L10,99 L10,110 L41,110 L41,176 L9,176 L9,188 L87,188 L87,176 L55,176 L55,110 L83,110 L83,99 L55,99 L55,28 Q63,31 78,35 Q85,37 89,38 Q89,32 90,25 Q48,14 9,2 M110,187 L232,187 L232,174 L110,174"/> 
            <glyph glyph-name="理" unicode="&#x7406;" horiz-adv-x="249" d=" M99,44 L162,44 L162,79 L104,79 L104,196 L233,196 L233,79 L175,79 L175,44 L239,44 L239,32 L175,32 L175,-8 L249,-8 L249,-20 L84,-20 L84,-8 L162,-8 L162,32 L99,32 M10,103 L42,103 L42,175 L8,175 L8,187 L88,187 L88,175 L55,175 L55,103 L87,103 L87,92 L55,92 L55,17 Q73,20 88,25 Q88,23 89,18 Q89,13 89,11 Q82,9 67,6 Q31,-1 9,-6 L6,6 Q14,8 33,12 Q39,13 42,14 L42,92 L10,92 M175,132 L175,91 L220,91 L220,132 M117,185 L117,143 L162,143 L162,185 M220,185 L175,185 L175,143 L220,143 M117,132 L117,91 L162,91 L162,132"/> 
            <glyph glyph-name="由" unicode="&#x7531;" horiz-adv-x="229" d=" M28,-26 L28,163 L122,163 L122,210 L135,210 L135,163 L229,163 L229,-26 L215,-26 L215,-11 L42,-11 L42,-26 M135,1 L215,1 L215,69 L135,69 M42,69 L42,1 L122,1 L122,69 M42,150 L42,82 L122,82 L122,150 M215,150 L135,150 L135,82 L215,82"/> 
            <glyph glyph-name="电" unicode="&#x7535;" horiz-adv-x="247" d=" M112,210 L125,210 L125,176 L218,176 L218,42 L125,42 L125,13 Q124,-8 151,-7 L201,-7 Q226,-8 229,7 Q232,22 234,36 Q243,33 247,32 Q244,10 241,0 Q236,-22 204,-21 L147,-21 Q110,-22 112,12 L112,42 L33,42 L33,24 L20,24 L20,176 L112,176 M125,55 L204,55 L204,103 L125,103 M33,103 L33,55 L112,55 L112,103 M204,163 L125,163 L125,115 L204,115 M33,163 L33,115 L112,115 L112,163"/> 
            <glyph glyph-name="病" unicode="&#x75C5;" horiz-adv-x="246" d=" M203,8 Q195,17 179,34 Q165,49 158,57 Q147,28 111,3 Q106,8 101,13 Q147,43 151,81 L93,81 L93,-27 L79,-27 L79,93 L152,93 Q153,98 153,109 Q154,121 154,126 L72,126 L72,138 L244,138 L244,126 L167,126 Q167,110 165,93 L236,93 L236,5 Q236,-24 205,-24 Q190,-24 170,-24 Q170,-23 170,-22 Q169,-18 166,-11 Q185,-11 201,-11 Q224,-12 223,6 L223,81 L164,81 Q164,75 162,69 Q177,56 200,32 Q209,23 214,18 M134,208 L147,211 Q147,210 148,209 Q155,189 158,179 L246,179 L246,167 L61,167 L61,94 Q61,48 53,22 Q46,-2 23,-29 Q22,-28 19,-26 Q14,-21 11,-20 Q47,15 47,73 Q30,62 10,50 L4,63 Q17,70 45,86 Q46,87 47,87 L47,95 L47,179 L144,179 Q137,200 134,208 M8,150 L19,155 Q21,151 24,143 Q35,119 40,102 L28,97 Q18,127 8,150"/> 
            <glyph glyph-name="的" unicode="&#x7684;" horiz-adv-x="239" d=" M17,168 L43,168 Q51,192 55,209 L69,206 Q63,186 57,168 L108,168 L108,-24 L94,-24 L94,-4 L30,-4 L30,-26 L17,-26 M130,114 Q128,115 124,118 Q120,120 118,121 Q140,157 156,209 L170,206 Q164,188 156,169 L239,169 Q239,164 239,153 Q237,64 234,16 Q235,-23 191,-24 Q171,-24 152,-24 Q152,-23 151,-21 Q150,-13 148,-10 Q162,-11 189,-11 Q221,-12 221,18 Q223,43 224,123 Q225,146 225,156 L151,156 Q138,127 130,114 M30,76 L30,7 L94,7 L94,76 M30,156 L30,88 L94,88 L94,156 M141,102 L151,110 Q153,107 157,102 Q179,75 191,57 L180,49 Q161,77 141,102"/> 
            <glyph glyph-name="益" unicode="&#x76CA;" horiz-adv-x="248" d=" M43,77 L213,77 L213,-4 L248,-4 L248,-16 L7,-16 L7,-4 L43,-4 M13,155 L150,155 Q171,180 191,210 L204,203 Q201,199 195,191 Q180,172 167,155 L244,155 L244,143 L13,143 M200,65 L161,65 L161,-4 L200,-4 M108,65 L108,-4 L148,-4 L148,65 M56,65 L56,-4 L95,-4 L95,65 M93,132 L102,121 Q65,97 20,75 Q18,80 12,87 Q58,109 93,132 M156,121 L164,132 Q206,111 246,89 L238,77 Q231,81 216,89 Q173,112 156,121 M52,203 L63,211 Q71,203 91,181 Q99,171 102,168 L90,159 Q72,183 52,203"/> 
            <glyph glyph-name="盒" unicode="&#x76D2;" horiz-adv-x="249" d=" M9,-9 L39,-9 L39,49 L217,49 L217,-9 L247,-9 L247,-20 L9,-20 M51,72 L51,122 L205,122 L205,72 M64,111 L64,83 L192,83 L192,111 M241,134 Q169,156 128,193 Q86,156 15,130 Q12,137 7,143 Q85,169 130,211 L145,207 Q144,206 141,204 Q139,202 137,201 Q180,164 249,147 Q244,141 241,134 M204,38 L162,38 L162,-9 L204,-9 M107,38 L107,-9 L149,-9 L149,38 M52,38 L52,-9 L94,-9 L94,38 M77,143 L77,154 L179,154 L179,143"/> 
            <glyph glyph-name="盖" unicode="&#x76D6;" horiz-adv-x="248" d=" M8,-9 L35,-9 L35,60 L220,60 L220,-9 L248,-9 L248,-21 L8,-21 M27,138 L121,138 L121,165 L16,165 L16,176 L148,176 Q169,194 184,209 L194,201 Q187,194 170,179 Q182,189 167,176 L240,176 L240,165 L135,165 L135,138 L229,138 L229,126 L135,126 L135,98 L243,98 L243,87 L13,87 L13,98 L121,98 L121,126 L27,126 M105,48 L105,-9 L150,-9 L150,48 M48,48 L48,-9 L93,-9 L93,48 M207,48 L163,48 L163,-9 L207,-9 M62,202 L71,210 Q79,204 91,194 Q97,189 100,187 L90,178 Q84,183 73,193 Q65,199 62,202"/> 
            <glyph glyph-name="相" unicode="&#x76F8;" horiz-adv-x="238" d=" M112,193 L238,193 L238,-29 L225,-29 L225,-12 L126,-12 L126,-29 L112,-29 M13,39 Q12,42 9,46 Q7,51 5,53 Q34,93 48,146 L10,146 L10,158 L48,158 L48,208 L62,208 L62,158 L97,158 L97,146 L62,146 L62,103 L69,110 Q85,95 101,79 L91,70 Q90,71 89,73 Q77,86 62,101 L62,-29 L48,-29 L48,118 Q36,72 13,39 M126,51 L126,0 L225,0 L225,51 M126,180 L126,128 L225,128 L225,180 M126,116 L126,63 L225,63 L225,116"/> 
            <glyph glyph-name="看" unicode="&#x770B;" horiz-adv-x="248" d=" M27,159 L107,159 Q113,171 117,183 Q73,181 25,181 L23,193 Q158,195 227,200 L230,188 Q184,185 131,184 Q127,171 121,159 L229,159 L229,148 L116,148 Q115,146 114,143 Q107,130 103,124 L248,124 L248,112 L96,112 Q88,100 79,90 L217,90 L217,-30 L204,-30 L204,-19 L74,-19 L74,-30 L61,-30 L61,69 Q42,48 15,29 Q12,32 6,40 Q52,72 81,112 L10,112 L10,124 L88,124 Q95,133 102,148 L27,148 M74,13 L74,-7 L204,-7 L204,13 M74,46 L74,24 L204,24 L204,46 M74,79 L74,57 L204,57 L204,79"/> 
            <glyph glyph-name="码" unicode="&#x7801;" horiz-adv-x="240" d=" M13,187 L103,187 L103,175 L66,175 Q58,141 43,112 L93,112 L93,-17 L81,-17 L81,0 L44,0 L44,-20 L31,-20 L31,91 Q28,86 21,77 Q16,70 14,66 Q12,71 6,78 Q41,124 53,175 L13,175 M142,167 L135,94 L200,94 L209,182 L116,182 L116,195 L224,195 L213,94 L240,94 Q239,47 236,8 Q235,-24 200,-24 Q183,-24 168,-24 Q168,-22 167,-18 Q166,-13 165,-11 Q178,-11 198,-11 Q222,-11 223,9 Q226,45 226,81 L121,81 L129,167 M44,100 L44,11 L81,11 L81,100 M108,42 L207,42 L207,30 L108,30"/> 
            <glyph glyph-name="破" unicode="&#x7834;" horiz-adv-x="252" d=" M110,175 L175,175 L175,210 L188,210 L188,175 L249,175 L243,133 Q237,134 230,134 L235,163 L188,163 L188,110 L237,110 L237,97 Q222,50 195,22 Q212,6 252,-13 Q252,-14 250,-15 Q245,-23 243,-26 Q203,-3 185,12 Q160,-8 118,-29 Q117,-27 112,-21 Q110,-18 109,-17 Q155,3 176,22 Q149,50 137,98 L123,98 L123,94 Q125,16 88,-29 Q83,-25 76,-21 Q112,19 110,94 M14,185 L94,185 L94,173 L59,173 Q50,133 41,114 L86,114 L86,12 L44,12 L44,-7 L31,-7 L31,89 Q27,81 19,66 Q16,60 14,57 Q9,64 5,67 Q35,117 46,173 L14,173 M223,98 L151,98 Q161,58 186,31 Q210,57 223,98 M123,163 L123,110 L175,110 L175,163 M44,102 L44,23 L73,23 L73,102"/> 
            <glyph glyph-name="私" unicode="&#x79C1;" horiz-adv-x="249" d=" M9,136 L55,136 L55,178 Q34,177 14,175 Q13,183 10,189 Q60,192 108,197 L111,183 Q104,183 90,181 Q75,180 68,179 L68,136 L115,136 L115,123 L68,123 L68,89 L75,95 Q100,74 112,61 L102,51 Q85,70 68,85 L68,-28 L55,-28 L55,98 Q38,50 14,20 Q11,28 6,35 Q34,68 54,123 L9,123 M235,-25 Q231,-14 226,0 Q173,-2 134,-6 Q126,-6 117,-9 L109,2 Q119,11 125,29 Q154,107 176,204 L193,201 Q162,85 131,6 Q139,7 155,8 Q170,9 221,13 Q209,48 187,106 L200,111 Q231,31 249,-19"/> 
            <glyph glyph-name="稍" unicode="&#x7A0D;" horiz-adv-x="241" d=" M165,210 L179,210 L179,139 L237,139 L237,3 Q238,-25 207,-25 Q193,-26 179,-26 Q178,-18 175,-12 Q179,-12 188,-12 Q198,-13 204,-13 Q224,-14 223,4 L223,29 L120,29 L120,-29 L107,-29 L107,139 L165,139 M12,20 Q11,23 8,27 Q6,31 4,33 Q33,70 46,121 L8,121 L8,133 L47,133 L47,179 Q30,177 12,177 Q11,180 10,185 Q9,188 9,189 Q47,190 91,195 L94,183 Q76,182 60,180 L60,133 L94,133 L94,121 L60,121 L60,88 L68,94 Q90,72 99,62 L88,54 Q73,70 60,85 L60,-29 L47,-29 L47,94 Q34,50 12,20 M120,127 L120,90 L223,90 L223,127 M120,78 L120,41 L223,41 L223,78 M209,153 L198,161 Q212,175 229,199 L241,192 Q232,180 214,159 Q211,155 209,153 M102,192 L112,199 Q122,189 140,167 Q128,181 144,162 L133,154 Q118,174 102,192"/> 
            <glyph glyph-name="稳" unicode="&#x7A33;" horiz-adv-x="250" d=" M107,107 L220,107 L220,133 L106,133 L106,144 Q102,140 97,135 Q96,137 93,140 Q90,144 88,145 Q119,172 140,211 L152,206 Q146,194 139,185 L211,185 L211,171 L189,145 L232,145 L232,58 L103,58 L103,69 L220,69 L220,95 L107,95 M13,180 Q13,182 12,186 Q12,190 11,192 Q36,192 82,195 Q88,196 91,196 L93,185 Q75,184 59,182 L59,133 L92,133 L92,121 L59,121 L59,88 L67,94 Q82,81 94,67 L83,59 Q73,73 59,86 L59,-29 L47,-29 L47,97 Q32,50 11,20 Q9,24 5,31 Q6,30 4,33 Q30,70 46,121 L9,121 L9,133 L47,133 L47,181 Q42,181 31,181 Q19,180 13,180 M120,43 L133,43 L133,4 Q132,-11 152,-10 L176,-10 Q195,-11 198,2 Q200,8 201,22 Q202,21 205,20 Q208,19 214,17 Q214,15 213,11 Q212,4 209,-2 Q205,-23 178,-23 L150,-23 Q120,-23 120,2 M197,173 L131,173 Q121,158 107,145 L173,145 M93,40 L105,35 Q98,18 84,-10 Q78,-7 72,-5 Q83,14 93,40 M214,36 L225,42 Q231,33 244,13 Q248,7 250,4 L239,-1 Q237,1 233,7 Q226,19 214,36 M152,47 L162,53 Q167,47 177,35 Q182,28 185,24 L174,17 Q162,34 152,47"/> 
            <glyph glyph-name="空" unicode="&#x7A7A;" horiz-adv-x="246" d=" M41,79 L214,79 L214,67 L135,67 L135,-4 L240,-4 L240,-17 L16,-17 L16,-4 L121,-4 L121,67 L41,67 M116,207 L129,212 Q136,197 142,182 L130,177 L239,177 L239,131 L225,131 L225,165 L31,165 L31,131 L17,131 L17,177 L128,177 Q122,192 116,207 M96,145 L106,135 Q62,101 19,76 Q15,82 10,88 Q50,110 96,145 M237,77 Q191,110 152,135 L160,145 Q201,121 246,89"/> 
            <glyph glyph-name="站" unicode="&#x7AD9;" horiz-adv-x="249" d=" M166,210 L179,210 L179,157 L249,157 L249,145 L179,145 L179,84 L235,84 L235,-29 L222,-29 L222,-14 L132,-14 L132,-29 L118,-29 L118,84 L166,84 M132,72 L132,-2 L222,-2 L222,72 M10,-4 L7,8 Q33,13 58,17 Q76,86 85,125 L98,122 Q94,105 82,63 Q75,35 71,20 Q79,21 94,25 Q101,26 105,27 Q105,21 105,14 Q87,11 45,2 Q22,-2 10,-4 M10,156 L107,156 L107,144 L10,144 M18,122 L30,125 Q41,84 49,46 L36,42 Q27,87 18,122 M44,206 L57,210 Q59,205 62,196 Q68,179 71,169 L58,165 Q57,169 54,176 Q51,187 44,206"/> 
            <glyph glyph-name="管" unicode="&#x7BA1;" horiz-adv-x="249" d=" M46,102 L208,102 L208,54 L59,54 L59,31 L214,31 L214,-29 L201,-29 L201,-19 L59,-19 L59,-29 L46,-29 M201,20 L59,20 L59,-8 L201,-8 M59,91 L59,65 L195,65 L195,91 M117,154 L129,158 Q133,148 139,137 L239,137 L239,102 L226,102 L226,125 L30,125 L30,102 L17,102 L17,137 L125,137 Q122,145 117,154 M53,211 L67,208 Q61,197 55,188 L130,188 L130,176 L47,176 Q35,160 17,144 Q12,149 7,154 Q38,178 53,211 M165,211 L178,208 Q174,197 168,188 L249,188 L249,176 L161,176 Q154,166 144,154 Q142,156 137,159 Q135,161 133,162 Q154,184 165,211 M84,145 Q74,157 62,167 L71,174 Q83,164 93,152 M206,152 L197,144 Q190,153 176,167 L185,174 Q196,164 206,152"/> 
            <glyph glyph-name="箱" unicode="&#x7BB1;" horiz-adv-x="246" d=" M116,130 L232,130 L232,-29 L219,-29 L219,-13 L130,-13 L130,-29 L116,-29 M14,6 Q13,7 12,9 Q8,16 6,18 Q33,49 49,97 L13,97 L13,108 L51,108 L51,143 L64,143 L64,108 L98,108 L98,97 L64,97 L64,67 L71,74 Q82,65 101,46 L92,37 Q77,53 64,65 L64,-29 L51,-29 L51,76 Q38,36 14,6 M130,119 L130,86 L219,86 L219,119 M130,29 L130,-2 L219,-2 L219,29 M130,74 L130,41 L219,41 L219,74 M55,211 L68,208 Q62,196 56,185 L130,185 L130,174 L49,174 Q34,153 18,139 Q17,140 15,142 Q11,147 9,148 Q40,176 55,211 M163,211 L176,208 Q174,203 169,193 Q167,187 166,185 L246,185 L246,174 L159,174 Q150,158 137,143 Q136,144 132,147 Q128,150 126,151 Q151,176 163,211 M207,148 L197,140 Q187,153 177,163 L187,170 Q193,164 205,151 Q197,160 207,148 M98,149 L87,141 Q77,153 68,163 L77,170 Q82,166 91,156 Q96,151 98,149"/> 
            <glyph glyph-name="米" unicode="&#x7C73;" horiz-adv-x="249" d=" M16,-12 Q13,-6 6,0 Q77,38 108,96 L9,96 L9,109 L122,109 L122,207 L136,207 L136,109 L247,109 L247,96 L150,96 Q183,37 249,5 Q248,4 246,1 Q244,0 239,-7 Q165,32 138,96 L136,96 L136,-29 L122,-29 L122,96 L120,96 Q90,29 16,-12 M31,183 L42,191 Q69,161 88,138 L76,129 Q59,152 31,183 M181,128 L169,136 Q184,152 208,184 Q211,188 213,190 L225,183 Q206,158 181,128"/> 
            <glyph glyph-name="线" unicode="&#x7EBF;" horiz-adv-x="250" d=" M93,86 L144,93 Q141,113 139,136 L98,131 L96,143 L138,148 Q136,176 136,209 L150,209 Q150,176 152,150 L240,160 L242,148 L153,138 Q154,114 157,95 L247,108 L248,96 L159,83 Q163,61 170,41 Q171,40 172,37 Q173,35 173,33 Q200,53 222,78 L232,69 Q205,41 178,20 Q196,-15 215,-14 Q226,-14 230,0 Q236,24 237,35 Q244,32 250,30 Q247,8 242,-5 Q236,-27 216,-27 Q187,-28 167,13 Q133,-8 92,-24 Q88,-17 83,-12 Q133,5 161,25 Q160,29 158,35 Q151,56 146,81 L95,74 M31,60 Q40,61 57,62 Q76,64 85,65 Q85,64 84,62 Q83,56 83,52 Q48,50 16,46 L10,59 Q17,63 24,72 Q39,90 54,116 Q29,116 11,114 L6,127 Q11,132 16,139 Q38,171 56,210 L70,204 Q68,200 63,192 Q34,143 23,127 Q28,127 40,127 Q55,128 61,128 Q70,143 78,157 L91,151 Q58,98 31,60 M8,4 Q19,5 61,13 Q81,16 90,18 Q89,9 89,4 Q51,0 12,-8 M174,196 L182,205 Q202,191 218,176 L209,167 Q194,181 174,196"/> 
            <glyph glyph-name="给" unicode="&#x7ED9;" horiz-adv-x="249" d=" M108,71 L226,71 L226,-29 L213,-29 L213,-15 L121,-15 L121,-29 L108,-29 M121,59 L121,-3 L213,-3 L213,59 M32,60 Q42,61 62,63 Q77,64 86,65 Q84,61 84,53 Q75,52 59,51 Q27,48 16,46 L11,58 Q19,63 33,80 Q35,83 39,89 Q44,96 57,114 Q37,114 11,112 L7,125 Q17,134 23,144 Q48,182 61,210 L76,205 Q48,158 24,125 Q29,125 41,125 Q57,126 64,126 Q68,132 74,143 Q78,149 80,152 L93,147 Q58,93 32,60 M166,212 L180,210 Q180,209 178,206 Q177,203 176,201 Q205,152 249,127 Q243,121 239,115 Q192,146 169,190 Q145,145 98,114 Q97,116 94,120 Q91,123 89,125 Q140,157 166,212 M116,119 L218,119 L218,107 L116,107 M10,-9 L6,2 Q20,5 48,10 Q77,15 90,17 Q90,10 90,4 Q84,3 71,1 Q31,-4 10,-9"/> 
            <glyph glyph-name="络" unicode="&#x7EDC;" horiz-adv-x="250" d=" M111,61 L230,61 L230,-29 L217,-29 L217,-15 L124,-15 L124,-29 L111,-29 M102,123 Q100,126 93,133 Q127,166 144,210 L158,206 Q152,194 146,183 L233,183 L233,170 Q214,134 183,110 Q210,92 250,83 Q249,80 245,73 Q244,70 243,69 Q196,85 172,102 Q144,83 94,66 Q93,68 89,73 Q87,77 86,79 Q133,92 161,111 Q143,124 127,153 Q117,138 102,123 M124,49 L124,-3 L217,-3 L217,49 M24,126 Q32,126 60,128 Q69,143 78,159 L91,153 Q76,128 41,76 Q34,67 31,62 Q38,62 54,64 Q73,65 82,66 Q82,65 82,61 Q81,56 81,54 Q76,54 66,53 Q24,50 16,48 L11,61 Q18,65 25,75 Q39,93 52,116 Q33,115 13,113 Q14,113 10,113 L6,127 Q11,130 17,138 Q17,138 18,139 Q37,166 58,211 L71,206 Q44,155 24,126 M218,170 L139,170 Q138,168 135,165 Q151,137 172,119 Q197,136 218,170 M10,-9 L7,3 Q40,7 87,16 Q87,14 87,10 Q86,5 86,2 Q57,-1 10,-9"/> 
            <glyph glyph-name="维" unicode="&#x7EF4;" horiz-adv-x="248" d=" M87,96 Q86,98 78,106 Q112,148 133,209 L146,205 Q138,182 129,164 L245,164 L245,152 L192,152 L192,109 L242,109 L242,97 L192,97 L192,54 L242,54 L242,42 L192,42 L192,0 L248,0 L248,-12 L122,-12 L122,-29 L108,-29 L108,126 Q99,110 87,96 M25,124 Q28,124 37,124 Q52,125 59,125 Q61,128 64,134 Q69,142 75,155 L88,150 Q65,110 32,60 Q42,61 61,62 Q77,64 84,64 Q82,58 82,52 Q72,51 57,50 Q26,47 17,46 L12,59 Q20,65 26,73 Q36,85 52,114 Q30,113 14,111 Q15,111 12,111 L7,124 Q11,127 16,134 Q17,135 18,136 Q41,169 59,210 L73,205 Q52,165 25,124 M122,42 L122,0 L179,0 L179,42 M122,97 L122,54 L179,54 L179,97 M123,152 Q122,150 122,150 L122,109 L179,109 L179,152 M10,-8 L7,4 Q28,6 84,15 Q84,9 84,2 Q46,-1 10,-8 M168,204 L180,209 Q181,207 184,202 Q196,182 200,173 L188,167 Q178,189 168,204"/> 
            <glyph glyph-name="网" unicode="&#x7F51;" horiz-adv-x="231" d=" M37,-27 L24,-27 L24,195 L231,195 L231,3 Q231,-25 203,-25 Q189,-26 170,-26 Q170,-24 169,-21 Q168,-14 167,-11 Q176,-12 197,-12 Q219,-13 218,5 L218,182 L37,182 M128,139 L139,145 Q146,133 160,109 Q165,100 168,95 Q183,125 193,153 L205,148 Q195,119 175,82 Q179,75 187,61 Q192,52 207,24 L195,18 Q183,41 192,24 Q183,41 168,68 Q151,38 134,12 Q130,16 122,20 Q147,56 161,81 Q155,92 143,113 Q133,131 128,139 M50,145 L60,151 Q66,141 78,121 Q87,107 91,100 Q92,103 94,108 Q108,139 112,154 L125,150 Q113,118 98,88 Q113,63 126,38 L114,31 Q102,55 91,73 Q74,42 56,16 Q55,16 54,18 Q51,20 45,23 Q68,56 84,87 Q79,95 70,111 Q57,133 50,145"/> 
            <glyph glyph-name="美" unicode="&#x7F8E;" horiz-adv-x="246" d=" M31,133 L121,133 L121,162 L19,162 L19,173 L150,173 Q152,175 155,178 Q178,203 184,211 L196,204 Q192,199 182,189 Q171,178 167,173 L237,173 L237,162 L135,162 L135,133 L225,133 L225,122 L135,122 L135,93 L244,93 L244,81 L12,81 L12,93 L121,93 L121,122 L31,122 M122,70 L136,70 Q135,59 132,50 L241,50 L241,38 L141,38 Q161,-4 246,-14 Q242,-20 238,-27 Q146,-11 128,34 Q115,-12 16,-31 Q12,-26 8,-18 Q104,-1 115,38 L15,38 L15,50 L119,50 Q121,59 122,70 M61,205 L72,212 Q92,194 102,184 L90,175 Q75,192 61,205"/> 
            <glyph glyph-name="联" unicode="&#x8054;" horiz-adv-x="249" d=" M8,191 L108,191 L108,179 L92,179 L92,34 Q95,34 102,36 Q111,37 115,38 Q115,33 115,26 Q111,26 104,24 Q96,23 92,22 L92,-29 L79,-29 L79,20 Q64,17 34,11 Q18,8 9,6 L6,20 Q11,20 19,22 Q23,23 25,23 L25,179 L8,179 M107,92 L166,92 Q167,102 167,114 L167,143 L115,143 L115,156 L179,156 Q197,184 211,208 L223,202 Q213,184 194,156 L238,156 L238,143 L180,143 L180,115 Q180,104 180,92 L247,92 L247,80 L181,80 Q196,13 249,-15 Q247,-17 244,-21 Q241,-25 239,-27 Q185,8 174,65 Q165,8 110,-29 Q109,-28 105,-24 Q102,-20 100,-18 Q159,18 165,80 L107,80 M38,25 Q58,28 43,26 Q58,28 79,32 L79,72 L38,72 M38,126 L38,84 L79,84 L79,126 M38,179 L38,137 L79,137 L79,179 M125,200 L136,207 Q142,199 162,169 L150,162 Q139,180 125,200"/> 
            <glyph glyph-name="能" unicode="&#x80FD;" horiz-adv-x="247" d=" M35,-27 L22,-27 L22,114 L116,114 L116,-1 Q117,-25 93,-25 Q82,-25 69,-25 Q69,-19 67,-12 Q70,-12 78,-12 Q86,-13 90,-13 Q104,-13 103,-1 L103,25 L35,25 M148,87 L161,87 L161,44 Q201,59 237,79 L244,67 Q203,46 161,30 L161,6 Q160,-11 180,-10 L209,-10 Q228,-10 231,3 Q233,12 234,29 Q237,28 242,27 Q245,25 247,25 Q246,15 243,0 Q239,-24 211,-23 L177,-23 Q147,-24 148,4 M148,209 L161,209 L161,162 Q190,172 232,195 L240,184 Q204,165 161,148 L161,132 Q160,114 180,115 L209,115 Q227,115 230,130 Q233,138 234,157 Q241,154 247,153 Q246,145 244,132 Q243,128 243,127 Q238,102 210,103 L178,103 Q147,102 148,130 M126,127 Q124,130 120,134 Q115,139 113,142 Q56,140 30,138 Q20,138 13,136 L7,149 Q14,153 22,161 Q46,187 63,212 L76,206 Q49,172 28,150 Q32,150 41,151 Q82,152 103,154 Q93,166 81,177 L91,185 Q113,164 137,136 M35,103 L35,75 L103,75 L103,103 M35,64 L35,36 L103,36 L103,64"/> 
            <glyph glyph-name="自" unicode="&#x81EA;" horiz-adv-x="222" d=" M34,176 L102,176 Q108,196 111,210 L126,208 Q125,206 124,201 Q122,193 116,176 L222,176 L222,-29 L208,-29 L208,-13 L48,-13 L48,-29 L34,-29 M48,104 L48,57 L208,57 L208,104 M48,163 L48,117 L208,117 L208,163 M48,45 L48,0 L208,0 L208,45"/> 
            <glyph glyph-name="藏" unicode="&#x85CF;" horiz-adv-x="250" d=" M56,145 L182,145 L182,165 L195,165 Q194,154 194,145 L247,145 L247,134 L195,134 Q195,85 200,51 Q212,72 224,114 L236,111 Q223,65 203,34 Q207,7 216,-4 Q222,-16 227,-15 Q231,-16 234,-4 Q237,9 238,24 Q240,24 244,22 Q248,21 250,20 Q249,13 248,1 Q246,-6 246,-10 Q242,-28 228,-28 Q213,-28 205,-10 Q197,4 193,19 Q189,12 178,0 Q174,-3 172,-5 Q170,-3 166,0 Q163,1 162,2 Q180,20 190,35 Q183,71 182,134 L68,134 L68,63 Q68,26 64,9 Q60,-8 45,-29 Q39,-24 35,-21 Q58,5 56,57 L35,57 Q35,8 16,-12 Q9,-5 7,-4 Q24,16 23,57 L7,57 L7,67 L56,67 L56,92 L19,92 L19,155 L31,155 L31,102 L56,102 M87,115 L167,115 L167,105 L142,105 L142,73 L164,73 L164,23 L142,23 L142,-9 L175,-9 L175,-19 L87,-19 M155,209 L168,209 L168,187 L249,187 L249,176 L168,176 L168,157 L155,157 L155,176 L104,176 L104,157 L91,157 L91,176 L10,176 L10,187 L91,187 L91,209 L104,209 L104,187 L155,187 M153,63 L99,63 L99,33 L153,33 M99,23 L99,-9 L130,-9 L130,23 M99,105 L99,73 L130,73 L130,105 M239,154 L231,146 Q227,150 217,158 Q212,162 210,164 L217,172 Q222,168 229,162 Q235,157 239,154"/> 
            <glyph glyph-name="蚁" unicode="&#x8681;" horiz-adv-x="251" d=" M11,-11 L7,1 Q11,2 20,4 Q29,5 53,11 L53,69 L28,69 L28,58 L16,58 L16,166 L53,166 L53,209 L65,209 L65,166 L101,166 L101,69 L65,69 L65,14 Q80,17 94,20 Q92,28 86,42 Q84,47 83,49 L94,53 Q105,31 115,2 L103,-1 Q100,3 99,9 Q89,6 68,2 Q31,-6 11,-11 M125,180 L137,183 Q147,94 179,50 Q214,98 224,185 L237,183 Q224,86 188,38 Q212,8 251,-13 Q250,-15 246,-20 Q243,-24 241,-26 Q202,-1 178,27 Q159,2 110,-29 Q109,-27 105,-23 Q102,-18 100,-16 Q144,8 169,39 Q133,90 125,180 M89,154 L65,154 L65,81 L89,81 M28,154 L28,81 L53,81 L53,154 M160,203 L171,208 Q184,184 196,156 L184,151 Q180,159 173,175 Q165,194 160,203"/> 
            </font>
</defs>
</svg>
