<?xml version="1.0" standalone="no"?>
<!DOCTYPE svg PUBLIC "-//W3C//DTD SVG 1.1//EN" "http://www.w3.org/Graphics/SVG/1.1/DTD/svg11.dtd" >
<svg xmlns="http://www.w3.org/2000/svg">
    <defs>
        <font id="">
            <font-face font-family=""
                       units-per-em="256"
                       ascent="243"
                       descent="-69"
                       bbox="-18 -69 270 243"
                    />
            <missing-glyph horiz-adv-x="0" />
            
            <glyph glyph-name="(" unicode="&#x28;" horiz-adv-x="126" d=" M120,202 L126,197 Q82,147 82,71 Q83,3 126,-49 L120,-54 Q56,-2 56,71 Q56,148 120,202"/> 
            <glyph glyph-name=")" unicode="&#x29;" horiz-adv-x="75" d=" M11,-54 L5,-49 Q49,3 48,71 Q49,146 5,197 L11,202 Q75,148 75,71 Q75,-2 11,-54"/> 
            <glyph glyph-name="*" unicode="&#x2A;" horiz-adv-x="121" d=" M53,94 L62,131 L30,102 Q25,98 22,98 Q11,100 9,114 Q9,122 17,123 L60,135 L17,146 Q9,149 9,156 Q11,169 21,171 Q25,171 30,167 L62,140 L53,176 Q53,178 53,181 Q52,185 52,186 Q52,194 65,194 Q78,195 78,186 Q78,183 77,176 L68,140 L100,167 Q105,171 110,171 Q120,169 121,156 Q121,149 113,146 L70,135 L113,123 Q121,122 121,114 Q119,100 109,98 Q105,99 100,102 L68,131 L77,94 Q78,91 78,84 Q78,76 65,76 Q52,76 52,84 Q52,88 53,94"/> 
            <glyph glyph-name="," unicode="&#x2C;" horiz-adv-x="58" d=" M22,-40 L18,-34 Q39,-21 40,-11 Q39,-6 34,-5 Q20,-3 20,8 Q21,24 38,25 Q57,24 58,4 Q58,-23 22,-40"/> 
            <glyph glyph-name="." unicode="&#x2E;" horiz-adv-x="58" d=" M39,-13 Q22,-11 20,4 Q22,21 39,23 Q56,21 58,4 Q56,-11 39,-13"/> 
            <glyph glyph-name="/" unicode="&#x2F;" horiz-adv-x="127" d=" M12,-9 L111,190 L127,190 L28,-9"/> 
            <glyph glyph-name="0" unicode="&#x30;" horiz-adv-x="151" d=" M81,-13 Q11,-13 11,89 Q13,191 81,194 Q150,191 151,90 Q150,-11 81,-13 M81,-4 Q124,-2 125,90 Q124,183 81,186 Q39,184 37,89 Q37,-3 81,-4"/> 
            <glyph glyph-name="1" unicode="&#x31;" horiz-adv-x="128" d=" M36,-9 L36,0 Q73,-2 71,26 L71,143 Q73,175 45,172 L45,180 L96,194 Q94,148 94,135 L94,26 Q92,-2 128,0 L128,-9"/> 
            <glyph glyph-name="2" unicode="&#x32;" horiz-adv-x="150" d=" M31,14 L107,14 Q132,10 140,55 L150,52 L140,-9 L15,-9 Q19,55 75,88 Q123,111 121,142 Q119,184 81,186 Q53,185 41,158 Q39,153 43,148 Q46,145 46,139 Q45,127 32,125 Q19,126 18,141 Q23,190 82,194 Q145,192 147,142 Q148,98 89,73 Q47,58 31,14"/> 
            <glyph glyph-name="3" unicode="&#x33;" horiz-adv-x="146" d=" M54,89 L54,98 Q116,104 116,146 Q115,185 79,186 Q53,185 42,163 Q39,159 42,154 Q46,151 46,145 Q45,132 32,131 Q19,132 18,147 Q22,191 80,194 Q140,192 142,145 Q141,104 87,94 Q145,87 146,40 Q143,-10 77,-13 Q17,-11 14,31 Q15,45 28,46 Q41,45 42,33 Q42,27 39,24 Q35,19 38,15 Q47,-3 76,-4 Q118,-1 120,40 Q121,85 54,89"/> 
            <glyph glyph-name="4" unicode="&#x34;" horiz-adv-x="149" d=" M75,-9 L75,0 Q100,-2 98,21 L98,41 L5,41 L5,51 L103,193 L122,193 L122,51 L149,51 L149,41 L122,41 L122,22 Q119,-3 146,0 L146,-9 M98,51 L98,168 L17,51"/> 
            <glyph glyph-name="5" unicode="&#x35;" horiz-adv-x="147" d=" M29,72 L22,74 L31,190 L137,190 L137,165 L39,165 L33,90 Q54,114 83,114 Q144,110 147,51 Q144,-9 78,-13 Q17,-11 15,29 Q16,44 29,45 Q42,44 43,31 Q43,27 40,22 Q36,18 39,13 Q47,-3 77,-4 Q119,-1 121,50 Q119,97 78,100 Q51,101 29,72"/> 
            <glyph glyph-name="6" unicode="&#x36;" horiz-adv-x="150" d=" M83,-4 Q123,-3 124,52 Q123,103 82,105 Q43,102 40,56 Q42,0 83,-4 M83,-13 Q15,-12 14,82 Q16,189 88,194 Q141,192 144,154 Q143,139 129,138 Q117,139 116,152 Q116,155 119,160 Q122,165 120,169 Q109,186 89,186 Q41,182 40,92 Q58,118 89,118 Q147,115 150,54 Q148,-10 83,-13"/> 
            <glyph glyph-name="7" unicode="&#x37;" horiz-adv-x="148" d=" M131,166 L56,166 Q35,171 25,120 L15,122 L23,190 L148,190 L148,171 Q86,81 85,1 Q85,-13 71,-13 Q57,-13 57,0 Q57,54 131,166"/> 
            <glyph glyph-name="8" unicode="&#x38;" horiz-adv-x="151" d=" M78,-13 Q17,-11 14,35 Q15,69 60,89 Q19,109 20,141 Q23,191 81,194 Q140,192 142,147 Q143,115 99,99 Q151,78 149,42 Q146,-10 78,-13 M89,103 Q121,122 121,147 Q120,185 81,186 Q46,184 44,152 Q42,121 89,103 M78,-4 Q122,-1 125,33 Q127,63 70,84 Q35,62 35,37 Q37,-1 78,-4"/> 
            <glyph glyph-name="9" unicode="&#x39;" horiz-adv-x="149" d=" M79,72 Q120,75 123,119 Q121,183 80,186 Q41,183 39,125 Q40,74 79,72 M76,-13 Q21,-11 18,24 Q19,39 32,40 Q44,39 45,26 Q45,20 42,17 Q39,12 41,9 Q51,-3 76,-4 Q121,-3 123,85 Q105,59 74,59 Q16,62 13,123 Q16,190 80,194 Q147,191 149,95 Q148,-12 76,-13"/> 
            <glyph glyph-name="=" unicode="&#x3D;" horiz-adv-x="112" d=" M19,108 L19,121 L112,121 L112,108 M19,58 L19,71 L112,71 L112,58"/> 
            <glyph glyph-name="&gt;" unicode="&#x3E;" horiz-adv-x="137" d=" M17,17 L17,38 L109,90 L17,142 L17,163 L137,95 L137,86"/> 
            <glyph glyph-name="A" unicode="&#x41;" horiz-adv-x="199" d=" M2,-9 L2,0 Q24,-1 33,22 L95,193 L110,194 L165,25 Q174,-1 199,0 L199,-9 L111,-9 L111,0 Q152,-2 142,19 L129,56 L57,56 L41,14 Q32,-1 70,0 L70,-9 M95,161 L60,66 L126,66"/> 
            <glyph glyph-name="B" unicode="&#x42;" horiz-adv-x="168" d=" M7,-9 L7,0 Q32,-2 30,24 L30,155 Q32,184 7,182 L7,190 L95,190 Q162,189 163,141 Q163,103 115,94 Q167,87 168,43 Q168,-9 92,-9 M54,98 L96,98 Q135,100 137,141 Q136,181 97,182 L54,182 M54,0 L95,0 Q140,0 141,42 Q140,89 96,90 L54,90"/> 
            <glyph glyph-name="C" unicode="&#x43;" horiz-adv-x="180" d=" M151,184 L169,188 L174,119 L165,117 Q150,188 104,186 Q42,182 40,92 Q41,0 106,-2 Q151,-2 171,46 L180,41 Q159,-12 105,-13 Q15,-12 14,90 Q17,190 103,194 Q130,194 151,184"/> 
            <glyph glyph-name="D" unicode="&#x44;" horiz-adv-x="190" d=" M7,-9 L7,0 Q33,-2 31,28 L31,153 Q33,184 8,182 L8,190 L85,190 Q190,191 189,91 Q190,-10 86,-9 M55,0 L83,0 Q163,0 163,91 Q163,182 79,182 L55,182"/> 
            <glyph glyph-name="G" unicode="&#x47;" horiz-adv-x="194" d=" M154,184 L170,189 L175,126 L166,123 Q151,189 105,186 Q42,180 40,90 Q42,-1 104,-4 Q124,-4 152,5 L152,46 Q154,80 131,77 L131,85 L194,85 L194,77 Q174,80 175,46 L175,24 Q175,21 176,12 Q176,4 176,0 Q159,0 145,-5 Q122,-13 104,-13 Q15,-11 14,90 Q18,189 106,194 Q131,194 154,184"/> 
            <glyph glyph-name="H" unicode="&#x48;" horiz-adv-x="206" d=" M7,-9 L7,0 Q33,-3 31,28 L31,148 Q33,186 8,182 L8,190 L77,190 L77,182 Q52,186 55,148 L55,100 L158,100 L158,148 Q160,186 136,182 L136,190 L205,190 L205,182 Q180,186 182,148 L182,29 Q179,-4 206,0 L206,-9 L135,-9 L135,0 Q161,-4 158,29 L158,90 L55,90 L55,28 Q52,-4 77,0 L77,-9"/> 
            <glyph glyph-name="M" unicode="&#x4D;" horiz-adv-x="244" d=" M7,-9 L7,0 Q37,-5 34,31 L34,148 Q36,186 11,182 L11,190 L61,190 L122,29 L193,190 L243,190 L243,182 Q217,187 220,148 L220,28 Q217,-4 244,0 L244,-9 L173,-9 L173,0 Q198,-4 196,28 L196,174 L118,-2 L109,-2 L44,172 L44,31 Q40,-5 70,0 L70,-9"/> 
            <glyph glyph-name="P" unicode="&#x50;" horiz-adv-x="163" d=" M7,-9 L7,0 Q33,-4 30,28 L30,148 Q32,186 8,182 L8,190 L87,190 Q163,191 162,132 Q163,70 87,71 L54,71 L54,29 Q51,-4 77,0 L77,-9 M54,80 L78,80 Q138,78 136,131 Q137,183 79,182 L54,182"/> 
            <glyph glyph-name="R" unicode="&#x52;" horiz-adv-x="184" d=" M7,-9 L7,0 Q32,-4 30,28 L30,148 Q32,185 7,182 L7,190 L83,190 Q163,191 161,137 Q161,92 101,87 Q130,81 143,46 Q148,36 156,14 Q163,0 184,0 L184,-9 L136,-9 Q125,28 114,54 Q103,83 78,83 L54,83 L54,28 Q51,-4 77,0 L77,-9 M54,92 L79,92 Q135,92 135,137 Q136,183 79,182 L54,182"/> 
            <glyph glyph-name="T" unicode="&#x54;" horiz-adv-x="172" d=" M42,-9 L42,0 Q81,-5 75,30 L75,183 L57,183 Q19,191 10,117 L2,118 L6,190 L168,190 L172,119 L163,118 Q155,191 115,183 L99,183 L99,30 Q93,-5 132,0 L132,-9"/> 
            <glyph glyph-name="h" unicode="&#x68;" horiz-adv-x="167" d=" M6,-9 L6,0 Q28,-4 26,26 L26,147 Q28,176 6,174 L6,182 L50,195 Q49,168 49,140 L49,100 Q70,133 103,134 Q146,133 147,86 L147,26 Q145,-3 167,0 L167,-9 L104,-9 L104,0 Q126,-4 124,26 L124,85 Q124,121 96,120 Q58,115 49,72 L49,26 Q46,-4 68,0 L68,-9"/> 
            <glyph glyph-name="m" unicode="&#x6D;" horiz-adv-x="244" d=" M6,-9 L6,0 Q28,-3 26,25 L26,87 Q28,117 6,114 L6,122 L48,133 L48,101 Q69,133 98,133 Q129,132 135,101 Q156,134 184,133 Q224,132 225,86 L225,25 Q223,-3 244,0 L244,-9 L184,-9 L184,0 Q204,-4 202,25 L202,84 Q202,120 176,120 Q144,116 136,76 L136,24 Q134,-3 156,0 L156,-9 L94,-9 L94,0 Q116,-3 114,25 L114,84 Q114,119 90,120 Q56,116 48,74 L48,25 Q46,-3 68,0 L68,-9"/> 
            <glyph glyph-name="~" unicode="&#x7E;" horiz-adv-x="111" d=" M23,73 L17,76 Q26,106 42,105 Q52,105 65,100 Q80,95 87,95 Q99,94 105,107 L111,104 Q102,75 86,76 Q77,76 62,81 Q47,86 41,86 Q33,87 23,73"/> 
            <glyph glyph-name="°" unicode="&#xB0;" horiz-adv-x="81" d=" M46,139 Q13,141 11,174 Q14,207 46,209 Q78,206 81,174 Q79,142 46,139 M46,152 Q67,154 69,174 Q67,195 46,197 Q25,195 23,174 Q24,154 46,152"/> 
            <glyph glyph-name="μ" unicode="&#x3BC;" horiz-adv-x="206" d=" M206,-3 L206,-9 L170,-11 L169,3 Q155,-13 125,-13 Q104,-14 92,0 L92,-31 Q90,-60 112,-58 L112,-64 L50,-64 L50,-58 Q71,-60 70,-31 L70,97 Q71,120 53,119 L53,125 L94,134 Q94,133 94,130 Q92,102 92,93 L92,32 Q97,0 123,0 Q164,-1 168,55 L168,94 Q169,120 151,118 L151,124 L192,134 Q190,106 190,90 L190,17 Q189,-5 206,-3"/> 
            <glyph glyph-name="、" unicode="&#x3001;" horiz-adv-x="98" d=" M21,50 L24,54 Q98,18 95,-2 Q94,-16 83,-18 Q79,-18 76,-13 Q56,19 21,50"/> 
            <glyph glyph-name="。" unicode="&#x3002;" horiz-adv-x="99" d=" M64,-18 Q31,-16 29,16 Q32,47 64,50 Q96,47 99,15 Q97,-15 64,-18 M64,-5 Q86,-3 87,15 Q85,36 64,38 Q43,36 41,15 Q43,-3 64,-5"/> 
            <glyph glyph-name="《" unicode="&#x300A;" horiz-adv-x="206" d=" M168,-33 L107,90 L168,214 L176,209 L119,90 L176,-28 M197,-32 L137,90 L197,213 L206,208 L148,90 L206,-27"/> 
            <glyph glyph-name="》" unicode="&#x300B;" horiz-adv-x="149" d=" M88,-33 L80,-28 L137,90 L80,209 L88,214 L149,90 M59,-31 L50,-27 L108,90 L50,208 L59,213 L119,90"/> 
            <glyph glyph-name="㎡" unicode="&#x33A1;" horiz-adv-x="245" d=" M16,-9 L16,0 Q35,-2 34,19 L34,91 Q36,116 17,114 L17,122 L54,133 L54,101 Q71,133 97,133 Q122,133 127,101 Q145,133 170,133 Q204,132 205,86 L205,19 Q203,-3 221,0 L221,-9 L167,-9 L167,0 Q186,-2 184,19 L184,84 Q184,119 163,119 Q137,115 129,76 L129,19 Q127,-3 145,0 L145,-9 L91,-9 L91,0 Q110,-2 108,19 L108,83 Q108,119 89,119 Q61,114 54,74 L54,19 Q52,-3 71,0 L71,-9 M186,154 L224,154 Q235,154 240,167 L245,165 L240,142 L176,142 Q177,165 206,179 Q226,186 226,199 Q226,212 208,212 Q198,212 193,207 Q191,205 194,202 Q196,200 196,198 Q195,191 186,190 Q178,191 177,199 Q180,216 210,217 Q241,216 243,198 Q244,182 214,173 Q192,166 186,154"/> 
            <glyph glyph-name="一" unicode="&#x4E00;" horiz-adv-x="247" d=" M12,89 L12,96 L198,96 L215,119 L245,96 Q247,95 247,93 Q247,90 238,89"/> 
            <glyph glyph-name="三" unicode="&#x4E09;" horiz-adv-x="248" d=" M37,84 L37,92 L181,92 L195,111 L218,92 Q221,91 221,89 Q220,84 212,84 M10,-10 L10,-2 L202,-2 L218,17 L246,-2 Q247,-3 247,-4 Q248,-5 248,-5 Q247,-10 239,-10 M22,168 L22,175 L195,175 L209,195 L234,175 Q237,174 236,172 Q236,169 228,168"/> 
            <glyph glyph-name="上" unicode="&#x4E0A;" horiz-adv-x="248" d=" M9,-13 L9,-6 L108,-6 L108,152 Q108,190 106,208 L139,206 Q143,206 143,203 Q142,197 130,194 L130,115 L187,115 L201,134 L225,115 Q228,114 227,112 Q227,109 219,108 L130,108 L130,-6 L205,-6 L220,12 L246,-6 Q248,-8 248,-9 Q247,-13 239,-13"/> 
            <glyph glyph-name="下" unicode="&#x4E0B;" horiz-adv-x="249" d=" M201,56 Q196,57 191,62 Q168,97 130,119 L130,58 Q130,12 131,-19 Q132,-24 126,-25 Q116,-27 107,-27 Q107,-20 108,-8 Q109,34 109,57 L109,173 L10,173 L10,180 L207,180 L221,200 L246,180 Q249,179 249,177 Q249,174 240,173 L130,173 L130,124 Q206,103 213,72 Q212,57 201,56"/> 
            <glyph glyph-name="不" unicode="&#x4E0D;" horiz-adv-x="247" d=" M115,-27 Q116,7 116,68 L116,113 Q75,60 12,27 L8,30 Q93,97 128,175 L14,175 L14,182 L203,182 L217,203 L244,182 Q247,181 246,179 Q246,176 237,175 L154,175 Q152,172 149,165 Q139,146 133,138 L145,137 Q149,136 149,134 Q149,129 137,125 L137,83 Q137,13 138,-17 Q139,-24 133,-25 Q125,-27 115,-27 M230,34 Q224,34 220,42 Q200,77 157,111 L160,114 Q202,95 225,75 Q241,60 241,49 Q240,35 230,34"/> 
            <glyph glyph-name="与" unicode="&#x4E0E;" horiz-adv-x="248" d=" M169,-28 Q173,-11 131,-5 L132,-1 L177,-2 Q194,-5 195,15 Q195,23 196,41 Q198,79 198,96 L77,96 L69,86 Q62,89 50,97 Q49,98 48,98 Q46,101 49,103 Q54,106 56,113 L66,180 Q68,198 68,208 L97,203 Q100,203 100,200 Q100,195 89,193 L83,158 L208,158 L221,176 L245,158 Q248,157 247,155 Q247,152 239,151 L82,151 L75,103 L193,103 L202,118 L227,106 Q230,103 230,102 Q231,98 219,92 Q218,77 217,42 Q216,19 216,9 Q218,-26 169,-28 M10,40 L10,47 L135,47 L149,65 L174,47 Q176,46 176,44 Q176,41 168,40"/> 
            <glyph glyph-name="东" unicode="&#x4E1C;" horiz-adv-x="246" d=" M13,160 L13,167 L74,167 L78,175 Q86,192 89,210 L118,201 Q121,201 121,198 Q121,194 108,191 L97,167 L203,167 L218,186 L243,167 Q246,166 245,164 Q245,161 237,160 L94,160 L62,89 L125,89 L125,99 Q125,118 124,142 L154,140 Q158,140 158,136 Q158,132 146,128 L146,89 L186,89 L200,108 L225,89 Q227,88 227,86 Q227,83 221,82 L146,82 L146,61 Q146,22 147,-2 Q150,-24 111,-27 Q114,-9 80,-5 L80,-1 L115,-2 Q125,-3 125,5 L125,82 L64,82 L56,74 Q47,80 37,87 Q34,91 38,92 Q45,96 47,103 L72,160 M17,-16 L15,-12 Q58,24 75,62 L103,51 Q106,50 105,47 Q104,41 90,42 Q67,9 17,-16 M226,-10 Q220,-11 216,-3 Q200,28 166,57 L169,60 Q236,29 237,3 Q236,-9 226,-10"/> 
            <glyph glyph-name="两" unicode="&#x4E24;" horiz-adv-x="249" d=" M55,15 L51,18 Q87,68 88,124 L50,124 L50,-18 Q50,-24 46,-24 Q37,-27 29,-27 Q31,21 31,50 L31,92 Q31,99 30,119 Q30,135 30,140 L57,131 L88,131 Q88,137 88,143 L88,179 L9,179 L9,186 L208,186 L222,204 L247,186 Q249,185 249,183 Q249,180 241,179 L166,179 L166,140 Q166,135 166,131 L200,131 L209,145 L232,134 Q236,132 236,130 Q236,125 225,120 L225,71 Q225,26 226,-2 Q229,-24 192,-27 Q195,-11 160,-7 L161,-2 L196,-4 Q205,-5 205,3 L205,124 L166,124 Q165,106 163,91 Q201,61 200,41 Q199,28 189,27 Q183,28 182,34 Q175,64 162,84 Q154,35 106,2 L103,5 Q149,56 147,124 L106,124 Q105,108 102,93 Q128,73 129,57 Q128,45 119,44 Q113,45 112,51 Q110,67 101,88 Q90,45 55,15 M107,148 Q107,145 106,139 Q106,133 106,131 L147,131 L147,133 L147,179 L107,179"/> 
            <glyph glyph-name="个" unicode="&#x4E2A;" horiz-adv-x="251" d=" M9,86 L7,90 Q71,132 100,180 Q108,192 112,208 L143,201 Q147,200 147,198 Q147,193 134,191 Q181,136 251,118 L250,113 Q238,113 231,95 Q159,126 130,187 Q92,120 9,86 M115,-27 Q115,-18 115,11 Q116,43 116,53 L116,90 Q116,101 115,117 Q115,128 115,133 L146,131 Q150,131 150,128 Q150,124 137,119 L137,58 Q137,1 138,-19 Q138,-24 134,-25 Q124,-27 115,-27"/> 
            <glyph glyph-name="中" unicode="&#x4E2D;" horiz-adv-x="241" d=" M209,44 L209,63 L138,63 L138,46 Q138,23 140,-18 Q141,-24 135,-25 Q123,-27 115,-27 Q117,23 117,46 L117,63 L47,63 L47,53 Q48,47 42,46 Q32,44 26,44 Q27,57 27,98 L27,120 Q27,144 26,158 L54,148 L117,148 L117,156 Q117,182 115,209 L147,206 Q151,206 151,204 Q151,198 138,194 L138,148 L204,148 L213,162 L237,151 Q240,148 240,147 Q241,143 229,137 L229,110 Q229,86 231,53 Q232,47 226,46 Q218,44 209,44 M209,141 L138,141 L138,71 L209,71 M47,141 L47,71 L117,71 L117,141"/> 
            <glyph glyph-name="为" unicode="&#x4E3A;" horiz-adv-x="245" d=" M177,-25 Q180,-6 132,0 L133,3 L186,0 Q206,-1 206,27 Q210,67 210,136 L127,136 Q127,20 11,-28 L8,-24 Q104,39 105,136 L14,136 L14,143 L106,143 Q106,146 106,148 Q108,182 105,209 L139,206 Q142,206 142,203 Q142,199 130,194 Q130,171 128,143 L206,143 L215,159 L241,145 Q244,144 244,142 Q245,137 232,132 Q232,106 230,44 Q229,28 229,21 Q230,-24 177,-25 M165,43 Q159,43 157,51 Q148,80 128,105 L130,107 Q179,82 179,59 Q178,44 165,43 M68,151 Q63,151 60,157 Q54,176 35,198 L37,201 Q79,186 80,165 Q80,152 68,151"/> 
            <glyph glyph-name="丽" unicode="&#x4E3D;" horiz-adv-x="250" d=" M139,-26 L139,110 Q139,115 139,130 Q138,147 138,153 L162,144 L201,144 L209,157 L232,146 Q236,145 236,143 Q237,140 225,134 L225,56 Q225,15 226,-3 Q228,-23 196,-26 Q197,-10 170,-7 L171,-3 L198,-4 Q207,-4 206,1 L206,137 L157,137 L157,-19 Q158,-24 152,-25 Q147,-26 139,-26 M27,-26 Q27,-17 28,9 Q28,33 28,40 L28,110 Q28,141 27,153 L52,144 L89,144 L97,157 L119,146 Q122,145 122,142 Q122,138 112,133 L112,-3 Q115,-22 83,-25 Q84,-11 57,-7 L58,-3 L86,-4 Q93,-4 93,1 L93,137 L47,137 L47,-18 Q47,-23 41,-24 Q35,-26 27,-26 M10,181 L10,188 L209,188 L223,206 L247,188 Q250,187 249,185 Q249,182 241,181 M184,44 Q177,44 177,52 Q175,83 166,107 L169,109 Q194,80 195,57 Q195,45 184,44 M71,45 Q66,45 64,54 Q63,80 54,108 L57,110 Q81,83 82,59 Q81,46 71,45"/> 
            <glyph glyph-name="也" unicode="&#x4E5F;" horiz-adv-x="248" d=" M79,-15 Q51,-15 51,10 L51,106 L10,94 L8,101 L51,113 L51,136 Q51,160 50,189 L81,187 Q84,186 84,184 Q84,179 72,175 L72,119 L122,133 L122,163 Q122,168 122,180 Q121,198 121,209 L150,207 Q154,206 154,204 Q154,199 142,195 L142,138 L189,152 L197,166 L221,155 Q225,154 225,152 Q226,147 214,142 Q214,103 211,71 Q212,47 177,46 Q180,62 151,66 L152,70 L180,68 Q191,68 191,77 Q192,90 193,122 Q194,137 194,145 L142,131 L142,39 Q142,33 137,32 Q129,30 121,30 Q121,47 122,76 Q122,95 122,103 L122,125 L72,112 L72,13 Q72,3 83,3 L209,3 Q220,3 224,14 L234,56 L238,56 L239,18 Q239,8 244,5 Q248,2 248,-1 Q246,-14 216,-15"/> 
            <glyph glyph-name="了" unicode="&#x4E86;" horiz-adv-x="233" d=" M104,-27 Q106,-10 65,-4 L66,0 L111,-1 Q121,-2 121,5 L121,90 Q121,95 121,108 Q120,124 120,133 L139,131 L192,179 L25,179 L25,187 L191,187 L205,199 L229,181 Q233,178 232,175 Q232,170 216,170 Q213,168 206,164 Q172,143 148,130 L151,130 Q155,130 155,127 Q155,122 142,119 L142,61 Q142,57 142,40 Q143,12 143,-1 Q147,-24 104,-27"/> 
            <glyph glyph-name="产" unicode="&#x4EA7;" horiz-adv-x="249" d=" M10,-28 L7,-25 Q46,16 42,71 L42,75 Q42,96 41,106 L72,98 L152,98 Q170,133 176,159 L205,148 Q208,147 208,145 Q208,139 194,140 Q176,112 159,98 L208,98 L222,116 L247,98 Q247,97 248,96 Q249,95 249,94 Q249,91 241,90 L64,90 L64,83 Q64,38 53,17 Q44,-4 10,-28 M22,166 L22,173 L127,173 Q126,175 124,178 Q120,195 109,207 L111,210 Q145,202 146,185 Q146,176 139,173 L208,173 L221,190 L245,173 Q248,171 248,169 Q247,166 239,166 M100,101 Q94,101 92,108 Q86,134 69,155 L71,157 Q113,139 114,117 Q113,102 100,101"/> 
            <glyph glyph-name="享" unicode="&#x4EAB;" horiz-adv-x="250" d=" M179,100 L179,107 L68,107 L68,103 Q68,99 63,97 Q61,97 57,97 Q50,96 47,96 Q48,104 48,125 L48,131 Q48,150 47,158 L74,149 L175,149 L183,162 L207,151 Q210,150 210,148 Q211,144 199,139 L199,135 Q199,121 200,108 Q200,103 196,102 Q191,100 179,100 M8,33 L8,39 L117,39 Q116,46 116,60 L141,57 L171,79 L31,79 L31,86 L172,86 L186,95 L207,80 Q210,79 210,76 Q210,71 192,72 Q180,65 145,51 Q140,49 137,48 L137,39 L208,39 L222,58 L248,39 Q249,38 249,36 Q250,33 241,33 L137,33 Q137,29 137,19 Q138,6 138,-2 Q142,-25 102,-28 Q105,-12 67,-6 L68,-2 L108,-4 Q118,-4 117,2 L117,27 L117,33 M179,143 L68,143 L68,113 L179,113 M14,169 L14,176 L120,176 Q117,177 115,183 Q113,195 102,207 L104,209 Q138,203 137,188 Q137,179 129,176 L204,176 L218,194 L243,176 Q246,175 245,173 Q245,170 237,169"/> 
            <glyph glyph-name="仅" unicode="&#x4EC5;" horiz-adv-x="251" d=" M228,-23 Q179,4 159,30 Q130,0 72,-25 L70,-21 Q123,13 148,45 Q120,85 105,172 L88,172 L88,179 L198,179 L208,193 L234,179 Q237,178 237,175 Q237,171 223,166 Q207,86 173,46 Q205,14 251,-1 L250,-5 Q237,-5 228,-23 M202,172 L112,172 Q130,100 161,61 Q191,106 202,172 M41,-27 Q41,-16 42,3 Q43,34 43,64 L43,112 Q28,90 9,73 L6,76 Q40,127 55,177 Q61,194 62,210 L92,203 Q95,202 95,199 Q96,195 82,192 Q71,164 59,140 L71,139 Q75,138 75,135 Q75,131 63,127 L63,-18 Q64,-24 58,-25 Q50,-27 41,-27"/> 
            <glyph glyph-name="从" unicode="&#x4ECE;" horiz-adv-x="251" d=" M223,-22 Q177,30 171,130 Q169,18 83,-27 L80,-23 Q154,37 152,144 Q154,179 151,205 L182,202 Q186,202 186,199 Q186,194 173,190 Q173,178 173,161 Q190,40 251,-5 L249,-9 Q233,-7 223,-22 M111,42 Q106,42 103,50 Q94,79 76,100 Q72,26 9,-25 L6,-22 Q38,21 48,56 Q58,90 58,155 Q58,177 56,205 L87,202 Q91,202 91,199 Q91,194 78,190 L78,158 Q79,130 76,106 Q124,79 123,57 Q122,43 111,42"/> 
            <glyph glyph-name="以" unicode="&#x4EE5;" horiz-adv-x="248" d=" M235,-24 Q228,-24 226,-15 Q212,19 190,42 Q163,-4 71,-28 L70,-24 Q194,22 194,135 Q196,177 193,204 L225,200 Q229,200 229,197 Q229,192 216,189 Q216,165 214,131 Q211,81 194,48 Q248,14 248,-7 Q247,-23 235,-24 M40,-8 Q37,-8 36,-5 L21,18 Q34,24 33,37 L33,149 Q34,181 31,200 L61,198 Q65,198 65,195 Q65,190 53,187 L53,32 L138,78 L141,74 Q97,39 44,3 Q47,-8 40,-8 M125,118 Q119,118 116,126 Q105,162 84,190 L87,193 Q136,161 137,134 Q136,119 125,118"/> 
            <glyph glyph-name="们" unicode="&#x4EEC;" horiz-adv-x="247" d=" M37,-27 Q39,40 39,66 L39,115 Q24,95 9,80 L5,82 Q38,134 52,182 Q57,196 59,208 L88,201 Q92,200 92,197 Q90,191 78,191 Q68,164 57,143 L67,142 Q71,142 71,139 Q72,135 58,131 L58,-18 Q59,-25 54,-25 Q44,-27 37,-27 M201,-27 Q205,-9 169,-4 L169,0 L206,-2 Q216,-3 215,5 L215,169 L169,169 L169,176 L211,176 L220,190 L244,178 Q247,177 247,175 Q247,170 236,165 L236,94 Q236,27 237,-1 Q241,-23 201,-27 M90,-27 Q92,22 92,60 L92,112 Q92,148 91,163 L120,161 Q123,161 123,157 Q122,153 111,150 L111,-18 Q111,-24 107,-25 Q95,-27 90,-27 M140,158 Q135,158 132,166 Q126,185 112,202 L114,205 Q152,190 152,172 Q152,159 140,158"/> 
            <glyph glyph-name="优" unicode="&#x4F18;" horiz-adv-x="250" d=" M185,-18 Q158,-19 160,4 L160,123 L145,123 Q145,25 70,-27 L66,-23 Q124,39 125,123 L78,123 L78,131 L125,131 Q125,133 125,139 Q126,146 126,149 L126,173 Q126,177 126,190 Q125,203 125,208 L155,206 Q158,205 158,203 Q158,197 146,194 L146,152 Q146,141 146,131 L206,131 L219,149 L243,131 Q246,130 245,127 Q243,123 237,123 L180,123 L180,7 Q180,-1 188,0 L214,0 Q224,-1 226,8 L234,48 L238,47 L240,10 Q240,4 244,0 Q250,-2 249,-6 Q248,-18 221,-18 M8,76 L5,79 Q39,133 52,181 Q57,198 57,209 L87,201 Q91,200 91,198 Q90,192 77,190 Q68,165 56,142 L67,141 Q70,140 70,137 Q70,132 60,130 L60,-17 Q60,-23 54,-24 Q44,-26 39,-26 Q40,6 40,69 L40,115 Q27,96 8,76 M199,150 Q193,150 191,157 Q184,174 169,189 L171,192 Q210,182 211,164 Q210,152 199,150"/> 
            <glyph glyph-name="会" unicode="&#x4F1A;" horiz-adv-x="249" d=" M205,-26 Q199,-26 196,-19 Q194,-13 189,-3 Q188,0 187,0 Q133,-8 56,-16 Q55,-28 50,-27 Q47,-27 47,-24 L38,2 Q53,3 61,13 Q80,34 95,62 L16,62 L16,69 L198,69 L212,89 L238,69 Q240,68 240,66 Q240,62 231,62 L124,62 Q94,27 65,2 Q85,3 125,5 Q163,6 182,7 Q174,21 154,44 L156,47 Q218,12 218,-10 Q217,-24 205,-26 M10,100 L7,104 Q69,143 100,185 Q109,197 114,209 L144,202 Q148,201 148,199 Q148,193 134,193 Q183,145 249,130 L248,125 Q234,125 227,108 Q166,134 130,189 Q82,127 10,100 M63,110 L63,117 L150,117 L163,134 L186,117 Q189,115 188,114 Q188,111 180,110"/> 
            <glyph glyph-name="传" unicode="&#x4F20;" horiz-adv-x="249" d=" M84,151 L84,158 L130,158 L135,177 Q135,179 136,182 Q140,201 140,208 L169,203 Q172,203 173,200 Q173,195 160,192 L151,158 L204,158 L216,174 L238,158 Q240,155 240,155 Q240,152 231,151 L149,151 L139,111 L211,111 L223,129 L246,111 Q249,110 248,108 Q248,105 240,104 L137,104 L128,71 L189,71 L200,85 L225,68 Q229,65 229,63 Q228,57 213,57 Q189,33 168,16 Q209,0 209,-13 Q209,-27 197,-27 Q193,-28 187,-22 Q162,5 107,28 L108,31 Q139,25 160,18 L191,65 L131,65 L123,55 Q112,60 103,67 Q101,70 104,72 Q110,76 111,83 L116,104 L75,104 L75,111 L118,111 L129,151 M43,-27 Q44,-5 44,17 Q44,37 44,64 L44,112 Q31,91 10,72 L7,75 Q40,131 56,179 Q60,193 62,209 L92,202 Q96,201 96,199 Q95,193 82,191 Q73,164 62,143 L72,142 Q76,142 76,139 Q77,135 64,131 L64,-18 Q65,-24 59,-25 Q49,-27 43,-27"/> 
            <glyph glyph-name="但" unicode="&#x4F46;" horiz-adv-x="253" d=" M100,17 Q101,46 101,99 L101,138 Q101,170 101,195 L128,185 L198,185 L207,199 L231,188 Q234,186 234,184 Q234,179 223,174 L223,125 Q223,105 224,58 Q225,40 225,30 Q225,25 220,24 Q214,21 203,21 L203,38 L122,38 L122,26 Q122,20 117,19 Q107,17 100,17 M40,-27 Q41,14 41,66 L41,115 Q27,93 9,72 L5,75 Q47,146 58,209 L86,201 Q90,200 90,197 Q89,191 76,191 Q67,164 55,140 L69,138 Q72,138 72,135 Q72,131 61,127 L61,-18 Q62,-24 56,-25 Q46,-27 40,-27 M122,109 L122,46 L203,46 L203,109 M203,178 L122,178 L122,116 L203,116 M76,-14 L76,-7 L213,-7 L226,10 L251,-7 Q253,-9 253,-10 Q253,-14 245,-14"/> 
            <glyph glyph-name="低" unicode="&#x4F4E;" horiz-adv-x="250" d=" M102,-17 Q99,-17 98,-13 L85,8 Q97,14 96,25 L96,122 Q96,167 95,184 L120,175 Q154,182 182,191 Q205,199 216,205 L235,189 Q239,186 238,184 Q239,181 233,180 Q228,181 222,184 Q204,179 185,176 L185,162 Q185,131 187,107 L211,107 L224,125 L248,107 Q249,106 249,105 Q250,105 250,104 Q250,101 241,100 L188,100 Q194,40 223,6 Q225,3 227,3 Q229,3 230,7 L242,47 L246,46 L244,7 Q244,0 247,-5 Q250,-9 250,-15 Q250,-24 239,-24 Q217,-24 199,3 Q175,39 168,100 L115,100 L115,19 L173,44 L175,39 Q156,26 138,14 Q168,1 167,-11 Q166,-23 156,-24 Q151,-24 148,-17 Q145,-1 133,10 Q130,8 124,5 Q113,-1 106,-4 Q107,-17 102,-17 M39,-27 Q39,-21 39,-9 Q41,29 41,67 L41,115 Q26,93 9,73 L5,76 Q38,135 51,178 Q51,179 52,182 Q56,194 58,209 L87,201 Q91,200 91,197 Q90,193 77,190 Q69,166 57,144 L68,143 Q71,142 71,140 Q71,134 59,132 L59,-18 Q60,-24 55,-25 Q45,-27 39,-27 M168,107 Q166,129 166,157 L166,173 Q144,169 115,167 L115,107"/> 
            <glyph glyph-name="体" unicode="&#x4F53;" horiz-adv-x="251" d=" M229,26 Q183,71 165,139 L163,139 L163,76 Q163,61 163,33 L181,33 L193,49 L214,33 Q217,30 216,29 Q214,26 208,26 L163,26 Q163,1 164,-18 Q165,-24 159,-25 Q149,-27 142,-27 Q142,-19 142,-1 Q143,17 143,26 L94,26 L94,33 L143,33 Q143,52 143,62 L143,121 Q119,66 64,20 L61,23 Q113,88 130,139 L73,139 L73,147 L143,147 L143,156 Q143,195 142,208 L171,206 Q175,206 175,203 Q175,198 163,194 L163,147 L206,147 L219,165 L243,146 Q246,145 245,143 Q245,140 237,139 L171,139 Q200,77 251,44 L249,39 Q237,40 229,26 M39,-27 Q40,-4 40,17 Q40,38 40,64 L40,112 Q26,93 8,75 L4,78 Q36,125 52,178 Q56,194 59,209 L89,202 Q92,201 92,198 Q91,194 79,192 Q70,165 58,142 L68,141 Q71,140 71,137 Q71,133 59,129 L59,-18 Q59,-24 55,-25 Q45,-27 39,-27"/> 
            <glyph glyph-name="作" unicode="&#x4F5C;" horiz-adv-x="249" d=" M140,-27 Q141,17 141,66 L141,150 L130,150 Q111,115 81,85 L77,88 Q110,137 124,183 Q124,184 125,185 Q129,200 130,208 L159,201 Q159,201 160,201 Q163,200 163,198 Q163,192 149,191 Q142,172 134,157 L210,157 L223,175 L247,157 Q249,156 249,154 Q249,151 241,150 L162,150 L162,104 L204,104 L216,120 L238,104 Q240,103 240,101 Q240,98 231,97 L162,97 L162,50 L208,50 L221,67 L242,50 Q245,49 245,47 Q245,44 237,43 L162,43 L162,-18 Q162,-24 157,-25 Q145,-27 140,-27 M43,-27 Q44,-5 44,16 Q44,37 44,63 L44,114 Q29,93 10,73 L6,77 Q36,122 55,177 Q59,191 61,209 L91,201 Q95,201 95,198 Q96,193 81,191 Q80,189 79,186 Q68,156 60,142 L72,141 Q75,141 75,138 Q75,134 64,130 L64,-18 Q65,-24 59,-25 Q51,-27 43,-27"/> 
            <glyph glyph-name="你" unicode="&#x4F60;" horiz-adv-x="250" d=" M41,-27 Q42,14 42,66 L42,114 Q33,98 9,73 L5,76 Q38,129 53,180 Q57,194 60,209 L90,202 Q93,201 93,199 Q94,193 79,191 Q69,161 56,137 L70,136 Q74,135 74,133 Q74,128 62,124 L62,-18 Q63,-24 57,-25 Q48,-27 41,-27 M140,-27 Q143,-10 109,-6 L109,-2 L145,-3 Q155,-5 155,3 L155,92 Q155,110 154,134 L183,132 Q186,132 186,129 Q186,123 175,121 L175,57 Q175,19 176,-3 Q179,-24 140,-27 M206,115 L202,117 L214,153 L124,153 Q111,124 83,93 L79,96 Q103,136 114,179 Q119,195 120,208 L150,202 Q154,201 154,198 Q155,193 140,191 Q134,175 128,160 L211,160 L221,174 L246,159 Q249,157 249,154 Q250,149 234,148 Q222,131 206,115 M78,2 L74,5 Q92,36 103,69 Q108,83 110,96 L137,87 Q141,86 141,83 Q140,77 127,77 Q111,35 78,2 M234,8 Q228,8 226,16 Q216,56 190,93 L193,95 Q244,53 246,24 Q245,9 234,8"/> 
            <glyph glyph-name="佳" unicode="&#x4F73;" horiz-adv-x="248" d=" M37,-27 Q37,-16 38,4 Q39,34 39,63 L39,112 Q25,93 7,75 L4,78 Q36,129 51,178 Q56,194 58,209 L88,202 Q91,201 91,198 Q90,193 78,192 Q69,165 57,143 L66,142 Q70,141 70,138 Q70,134 58,130 L58,-18 Q59,-24 53,-25 Q45,-27 37,-27 M85,46 L85,52 L144,52 Q144,77 143,93 L173,91 Q176,91 176,88 Q176,83 165,79 L165,52 L201,52 L214,69 L235,52 Q238,51 237,49 Q237,46 229,46 L165,46 L165,-8 L209,-8 L223,8 L245,-8 Q248,-10 247,-11 Q247,-15 239,-15 L70,-15 L70,-8 L144,-8 L144,46 M89,154 L89,161 L144,161 L144,162 Q144,190 143,208 L173,206 Q176,205 176,203 Q177,199 165,194 L165,161 L199,161 L211,177 L232,161 Q235,158 234,157 Q233,154 226,154 L165,154 L165,106 L208,106 L221,123 L243,106 Q246,105 246,103 Q246,100 238,100 L75,100 L75,106 L144,106 L144,154"/> 
            <glyph glyph-name="使" unicode="&#x4F7F;" horiz-adv-x="249" d=" M230,-23 Q158,-18 130,3 Q107,-11 70,-27 L67,-23 Q101,-4 119,13 Q105,28 93,50 L97,52 Q112,34 127,24 Q141,43 145,73 L107,73 L107,66 Q107,61 103,61 Q94,59 86,59 Q87,81 87,102 L87,117 Q87,128 87,142 L116,133 L147,133 L147,163 L76,163 L76,170 L147,170 Q147,173 147,183 Q146,199 146,208 L174,205 Q177,205 177,202 Q178,198 166,194 L166,170 L210,170 L224,187 L246,170 Q249,169 248,167 Q249,164 240,163 L166,163 L166,133 L202,133 L210,147 L233,136 Q237,135 237,132 Q237,128 226,123 L226,106 Q226,101 226,91 Q227,75 227,64 Q227,59 223,59 Q213,57 207,57 L207,73 L164,73 Q161,36 142,16 Q174,0 248,0 L248,-4 Q234,-8 230,-23 M8,77 L5,79 Q35,134 48,180 Q53,195 54,209 L83,201 Q87,201 87,198 Q88,193 73,191 Q64,165 54,144 L65,143 Q68,142 68,139 Q69,134 57,132 L57,-18 Q57,-24 52,-25 Q42,-27 36,-27 Q38,36 38,66 L38,116 Q25,94 8,77 M166,108 Q166,93 165,80 L207,80 L207,126 L166,126 M145,80 Q147,92 147,107 L147,126 L107,126 L107,80"/> 
            <glyph glyph-name="供" unicode="&#x4F9B;" horiz-adv-x="250" d=" M84,137 L84,144 L117,144 L117,164 Q117,197 116,207 L145,205 Q149,205 149,202 Q149,197 137,193 L137,144 L180,144 L180,165 Q180,197 179,208 L208,205 Q212,205 212,202 Q212,197 200,194 L200,144 L210,144 L222,161 L243,144 Q246,143 246,141 Q246,138 237,137 L200,137 L200,66 L213,66 L225,83 L248,66 Q248,65 249,64 Q250,63 250,62 Q248,59 242,59 L76,59 L76,66 L117,66 L117,137 M39,-27 Q40,14 40,66 L40,112 Q26,93 8,73 L4,76 Q34,124 52,177 Q56,192 59,209 L89,201 Q92,201 92,198 Q93,192 79,191 Q69,163 58,141 L68,140 Q72,139 72,136 Q71,132 60,129 L60,-18 Q61,-24 55,-25 Q47,-27 39,-27 M137,137 L137,66 L180,66 L180,137 M73,-27 L70,-24 Q99,2 113,23 Q121,35 125,46 L152,35 Q155,34 155,31 Q155,26 145,26 Q143,26 140,26 Q120,-1 73,-27 M226,-24 Q221,-25 217,-17 Q202,13 171,42 L174,45 Q237,15 238,-9 Q237,-23 226,-24"/> 
            <glyph glyph-name="依" unicode="&#x4F9D;" horiz-adv-x="251" d=" M225,-16 Q167,33 155,136 Q145,114 130,95 L130,7 L177,21 L178,17 Q165,8 136,-7 Q127,-12 123,-15 Q120,-28 116,-27 Q113,-27 112,-24 L101,-1 Q112,2 111,10 L111,74 Q90,53 61,35 L61,-19 Q62,-25 56,-26 Q46,-28 39,-28 Q39,-17 40,3 Q41,33 41,62 L41,114 Q26,93 7,75 L4,78 Q36,127 52,178 Q57,194 59,209 L88,201 Q91,200 91,198 Q91,193 78,190 Q70,165 58,143 L68,142 Q72,142 72,139 Q73,135 61,131 L61,40 Q117,96 140,151 L76,151 L76,158 L208,158 L222,176 L245,158 Q248,157 247,155 Q247,152 239,151 L163,151 L161,146 Q170,106 184,78 Q210,108 217,123 L240,108 Q243,107 242,105 Q242,100 236,100 Q234,100 230,101 Q232,100 228,102 Q208,84 187,71 Q211,25 251,2 L249,-1 Q233,0 225,-16 M157,162 Q151,162 148,170 Q142,192 131,205 L133,208 Q168,195 170,176 Q169,163 157,162"/> 
            <glyph glyph-name="保" unicode="&#x4FDD;" horiz-adv-x="250" d=" M98,101 Q98,125 98,144 L98,170 Q98,183 98,198 L124,189 L196,189 L204,202 L227,191 Q231,189 231,187 Q232,184 220,178 L220,152 Q220,132 221,112 Q221,108 217,106 Q207,104 200,104 L200,120 L118,120 L118,108 Q118,103 113,103 Q105,101 98,101 M228,-7 Q189,20 171,69 L168,69 L168,44 Q168,34 168,13 Q169,-7 169,-18 Q169,-24 165,-25 Q157,-27 147,-27 Q148,-1 148,37 L148,58 Q120,13 69,-10 L66,-7 Q112,29 132,69 L78,69 L78,76 L148,76 Q148,93 148,109 L177,106 Q180,106 180,103 Q181,99 168,95 L168,76 L209,76 L221,93 L244,76 Q247,75 247,73 Q246,69 238,69 L177,69 Q207,27 250,10 L248,5 Q235,4 228,-7 M39,-26 Q39,-16 40,2 Q41,33 41,64 L41,112 Q26,91 8,71 L5,74 Q38,132 51,179 Q57,194 58,209 L88,201 Q92,201 91,198 Q90,194 78,191 Q68,162 56,139 L68,137 Q72,137 72,134 Q72,130 60,126 L60,-17 Q61,-23 55,-24 Q51,-26 39,-26 M200,182 L118,182 L118,127 L200,127"/> 
            <glyph glyph-name="值" unicode="&#x503C;" horiz-adv-x="251" d=" M72,-15 L72,-9 L98,-9 L98,95 Q98,130 97,145 L123,136 L145,136 L146,166 L82,166 L82,173 L146,173 L147,180 Q147,191 147,208 L175,205 Q178,205 178,202 Q178,197 166,194 L165,173 L208,173 L219,189 L242,173 Q245,172 244,170 Q244,167 236,166 L165,166 L164,136 L196,136 L204,150 L227,138 Q231,137 231,134 Q232,131 220,126 L220,-9 L221,-9 L231,4 L249,-9 Q251,-11 251,-12 Q251,-15 242,-15 M39,-27 Q39,-17 40,0 Q41,46 41,63 L41,113 Q26,91 7,73 L4,76 Q36,124 51,177 Q57,196 58,209 L87,202 Q91,201 91,199 Q91,194 78,191 Q68,163 56,140 L68,139 Q71,138 71,136 Q72,132 59,127 L59,-18 Q59,-24 55,-25 Q45,-27 39,-27 M117,20 L117,-9 L200,-9 L200,20 M117,57 L117,27 L200,27 L200,57 M117,93 L117,63 L200,63 L200,93 M200,130 L117,130 L117,100 L200,100"/> 
            <glyph glyph-name="健" unicode="&#x5065;" horiz-adv-x="251" d=" M132,105 L132,112 L164,112 L164,137 L124,137 L124,143 L164,143 L164,167 L164,168 L127,168 L127,175 L164,175 Q164,195 164,208 L191,206 Q194,206 194,203 Q195,199 183,195 L183,175 L202,175 L209,188 L230,178 Q236,176 235,173 Q236,170 225,165 L225,143 L233,155 L248,143 Q251,142 250,140 Q251,137 242,137 L225,137 L225,105 Q225,99 221,99 Q213,97 206,97 L206,105 L183,105 L183,81 L183,79 L203,79 L215,94 L235,79 Q238,77 237,76 Q237,73 229,72 L183,72 Q183,60 183,46 L210,46 L223,63 L244,46 Q247,45 247,43 Q247,40 238,39 L183,39 Q184,29 184,12 Q184,7 180,6 Q172,4 164,4 Q164,19 164,39 L118,39 L118,46 L164,46 L164,70 L164,72 L127,72 L127,79 L164,79 L164,105 M185,-19 Q125,-20 98,8 Q85,-9 61,-27 L58,-24 Q81,5 89,20 Q75,42 66,78 L71,80 Q81,52 94,34 Q101,50 108,97 L91,97 L84,89 Q80,91 69,100 Q68,102 67,102 Q65,104 68,106 Q74,109 76,115 L96,168 L66,168 L66,175 L94,175 L102,188 L122,176 Q126,173 126,172 Q127,168 113,164 L89,104 L105,104 L112,115 L133,104 Q136,103 136,101 Q137,97 125,93 Q119,45 106,22 Q131,-1 182,0 Q220,0 249,3 L249,0 Q239,-3 236,-18 Q227,-18 210,-19 Q193,-19 185,-19 M33,-27 Q33,-16 34,3 Q35,46 35,63 L35,110 Q23,89 8,73 L5,76 Q30,126 44,176 Q49,193 50,208 L79,201 Q82,201 82,198 Q82,192 69,191 Q60,164 50,141 L60,140 Q64,139 64,136 Q65,133 53,129 L53,-18 Q53,-24 48,-25 Q40,-27 33,-27 M206,168 L183,168 L183,143 L206,143 M183,137 L183,112 L206,112 L206,137"/> 
            <glyph glyph-name="元" unicode="&#x5143;" horiz-adv-x="249" d=" M12,107 L12,114 L204,114 L219,134 L244,114 Q247,113 246,111 Q246,108 238,107 L168,107 L168,11 Q167,0 177,1 L212,1 Q222,1 224,9 L233,52 L237,51 L239,13 Q239,6 243,2 Q249,-1 248,-5 Q249,-18 222,-18 L172,-18 Q145,-20 147,5 L147,107 L102,107 Q101,47 82,21 Q64,-5 9,-28 L7,-24 Q51,4 65,30 Q80,55 81,107 M39,177 L39,184 L181,184 L195,202 L218,184 Q221,183 220,181 Q220,178 212,177"/> 
            <glyph glyph-name="入" unicode="&#x5165;" horiz-adv-x="252" d=" M11,-27 L7,-23 Q91,51 121,141 Q118,156 113,173 Q109,190 104,199 L133,197 Q137,197 137,194 Q137,190 121,185 Q155,47 252,-1 L250,-6 Q235,-5 222,-24 Q159,21 132,106 Q96,22 11,-27"/> 
            <glyph glyph-name="全" unicode="&#x5168;" horiz-adv-x="250" d=" M62,105 L62,112 L153,112 L166,130 L189,112 Q191,111 191,109 Q191,106 183,105 L136,105 L136,54 L176,54 L190,72 L214,54 Q217,51 216,50 Q215,46 208,46 L136,46 L136,-7 L200,-7 L215,11 L242,-7 Q245,-9 244,-11 Q244,-15 236,-15 L13,-15 L13,-7 L115,-7 L115,46 L42,46 L42,54 L115,54 L115,105 M11,89 L9,93 Q65,134 96,179 Q107,196 112,209 L143,202 Q143,202 144,202 Q147,201 147,199 Q146,193 134,193 Q178,143 250,123 L249,119 Q234,117 228,101 Q164,129 130,189 Q91,127 11,89"/> 
            <glyph glyph-name="公" unicode="&#x516C;" horiz-adv-x="251" d=" M203,-26 Q196,-26 193,-17 Q189,-3 183,7 Q140,0 54,-12 Q54,-23 48,-23 Q47,-23 45,-20 L35,7 Q49,8 57,18 Q94,65 112,123 L144,112 Q148,112 148,108 Q149,102 131,102 Q99,42 63,8 L179,15 Q170,33 146,63 L149,66 Q217,20 217,-8 Q216,-25 203,-26 M227,80 Q170,122 145,189 Q144,190 143,193 Q140,201 136,206 L161,204 Q164,204 164,201 Q164,198 151,194 Q186,129 251,103 L249,98 Q234,98 227,80 M11,72 L8,76 Q56,127 74,167 Q82,182 85,198 L115,188 Q119,187 119,184 Q118,178 104,178 Q73,115 11,72"/> 
            <glyph glyph-name="内" unicode="&#x5185;" horiz-adv-x="238" d=" M60,24 L57,28 Q119,82 116,150 L49,150 L49,-20 Q49,-25 44,-25 Q32,-27 27,-27 Q28,-2 28,66 L28,117 Q28,145 28,168 L57,157 L116,157 L116,161 L116,174 Q116,192 116,209 L147,206 Q150,206 150,203 Q150,199 137,194 L137,170 Q137,163 137,157 L202,157 L211,172 L235,160 Q238,158 238,156 Q238,151 228,146 L228,67 Q228,23 229,0 Q232,-23 191,-27 Q193,-8 157,-4 L158,0 L197,-1 Q207,-2 207,6 L207,150 L137,150 Q136,127 131,109 Q193,77 193,50 Q192,36 181,35 Q175,36 173,42 Q159,77 130,103 Q118,60 60,24"/> 
            <glyph glyph-name="再" unicode="&#x518D;" horiz-adv-x="250" d=" M14,180 L14,187 L201,187 L216,206 L241,187 Q244,186 243,184 Q243,181 235,180 L136,180 L136,143 L187,143 L195,158 L219,145 Q222,144 222,142 Q222,137 211,133 L211,70 L211,51 L215,51 L226,67 L247,51 Q250,50 249,48 Q250,45 241,44 L211,44 Q211,36 212,19 Q212,5 212,-1 Q215,-23 177,-27 Q180,-9 143,-5 L144,-1 L182,-2 Q191,-4 191,4 L191,44 L61,44 L61,-19 Q61,-24 57,-25 Q47,-27 40,-27 Q40,-18 40,3 Q41,29 41,44 L9,44 L9,51 L41,51 L41,66 L41,105 Q41,140 40,153 L69,143 L116,143 L116,180 M191,136 L136,136 L136,97 L191,97 M136,90 L136,51 L191,51 L191,90 M61,90 L61,51 L116,51 L116,90 M61,136 L61,97 L116,97 L116,136"/> 
            <glyph glyph-name="冲" unicode="&#x51B2;" horiz-adv-x="245" d=" M214,41 L214,61 L169,61 Q169,9 170,-18 Q170,-24 166,-25 Q156,-27 148,-27 Q149,9 149,61 L104,61 L104,47 Q104,43 100,41 Q92,39 84,39 Q85,69 85,98 L85,125 Q85,141 85,160 L112,150 L149,150 L149,156 Q149,193 148,209 L178,206 Q181,206 181,203 Q181,198 169,195 L169,150 L210,150 L218,164 L241,153 Q244,150 244,149 Q245,145 233,140 L233,104 Q233,95 233,79 Q234,61 234,49 Q234,45 231,43 Q223,41 214,41 M169,72 L169,69 L214,69 L214,143 L169,143 M104,143 L104,69 L149,69 L149,143 M36,-10 Q25,-9 24,2 Q24,6 25,14 Q26,17 26,19 Q29,28 29,37 Q31,54 10,59 L11,63 Q19,62 23,62 Q30,62 34,70 L76,175 L80,173 L51,73 Q46,55 46,44 Q46,31 49,20 Q49,18 50,15 Q51,10 51,3 Q51,-10 36,-10 M42,139 Q35,140 34,146 Q27,169 9,190 L12,192 Q55,171 54,153 Q53,141 42,139"/> 
            <glyph glyph-name="况" unicode="&#x51B5;" horiz-adv-x="250" d=" M90,84 Q90,93 91,109 Q91,126 91,134 L91,163 Q91,168 90,180 Q90,192 90,196 L117,187 L198,187 L206,201 L230,189 Q233,188 233,185 Q233,181 222,176 L222,144 Q222,114 223,94 Q224,88 218,87 Q210,85 202,85 L202,99 L110,99 L110,91 Q110,86 105,86 Q101,84 90,84 M202,180 L110,180 L110,105 L202,105 M192,-22 Q167,-23 168,0 L168,54 Q168,72 167,82 L195,80 Q199,79 199,77 Q200,72 187,68 L187,3 Q187,-4 196,-4 L215,-4 Q225,-4 228,5 L236,39 L239,38 L241,7 Q241,0 245,0 Q250,-4 249,-7 Q247,-21 222,-22 M36,-9 Q25,-8 24,3 Q24,10 26,19 Q26,20 26,22 Q28,30 28,37 Q30,52 9,59 L10,63 Q15,62 22,62 Q30,62 34,70 L77,171 L81,169 L50,74 Q50,73 49,71 Q45,54 45,45 Q45,32 48,21 Q48,19 49,16 Q50,11 50,4 Q49,-8 36,-9 M54,-28 L51,-24 Q114,8 117,58 Q118,68 118,80 L147,77 Q151,76 151,73 Q152,69 139,66 Q138,-4 54,-28 M42,139 Q37,140 34,146 Q26,170 10,189 L13,191 Q55,174 55,153 Q54,140 42,139"/> 
            <glyph glyph-name="净" unicode="&#x51C0;" horiz-adv-x="250" d=" M196,27 L196,40 L154,40 Q154,33 155,15 Q155,1 155,-3 Q158,-23 120,-28 Q123,-12 89,-6 L89,-2 L125,-4 Q135,-4 135,2 L135,40 L78,40 L78,47 L135,47 L135,83 L67,83 L67,91 L135,91 L135,126 L88,126 Q85,123 79,116 Q73,109 70,106 L67,109 Q93,150 104,182 Q110,196 112,209 L140,202 Q143,202 143,199 Q142,195 130,193 Q129,190 126,184 Q124,178 122,175 L160,175 L169,188 L193,174 Q196,172 196,169 Q195,164 183,164 Q182,163 179,159 Q164,142 155,133 L191,133 L200,147 L222,136 Q226,133 226,132 Q227,128 215,123 L215,91 L219,91 L229,104 L247,90 Q250,89 249,87 Q249,84 241,83 L215,83 L215,81 Q215,75 215,62 Q216,44 216,33 Q217,29 213,28 Q205,27 196,27 M35,-7 Q24,-7 24,5 Q24,10 26,21 Q24,14 26,24 Q29,34 28,43 Q30,60 9,65 L10,70 Q31,65 34,78 L77,174 L81,172 L50,82 Q44,65 44,50 Q44,39 47,27 Q50,17 50,7 Q50,-7 35,-7 M162,169 L118,169 Q108,151 94,133 L146,133 M154,58 L154,47 L196,47 L196,83 L154,83 M196,126 L154,126 L154,91 L196,91 M39,139 Q34,139 31,147 Q26,167 10,187 L13,190 Q50,173 51,153 Q50,140 39,139"/> 
            <glyph glyph-name="准" unicode="&#x51C6;" horiz-adv-x="250" d=" M63,76 L59,78 Q92,130 106,179 Q111,195 112,206 L142,198 Q145,197 145,195 Q146,189 131,188 Q125,169 117,153 L209,153 L222,170 L245,153 Q248,152 247,150 Q247,147 239,146 L184,146 L184,102 L204,102 L216,118 L239,102 Q242,100 241,99 Q241,96 233,95 L184,95 L184,50 L204,50 L216,67 L239,50 Q242,49 241,47 Q241,44 233,43 L184,43 L184,0 L210,0 L223,16 L247,0 Q250,-2 249,-3 Q250,-7 241,-7 L116,-7 L116,-18 Q116,-24 111,-25 Q101,-27 94,-27 Q96,22 94,-18 Q96,22 96,62 L96,116 Q81,94 63,76 M37,-9 Q25,-9 25,4 Q25,12 27,23 Q30,33 29,42 Q32,58 8,65 L9,69 Q31,64 34,76 L79,172 L83,169 L52,80 Q46,64 46,49 Q46,38 49,26 Q52,16 52,5 Q51,-8 37,-9 M116,43 L116,0 L164,0 L164,43 M116,95 L116,50 L164,50 L164,95 M116,146 L116,102 L164,102 L164,146 M42,142 Q37,142 34,150 Q27,172 12,189 L14,193 Q54,175 54,157 Q53,143 42,142 M176,161 Q170,161 169,169 Q165,187 154,206 L156,208 Q187,193 188,175 Q187,162 176,161"/> 
            <glyph glyph-name="出" unicode="&#x51FA;" horiz-adv-x="235" d=" M46,-18 Q37,-14 27,-6 Q24,-4 27,-2 Q27,-2 28,-1 Q33,1 33,5 L33,39 Q33,60 32,75 L60,73 Q64,72 64,70 Q64,65 52,61 L52,0 L117,0 L117,99 L65,99 L56,89 Q47,94 37,100 Q34,103 38,105 Q43,108 43,113 L43,142 Q43,164 42,179 L70,176 Q74,176 74,173 Q75,169 62,165 L62,105 L117,105 L117,154 Q117,195 116,209 L147,206 Q150,206 150,203 Q150,198 138,194 L138,105 L194,105 L194,141 Q194,172 193,179 L221,177 Q225,176 225,174 Q225,169 213,165 L213,147 Q213,137 214,117 Q214,101 214,94 Q214,90 211,89 Q201,87 194,87 L194,99 L138,99 L138,0 L204,0 L204,37 Q204,63 203,75 L232,72 Q235,72 235,70 Q235,65 223,61 L223,34 Q223,21 224,0 Q224,-14 224,-20 Q224,-24 221,-25 Q211,-27 204,-27 L204,-7 L55,-7"/> 
            <glyph glyph-name="分" unicode="&#x5206;" horiz-adv-x="251" d=" M145,-25 Q149,-7 110,-2 L111,1 L152,0 Q172,-3 170,18 Q173,60 173,94 L108,94 Q108,6 14,-29 L11,-25 Q87,20 87,94 L49,94 L49,101 L168,101 L177,116 L202,104 Q206,101 206,100 Q206,95 194,90 Q194,66 192,12 Q194,-23 145,-25 M229,89 Q165,127 145,188 Q143,197 137,205 L159,203 Q163,203 163,200 Q163,197 150,194 Q181,135 251,112 L250,108 Q234,104 229,89 M10,79 L8,83 Q55,127 75,166 Q83,182 87,197 L115,187 Q119,187 119,184 Q119,178 105,177 Q75,116 10,79"/> 
            <glyph glyph-name="切" unicode="&#x5207;" horiz-adv-x="247" d=" M184,-26 Q186,-8 144,-2 L145,1 L184,0 Q212,-5 211,30 Q214,94 214,173 L164,173 L164,161 Q165,79 144,42 Q126,4 64,-29 L61,-25 Q113,17 127,52 Q144,86 143,156 L143,173 L103,173 L103,180 L208,180 L217,195 L243,183 Q247,181 247,179 Q247,174 235,169 Q235,129 234,61 Q233,40 233,28 Q235,-24 184,-26 M8,116 L7,124 L41,130 L41,162 Q41,192 40,208 L70,206 Q73,206 73,203 Q73,198 61,195 L61,133 L87,137 L97,156 L121,143 Q124,142 124,140 Q124,137 116,135 L61,125 L61,48 L118,74 L120,70 Q94,49 54,22 Q55,8 49,8 Q48,8 45,12 L30,36 Q42,40 41,53 L41,122"/> 
            <glyph glyph-name="初" unicode="&#x521D;" horiz-adv-x="248" d=" M183,-25 Q187,-7 145,-1 L146,1 L186,0 Q214,-6 212,29 Q215,89 215,172 L167,172 L167,161 Q168,81 150,44 Q134,5 82,-27 L79,-24 Q120,17 133,53 Q146,89 146,158 L146,172 L108,172 L108,180 L210,180 L219,194 L244,182 Q247,181 247,178 Q248,174 236,168 Q236,80 233,27 Q236,-25 183,-25 M48,-27 Q49,3 49,53 L49,82 Q31,65 7,50 L5,54 Q55,102 75,150 L10,150 L10,157 L72,157 L82,170 L105,157 Q108,155 108,152 Q107,148 95,145 Q83,121 68,102 L68,90 Q70,89 74,88 Q78,86 80,85 Q94,105 98,121 L120,109 Q123,108 123,105 Q123,99 110,102 Q104,96 89,84 Q100,92 86,82 Q111,68 111,55 Q110,41 99,40 Q95,40 92,47 Q83,70 68,84 L68,-18 Q69,-24 63,-25 Q55,-27 48,-27 M56,164 Q49,164 48,171 Q45,188 32,206 L35,209 Q69,194 68,178 Q67,165 56,164"/> 
            <glyph glyph-name="到" unicode="&#x5230;" horiz-adv-x="245" d=" M200,-27 Q204,-10 167,-5 L168,-1 L204,-2 Q214,-3 214,4 L214,161 Q214,197 213,208 L242,206 Q245,206 245,203 Q245,197 233,195 L233,84 Q233,70 234,37 Q234,8 234,-2 Q238,-25 200,-27 M131,101 Q127,101 124,108 Q121,116 118,123 Q83,115 33,108 Q32,95 26,96 Q24,97 23,99 L15,125 Q29,127 35,136 Q36,137 37,139 Q52,164 58,179 L9,179 L9,186 L114,186 L127,203 L150,186 Q153,185 153,183 Q152,179 144,179 L83,179 Q65,150 41,126 L114,131 Q108,142 94,159 L97,162 Q142,138 144,115 Q143,102 131,101 M13,60 L13,67 L68,67 Q67,82 67,103 L96,101 Q99,100 100,98 Q99,92 88,89 L88,67 L110,67 L123,83 L144,67 Q147,66 146,64 Q147,61 138,60 L88,60 L88,18 Q98,20 118,23 Q138,26 147,27 L148,23 Q97,6 25,-7 Q24,-19 19,-19 Q16,-19 15,-16 L7,10 Q14,10 30,11 Q33,12 35,12 Q37,12 41,13 Q49,13 68,16 L68,60 M161,28 Q162,61 162,102 L162,136 Q162,153 161,175 L188,172 Q191,172 191,169 Q192,165 180,161 L180,37 Q180,31 176,30 Q175,30 173,29 Q167,28 161,28"/> 
            <glyph glyph-name="制" unicode="&#x5236;" horiz-adv-x="246" d=" M17,124 L14,126 Q27,159 32,196 L58,189 Q61,189 61,187 Q61,181 49,180 Q45,170 40,159 L72,159 Q72,191 71,208 L99,206 Q103,206 103,203 Q104,199 91,195 L91,159 L115,159 L126,175 L147,159 Q150,158 149,156 Q150,153 141,153 L91,153 L91,119 L122,119 L134,135 L155,118 Q158,117 157,115 Q158,112 149,112 L91,112 L91,79 L118,79 L126,93 L148,81 Q151,80 151,78 Q152,74 140,69 L140,51 Q140,33 141,19 Q144,0 113,-3 Q116,9 93,13 L93,17 L114,16 Q123,14 122,23 L122,72 L91,72 L91,-19 Q91,-24 87,-25 Q80,-27 71,-27 Q72,-6 72,65 L72,72 L42,72 L42,1 Q42,-2 38,-2 Q31,-5 23,-5 Q24,15 24,47 L24,56 Q24,80 23,88 L49,79 L72,79 L72,112 L8,112 L8,119 L72,119 L72,153 L37,153 Q29,138 17,124 M201,-27 Q203,-11 168,-5 L169,-2 L205,-3 Q215,-5 214,4 L214,160 Q214,197 213,208 L242,206 Q246,205 246,203 Q246,198 234,195 L234,84 Q234,24 235,-2 Q238,-23 201,-27 M167,31 Q168,61 168,112 L168,136 Q168,153 167,176 L194,174 Q198,173 198,170 Q199,167 187,162 L187,40 Q187,34 183,34 Q174,31 167,31"/> 
            <glyph glyph-name="前" unicode="&#x524D;" horiz-adv-x="249" d=" M91,-27 Q93,-11 62,-7 L63,-3 L91,-5 Q100,-5 99,1 L99,38 L47,38 L47,-20 Q48,-25 42,-25 Q37,-27 26,-27 Q27,-4 27,50 L27,97 Q27,117 27,136 L54,127 L95,127 L103,141 L126,130 Q129,128 129,126 Q130,122 119,117 L119,44 Q119,20 119,-2 Q123,-24 91,-27 M189,-27 Q191,-9 157,-5 L157,-1 L194,-2 Q203,-3 203,5 L203,98 Q203,103 203,116 Q202,134 202,142 L230,139 Q234,139 234,136 Q235,132 222,128 L222,54 Q222,15 223,-2 Q226,-24 189,-27 M9,158 L9,165 L146,165 Q159,192 162,209 L189,201 Q192,201 192,198 Q192,194 179,192 Q172,180 155,165 L207,165 L221,183 L246,165 Q249,164 248,162 Q248,159 240,158 M148,16 Q149,42 149,70 L149,96 Q149,109 148,131 L175,129 Q179,128 179,125 Q180,122 168,117 L168,25 Q168,20 163,18 Q153,16 148,16 M47,81 L47,45 L99,45 L99,81 M99,121 L47,121 L47,88 L99,88 M86,168 Q81,168 78,174 Q73,191 60,206 L62,209 Q97,195 97,181 Q96,169 86,168"/> 
            <glyph glyph-name="力" unicode="&#x529B;" horiz-adv-x="241" d=" M172,-25 Q175,-5 127,-1 L128,2 L179,0 Q203,-3 203,32 Q206,76 206,136 L125,136 Q123,24 11,-28 L8,-25 Q101,41 103,136 L19,136 L19,143 L103,143 Q104,150 104,159 L104,168 Q104,191 102,208 L136,206 Q139,206 139,203 Q140,197 126,193 L126,172 Q126,157 126,143 L201,143 L210,160 L237,147 Q240,145 240,143 Q241,137 228,132 Q228,74 225,25 Q226,-22 172,-25"/> 
            <glyph glyph-name="加" unicode="&#x52A0;" horiz-adv-x="247" d=" M216,-17 L216,3 L167,3 L167,-13 Q168,-18 162,-19 Q156,-21 146,-21 Q148,34 148,74 L148,116 Q148,127 147,148 Q147,166 147,174 L172,165 L211,165 L219,178 L242,167 Q246,164 246,163 Q247,159 235,153 L235,90 Q235,52 237,-9 Q237,-14 233,-15 Q225,-17 216,-17 M79,-22 Q82,-6 46,-1 L47,1 L81,0 Q101,-2 100,22 Q103,72 103,146 L69,146 Q70,27 10,-27 L7,-25 Q51,41 50,146 L10,146 L10,153 L50,153 L50,159 L50,172 Q50,197 49,208 L78,206 Q82,205 82,202 Q82,198 69,194 L69,161 L69,153 L99,153 L107,167 L129,156 Q133,154 133,152 Q133,148 122,142 Q122,93 120,19 Q122,-20 79,-22 M216,157 L167,157 L167,10 L216,10"/> 
            <glyph glyph-name="动" unicode="&#x52A8;" horiz-adv-x="247" d=" M187,-25 Q190,-8 150,-2 L151,1 L189,0 Q212,-4 212,25 Q215,85 215,136 L174,136 Q175,16 75,-28 L73,-24 Q155,30 154,136 L124,136 L124,143 L154,143 Q154,146 155,152 Q155,158 155,161 L155,170 Q155,185 153,209 L184,206 Q187,206 187,203 Q187,198 175,194 L175,166 Q175,154 175,143 L210,143 L219,158 L243,146 Q247,145 247,142 Q247,137 235,132 Q235,70 232,22 Q234,-23 187,-25 M110,22 Q103,22 102,29 Q101,31 100,35 Q98,40 97,42 Q66,31 31,22 Q28,8 24,9 Q23,9 20,13 L11,41 Q23,42 28,54 Q42,75 54,113 L8,113 L8,120 L99,120 L111,137 L133,120 Q135,119 135,117 Q135,114 127,113 L77,113 Q59,76 34,42 L94,50 Q86,67 75,81 L77,83 Q123,56 122,37 Q121,23 110,22 M22,168 L22,175 L88,175 L99,190 L119,175 Q122,174 121,172 Q121,168 113,168"/> 
            <glyph glyph-name="劲" unicode="&#x52B2;" horiz-adv-x="247" d=" M194,-26 Q196,-8 163,-3 L164,0 L195,-1 Q212,-5 212,15 Q215,68 215,138 L181,138 Q183,15 94,-28 L91,-24 Q162,29 162,138 L129,138 L129,145 L162,145 L162,152 L162,169 Q162,175 161,190 Q161,203 161,208 L190,206 Q193,206 193,203 Q193,198 181,195 L181,154 L181,145 L210,145 L219,159 L242,147 Q246,146 246,143 Q247,140 235,134 Q234,105 233,39 Q232,20 232,11 Q234,-22 194,-26 M128,97 Q124,97 119,103 Q104,122 82,137 Q57,110 7,89 L5,93 Q63,129 89,181 L17,181 L17,188 L87,188 L97,201 L120,188 Q123,185 123,184 Q123,179 110,176 Q98,156 86,141 Q138,127 137,110 Q136,98 128,97 M23,82 L23,89 L92,89 L104,105 L126,89 Q127,88 127,86 Q128,82 120,82 L82,82 L82,27 Q89,28 103,31 Q124,34 134,36 L136,32 Q81,12 25,0 Q25,-11 19,-11 Q18,-11 16,-7 L9,18 Q16,18 33,20 Q21,18 36,20 Q48,23 62,24 L62,82"/> 
            <glyph glyph-name="化" unicode="&#x5316;" horiz-adv-x="248" d=" M83,43 L81,48 Q114,67 132,82 L132,145 Q132,176 131,206 L163,204 Q166,204 166,201 Q166,196 153,192 L153,97 Q177,117 195,136 Q210,151 219,166 L243,150 Q246,148 246,145 Q245,140 231,142 Q191,102 153,78 L153,9 Q153,1 162,1 L210,1 Q221,0 223,10 L234,57 L238,56 L239,15 Q239,7 244,4 Q248,1 248,-1 Q247,-17 219,-17 L158,-17 Q131,-18 132,7 L132,66 Q110,54 83,43 M49,-27 Q49,-21 49,-10 Q51,29 51,70 L51,115 Q34,91 10,70 L6,73 Q48,130 65,182 Q70,196 72,209 L102,201 Q105,200 105,197 Q105,191 91,191 Q81,163 67,139 L79,137 Q83,137 83,134 Q83,129 71,126 L71,-18 Q71,-24 66,-25 Q54,-27 49,-27"/> 
            <glyph glyph-name="单" unicode="&#x5355;" horiz-adv-x="247" d=" M10,29 L10,36 L116,36 L116,57 L116,70 L63,70 L63,63 Q63,58 58,58 Q50,56 42,56 Q43,72 43,106 L43,142 Q43,163 42,173 L68,164 L139,164 Q149,187 154,210 L182,201 Q185,200 185,197 Q184,191 171,191 Q170,190 168,187 Q157,173 149,164 L187,164 L195,177 L218,166 Q222,165 222,162 Q223,158 211,153 L211,118 Q211,101 211,67 Q212,63 208,61 Q198,59 191,59 L191,70 L137,70 L137,65 L137,36 L205,36 L219,55 L244,36 Q245,35 246,34 Q247,34 247,33 Q246,29 238,29 L137,29 Q137,19 138,1 Q138,-12 138,-18 Q139,-24 133,-25 Q129,-27 115,-27 Q116,-11 116,29 M137,114 L137,77 L191,77 L191,114 M63,114 L63,77 L116,77 L116,114 M191,157 L137,157 L137,121 L191,121 M63,157 L63,121 L116,121 L116,157 M97,167 Q90,167 89,173 Q84,192 72,207 L75,209 Q109,195 109,180 Q108,168 97,167"/> 
            <glyph glyph-name="占" unicode="&#x5360;" horiz-adv-x="247" d=" M40,-27 Q40,-14 41,7 Q41,21 41,27 L41,60 Q41,83 40,96 L68,87 L114,87 L114,152 Q114,190 113,209 L144,206 Q148,206 148,203 Q148,198 135,194 L135,151 L204,151 L218,170 L244,151 Q247,150 246,148 Q246,145 238,144 L135,144 L135,87 L189,87 L198,102 L222,90 Q226,88 226,86 Q227,82 215,76 L215,34 Q215,1 216,-18 Q216,-23 212,-24 Q204,-26 193,-26 L193,-3 L62,-3 L62,-19 Q62,-24 57,-25 Q47,-27 40,-27 M193,80 L62,80 L62,2 L193,2"/> 
            <glyph glyph-name="即" unicode="&#x5373;" horiz-adv-x="248" d=" M34,-18 Q32,-18 30,-15 L19,7 Q31,12 30,26 L30,135 Q30,145 29,165 Q29,184 29,193 L56,184 L99,184 L107,198 L130,186 Q133,185 133,183 Q133,178 122,174 L122,121 Q122,103 123,79 Q123,73 119,72 Q109,70 103,70 L103,85 L49,85 L49,17 L97,33 Q90,48 78,62 L80,64 Q126,38 129,12 Q128,-1 117,-2 Q111,-2 109,4 Q105,17 100,27 Q63,4 40,-5 Q39,-19 34,-18 M204,9 Q205,27 177,31 L178,35 L206,34 Q216,34 216,42 L216,178 L170,178 L170,-19 Q170,-24 165,-25 Q157,-27 149,-27 Q150,1 150,55 L150,147 Q150,174 150,194 L176,185 L211,185 L220,199 L243,187 Q247,186 247,184 Q248,180 236,174 L236,95 Q236,60 237,35 Q239,13 204,9 M49,131 L49,92 L103,92 L103,131 M103,177 L49,177 L49,138 L103,138"/> 
            <glyph glyph-name="压" unicode="&#x538B;" horiz-adv-x="251" d=" M74,87 L74,94 L136,94 L136,111 Q136,120 136,137 Q135,155 135,165 L165,162 Q169,162 169,159 Q169,154 156,151 L156,94 L196,94 L209,112 L233,94 Q236,93 235,91 Q235,88 227,87 L156,87 L156,-6 L209,-6 L223,11 L248,-6 Q251,-8 251,-9 Q250,-13 242,-13 L52,-13 L52,-6 L136,-6 L136,87 M10,-27 L7,-25 Q40,29 38,118 L38,147 Q38,167 37,195 L67,186 L205,186 L220,205 L245,186 Q248,185 248,183 Q248,179 239,179 L59,179 L59,122 Q63,21 10,-27 M207,14 Q202,14 199,22 Q192,43 174,63 L177,66 Q219,46 219,28 Q219,15 207,14"/> 
            <glyph glyph-name="原" unicode="&#x539F;" horiz-adv-x="249" d=" M9,-25 L6,-23 Q36,32 34,121 L34,160 Q34,182 33,198 L63,189 L208,189 L222,207 L246,189 Q249,186 248,185 Q246,182 240,182 L154,182 Q143,160 132,149 L192,149 L201,162 L223,151 Q227,150 227,147 Q227,143 216,138 L216,115 Q216,110 216,96 Q217,77 217,66 Q217,61 213,60 Q205,58 197,58 L197,69 L160,69 L160,50 Q160,15 161,-2 Q164,-23 129,-27 Q130,-11 100,-6 L101,-2 L131,-3 Q141,-5 140,3 L140,69 L101,69 L101,65 Q102,59 96,59 Q88,57 81,57 Q82,82 82,103 L82,126 Q82,146 81,158 L108,149 L123,149 Q127,173 128,182 L55,182 L55,125 Q59,24 9,-25 M101,106 L101,75 L197,75 L197,106 M197,142 L101,142 L101,112 L197,112 M49,-17 L46,-14 Q83,16 95,50 L122,39 Q125,38 125,36 Q124,30 111,31 Q91,2 49,-17 M227,-12 Q220,-12 218,-6 Q205,21 178,45 L181,48 Q238,22 238,0 Q237,-11 227,-12"/> 
            <glyph glyph-name="去" unicode="&#x53BB;" horiz-adv-x="248" d=" M217,-27 Q210,-27 207,-18 Q202,-5 193,5 Q171,2 117,-5 Q75,-12 52,-15 Q51,-26 45,-26 Q44,-26 42,-22 L33,4 Q47,6 55,15 Q75,38 101,83 L10,83 L10,90 L115,90 L115,147 L28,147 L28,154 L115,154 Q115,186 114,208 L145,206 Q149,206 149,203 Q149,198 136,194 L136,154 L188,154 L201,172 L226,154 Q229,153 228,151 Q228,147 220,147 L136,147 L136,90 L205,90 L220,110 L246,90 Q248,89 248,87 Q247,83 239,83 L130,83 Q93,35 60,5 Q65,5 75,6 Q151,10 188,13 Q174,33 151,55 L154,58 Q228,18 230,-10 Q229,-25 217,-27"/> 
            <glyph glyph-name="双" unicode="&#x53CC;" horiz-adv-x="253" d=" M108,15 Q103,14 99,22 Q86,50 78,63 Q57,18 8,-21 L4,-17 Q45,31 66,83 Q42,118 17,145 L19,148 Q51,125 73,102 Q84,135 90,176 L13,176 L13,183 L86,183 L95,198 L119,184 L203,184 L213,199 L240,185 Q243,183 243,180 Q243,176 229,171 Q216,92 188,52 Q211,22 253,-4 L251,-9 Q234,-8 227,-24 Q190,8 175,33 Q148,0 92,-29 L89,-25 Q137,12 164,51 Q142,93 132,177 L121,177 Q119,174 110,171 Q103,122 88,86 Q99,74 106,63 Q119,44 119,30 Q119,16 108,15 M138,177 Q156,105 176,71 Q197,111 207,177"/> 
            <glyph glyph-name="发" unicode="&#x53D1;" horiz-adv-x="249" d=" M55,-28 L52,-24 Q110,-3 140,21 Q116,46 101,88 L99,88 Q76,28 11,-16 L8,-12 Q74,53 92,132 L49,132 L41,122 Q35,126 25,134 Q23,135 23,135 Q20,138 23,140 Q29,143 30,148 L35,166 Q37,178 38,190 L65,185 Q65,185 66,185 Q68,184 68,182 Q68,176 56,175 L47,139 L93,139 Q97,156 100,175 Q103,189 103,208 L135,204 Q138,204 138,201 Q138,196 125,193 Q121,163 115,139 L209,139 L223,157 L247,139 Q249,138 249,136 Q249,133 240,132 L113,132 Q108,112 102,95 L185,95 L196,109 L221,93 Q224,92 224,89 Q225,83 210,81 Q193,46 169,23 Q201,3 249,-4 L247,-9 Q232,-10 227,-26 Q183,-12 153,9 Q118,-16 55,-28 M189,88 L108,88 Q125,57 153,34 Q176,57 189,88 M190,152 Q184,152 181,158 Q176,174 156,192 L158,195 Q202,183 202,165 Q201,153 190,152"/> 
            <glyph glyph-name="受" unicode="&#x53D7;" horiz-adv-x="247" d=" M227,-25 Q163,-15 128,5 Q82,-19 14,-27 L12,-23 Q80,-5 113,16 Q89,37 71,75 L49,75 L49,82 L167,82 L179,96 L203,80 Q207,78 207,75 Q208,70 191,68 Q172,38 146,18 Q185,0 247,0 L247,-5 Q233,-8 227,-25 M22,74 Q12,75 11,85 Q11,92 17,98 Q32,111 37,133 L40,133 Q41,126 41,118 L160,118 Q178,148 182,169 L209,159 Q212,158 212,156 Q211,150 198,151 Q188,136 168,118 L205,118 L217,131 L240,114 Q244,111 244,110 Q245,104 230,104 Q229,103 225,101 Q210,90 200,85 L197,88 L209,111 L41,111 Q41,109 40,104 Q40,99 39,97 Q36,75 22,74 M170,75 L78,75 Q100,45 128,27 Q154,48 170,75 M27,169 L26,174 Q130,189 167,199 Q179,201 197,208 L216,192 Q219,189 219,188 Q219,184 214,184 Q210,184 202,187 Q126,173 27,169 M129,126 Q123,126 121,134 Q118,151 105,167 L108,170 Q141,156 141,140 Q140,128 129,126 M74,121 Q69,121 67,127 Q62,146 51,161 L54,163 Q86,149 86,133 Q85,122 74,121"/> 
            <glyph glyph-name="变" unicode="&#x53D8;" horiz-adv-x="246" d=" M226,-25 Q161,-15 129,4 Q82,-21 15,-28 L14,-24 Q76,-7 113,16 Q89,37 73,73 L51,73 L51,80 L165,80 L177,93 L201,78 Q205,75 205,73 Q206,68 189,66 Q171,38 147,17 Q183,1 246,-1 L245,-5 Q229,-10 226,-25 M13,167 L13,174 L206,174 L220,191 L243,174 Q246,171 246,170 Q246,167 237,167 L163,167 L163,150 Q163,145 163,132 Q164,109 164,97 Q164,92 160,91 Q152,89 144,89 L144,167 L109,167 L109,97 Q110,91 104,90 Q94,88 89,88 Q89,97 90,117 Q90,138 90,146 L90,167 M168,73 L80,73 Q103,42 129,27 Q152,46 168,73 M11,77 L8,80 Q46,121 58,152 L82,138 Q85,137 85,135 Q85,130 72,131 Q50,101 11,77 M223,89 Q218,89 215,95 Q202,119 172,144 L174,147 Q234,125 234,103 Q233,90 223,89 M126,174 Q119,174 118,181 Q115,196 105,207 L107,209 Q139,202 139,186 Q138,175 126,174"/> 
            <glyph glyph-name="口" unicode="&#x53E3;" horiz-adv-x="231" d=" M197,-8 L197,18 L59,18 L59,0 Q60,-5 54,-7 Q44,-9 36,-9 Q37,24 37,72 L37,129 Q37,155 37,180 L67,169 L192,169 L201,184 L227,172 Q231,170 231,168 Q231,163 219,158 L219,92 Q219,82 219,51 Q220,14 220,0 Q220,-4 216,-5 Q215,-5 213,-6 Q202,-8 197,-8 M197,162 L59,162 L59,25 L197,25"/> 
            <glyph glyph-name="另" unicode="&#x53E6;" horiz-adv-x="231" d=" M48,102 Q48,127 48,142 L48,170 Q48,182 48,199 L75,190 L183,190 L191,204 L215,192 Q218,191 218,188 Q219,185 207,179 L207,156 Q207,136 208,115 Q208,110 204,109 Q194,107 187,107 L187,120 L69,120 L69,110 Q69,104 64,103 Q59,102 48,102 M172,-25 Q174,-8 132,-2 L133,1 L178,0 Q197,-2 197,18 Q197,27 198,43 Q198,60 199,69 L119,69 Q114,-1 10,-28 L8,-24 Q90,12 97,69 L22,69 L22,76 L98,76 Q98,79 99,81 Q99,84 99,91 Q100,104 99,112 L131,110 Q134,109 134,106 Q134,102 122,98 Q122,86 120,76 L194,76 L203,91 L228,78 Q231,77 231,75 Q231,70 220,65 Q220,35 219,12 Q218,-23 172,-25 M187,183 L69,183 L69,127 L187,127"/> 
            <glyph glyph-name="只" unicode="&#x53EA;" horiz-adv-x="230" d=" M190,60 L190,78 L66,78 L66,63 Q67,58 61,57 Q51,55 44,55 Q45,75 45,120 L45,159 Q45,185 44,196 L73,186 L185,186 L194,200 L219,188 Q223,187 223,184 Q223,179 211,174 L211,136 Q211,132 211,114 Q212,81 212,68 Q212,64 208,62 Q200,60 190,60 M190,178 L66,178 L66,86 L190,86 M18,-29 L15,-25 Q53,3 76,34 Q84,45 89,57 L119,42 Q122,41 121,39 Q121,33 105,34 Q72,-6 18,-29 M217,-25 Q211,-25 207,-16 Q188,20 149,51 L152,55 Q229,20 230,-8 Q229,-24 217,-25"/> 
            <glyph glyph-name="可" unicode="&#x53EF;" horiz-adv-x="248" d=" M120,30 L120,47 L59,47 L59,30 Q59,25 56,25 Q47,23 38,23 Q39,40 39,77 L39,110 Q39,128 39,144 L66,134 L115,134 L124,149 L147,137 Q151,134 151,133 Q152,129 140,123 L140,92 Q140,59 141,37 Q141,33 137,32 Q129,30 120,30 M12,179 L12,186 L204,186 L219,206 L246,186 Q248,185 248,183 Q247,179 239,179 L208,179 L208,66 Q208,62 208,42 Q209,10 209,0 Q212,-23 170,-27 Q173,-7 134,-3 L135,0 L177,0 Q187,-2 187,7 L187,179 M120,127 L59,127 L59,54 L120,54"/> 
            <glyph glyph-name="台" unicode="&#x53F0;" horiz-adv-x="231" d=" M46,-27 Q47,-4 47,22 L47,51 Q47,63 47,83 L74,74 L183,74 L191,88 L215,76 Q219,75 219,72 Q220,68 208,63 L208,34 Q208,5 209,-18 Q209,-23 205,-24 Q197,-26 187,-26 L187,-5 L69,-5 L69,-19 Q69,-24 64,-25 Q52,-27 46,-27 M187,67 L69,67 L69,0 L187,0 M38,89 Q37,89 35,94 L26,121 Q40,121 50,133 Q73,153 91,181 Q98,190 105,206 Q106,208 107,209 L136,197 Q139,196 139,194 Q139,188 124,188 Q97,152 56,122 L191,127 Q179,143 158,162 L160,165 Q228,134 231,106 Q230,92 219,91 Q213,91 210,99 Q204,108 199,117 Q122,107 45,101 Q44,89 38,89"/> 
            <glyph glyph-name="各" unicode="&#x5404;" horiz-adv-x="249" d=" M231,66 Q167,79 130,103 Q85,74 9,57 L7,62 Q75,85 116,114 Q96,132 78,156 Q61,132 26,107 L23,111 Q72,166 84,210 L112,202 Q115,201 115,199 Q115,193 102,193 Q101,191 99,187 Q96,181 94,179 L170,179 L182,193 L206,177 Q210,175 210,172 Q211,168 195,164 Q173,135 146,114 Q187,95 249,88 L249,83 Q236,81 231,66 M180,-27 L180,-7 L75,-7 L75,-19 Q75,-25 71,-25 Q62,-28 54,-27 Q55,2 55,21 L55,37 Q55,55 54,69 L82,60 L176,60 L184,73 L208,62 Q212,60 212,58 Q213,54 201,49 L201,24 Q201,9 202,-19 Q202,-24 198,-25 Q190,-27 180,-27 M180,53 L75,53 L75,0 L180,0 M173,172 L89,172 Q87,169 84,163 Q82,162 82,161 Q104,139 128,124 Q155,145 173,172"/> 
            <glyph glyph-name="合" unicode="&#x5408;" horiz-adv-x="250" d=" M184,-27 L184,-5 L67,-5 L67,-19 Q67,-25 63,-25 Q57,-27 46,-27 Q47,-5 47,26 L47,42 Q47,60 47,79 L75,70 L179,70 L188,84 L212,72 Q216,71 216,69 Q216,64 204,59 L204,31 Q204,27 204,15 Q205,-7 205,-19 Q205,-24 202,-25 Q200,-26 193,-26 Q187,-27 184,-27 M184,63 L67,63 L67,0 L184,0 M10,91 L8,95 Q73,137 100,182 Q110,200 112,209 L143,201 Q146,201 146,198 Q146,193 133,191 Q179,139 250,122 L249,117 Q236,115 230,99 Q160,128 129,186 Q94,125 10,91 M60,107 L60,114 L150,114 L163,132 L186,114 Q189,113 188,111 Q188,108 180,107"/> 
            <glyph glyph-name="同" unicode="&#x540C;" horiz-adv-x="240" d=" M191,-27 Q195,-8 157,-4 L158,0 L197,-2 Q207,-3 207,5 L207,179 L48,179 L48,-18 Q48,-24 43,-25 Q33,-27 26,-27 Q27,-6 27,12 Q27,28 27,62 L27,146 Q27,168 27,196 L54,186 L202,186 L211,200 L235,189 Q239,186 239,185 Q240,181 228,175 L228,74 Q228,27 229,0 Q233,-25 191,-27 M154,20 L154,35 L100,35 L100,25 Q101,19 95,18 Q87,16 80,16 Q81,32 81,58 L81,86 Q81,104 80,115 L105,106 L149,106 L157,120 L180,109 Q184,107 184,105 Q185,102 173,96 L173,65 Q173,45 174,29 Q175,23 169,22 Q161,20 154,20 M154,100 L100,100 L100,42 L154,42 M65,139 L65,146 L155,146 L168,162 L191,146 Q194,143 193,142 Q193,139 185,139"/> 
            <glyph glyph-name="含" unicode="&#x542B;" horiz-adv-x="250" d=" M185,-27 L185,-10 L71,-10 L71,-20 Q71,-25 67,-25 Q58,-28 50,-27 Q50,-17 51,0 Q51,14 51,21 L51,35 Q51,42 50,53 Q50,61 50,64 L78,55 L180,55 L190,68 L213,57 Q217,54 217,53 Q218,49 206,43 L206,31 Q206,1 207,-19 Q207,-24 203,-25 Q193,-27 185,-27 M185,47 L71,47 L71,-3 L185,-3 M9,94 L7,98 Q64,136 97,176 Q111,198 115,209 L144,202 Q147,201 147,198 Q148,194 133,192 Q178,146 250,127 L249,122 Q235,120 230,105 Q160,136 130,188 Q88,128 9,94 M162,63 Q156,63 146,65 L166,100 L50,100 L50,107 L162,107 L173,121 L197,107 Q201,106 201,103 Q201,100 188,96 L169,66 Q167,62 162,63 M129,116 Q123,116 121,123 Q115,142 106,155 L108,157 Q140,143 140,128 Q139,118 129,116"/> 
            <glyph glyph-name="吸" unicode="&#x5438;" horiz-adv-x="251" d=" M57,-24 L53,-20 Q123,44 120,182 L96,182 L96,189 L183,189 L192,202 L214,189 Q218,188 218,186 Q218,181 206,178 L188,122 L207,122 L216,135 L240,121 Q243,120 243,118 Q243,113 230,109 Q214,56 192,31 Q216,7 251,-4 L250,-8 Q235,-10 229,-26 Q196,-7 177,15 Q149,-8 101,-27 L98,-24 Q142,1 167,30 Q147,61 135,115 Q127,25 57,-24 M18,21 Q19,44 19,93 L19,131 Q19,165 18,182 L44,174 L63,174 L71,187 L92,176 Q95,175 95,173 Q95,168 85,164 L85,101 Q85,62 86,43 Q86,38 82,38 Q79,37 72,36 Q69,35 67,35 L67,56 L37,56 L37,29 Q37,25 33,23 Q25,21 18,21 M183,106 Q172,111 164,117 Q163,120 164,122 Q170,125 171,131 L186,182 L139,182 Q139,161 137,131 Q155,74 179,45 Q201,78 210,114 L189,114 M67,167 L37,167 L37,63 L67,63"/> 
            <glyph glyph-name="吹" unicode="&#x5439;" horiz-adv-x="251" d=" M20,16 Q21,42 21,89 L21,133 Q21,168 20,185 L45,176 L67,176 L76,189 L97,178 Q100,177 100,175 Q100,170 90,165 L90,100 Q90,92 90,71 Q91,46 91,34 Q91,30 87,28 Q79,26 72,26 L72,51 L40,51 L40,24 Q40,19 36,19 Q28,16 20,16 M226,-25 Q175,16 167,97 Q165,9 65,-28 L62,-24 Q145,23 146,98 Q148,116 146,131 L177,129 Q180,129 180,126 Q180,121 168,118 Q189,21 251,-5 L249,-10 Q234,-10 226,-25 M97,86 L93,88 Q118,134 127,179 Q130,194 131,209 L161,203 Q165,202 165,200 Q166,195 151,193 Q146,172 140,157 L210,157 L220,171 L244,156 Q248,153 248,152 Q247,146 234,146 Q226,134 202,108 L198,111 L213,150 L137,150 Q124,116 97,86 M72,169 L40,169 L40,57 L72,57"/> 
            <glyph glyph-name="告" unicode="&#x544A;" horiz-adv-x="247" d=" M185,-26 L185,-5 L67,-5 L67,-19 Q67,-24 63,-25 Q54,-27 46,-27 Q47,-2 47,22 L47,38 Q47,60 46,73 L74,64 L180,64 L189,78 L213,66 Q217,64 217,62 Q218,59 206,52 L206,31 Q206,3 207,-19 Q207,-24 203,-24 Q193,-26 185,-26 M25,107 L21,109 Q38,138 48,168 Q48,170 49,173 Q53,185 55,198 L84,191 Q87,190 87,188 Q87,183 74,180 Q72,177 69,170 Q65,161 63,157 L117,157 L117,167 Q117,189 116,208 L147,206 Q150,206 150,203 Q150,199 138,194 L138,157 L187,157 L200,175 L224,157 Q226,156 226,154 Q226,151 217,150 L138,150 L138,102 L205,102 L219,121 L244,102 Q247,101 246,99 Q246,96 238,95 L12,95 L12,102 L117,102 L117,150 L59,150 Q46,128 25,107 M185,57 L67,57 L67,0 L185,0"/> 
            <glyph glyph-name="味" unicode="&#x5473;" horiz-adv-x="251" d=" M227,-6 Q190,24 173,91 L172,91 L172,76 Q172,7 173,-18 Q174,-24 168,-25 Q158,-27 151,-27 Q152,3 152,62 L152,76 Q127,25 71,-11 L68,-8 Q116,36 138,91 L91,91 L91,98 L152,98 L152,150 L104,150 L104,157 L152,157 Q152,194 151,208 L180,206 Q184,205 184,203 Q184,198 172,194 L172,157 L197,157 L209,174 L231,157 Q234,156 233,154 Q233,151 225,150 L172,150 L172,98 L207,98 L221,116 L243,99 Q244,98 245,98 Q246,97 246,95 Q245,91 237,91 L180,91 Q205,37 251,10 L250,6 Q234,5 227,-6 M19,19 Q19,28 19,50 Q20,76 20,89 L20,136 Q20,174 19,185 L44,176 L65,176 L73,189 L93,179 Q97,176 97,175 Q98,171 87,166 L87,110 Q87,73 88,38 Q88,34 84,33 Q76,31 69,31 L69,52 L38,52 L38,26 Q38,23 33,21 Q26,19 19,19 M69,170 L38,170 L38,58 L69,58"/> 
            <glyph glyph-name="和" unicode="&#x548C;" horiz-adv-x="249" d=" M134,-15 Q134,-3 134,24 Q135,56 135,73 L135,124 Q135,164 134,180 L161,171 L212,171 L220,185 L244,174 Q248,171 248,170 Q249,166 237,160 L237,86 Q237,28 238,-4 Q238,-9 234,-10 Q226,-12 217,-12 L217,15 L155,15 L155,-7 Q155,-12 150,-13 Q140,-15 134,-15 M217,164 L155,164 L155,23 L217,23 M107,48 Q102,49 99,55 Q93,76 78,93 L78,-18 Q79,-25 73,-25 Q68,-27 58,-27 Q59,-6 59,16 Q59,37 59,71 L59,90 Q40,49 8,18 L5,20 Q38,70 52,119 L8,119 L8,126 L59,126 L59,175 Q38,172 10,169 L9,174 Q79,191 103,207 L121,193 Q124,191 123,188 Q123,185 119,184 Q115,184 109,187 Q94,182 78,179 L78,126 L94,126 L106,142 L128,126 Q129,125 129,124 Q130,124 130,123 Q129,120 122,119 L78,119 L78,100 Q119,82 118,62 Q117,50 107,48"/> 
            <glyph glyph-name="品" unicode="&#x54C1;" horiz-adv-x="242" d=" M176,100 L176,116 L81,116 L81,105 Q81,100 76,100 Q68,98 60,98 Q61,121 61,154 L61,166 Q61,181 60,198 L88,189 L171,189 L179,202 L204,191 Q207,189 207,187 Q207,183 196,177 L196,161 Q196,128 197,107 Q197,103 193,102 Q183,100 176,100 M213,-23 L213,-5 L160,-5 L160,-15 Q160,-21 156,-21 Q150,-23 141,-23 Q141,1 141,22 L141,57 Q141,67 141,88 L168,79 L209,79 L217,92 L238,81 Q242,80 242,77 Q242,73 232,69 L232,27 Q232,11 232,-15 Q233,-21 229,-21 Q221,-23 213,-23 M93,-22 L93,-5 L43,-5 L43,-16 Q43,-22 38,-22 Q30,-25 24,-24 Q24,0 24,20 L24,57 Q24,67 24,88 L51,79 L89,79 L97,92 L119,81 Q122,80 122,78 Q122,73 112,69 L112,29 Q112,12 112,-14 Q113,-18 109,-20 Q101,-22 93,-22 M176,181 L81,181 L81,123 L176,123 M213,72 L160,72 L160,0 L213,0 M93,72 L43,72 L43,0 L93,0"/> 
            <glyph glyph-name="响" unicode="&#x54CD;" horiz-adv-x="246" d=" M94,-27 Q95,-2 95,67 L95,124 Q95,149 95,171 L120,163 L134,163 Q138,187 138,208 L167,204 Q171,204 171,201 Q171,196 158,193 Q154,180 143,163 L211,163 L219,176 L241,165 Q245,164 245,161 Q246,157 234,152 L234,84 Q234,37 234,-1 Q238,-22 202,-26 Q204,-9 171,-5 L172,-1 L206,-2 Q215,-3 215,4 L215,155 L114,155 L114,-20 Q114,-23 110,-25 Q103,-27 94,-27 M60,30 L60,48 L33,48 L33,27 Q33,23 29,22 Q23,19 15,19 Q16,50 16,102 L16,131 Q16,137 15,158 Q15,176 15,181 L39,172 L56,172 L63,185 L84,175 Q87,173 87,171 Q88,167 77,162 L77,38 Q77,34 73,32 Q65,30 60,30 M178,27 L178,41 L150,41 L150,29 Q150,25 146,24 Q136,22 132,22 Q133,39 133,74 L133,92 Q133,119 132,129 L155,120 L173,120 L181,133 L201,123 Q204,121 204,119 Q205,115 195,110 L195,83 Q195,56 195,34 Q195,29 191,29 Q185,27 178,27 M60,165 L33,165 L33,55 L60,55 M178,113 L150,113 L150,48 L178,48"/> 
            <glyph glyph-name="商" unicode="&#x5546;" horiz-adv-x="245" d=" M29,-28 Q30,-5 30,47 L30,88 Q30,124 29,134 L56,125 L143,125 Q152,148 155,164 L181,156 Q184,156 184,153 Q184,148 172,147 Q164,138 150,125 L196,125 L204,139 L227,127 Q231,126 231,124 Q232,120 220,114 L220,71 Q220,38 220,-2 Q224,-24 188,-28 Q190,-11 158,-7 L159,-2 L191,-3 Q200,-4 200,3 L200,118 L49,118 L49,-20 Q49,-25 45,-26 Q44,-26 42,-26 Q36,-28 29,-28 M148,5 L148,18 L102,18 L102,9 Q102,4 98,4 Q90,2 82,2 Q83,20 83,40 L83,74 Q71,65 55,58 L53,61 Q82,88 94,111 L117,101 Q120,100 120,98 Q121,92 106,93 Q97,84 86,76 L107,69 L144,69 L151,81 L173,70 Q176,69 176,67 Q177,63 166,58 L166,42 Q166,36 166,28 Q167,20 167,12 Q167,7 164,7 Q155,5 148,5 M12,169 L12,175 L207,175 L220,192 L243,175 Q245,174 245,172 Q245,169 237,169 M148,62 L102,62 L102,24 L148,24 M187,67 Q184,66 179,72 Q163,90 140,105 L141,108 Q193,97 195,78 Q194,68 187,67 M94,125 Q89,125 87,132 Q83,147 72,159 L74,162 Q105,153 105,137 Q104,126 94,125 M126,176 Q120,176 118,183 Q113,197 104,207 L107,209 Q138,202 138,187 Q138,176 126,176"/> 
            <glyph glyph-name="器" unicode="&#x5668;" horiz-adv-x="249" d=" M139,-26 Q140,-12 140,8 L140,22 Q140,33 140,52 L165,43 L198,43 L204,53 Q161,63 139,95 L117,95 Q96,64 43,48 L59,43 L91,43 L99,56 L120,46 Q123,43 123,42 Q124,38 113,33 L113,12 Q113,-1 114,-17 Q115,-23 109,-24 Q101,-26 94,-26 L94,-8 L52,-8 L52,-19 Q52,-24 47,-25 Q39,-27 33,-27 Q34,-13 34,7 L34,21 Q34,36 33,45 Q23,42 9,39 L7,43 Q70,67 92,95 L11,95 L11,102 L98,102 Q99,103 99,104 Q100,106 100,106 Q107,117 110,131 Q110,130 107,128 Q105,127 100,127 Q94,126 92,126 L92,135 L51,135 L51,128 Q51,124 47,122 Q39,121 33,121 Q33,127 34,141 Q34,152 34,157 L34,167 Q34,180 33,195 L59,186 L88,186 L96,199 L117,188 Q121,187 121,185 Q122,181 110,175 L110,165 Q110,161 110,152 Q111,141 111,135 L111,132 L138,124 Q141,124 141,121 Q141,117 128,115 Q128,114 127,112 Q125,109 121,102 L178,102 Q175,102 174,106 Q170,116 161,125 L164,128 Q190,123 190,112 Q190,104 182,102 L206,102 L219,119 L243,102 Q244,101 244,100 Q245,100 245,99 Q245,96 237,95 L147,95 Q182,70 249,70 L248,65 Q237,64 232,48 Q230,48 227,49 Q220,50 217,51 L227,46 Q231,43 231,42 Q232,39 220,33 L220,12 Q220,-1 221,-17 Q221,-23 217,-24 Q209,-26 202,-26 L202,-8 L158,-8 L158,-18 Q158,-24 154,-25 Q147,-26 139,-26 M201,126 L201,135 L159,135 L159,133 Q160,127 154,126 Q150,125 140,125 Q141,138 141,161 L141,168 Q141,182 140,194 L166,186 L197,186 L205,199 L227,188 Q230,187 230,185 Q230,180 220,175 L220,165 Q220,152 220,134 Q220,130 216,128 Q208,126 201,126 M202,36 L158,36 L158,-1 L202,-1 M94,36 L52,36 L52,-1 L94,-1 M201,179 L159,179 L159,142 L201,142 M92,179 L51,179 L51,142 L92,142"/> 
            <glyph glyph-name="噪" unicode="&#x566A;" horiz-adv-x="251" d=" M60,27 L60,50 L34,50 L34,25 Q34,21 30,19 Q27,18 21,17 Q17,16 16,16 Q16,69 16,98 L16,128 Q16,151 16,185 L40,177 L56,177 L64,190 L84,180 Q88,178 88,176 Q89,174 78,167 L78,36 Q79,31 73,29 Q67,27 60,27 M87,47 L87,54 L154,54 Q154,64 153,76 L179,74 Q183,73 183,71 Q184,67 172,63 L172,54 L213,54 L225,69 L246,54 Q249,52 248,50 Q246,47 240,47 L181,47 Q207,15 251,2 L250,-1 Q237,-1 231,-16 Q193,4 174,47 L172,47 L172,27 Q172,21 172,7 Q173,-9 173,-18 Q174,-24 169,-25 Q162,-27 153,-27 Q154,-5 154,23 L154,37 Q132,4 74,-21 L71,-17 Q117,12 140,47 M115,140 Q115,155 115,166 L115,178 Q115,190 115,201 L140,193 L191,193 L199,205 L220,195 Q224,194 224,191 Q224,189 214,183 L214,175 Q214,157 215,150 Q216,144 210,144 Q204,142 195,142 L195,153 L134,153 L134,148 Q135,143 129,142 Q123,140 115,140 M138,76 L138,85 L110,85 L110,80 Q111,75 105,74 Q99,72 92,72 Q93,88 93,100 L93,111 Q93,126 92,134 L116,127 L134,127 L141,138 L160,129 Q164,126 164,125 Q165,122 154,117 L154,109 Q154,97 155,84 Q155,79 151,78 Q145,76 138,76 M172,77 Q173,92 173,104 L173,111 Q173,126 172,134 L196,127 L215,127 L222,138 L241,129 Q244,126 244,125 Q244,121 235,117 L235,110 Q235,99 236,84 Q236,80 231,78 Q226,76 218,76 L218,85 L189,85 Q189,79 185,78 Q179,77 172,77 M60,170 L34,170 L34,57 L60,57 M195,186 L134,186 L134,159 L195,159 M218,121 L189,121 L189,92 L218,92 M138,121 L110,121 L110,92 L138,92"/> 
            <glyph glyph-name="四" unicode="&#x56DB;" horiz-adv-x="243" d=" M210,-26 L210,0 L46,0 L46,-18 Q47,-23 41,-24 Q33,-26 25,-26 Q26,0 26,63 L26,142 Q26,174 25,194 L53,184 L204,184 L213,198 L238,186 Q242,185 242,182 Q243,177 230,171 L230,82 Q230,15 231,-16 Q231,-22 227,-23 Q224,-24 216,-25 Q212,-26 210,-26 M50,33 L47,36 Q91,84 88,142 L88,176 L46,176 L46,6 L210,6 L210,176 L165,176 L165,78 Q165,70 172,70 L184,70 Q189,70 193,74 Q195,77 198,74 Q203,69 207,66 Q210,63 209,60 Q210,57 204,55 Q197,52 185,52 L164,52 Q147,53 146,71 L146,176 L108,176 L108,142 Q112,70 50,33"/> 
            <glyph glyph-name="因" unicode="&#x56E0;" horiz-adv-x="243" d=" M24,-27 Q25,6 25,68 L25,138 Q25,168 25,201 L51,191 L206,191 L214,206 L239,194 Q243,193 242,190 Q242,186 231,180 L231,110 Q231,21 232,-18 Q232,-23 229,-24 Q219,-26 210,-26 L210,-12 L45,-12 L45,-19 Q45,-24 41,-25 Q31,-27 24,-27 M210,184 L45,184 L45,-4 L210,-4 M57,114 L57,121 L114,121 Q114,123 115,127 Q115,130 115,132 L115,141 Q115,147 114,158 Q114,168 114,173 L144,170 Q147,170 147,167 Q147,162 135,158 L135,131 Q135,126 134,121 L165,121 L178,138 L200,121 Q202,120 202,118 Q202,115 193,114 L134,114 Q133,99 129,86 Q192,56 193,31 Q192,17 181,16 Q176,16 173,24 Q160,51 128,81 Q117,43 55,11 L52,15 Q114,60 114,114"/> 
            <glyph glyph-name="国" unicode="&#x56FD;" horiz-adv-x="243" d=" M23,-27 Q25,10 25,68 L25,140 Q25,185 24,201 L51,191 L206,191 L215,206 L239,194 Q243,192 243,190 Q243,185 231,180 L231,111 Q231,35 233,-18 Q233,-24 229,-25 Q221,-27 211,-27 L211,-12 L44,-12 L44,-19 Q44,-24 40,-25 Q30,-27 23,-27 M211,184 L44,184 L44,-4 L211,-4 M61,142 L61,149 L164,149 L176,164 L196,148 Q196,148 197,147 Q198,147 198,146 Q198,143 190,142 L134,142 L134,99 L158,99 L169,114 L188,99 Q190,98 190,96 Q190,93 182,93 L134,93 L134,36 L169,36 L180,52 L202,36 Q204,35 204,33 Q204,30 197,30 L55,30 L55,36 L115,36 L115,93 L69,93 L69,99 L115,99 L115,142 M166,47 Q162,47 160,54 Q154,70 145,80 L147,83 Q177,73 177,59 Q176,48 166,47"/> 
            <glyph glyph-name="在" unicode="&#x5728;" horiz-adv-x="250" d=" M14,158 L14,165 L87,165 Q88,169 91,175 Q98,195 100,208 L132,201 Q135,201 135,198 Q135,192 120,191 Q118,185 114,174 Q111,168 110,165 L206,165 L220,184 L244,165 Q247,164 247,162 Q246,158 238,158 L106,158 Q90,121 71,98 L71,-18 Q71,-24 66,-25 Q60,-27 49,-27 Q51,32 51,54 L51,76 Q33,58 8,41 L6,45 Q35,76 51,99 L51,116 L61,114 Q73,135 84,158 M89,77 L89,84 L146,84 L146,100 Q146,111 145,126 Q145,138 145,143 L175,140 Q178,140 178,137 Q178,132 166,128 L166,84 L199,84 L212,101 L235,84 Q238,82 237,81 Q237,78 229,77 L166,77 L166,-1 L206,-1 L221,18 L247,-1 Q250,-3 249,-4 Q249,-8 241,-8 L78,-8 L78,-1 L146,-1 L146,77"/> 
            <glyph glyph-name="地" unicode="&#x5730;" horiz-adv-x="249" d=" M130,-16 Q102,-17 103,8 L103,110 L80,104 L78,110 L103,117 L103,132 Q103,166 102,182 L131,179 Q134,179 134,177 Q134,172 122,168 L122,122 L156,132 L156,169 Q156,191 155,208 L184,205 Q187,205 187,202 Q188,198 174,194 L174,137 L206,147 L214,161 L237,150 Q240,149 240,147 Q240,142 230,136 Q230,127 229,106 Q228,81 227,71 Q228,47 196,44 Q197,58 175,63 L176,67 L198,66 Q208,64 208,75 Q211,101 211,142 L174,131 L174,33 Q175,27 169,26 Q163,24 155,24 Q155,39 156,66 Q156,89 156,99 L156,126 L122,116 L122,12 Q122,1 133,1 L211,1 Q222,0 226,10 L237,52 L241,51 L241,14 Q241,6 245,4 Q249,1 249,-1 Q247,-15 218,-16 M8,123 L8,130 L38,130 L38,155 Q38,185 37,205 L65,202 Q69,202 69,200 Q69,195 57,191 L57,130 L62,130 L72,145 L91,130 Q94,127 93,126 Q94,123 85,123 L57,123 L57,42 Q63,44 75,48 Q84,51 89,53 L91,49 Q58,27 24,12 Q24,0 19,0 Q18,0 16,3 L7,30 Q16,31 31,35 Q35,35 38,37 L38,123"/> 
            <glyph glyph-name="基" unicode="&#x57FA;" horiz-adv-x="251" d=" M19,169 L19,176 L64,176 Q64,181 64,192 Q63,203 63,208 L93,206 Q97,205 97,202 Q97,197 84,194 L84,176 L165,176 Q165,199 164,208 L194,206 Q198,206 198,203 Q198,198 185,194 L185,176 L205,176 L217,192 L238,176 Q239,175 240,174 Q241,174 241,173 Q241,169 232,169 L185,169 L185,84 L209,84 L222,102 L246,84 Q249,83 248,81 Q249,78 240,78 L165,78 Q201,46 251,38 L250,34 Q238,32 232,17 Q180,37 157,78 L102,78 Q72,33 8,8 L5,12 Q57,45 77,78 L9,78 L9,84 L64,84 L64,163 L64,169 M63,22 L63,29 L116,29 Q116,36 115,48 Q115,59 115,64 L143,62 Q147,62 147,59 Q147,54 135,51 L135,29 L157,29 L169,45 L190,29 Q193,28 193,26 Q192,22 184,22 L135,22 L135,-10 L199,-10 L212,6 L236,-10 Q239,-12 239,-13 Q239,-17 230,-17 L23,-17 L23,-10 L116,-10 L116,22 M165,145 L165,163 L165,169 L84,169 L84,145 M84,108 L84,84 L165,84 L165,108 M84,138 L84,115 L165,115 L165,138"/> 
            <glyph glyph-name="墙" unicode="&#x5899;" horiz-adv-x="251" d=" M211,-27 L211,-12 L110,-12 L110,-19 Q111,-24 105,-25 Q97,-27 90,-27 Q90,-17 91,6 Q91,23 91,29 L91,94 L116,86 L207,86 L215,99 L237,88 Q241,87 241,84 Q242,81 230,75 L230,34 Q230,10 231,-19 Q231,-24 227,-25 Q220,-27 211,-27 M211,79 L110,79 L110,-5 L211,-5 M83,168 L83,176 L150,176 Q150,182 150,193 Q149,204 149,209 L177,207 Q181,206 181,204 Q181,199 168,195 L168,176 L208,176 L221,191 L242,175 Q244,174 244,172 Q244,169 236,168 L168,168 L168,113 L180,113 Q194,143 197,163 L222,154 Q222,154 223,154 Q225,153 225,151 Q225,146 212,146 Q204,132 187,113 L214,113 L227,131 L249,113 Q251,112 251,110 Q251,107 243,107 L75,107 L75,113 L150,113 L150,167 L150,168 M8,128 L8,135 L37,135 L37,157 Q37,169 36,188 Q36,201 36,207 L63,205 Q67,204 67,202 Q67,197 55,193 L55,135 L59,135 L70,150 L89,135 Q92,133 91,132 Q92,129 83,128 L55,128 L55,45 Q68,49 85,55 L87,51 Q61,33 23,14 Q23,3 18,2 Q15,2 15,6 L6,32 Q10,33 21,35 Q26,36 29,37 Q31,38 33,38 Q36,39 37,39 L37,128 M174,7 L174,18 L147,18 L147,12 Q147,7 143,6 Q142,6 141,6 Q136,4 131,4 L131,65 L152,59 L170,59 L177,70 L197,60 Q200,59 199,57 Q199,52 190,49 L190,15 Q190,10 186,9 Q180,7 174,7 M174,52 L147,52 L147,24 L174,24 M124,118 Q119,118 116,124 Q113,142 101,160 L103,162 Q136,145 135,130 Q135,119 124,118"/> 
            <glyph glyph-name="增" unicode="&#x589E;" horiz-adv-x="246" d=" M90,79 Q90,101 90,122 L90,147 Q90,165 90,179 L115,171 L172,171 Q183,194 186,209 L211,202 Q215,201 215,199 Q215,193 201,193 Q194,183 180,171 L212,171 L219,184 L241,173 Q245,172 245,169 Q246,166 234,161 L234,132 Q234,125 235,109 Q235,94 235,88 Q235,84 231,82 Q227,81 216,81 L216,92 L109,92 L109,86 Q109,81 105,81 Q98,79 90,79 M203,-27 L203,-11 L122,-11 L122,-20 Q122,-24 118,-25 Q110,-27 101,-27 Q102,-7 102,29 L102,45 Q102,62 102,76 L130,67 L199,67 L207,80 L230,69 Q233,68 233,66 Q234,62 222,57 L222,35 Q222,29 222,14 Q223,-8 223,-20 Q223,-24 220,-25 Q210,-27 203,-27 M8,128 L8,135 L38,135 L38,155 Q38,192 37,205 L65,202 Q69,202 69,200 Q69,195 57,191 L57,135 L60,135 L70,149 L88,135 Q90,134 90,132 Q90,129 81,128 L57,128 L57,48 Q72,53 89,60 L92,55 Q61,35 24,17 Q24,5 19,5 Q18,5 16,8 L6,34 Q17,36 29,40 Q34,40 38,42 L38,128 M216,164 L170,164 L170,98 L216,98 M109,164 L109,98 L153,98 L153,164 M122,24 L122,-4 L203,-4 L203,24 M203,60 L122,60 L122,30 L203,30 M179,105 L175,106 Q187,133 190,152 L212,145 Q215,144 215,142 Q216,137 204,137 Q194,120 179,105 M139,172 Q134,172 131,178 Q126,194 115,207 L117,209 Q150,198 150,184 Q149,173 139,172 M134,109 Q130,109 128,116 Q124,134 115,149 L118,151 Q144,135 144,121 Q143,110 134,109"/> 
            <glyph glyph-name="壁" unicode="&#x58C1;" horiz-adv-x="249" d=" M12,60 L8,63 Q31,110 30,157 L30,172 Q30,177 30,185 Q29,192 29,197 L54,189 L92,189 L99,200 L119,191 Q122,188 122,187 Q123,184 113,179 L113,165 Q113,155 113,142 Q114,138 110,136 Q104,135 96,135 L96,143 L47,143 Q46,133 44,122 L65,115 L94,115 L101,127 L120,118 Q124,115 124,114 Q124,110 115,106 L115,93 Q115,76 116,67 Q116,63 112,62 Q106,60 98,60 L98,70 L59,70 L59,61 Q59,56 56,56 Q48,54 42,54 Q42,71 42,87 L42,116 Q36,88 12,60 M35,27 L35,34 L118,34 Q117,44 117,62 L146,60 Q150,59 150,57 Q150,52 137,48 L137,34 L191,34 L204,51 L227,34 Q230,33 229,31 Q229,28 221,27 L137,27 L137,-8 L207,-8 L222,8 L247,-8 Q247,-9 248,-10 Q249,-11 249,-12 Q249,-15 240,-15 L10,-15 L10,-8 L118,-8 L118,24 L118,27 M123,126 L123,132 L187,132 Q196,149 199,169 L221,162 Q224,160 224,158 Q224,154 214,154 Q206,142 194,132 L216,132 L226,145 L244,132 Q244,132 245,131 Q246,131 246,129 Q246,126 238,126 L189,126 L189,105 L189,99 L210,99 L220,112 L238,99 Q240,98 240,96 Q240,93 232,93 L189,93 Q189,80 189,61 Q189,56 186,56 Q178,54 170,54 Q170,73 170,93 L129,93 L129,99 L170,99 L170,126 M96,183 L48,183 L48,162 Q48,160 48,155 Q47,151 47,148 L96,148 M98,110 L59,110 L59,76 L98,76 M128,174 L128,180 L209,180 L220,195 L240,180 Q240,180 241,179 Q242,179 242,177 Q240,174 234,174 M160,135 Q156,135 154,141 Q152,152 142,165 L144,167 Q170,158 170,146 Q169,136 160,135 M179,180 Q173,180 172,186 Q170,198 161,206 L163,209 Q190,204 190,191 Q189,181 179,180"/> 
            <glyph glyph-name="声" unicode="&#x58F0;" horiz-adv-x="246" d=" M10,-28 L7,-25 Q45,16 42,75 L42,84 Q42,108 41,116 L69,108 L191,108 L199,121 L222,110 Q226,108 226,105 Q226,101 215,97 L215,84 Q215,78 215,64 Q216,48 216,40 Q216,36 213,35 Q203,33 195,33 L195,49 L61,49 Q56,3 10,-28 M17,168 L17,175 L118,175 Q118,182 117,195 Q117,205 117,209 L147,206 Q150,206 150,203 Q150,198 138,195 L138,175 L207,175 L221,192 L244,175 Q246,174 246,172 Q246,169 238,168 L138,168 L138,139 L198,139 L211,155 L233,139 Q234,138 234,137 Q235,137 235,136 Q235,133 227,132 L33,132 L33,139 L118,139 L118,160 L118,168 M195,101 L138,101 L138,56 L195,56 M62,75 Q62,65 61,56 L119,56 L119,101 L62,101"/> 
            <glyph glyph-name="处" unicode="&#x5904;" horiz-adv-x="250" d=" M232,-20 Q136,-21 95,9 Q86,16 78,25 Q53,-6 9,-28 L6,-25 Q45,7 67,41 Q51,67 42,108 Q32,83 15,59 L11,61 Q34,121 42,174 Q45,189 45,207 L76,202 Q80,202 80,199 Q80,194 67,191 Q63,172 58,155 L99,155 L109,169 L133,155 Q137,153 137,151 Q137,146 124,142 Q116,81 89,41 Q97,32 107,26 Q149,-2 250,4 L249,0 Q236,-2 232,-20 M161,20 Q162,40 162,101 L162,164 Q162,191 162,208 L191,206 Q195,206 195,203 Q195,198 183,194 L183,144 Q239,116 243,88 Q243,74 232,73 Q226,74 223,80 Q210,113 183,139 L183,108 Q183,51 184,28 Q184,24 180,22 Q171,20 161,20 M103,147 L56,147 Q52,132 46,118 Q61,75 76,56 Q96,97 103,147"/> 
            <glyph glyph-name="夏" unicode="&#x590F;" horiz-adv-x="246" d=" M11,182 L11,189 L204,189 L218,206 L241,189 Q244,188 244,186 Q244,183 235,182 L128,182 Q117,168 107,159 L184,159 L192,172 L215,162 Q218,160 218,158 Q219,155 208,148 L208,112 Q208,88 209,72 Q209,68 205,67 Q197,65 188,65 L188,73 L84,73 L110,67 Q113,66 113,64 Q113,59 100,58 Q99,57 96,53 Q98,55 95,51 L174,51 L185,63 L208,49 Q211,46 211,45 Q212,40 197,37 Q179,16 154,3 Q191,-3 246,-3 L245,-7 Q233,-10 229,-26 Q166,-20 133,-6 Q86,-25 12,-28 L11,-24 Q81,-11 114,2 Q94,14 79,33 Q57,12 23,-2 L21,0 Q69,37 84,73 L63,73 L63,68 Q63,63 59,63 Q52,61 44,61 Q44,69 45,85 Q45,99 45,105 L45,136 Q45,140 45,151 Q44,163 44,168 L72,159 L97,159 Q98,162 99,168 Q102,177 103,182 M63,100 L63,80 L188,80 L188,100 M63,126 L63,106 L188,106 L188,126 M188,153 L63,153 L63,133 L188,133 M176,45 L90,45 Q87,41 84,38 Q103,20 131,9 Q155,22 176,45"/> 
            <glyph glyph-name="外" unicode="&#x5916;" horiz-adv-x="249" d=" M70,68 Q64,68 62,76 Q58,93 45,114 Q38,104 21,83 Q16,77 13,73 L8,76 Q39,126 52,177 Q56,191 58,209 L89,204 Q93,203 93,201 Q93,194 79,192 Q77,188 75,180 Q74,175 68,161 L112,161 L122,175 L146,161 Q150,158 150,157 Q150,152 137,148 Q115,27 10,-24 L7,-21 Q100,49 116,153 L65,153 Q57,135 48,120 Q83,99 82,82 Q81,70 70,68 M238,63 Q232,64 229,70 Q214,102 184,125 L184,75 Q184,26 186,-18 Q186,-24 181,-25 Q171,-27 162,-27 Q164,0 164,65 L164,156 Q164,166 163,185 Q163,201 163,208 L193,206 Q197,206 197,203 Q197,198 184,194 L184,131 Q248,104 249,78 Q248,64 238,63"/> 
            <glyph glyph-name="大" unicode="&#x5927;" horiz-adv-x="250" d=" M222,-24 Q149,27 137,123 L132,123 Q122,15 9,-27 L7,-23 Q102,33 110,123 L12,123 L12,130 L110,130 Q112,144 112,159 Q112,168 111,191 Q111,205 111,208 L144,206 Q147,206 147,203 Q146,197 134,194 L134,163 Q134,145 133,130 L203,130 L218,151 L245,130 Q248,129 247,127 Q247,124 239,123 L143,123 Q173,30 250,-3 L248,-8 Q232,-8 222,-24"/> 
            <glyph glyph-name="天" unicode="&#x5929;" horiz-adv-x="248" d=" M31,175 L31,183 L185,183 L198,200 L222,183 Q225,180 225,179 Q225,176 216,175 L132,175 L132,147 Q132,123 129,104 L202,104 L217,124 L243,104 Q246,101 246,100 Q246,97 237,97 L142,97 Q173,21 248,-1 L247,-6 Q230,-7 222,-25 Q154,10 135,97 L127,97 Q114,13 12,-28 L9,-24 Q94,28 105,97 L12,97 L12,104 L107,104 Q110,124 110,148 L110,175"/> 
            <glyph glyph-name="好" unicode="&#x597D;" horiz-adv-x="251" d=" M10,-25 L7,-21 Q47,14 61,41 Q46,51 22,63 Q32,111 37,143 L8,143 L8,150 L38,150 Q41,165 42,178 Q45,193 45,209 L73,204 Q77,204 77,201 Q77,196 64,193 Q64,191 63,186 Q61,174 57,150 L84,150 L92,164 L115,152 Q119,151 119,149 Q120,145 108,139 Q101,81 83,46 Q116,30 115,14 Q114,1 104,0 Q100,0 96,6 Q87,19 74,31 Q56,3 10,-25 M104,88 L104,95 L162,95 L162,105 Q162,130 161,144 L179,143 L206,181 L112,181 L112,188 L206,188 L218,201 L241,184 Q244,182 244,179 Q245,174 229,174 Q212,158 188,142 L192,142 Q195,142 195,139 Q195,134 183,130 L183,95 L211,95 L225,113 L248,95 Q251,94 250,92 Q251,89 242,88 L183,88 L183,57 Q183,53 183,37 Q184,9 184,-2 Q187,-24 151,-27 Q152,-9 120,-6 L121,-2 L152,-3 Q162,-4 162,4 L162,88 M40,63 Q47,61 60,56 Q65,54 67,53 Q82,85 88,143 L56,143 Q56,141 55,136 Q46,85 40,63"/> 
            <glyph glyph-name="如" unicode="&#x5982;" horiz-adv-x="248" d=" M140,-17 Q142,25 142,79 L142,116 Q142,127 141,148 Q141,166 141,173 L168,164 L211,164 L220,178 L243,166 Q247,165 247,163 Q248,159 236,153 L236,93 Q236,25 237,-6 Q237,-10 233,-11 Q230,-12 221,-13 Q223,-13 216,-14 L216,12 L161,12 L161,-9 Q161,-14 156,-15 Q148,-17 140,-17 M10,-28 L7,-24 Q52,10 69,36 Q53,48 26,60 Q27,63 28,70 Q36,105 42,146 L8,146 L8,153 L44,153 Q46,166 47,178 Q50,195 50,209 L79,205 Q82,205 82,201 Q81,197 69,194 Q66,174 68,189 Q66,174 62,153 L95,153 L104,167 L128,155 Q131,153 131,151 Q131,146 119,142 Q113,75 93,41 Q127,24 128,6 Q127,-6 118,-7 Q115,-7 110,-3 Q110,-2 109,-1 Q107,1 102,6 Q96,14 83,26 Q61,-2 10,-28 M216,157 L161,157 L161,19 L216,19 M44,61 Q62,55 77,49 Q96,86 100,146 L61,146 Q57,123 47,76 Q45,66 44,61"/> 
            <glyph glyph-name="威" unicode="&#x5A01;" horiz-adv-x="254" d=" M46,-25 L43,-21 Q87,4 103,26 Q88,35 67,44 Q74,62 80,83 L54,83 Q51,13 9,-27 L6,-25 Q24,9 30,37 Q36,64 36,111 L36,137 Q36,159 35,176 L64,166 L161,166 Q161,186 159,210 L189,207 Q192,207 192,205 Q193,200 180,196 L180,172 L180,166 L216,166 L228,182 L248,166 Q250,165 250,163 Q250,160 242,159 L180,159 Q181,95 193,59 Q196,67 203,83 Q205,91 207,95 Q209,101 212,114 Q214,125 215,130 L243,122 Q246,122 246,119 Q246,113 233,112 Q217,62 201,39 Q210,20 224,5 Q227,2 228,2 Q230,3 231,6 L244,45 L248,44 L246,7 Q246,0 249,-4 Q254,-10 254,-15 Q254,-26 242,-26 Q223,-27 203,0 Q194,8 187,21 Q163,-4 122,-24 L120,-21 Q162,12 179,37 Q162,79 161,159 L55,159 L55,114 Q55,101 55,90 L82,90 Q82,92 83,95 Q86,109 88,123 L114,118 Q116,118 116,115 Q117,110 104,108 Q104,105 102,99 Q101,93 100,90 L123,90 L132,102 L153,91 Q157,90 157,87 Q157,83 145,79 Q140,53 127,31 Q148,22 147,12 Q147,1 137,0 Q133,0 130,4 Q128,6 123,11 Q119,15 116,17 Q97,-3 46,-25 M127,83 L97,83 Q91,63 84,45 Q92,43 105,39 Q109,38 111,38 Q123,58 127,83 M60,127 L60,134 L125,134 L136,148 L155,134 Q158,131 157,130 Q156,127 150,127 M210,173 Q206,173 204,178 Q201,186 193,198 L195,200 Q219,195 219,183 Q219,173 210,173"/> 
            <glyph glyph-name="学" unicode="&#x5B66;" horiz-adv-x="250" d=" M8,51 L8,58 L117,58 Q117,61 117,69 Q116,77 116,82 L137,80 L164,107 L54,107 L54,114 L163,114 L175,126 L199,108 Q203,106 202,103 Q202,98 186,99 Q168,88 147,79 Q150,78 150,76 Q150,70 138,68 L138,58 L207,58 L221,77 L247,58 Q250,57 249,55 Q249,52 241,51 L138,51 L138,48 Q138,16 139,-2 Q143,-25 103,-28 Q106,-10 68,-5 L68,-1 L107,-3 Q117,-4 117,4 L117,44 L117,51 M23,106 Q13,107 12,118 Q11,125 18,131 Q32,143 37,166 L41,165 Q41,159 41,153 L156,153 Q174,182 180,206 L207,196 Q210,196 210,193 Q210,187 197,188 Q185,171 164,153 L209,153 L221,166 L244,148 Q248,146 247,143 Q246,138 232,138 Q219,127 200,116 L196,118 L212,146 L41,146 Q41,137 40,128 Q35,107 23,106 M127,165 Q121,165 119,173 Q116,189 102,208 L104,210 Q138,196 138,179 Q137,166 127,165 M72,157 Q68,157 65,165 Q61,180 47,199 L49,201 Q83,188 84,171 Q83,158 72,157"/> 
            <glyph glyph-name="它" unicode="&#x5B83;" horiz-adv-x="250" d=" M91,-19 Q66,-19 66,5 L66,94 Q66,122 65,137 L95,135 Q99,135 99,132 Q99,127 87,124 L87,62 Q131,80 164,103 Q181,114 187,123 L209,105 Q212,103 212,100 Q212,97 207,97 Q202,97 196,99 Q144,67 87,54 L87,11 Q86,0 99,0 L193,0 Q205,0 206,9 L215,55 L219,54 L221,14 Q221,7 226,2 Q231,0 231,-5 Q229,-18 202,-19 M22,121 Q12,122 11,132 Q10,139 17,145 Q30,158 37,180 L40,180 Q40,178 41,174 Q41,169 41,167 L124,167 Q120,169 119,175 Q113,196 103,207 L106,209 Q141,199 141,181 Q141,170 131,167 L210,167 L222,180 L246,162 Q249,160 249,158 Q250,153 234,152 Q219,140 202,128 L198,131 L213,160 L41,160 Q41,151 39,142 Q35,123 22,121"/> 
            <glyph glyph-name="安" unicode="&#x5B89;" horiz-adv-x="247" d=" M10,93 L10,100 L77,100 Q78,104 81,111 Q87,127 93,150 L121,143 Q125,142 125,139 Q125,135 112,133 Q110,128 106,117 Q101,106 99,100 L205,100 L219,119 L244,101 Q247,98 247,97 Q247,94 238,93 L184,93 Q172,54 154,31 Q167,28 192,18 Q197,16 200,15 Q224,5 224,-8 Q223,-21 215,-23 Q208,-23 205,-20 Q180,-2 140,16 Q102,-16 12,-28 L10,-23 Q90,0 119,25 Q91,38 53,48 Q60,61 74,93 M24,124 Q15,125 14,135 Q14,142 21,148 Q33,160 39,182 L42,181 Q42,180 43,179 Q44,174 44,168 L206,168 L217,182 L242,165 Q246,162 246,159 Q246,154 231,154 Q230,153 229,152 Q212,137 199,129 L196,132 L209,161 L45,161 Q45,156 43,146 Q45,153 43,144 Q39,125 24,124 M76,50 Q90,48 116,42 Q127,39 132,38 Q151,60 161,93 L96,93 Q88,72 76,50 M124,169 Q119,170 116,176 Q112,193 101,207 L103,209 Q137,200 138,183 Q137,170 124,169"/> 
            <glyph glyph-name="完" unicode="&#x5B8C;" horiz-adv-x="248" d=" M167,-20 Q141,-21 142,3 L142,74 L103,74 Q104,-4 9,-28 L7,-25 Q85,8 82,74 L17,74 L17,82 L198,82 L211,101 L237,82 Q237,81 238,80 Q239,79 239,78 Q238,74 230,74 L162,74 L162,8 Q161,-1 172,0 L212,0 Q222,-1 223,8 L232,43 L236,42 L238,10 Q238,4 242,0 Q247,0 247,-5 Q246,-20 219,-20 M23,127 Q14,128 13,139 Q13,146 18,151 Q33,164 38,186 L41,186 Q41,184 42,180 Q42,175 43,173 L121,173 Q118,174 116,180 Q114,195 103,208 L104,210 Q139,201 139,185 Q138,176 129,173 L208,173 L220,187 L244,168 Q248,166 248,163 Q248,158 232,158 Q217,145 203,138 L199,140 L212,166 L43,166 Q43,163 42,157 Q42,151 41,148 Q37,128 23,127 M52,121 L52,128 L168,128 L181,146 L205,128 Q207,127 207,125 Q207,122 199,121"/> 
            <glyph glyph-name="实" unicode="&#x5B9E;" horiz-adv-x="249" d=" M220,-27 Q215,-27 210,-21 Q185,5 138,27 Q108,-12 16,-29 L14,-24 Q112,5 129,50 L12,50 L12,57 L132,57 Q134,62 135,68 Q141,97 141,122 Q141,130 140,144 Q139,149 139,152 L170,149 Q174,149 174,146 Q175,142 162,138 Q162,93 155,65 Q153,60 153,57 L207,57 L221,77 L246,57 Q249,56 249,54 Q249,51 240,50 L150,50 Q150,49 149,48 Q145,38 141,32 Q229,13 231,-12 Q230,-26 220,-27 M23,128 Q13,129 12,139 Q11,146 18,151 Q32,163 36,186 L39,186 Q41,178 42,172 L123,172 Q120,174 119,178 Q116,193 104,207 L106,209 Q142,201 141,184 Q141,175 133,172 L209,172 L221,185 L244,167 Q248,165 248,162 Q249,157 233,157 Q221,147 200,134 L196,136 L212,164 L42,164 Q42,156 41,147 Q37,129 23,128 M78,67 Q73,67 70,73 Q63,91 45,108 L47,111 Q91,99 90,80 Q89,68 78,67 M105,104 Q100,104 97,111 Q89,128 71,144 L73,146 Q117,135 116,117 Q115,105 105,104"/> 
            <glyph glyph-name="室" unicode="&#x5BA4;" horiz-adv-x="250" d=" M206,64 Q201,64 197,70 Q191,79 184,87 Q165,85 122,80 Q79,75 59,72 Q57,60 52,60 Q51,61 49,64 L42,90 Q58,92 69,101 Q89,117 99,132 L47,132 L47,139 L170,139 L184,157 L208,139 Q209,138 210,137 Q211,137 211,136 Q210,132 202,132 L130,132 Q96,103 73,91 L177,95 Q167,107 151,118 L153,121 Q215,100 217,78 Q216,65 206,64 M37,29 L37,36 L116,36 Q116,63 115,72 L145,70 Q148,70 148,67 Q149,63 137,58 L137,36 L185,36 L198,54 L223,36 Q226,35 225,33 Q225,30 217,29 L137,29 L137,-9 L207,-9 L221,8 L247,-9 Q249,-11 249,-12 Q249,-15 240,-15 L12,-15 L12,-9 L116,-9 L116,29 M23,130 Q13,131 12,141 Q12,148 18,154 Q32,166 37,189 L40,189 Q41,182 41,176 L123,176 Q119,178 118,182 Q114,195 104,209 L106,211 Q140,203 140,188 Q139,178 130,176 L210,176 L222,189 L244,171 Q248,169 248,166 Q250,162 233,161 Q220,152 204,143 L200,146 L213,169 L42,169 Q42,166 41,160 Q41,154 40,151 Q37,131 23,130"/> 
            <glyph glyph-name="害" unicode="&#x5BB3;" horiz-adv-x="250" d=" M184,-27 L184,-11 L71,-11 L71,-20 Q71,-25 66,-25 Q57,-27 49,-27 Q50,-12 50,10 L50,26 Q50,38 50,55 L76,47 L180,47 L188,60 L212,49 Q216,47 216,45 Q217,41 205,36 L205,20 Q205,2 206,-20 Q206,-25 202,-25 Q190,-27 184,-27 M38,133 L38,140 L117,140 Q117,144 117,152 Q116,160 116,165 L145,162 Q149,162 149,159 Q149,155 137,151 L137,140 L185,140 L198,157 L220,140 Q223,139 222,137 Q222,134 214,133 L137,133 L137,114 L137,110 L182,110 L194,126 L216,110 Q218,109 218,107 Q218,104 209,103 L137,103 L137,79 L205,79 L219,97 L243,79 Q245,78 245,76 Q245,73 237,72 L137,72 Q137,66 137,59 Q137,55 133,54 Q126,51 116,51 Q116,62 117,72 L13,72 L13,79 L117,79 Q117,93 117,103 L44,103 L44,110 L117,110 L117,130 L117,133 M184,40 L71,40 L71,-4 L184,-4 M23,138 Q13,139 12,149 Q12,155 18,161 Q33,175 37,194 L40,193 Q42,187 42,180 L121,180 Q120,182 118,185 Q114,200 106,208 L108,211 Q140,204 140,190 Q140,184 132,180 L211,180 L223,193 L247,176 Q250,174 250,171 Q250,166 236,166 Q222,158 208,151 L205,153 L215,173 L42,173 Q42,166 40,158 Q36,140 23,138"/> 
            <glyph glyph-name="家" unicode="&#x5BB6;" horiz-adv-x="250" d=" M220,-12 Q179,20 166,75 Q157,70 146,67 Q150,51 150,29 Q152,-26 107,-27 Q109,-11 76,-6 L77,-2 L109,-3 Q130,-7 129,32 Q129,43 129,50 Q75,3 9,-15 L7,-11 Q75,20 126,72 Q125,74 124,77 Q122,84 120,87 Q69,44 12,27 L10,31 Q71,63 110,102 Q107,106 103,109 Q64,85 14,71 L12,75 Q67,101 100,128 L43,128 L43,135 L170,135 L183,153 L207,135 Q210,134 209,132 Q209,129 201,128 L130,128 Q120,121 109,113 Q137,95 143,73 Q187,100 201,119 L222,103 Q225,100 225,99 Q224,93 209,97 Q201,91 179,80 Q174,78 172,77 Q195,27 247,6 L245,2 Q228,1 220,-12 M21,129 Q11,130 10,140 Q10,147 17,153 Q32,168 37,188 L40,187 Q41,181 41,174 L121,174 Q118,176 118,179 Q113,195 103,207 L105,209 Q141,199 140,185 Q140,177 133,174 L209,174 L220,187 L244,170 Q248,167 248,165 Q250,161 233,160 Q221,151 204,142 L201,144 L213,167 L41,167 Q41,159 39,151 Q35,131 21,129"/> 
            <glyph glyph-name="容" unicode="&#x5BB9;" horiz-adv-x="250" d=" M176,-27 L176,-10 L79,-10 L79,-19 Q80,-25 74,-25 Q66,-27 58,-27 Q58,-15 59,5 Q59,19 59,25 L59,54 Q38,44 10,34 L8,38 Q71,70 102,103 Q114,117 120,128 L144,120 Q147,119 147,116 Q147,111 135,111 Q184,73 250,63 L248,58 Q235,57 231,42 Q218,47 206,51 Q207,51 207,50 Q208,47 196,40 L196,31 Q196,4 197,-19 Q197,-24 193,-25 Q185,-27 176,-27 M176,44 L79,44 L79,-3 L176,-3 M25,131 Q15,132 14,142 Q14,150 20,155 Q34,167 38,188 L41,187 Q43,181 43,175 L120,175 Q117,177 116,181 Q114,196 103,207 L105,209 Q140,200 139,186 Q139,179 131,175 L207,175 L219,188 L242,172 Q247,168 246,166 Q245,161 231,161 Q218,150 200,141 L197,143 L210,168 L43,168 Q43,160 42,151 Q39,132 25,131 M171,51 L179,65 L183,63 Q156,78 130,107 Q102,75 67,58 L85,51 M208,96 Q204,96 199,102 Q178,128 141,150 L142,154 Q217,133 218,109 Q218,97 208,96 M27,88 L25,91 Q55,113 74,135 Q83,146 87,157 L111,146 Q114,145 114,143 Q114,137 101,138 Q72,108 27,88"/> 
            <glyph glyph-name="寝" unicode="&#x5BDD;" horiz-adv-x="248" d=" M21,142 Q13,143 12,154 Q12,160 18,165 Q30,175 35,194 L39,194 Q39,186 39,180 L121,180 Q120,181 119,183 Q118,184 118,185 Q115,196 105,208 L107,211 Q141,204 140,190 Q140,184 134,180 L210,180 L221,193 L244,177 Q248,175 247,172 Q248,167 232,167 Q229,165 222,161 Q216,158 212,156 L219,153 Q222,152 222,149 Q222,146 212,140 L212,129 Q212,118 212,97 Q213,92 208,91 Q200,89 193,89 L193,97 L102,97 L102,103 L193,103 L193,121 L109,121 L109,127 L193,127 L193,145 L104,145 L104,151 L189,151 L197,164 L206,159 L213,173 L39,173 Q39,167 38,163 Q35,143 21,142 M227,-26 Q184,-17 162,-2 Q134,-20 84,-27 L82,-24 Q124,-10 149,7 Q135,19 122,46 L111,46 L111,52 L182,52 L192,64 L213,50 Q217,48 217,45 Q218,40 203,39 Q192,21 177,8 Q199,-1 246,-4 L245,-8 Q232,-11 227,-26 M21,19 Q18,19 17,22 L7,46 Q20,48 57,68 L57,115 Q57,129 57,160 L83,158 Q86,157 86,155 Q87,151 76,146 L76,-18 Q76,-24 71,-25 Q64,-28 56,-27 Q57,8 57,57 L57,58 Q41,43 25,31 Q25,19 21,19 M210,52 L207,55 L214,72 L107,72 Q107,68 106,62 Q103,46 91,45 Q83,46 82,55 Q82,61 88,66 Q98,73 104,91 L106,90 Q107,84 107,79 L211,79 L220,91 L242,76 Q245,73 245,72 Q246,69 231,67 Q227,63 216,56 Q212,53 210,52 M183,46 L129,46 Q142,28 160,17 Q174,29 183,46 M36,79 Q30,79 29,86 Q25,106 14,124 L17,126 Q48,109 48,92 Q47,80 36,79"/> 
            <glyph glyph-name="对" unicode="&#x5BF9;" horiz-adv-x="251" d=" M109,136 L109,144 L188,144 L188,153 Q188,185 187,208 L217,206 Q221,206 221,203 Q222,199 209,195 L209,144 L215,144 L227,160 L248,144 Q251,141 250,140 Q250,137 242,136 L209,136 L209,74 Q209,69 209,49 Q210,13 210,-1 Q212,-24 173,-27 Q177,-10 140,-5 L141,-1 L178,-2 Q188,-3 188,5 L188,136 M98,9 Q92,9 89,17 Q81,39 69,60 Q50,24 10,-5 L7,-2 Q42,38 59,78 Q40,108 17,133 L20,136 Q47,115 66,95 Q76,123 82,160 L12,160 L12,167 L78,167 L87,182 L112,168 Q116,167 116,164 Q116,159 103,155 Q95,117 80,80 Q109,46 110,26 Q110,10 98,9 M147,51 Q141,51 139,60 Q132,88 117,114 L120,116 Q160,88 159,67 Q158,52 147,51"/> 
            <glyph glyph-name="将" unicode="&#x5C06;" horiz-adv-x="252" d=" M20,34 Q18,34 16,37 L6,63 Q26,69 61,90 L61,149 Q61,184 61,209 L90,206 Q93,206 93,203 Q93,198 81,195 L81,-19 Q82,-24 76,-25 Q71,-27 60,-27 Q61,11 61,66 L61,79 Q49,67 25,47 Q25,34 20,34 M95,117 L92,120 Q122,155 134,182 Q141,194 144,209 L172,202 Q175,202 175,199 Q176,194 162,193 Q156,184 152,177 L203,177 L214,190 L238,175 Q241,172 241,171 Q241,165 228,164 Q183,97 90,80 L89,85 Q172,115 205,169 L147,169 Q145,167 142,162 Q138,157 136,154 Q163,145 163,131 Q162,120 152,119 Q148,119 145,124 Q142,137 131,149 Q115,133 95,117 M88,64 L88,71 L192,71 Q191,88 191,110 L220,108 Q223,108 224,105 Q225,101 212,97 L212,71 L218,71 L229,87 L249,71 Q252,70 251,68 Q252,65 243,64 L212,64 L212,58 Q212,23 213,-2 Q216,-25 177,-27 Q180,-10 145,-6 L146,-1 L182,-3 Q192,-3 192,5 L192,59 L192,64 M38,104 Q32,104 30,112 Q25,141 10,164 L13,166 Q51,136 50,119 Q49,105 38,104 M142,10 Q137,10 134,18 Q128,39 111,60 L113,63 Q154,44 154,24 Q153,12 142,10"/> 
            <glyph glyph-name="小" unicode="&#x5C0F;" horiz-adv-x="246" d=" M104,-27 Q107,-9 64,-3 L65,0 L110,0 Q120,-2 120,7 L120,159 Q120,172 118,205 Q120,181 118,208 L150,206 Q154,206 154,203 Q153,197 141,194 L141,74 Q141,69 141,48 Q142,12 142,-1 Q147,-23 104,-27 M231,20 Q224,21 222,29 Q204,92 168,145 L171,148 Q240,86 246,38 Q245,21 231,20 M10,13 L7,16 Q39,67 54,116 Q60,132 61,147 L93,137 Q96,137 97,134 Q95,128 81,127 Q62,64 10,13"/> 
            <glyph glyph-name="尘" unicode="&#x5C18;" horiz-adv-x="250" d=" M26,45 L26,52 L115,52 Q115,74 114,92 L145,90 Q148,90 148,87 Q149,83 136,79 L136,52 L192,52 L205,70 L229,52 Q231,51 231,49 Q231,46 223,45 L136,45 L136,-9 L207,-9 L222,8 L247,-9 Q250,-11 249,-12 Q249,-15 241,-15 L9,-15 L9,-9 L115,-9 L115,45 M116,101 Q116,131 116,152 L116,176 Q116,191 116,208 L146,206 Q150,206 150,203 Q150,198 137,194 L137,162 Q137,157 137,140 Q138,118 138,110 Q138,104 134,103 Q124,101 116,101 M16,93 L13,97 Q41,129 55,154 Q64,172 67,181 L94,168 Q98,167 98,164 Q98,159 83,159 Q59,122 16,93 M220,104 Q215,103 210,112 Q193,145 157,174 L159,177 Q232,146 232,120 Q231,105 220,104"/> 
            </font>
</defs>
</svg>
