<?xml version="1.0" standalone="no"?>
<!DOCTYPE svg PUBLIC "-//W3C//DTD SVG 1.1//EN" "http://www.w3.org/Graphics/SVG/1.1/DTD/svg11.dtd" >
<svg xmlns="http://www.w3.org/2000/svg">
    <defs>
        <font id="">
            <font-face font-family=""
                       units-per-em="1000"
                       ascent="888"
                       descent="-237"
                       bbox="-56 -237 1003 888"
                    />
            <missing-glyph horiz-adv-x="0" />
            
            <glyph glyph-name="0" unicode="&#x30;" horiz-adv-x="489" d=" M264,729 Q485,723 489,361 Q486,-4 264,-10 Q46,-6 43,361 Q47,722 264,729 M264,668 Q112,664 110,361 Q111,54 264,51 Q420,56 422,361 Q420,663 264,668"/> 
            <glyph glyph-name="4" unicode="&#x34;" horiz-adv-x="496" d=" M410,0 L342,0 L342,172 L26,172 L26,231 L332,714 L410,714 L410,234 L496,234 L496,172 L410,172 M91,234 L342,234 L342,635"/> 
            <glyph glyph-name="A" unicode="&#x41;" horiz-adv-x="577" d=" M507,0 L439,220 L157,220 L91,0 L21,0 L258,714 L339,714 L577,0 M300,662 L177,282 L420,282"/> 
            <glyph glyph-name="h" unicode="&#x68;" horiz-adv-x="486" d=" M74,0 L74,746 L140,746 L140,418 Q196,510 320,509 Q481,502 486,292 L486,0 L420,0 L420,285 Q422,452 292,449 Q156,434 140,285 L140,0"/> 
            <glyph glyph-name="m" unicode="&#x6D;" horiz-adv-x="783" d=" M71,0 L71,335 Q71,407 64,498 L121,498 L133,424 Q193,511 300,509 Q397,510 442,411 Q502,513 616,509 Q777,497 783,288 L783,0 L717,0 L717,288 Q719,452 594,449 Q468,438 458,288 L458,0 L392,0 L392,288 Q394,452 273,449 Q148,436 137,288 L137,0"/> 
            <glyph glyph-name="一" unicode="&#x4E00;" horiz-adv-x="932" d=" M67,345 L67,413 L932,413 L932,345"/> 
            <glyph glyph-name="与" unicode="&#x4E0E;" horiz-adv-x="894" d=" M691,-87 Q653,-87 591,-79 Q588,-41 574,-12 Q647,-23 685,-23 Q781,-25 785,76 L801,361 L224,361 L260,794 L328,790 L316,659 L894,659 L894,599 L311,599 L295,421 L871,421 L852,67 Q844,-87 691,-87 M75,135 L75,195 L706,195 L706,135"/> 
            <glyph glyph-name="且" unicode="&#x4E14;" horiz-adv-x="945" d=" M53,-57 L53,5 L235,5 L235,740 L763,740 L763,5 L945,5 L945,-57 M304,192 L304,5 L694,5 L694,192 M304,679 L304,494 L694,494 L694,679 M304,435 L304,251 L694,251 L694,435"/> 
            <glyph glyph-name="个" unicode="&#x4E2A;" horiz-adv-x="973" d=" M916,334 Q650,459 498,679 Q353,447 91,315 Q69,343 31,365 Q363,524 486,805 L547,774 Q545,770 541,762 Q538,756 528,736 Q701,498 973,394 Q939,372 916,334 M464,-96 L464,484 L534,484 L534,-96"/> 
            <glyph glyph-name="了" unicode="&#x4E86;" horiz-adv-x="872" d=" M427,-88 Q391,-88 332,-81 Q328,-42 312,-12 Q378,-21 420,-21 Q490,-23 488,44 L488,472 Q632,554 766,661 L117,661 L117,723 L872,723 L872,668 Q746,552 557,437 L557,34 Q558,-89 427,-88"/> 
            <glyph glyph-name="事" unicode="&#x4E8B;" horiz-adv-x="950" d=" M84,662 L84,715 L468,715 L468,796 L532,796 L532,715 L916,715 L916,662 L532,662 L532,599 L809,599 L809,428 L532,428 L532,366 L841,366 L841,244 L950,244 L950,191 L841,191 L841,32 L779,32 L779,69 L532,69 L532,31 Q532,-89 415,-88 Q385,-88 333,-82 Q332,-46 317,-16 Q373,-25 409,-25 Q470,-28 468,40 L468,69 L145,69 L145,120 L468,120 L468,191 L55,191 L55,244 L468,244 L468,315 L151,315 L151,366 L468,366 L468,428 L190,428 L190,599 L468,599 L468,662 M532,191 L532,120 L779,120 L779,191 M779,315 L532,315 L532,244 L779,244 M252,476 L468,476 L468,551 L252,551 M748,551 L532,551 L532,476 L748,476"/> 
            <glyph glyph-name="亮" unicode="&#x4EAE;" horiz-adv-x="935" d=" M239,399 L239,585 L759,585 L759,399 M133,-97 Q116,-66 84,-44 Q327,-14 321,137 L323,217 L669,217 L669,49 Q665,-17 728,-12 L805,-12 Q858,-13 869,41 Q877,73 880,105 Q901,81 935,68 Q930,34 925,20 Q905,-74 809,-68 L718,-68 Q602,-71 605,37 L605,163 L384,163 L382,123 Q387,-50 133,-97 M105,178 L105,337 L895,337 L895,179 L830,179 L830,284 L170,284 L170,178 M101,646 L101,700 L494,700 Q448,747 404,784 L469,807 Q535,754 570,710 L551,700 L898,700 L898,646 M304,448 L694,448 L694,535 L304,535"/> 
            <glyph glyph-name="人" unicode="&#x4EBA;" horiz-adv-x="972" d=" M905,-75 Q618,85 500,446 Q408,78 103,-86 Q74,-55 35,-35 Q401,145 455,584 Q459,625 461,674 Q463,720 463,795 L535,789 Q533,678 524,573 Q655,127 972,-17 Q935,-37 905,-75"/> 
            <glyph glyph-name="们" unicode="&#x4EEC;" horiz-adv-x="905" d=" M784,-88 Q747,-88 702,-83 Q698,-49 682,-17 Q743,-24 774,-24 Q842,-26 840,43 L840,647 L615,647 L615,707 L905,707 L905,32 Q904,-87 784,-88 M185,-96 L185,473 Q135,401 93,360 Q68,384 36,396 Q196,564 279,797 L335,765 Q308,686 250,578 L250,-96 M381,-94 L381,585 L446,585 L446,-94 M531,589 Q467,669 390,741 L442,776 Q510,711 574,636"/> 
            <glyph glyph-name="你" unicode="&#x4F60;" horiz-adv-x="944" d=" M195,-96 L195,469 Q136,381 93,344 Q74,368 33,383 Q198,542 285,798 L345,766 Q319,684 261,576 L261,-96 M854,416 Q830,425 790,423 L852,568 L500,568 Q457,487 396,416 Q367,438 331,443 Q467,595 517,797 L578,768 Q558,693 528,626 L922,626 L922,577 M557,-91 Q524,-91 480,-87 Q484,-52 463,-19 Q511,-28 544,-28 Q605,-31 602,33 L602,470 L668,470 L668,25 Q668,-91 557,-91 M889,29 Q827,166 749,297 L813,313 Q894,176 944,66 M374,38 Q341,56 306,57 Q405,178 444,322 L504,301 Q463,161 374,38"/> 
            <glyph glyph-name="俱" unicode="&#x4FF1;" horiz-adv-x="950" d=" M306,103 L306,159 L404,159 L404,746 L852,746 L852,159 L950,159 L950,103 M184,-96 L184,470 Q131,386 90,345 Q73,367 31,382 Q184,549 266,798 L327,769 Q297,680 248,583 L248,-96 M469,692 L469,596 L787,596 L787,692 M469,401 L469,305 L787,305 L787,401 M469,255 L469,159 L787,159 L787,255 M469,546 L469,451 L787,451 L787,546 M367,-98 Q342,-69 315,-58 Q443,-2 528,78 L575,42 Q488,-40 367,-98 M905,-97 Q798,-17 692,42 L737,80 Q842,21 930,-44"/> 
            <glyph glyph-name="出" unicode="&#x51FA;" horiz-adv-x="868" d=" M130,-56 L130,270 L195,270 L195,7 L465,7 L465,366 L159,366 L159,704 L225,704 L225,427 L465,427 L465,796 L532,796 L532,427 L773,427 L773,703 L839,703 L839,366 L532,366 L532,7 L803,7 L803,267 L868,267 L868,-96 L803,-96 L803,-56"/> 
            <glyph glyph-name="合" unicode="&#x5408;" horiz-adv-x="964" d=" M209,-96 L209,282 L795,282 L795,-96 L729,-96 L729,-34 L275,-34 L275,-96 M275,225 L275,24 L729,24 L729,225 M87,375 Q70,402 32,425 Q344,557 493,808 L550,776 Q547,771 540.5,760 Q534,749 530,743 Q712,530 964,449 Q928,421 911,390 Q658,495 498,696 Q339,485 87,375 M269,402 L269,460 L743,460 L743,402"/> 
            <glyph glyph-name="固" unicode="&#x56FA;" horiz-adv-x="872" d=" M127,-96 L127,747 L872,747 L872,-96 L808,-96 L808,-39 L191,-39 L191,-96 M191,688 L191,19 L808,19 L808,688 M246,492 L246,548 L469,548 L469,652 L529,652 L529,548 L752,548 L752,492 L529,492 L529,371 L685,371 L685,119 L313,119 L313,371 L469,371 L469,492 M375,173 L623,173 L623,317 L375,317"/> 
            <glyph glyph-name="地" unicode="&#x5730;" horiz-adv-x="956" d=" M555,-67 Q438,-65 436,54 L436,420 L360,399 L338,453 L436,479 L436,733 L498,733 L498,496 L636,533 L636,795 L698,795 L698,550 L898,605 L892,270 Q891,167 800,169 Q779,169 745,173 Q739,208 726,232 Q761,227 788,227 Q831,226 831,276 L838,528 L698,490 L698,103 L636,103 L636,473 L498,436 L498,55 Q501,-5 562,-8 L799,-8 Q866,-9 883,46 Q894,80 904,124 Q924,96 956,81 Q947,43 937,16 Q910,-70 808,-67 M64,492 L64,549 L196,549 L196,786 L258,786 L258,549 L379,549 L379,492 L258,492 L258,134 L365,178 L393,129 L81,-9 L41,45 L196,109 L196,492"/> 
            <glyph glyph-name="坚" unicode="&#x575A;" horiz-adv-x="948" d=" M898,269 Q754,322 649,416 Q551,344 449,311 Q430,338 399,355 Q507,387 605,459 Q519,551 469,672 L427,672 L427,727 L859,727 L859,679 Q802,550 697,455 Q806,365 948,325 Q916,302 898,269 M190,134 L190,191 L472,191 L472,283 L537,283 L537,191 L807,191 L807,134 L537,134 L537,-10 L934,-10 L934,-67 L64,-67 L64,-10 L472,-10 L472,134 M305,269 L305,796 L368,796 L368,269 M124,306 L124,727 L185,727 L185,306 M787,672 L531,672 Q579,570 653,496 Q746,577 787,672"/> 
            <glyph glyph-name="大" unicode="&#x5927;" horiz-adv-x="960" d=" M892,-83 Q603,62 499,365 Q425,69 106,-89 Q79,-61 42,-40 Q401,120 453,456 L100,456 L100,520 L458,520 Q463,620 461,794 L530,788 Q531,664 525,520 L896,520 L896,456 L529,456 Q633,107 960,-22 Q923,-43 892,-83"/> 
            <glyph glyph-name="好" unicode="&#x597D;" horiz-adv-x="952" d=" M418,-6 Q412,0 399,12 Q333,76 293,109 Q229,13 120,-75 Q88,-54 53,-46 Q184,60 244,151 Q173,209 106,259 Q137,352 171,534 L61,534 L61,592 L182,592 Q183,596 184,603 Q204,735 211,795 L275,783 Q267,714 245,592 L420,592 L420,540 Q407,315 327,165 Q387,116 455,54 M437,322 L437,381 L672,381 L672,500 Q776,592 832,666 L488,666 L488,724 L920,724 L920,672 Q835,563 736,472 L736,381 L952,381 L952,322 L736,322 L736,32 Q740,-90 617,-86 Q581,-86 544,-80 Q540,-41 525,-14 Q580,-23 611,-23 Q674,-26 672,44 L672,322 M358,534 L235,534 Q204,368 178,281 Q185,276 198,266 Q248,227 277,205 Q343,324 358,534"/> 
            <glyph glyph-name="小" unicode="&#x5C0F;" horiz-adv-x="957" d=" M116,81 Q84,96 40,99 Q167,307 220,576 L287,547 Q225,267 116,81 M418,-88 Q374,-88 329,-81 Q327,-47 309,-13 Q365,-22 403,-22 Q476,-24 474,43 L474,790 L543,790 L543,35 Q544,-89 418,-88 M895,77 Q792,355 691,552 L760,570 Q867,352 957,117"/> 
            <glyph glyph-name="属" unicode="&#x5C5E;" horiz-adv-x="902" d=" M300,251 L300,412 L533,412 L533,471 Q406,464 280,464 Q274,490 259,511 Q598,512 828,541 L859,495 Q740,481 594,473 L594,412 L827,412 L827,251 L594,251 L594,194 L902,194 L902,12 Q902,-89 804,-89 Q774,-89 731,-84 Q728,-59 713,-30 Q758,-37 789,-37 Q840,-36 841,14 L841,148 L594,148 L594,65 Q627,68 690,76 Q697,77 701,77 Q683,97 666,116 L709,134 Q768,74 809,20 L768,-8 Q753,14 737,33 Q565,11 387,-1 L368,50 Q431,51 533,60 L533,148 L311,148 L311,-96 L249,-96 L249,194 L533,194 L533,251 M84,-90 Q56,-66 23,-54 Q152,86 151,368 L151,749 L867,749 L867,573 L215,573 L215,361 Q216,71 84,-90 M215,700 L215,622 L804,622 L804,700 M769,367 L594,367 L594,296 L769,296 M360,296 L533,296 L533,367 L360,367"/> 
            <glyph glyph-name="彩" unicode="&#x5F69;" horiz-adv-x="955" d=" M81,316 L81,373 L317,373 L317,438 L379,438 L379,373 L584,373 L584,316 L379,316 L379,238 L404,256 Q510,170 579,99 L545,51 Q476,123 379,206 L379,-96 L317,-96 L317,240 Q233,97 107,1 Q78,25 48,33 Q214,157 299,316 M565,-96 Q544,-71 505,-51 Q756,53 902,248 L955,212 Q812,12 565,-96 M130,659 Q116,691 94,715 Q368,722 530,767 L576,716 Q389,672 130,659 M609,480 Q589,502 556,519 Q730,627 837,766 L891,727 Q776,586 609,480 M623,222 Q599,248 568,264 Q746,359 860,492 L910,457 Q807,332 623,222 M473,442 Q448,455 419,461 Q478,548 519,647 L575,624 Q529,522 473,442 M192,422 Q147,507 89,590 L147,610 Q200,532 238,457 M329,471 Q309,532 263,626 L322,639 Q363,556 381,498"/> 
            <glyph glyph-name="心" unicode="&#x5FC3;" horiz-adv-x="957" d=" M454,-67 Q322,-67 322,58 L322,533 L389,533 L389,67 Q389,-3 466,-3 L618,-3 Q688,-4 711,68 Q721,96 732,155 Q761,122 791,110 Q783,74 770,35 Q739,-70 624,-67 M577,481 Q488,624 390,739 L457,768 Q552,657 630,533 M894,155 Q823,342 744,485 L818,499 Q894,360 957,198 M105,98 L42,142 Q118,287 158,489 L222,457 Q176,238 105,98"/> 
            <glyph glyph-name="念" unicode="&#x5FF5;" horiz-adv-x="975" d=" M924,434 Q674,514 500,704 Q357,527 88,421 Q70,449 31,470 Q361,590 494,811 L554,781 Q550,775 543,763 Q537,755 535,751 Q724,558 975,496 Q944,474 924,434 M574,214 Q548,235 516,246 Q620,309 688,377 L197,377 L197,435 L778,435 L778,386 Q696,294 574,214 M403,-67 Q294,-69 296,31 L296,195 L361,195 L361,35 Q362,-10 408,-10 L617,-10 Q670,-13 687,48 Q698,83 702,102 Q721,77 755,60 Q751,44 743,16 Q742,15 742,14 Q715,-69 628,-67 M891,-18 Q824,79 732,176 L790,203 Q883,109 940,28 M111,-47 L59,-2 Q129,84 174,197 L227,162 Q181,49 111,-47 M558,69 Q501,142 425,219 L478,244 Q545,184 605,110 M530,447 Q471,510 409,556 L459,586 Q519,544 572,490"/> 
            <glyph glyph-name="惊" unicode="&#x60CA;" horiz-adv-x="950" d=" M437,252 L437,518 L864,518 L864,252 L685,252 L685,14 Q683,-87 584,-89 Q549,-89 514,-84 Q514,-44 496,-19 Q542,-28 570,-28 Q622,-29 621,21 L621,252 M197,-95 L197,796 L260,796 L260,-95 M499,307 L801,307 L801,464 L499,464 M384,610 L384,667 L648,667 Q603,727 550,780 L612,806 Q665,754 714,688 L683,667 L928,667 L928,610 M382,-32 Q358,-8 324,1 Q430,87 489,194 L543,166 Q479,50 382,-32 M97,314 L41,337 Q85,454 95,589 L151,573 Q138,427 97,314 M905,-34 Q831,71 745,167 L800,193 Q883,108 950,11 M358,396 Q322,501 281,580 L331,596 Q372,523 405,426"/> 
            <glyph glyph-name="意" unicode="&#x610F;" horiz-adv-x="945" d=" M185,172 L185,448 L810,448 L810,172 M113,662 L113,713 L476,713 Q454,747 423,787 L485,804 Q518,762 548,713 L883,713 L883,662 L684,662 L727,640 Q702,603 663,562 L945,562 L945,510 L53,510 L53,562 L335,562 Q308,599 270,638 L330,660 Q368,623 412,562 L577,562 Q626,609 662,662 M391,-71 Q281,-77 287,27 L287,138 L349,138 L349,27 Q348,-17 394,-16 L609,-16 Q664,-17 679,35 Q683,44 689,64 Q693,78 695,85 Q721,55 747,43 Q741,23 735,5 Q709,-73 625,-71 M249,221 L747,221 L747,288 L249,288 M249,399 L249,333 L747,333 L747,399 M113,-67 L61,-23 Q132,53 169,137 L222,103 Q178,8 113,-67 M884,-51 Q820,37 745,108 L799,137 Q873,70 931,-8 M536,26 Q505,70 442,130 L493,156 Q547,113 585,62"/> 
            <glyph glyph-name="感" unicode="&#x611F;" horiz-adv-x="943" d=" M585,195 Q566,221 536,232 Q614,282 673,345 Q622,456 596,620 L221,620 L221,477 Q225,287 129,161 Q108,181 67,190 Q164,304 159,476 L159,673 L589,673 Q582,733 581,795 L641,800 Q642,753 650,673 L811,673 Q763,719 705,761 L750,791 Q752,790 755,787 Q820,738 848,709 L813,673 L911,673 L911,620 L657,620 Q678,491 718,397 Q775,472 812,564 L863,536 Q812,421 745,340 Q765,308 775,295 Q806,256 830,257 Q854,256 868,294 Q880,323 891,369 Q913,337 937,326 Q926,286 912,256 Q884,194 830,195 Q776,193 723,264 Q713,277 703,293 Q650,240 585,195 M285,242 L285,429 L537,429 L537,242 M422,-67 Q310,-69 312,31 L312,166 L376,166 L376,37 Q375,-12 428,-11 L617,-11 Q670,-13 686,41 Q694,66 701,99 Q728,71 754,60 Q748,35 738,9 Q714,-70 621,-67 M124,-68 L71,-24 Q147,72 184,167 L236,131 Q189,18 124,-68 M262,499 L262,548 L556,548 L556,499 M338,288 L483,288 L483,384 L338,384 M895,-43 Q824,64 751,143 L812,166 Q883,89 943,-2 M562,54 Q508,121 453,172 L508,198 Q552,158 607,94"/> 
            <glyph glyph-name="我" unicode="&#x6211;" horiz-adv-x="942" d=" M451,-8 Q431,23 396,37 Q520,90 621,170 Q590,279 574,460 L339,460 L339,292 L480,333 L507,281 L339,230 L339,27 Q340,-86 233,-84 Q194,-84 157,-79 Q153,-41 137,-14 Q186,-22 225,-22 Q276,-25 274,32 L274,211 L88,155 L53,211 L274,274 L274,460 L67,460 L67,519 L274,519 L274,650 Q196,638 131,633 Q123,662 95,688 Q305,704 456,752 L492,700 Q431,680 339,662 L339,519 L570,519 Q561,645 563,791 L630,796 Q626,659 635,519 L928,519 L928,460 L640,460 Q654,319 675,218 Q767,304 823,406 L868,361 Q802,246 694,150 Q748,-5 818,-16 Q844,-15 860,25 Q878,77 890,125 Q915,90 942,78 Q930,33 914,-9 Q883,-88 819,-88 Q714,-83 641,107 Q552,38 451,-8 M829,564 Q759,656 688,725 L743,754 Q815,684 873,603"/> 
            <glyph glyph-name="手" unicode="&#x624B;" horiz-adv-x="946" d=" M148,429 L148,489 L481,489 L481,655 Q281,640 161,641 Q154,665 128,702 Q554,703 806,761 L848,702 Q733,677 550,661 L550,489 L852,489 L852,429 L550,429 L550,270 L946,270 L946,209 L550,209 L550,28 Q550,-89 425,-89 Q387,-89 328,-80 Q323,-40 308,-11 Q376,-22 415,-22 Q483,-24 481,46 L481,209 L51,209 L51,270 L481,270 L481,429"/> 
            <glyph glyph-name="掌" unicode="&#x638C;" horiz-adv-x="920" d=" M155,257 Q153,282 133,306 Q548,302 819,325 L850,276 Q713,267 538,262 L538,202 L813,202 L813,156 L538,156 L538,95 L920,95 L920,46 L538,46 L538,11 Q540,-96 427,-94 Q395,-94 356,-90 Q356,-56 338,-31 Q387,-39 416,-39 Q478,-42 475,16 L475,46 L77,46 L77,95 L475,95 L475,156 L186,156 L186,202 L475,202 L475,260 Q352,258 287,257 Q212,256 155,257 M92,464 L92,643 L327,643 Q245,707 184,738 L231,774 Q312,730 374,678 L350,643 L466,643 L466,796 L530,796 L530,643 L647,643 Q632,653 616,662 Q701,716 761,775 L807,740 Q736,675 686,643 L905,643 L905,464 L840,464 L840,594 L156,594 L156,464 M253,366 L253,533 L744,533 L744,366 M317,412 L679,412 L679,487 L317,487"/> 
            <glyph glyph-name="故" unicode="&#x6545;" horiz-adv-x="978" d=" M498,306 Q480,324 445,332 L445,13 L383,13 L383,71 L175,71 L175,-22 L113,-22 L113,390 L249,390 L249,555 L59,555 L59,614 L249,614 L249,795 L313,795 L313,614 L494,614 L494,555 L313,555 L313,390 L445,390 L445,343 Q569,534 614,799 L674,780 Q659,695 637,621 L935,621 L935,563 L846,563 Q830,302 736,154 Q834,33 978,-33 Q945,-53 920,-86 Q788,-10 697,99 Q608,-12 444,-97 Q421,-66 383,-51 Q566,30 658,153 Q589,253 546,389 Q524,347 498,306 M695,210 Q771,341 784,563 L619,563 Q603,512 582,466 Q628,309 695,210 M175,334 L175,127 L383,127 L383,334"/> 
            <glyph glyph-name="方" unicode="&#x65B9;" horiz-adv-x="932" d=" M68,581 L68,644 L516,644 Q448,715 380,770 L440,805 Q530,729 579,675 L544,644 L932,644 L932,581 L403,581 Q402,521 394,417 L808,417 L788,74 Q782,-77 641,-74 Q596,-74 543,-67 Q540,-33 527,-1 Q584,-11 634,-11 Q719,-12 722,80 L737,357 L388,357 Q358,58 133,-98 Q105,-71 69,-57 Q310,100 327,419 Q328,435 329,470 Q333,541 334,581"/> 
            <glyph glyph-name="景" unicode="&#x666F;" horiz-adv-x="934" d=" M193,488 L193,750 L805,750 L805,488 L479,488 Q514,461 554,419 L934,419 L934,367 L66,367 L66,419 L473,419 Q466,425 451,438 Q425,461 411,472 L456,488 M208,130 L208,307 L790,307 L790,130 L539,130 L539,10 Q540,-93 436,-92 Q403,-92 363,-87 Q361,-47 345,-23 Q391,-31 427,-31 Q477,-33 475,22 L475,130 M272,178 L727,178 L727,260 L272,260 M256,535 L741,535 L741,597 L256,597 M256,703 L256,642 L741,642 L741,703 M125,-75 Q107,-46 78,-31 Q226,19 335,106 L378,66 Q262,-26 125,-75 M890,-69 Q775,-3 624,60 L664,103 Q788,54 912,-14"/> 
            <glyph glyph-name="有" unicode="&#x6709;" horiz-adv-x="932" d=" M272,-96 L272,384 Q192,302 97,243 Q75,270 38,287 Q253,416 360,610 L87,610 L87,668 L388,668 Q418,731 433,800 L500,775 Q483,721 462,668 L932,668 L932,610 L434,610 Q404,550 364,496 L818,496 L818,18 Q816,-86 710,-88 Q681,-88 639,-84 Q636,-49 622,-20 Q662,-27 696,-27 Q752,-28 751,27 L751,108 L338,108 L338,-96 M338,274 L338,163 L751,163 L751,274 M338,438 L338,328 L751,328 L751,438"/> 
            <glyph glyph-name="机" unicode="&#x673A;" horiz-adv-x="973" d=" M377,-95 Q348,-70 313,-62 Q487,82 483,372 Q485,457 485,558 Q485,657 482,739 L800,739 L800,48 Q798,-6 845,-4 L860,-4 Q895,-7 906,47 Q916,87 922,151 Q941,130 973,114 Q969,58 960,23 Q940,-71 864,-67 L836,-67 Q733,-70 736,41 L736,679 L549,679 Q551,507 547,374 Q547,51 377,-95 M216,-96 L216,388 Q164,236 90,146 Q66,167 33,176 Q153,311 207,527 L67,527 L67,585 L216,585 L216,795 L279,795 L279,585 L415,585 L415,527 L279,527 L279,412 L313,426 Q378,354 419,289 L378,252 Q333,319 279,385 L279,-96"/> 
            <glyph glyph-name="来" unicode="&#x6765;" horiz-adv-x="957" d=" M465,-96 L465,289 Q338,95 106,-24 Q76,9 44,24 Q281,134 427,322 L80,322 L80,379 L465,379 L465,624 L130,624 L130,682 L465,682 L465,796 L530,796 L530,682 L867,682 L867,624 L530,624 L530,379 L917,379 L917,322 L571,322 Q705,139 957,40 Q927,21 900,-18 Q657,92 530,290 L530,-96 M654,407 Q634,429 600,439 Q690,519 751,598 L804,566 Q740,484 654,407 M339,407 Q271,489 188,562 L241,593 Q316,528 384,450"/> 
            <glyph glyph-name="构" unicode="&#x6784;" horiz-adv-x="904" d=" M64,541 L64,597 L220,597 L220,795 L280,795 L280,597 L405,597 L405,541 L280,541 L280,428 L308,438 Q377,349 414,283 L372,246 Q324,328 280,387 L280,-95 L220,-95 L220,412 Q166,255 89,155 Q60,179 30,187 Q156,334 210,541 M755,-85 Q719,-85 673,-79 Q672,-40 659,-14 Q708,-22 750,-22 Q828,-24 828,66 L839,576 L533,576 Q491,492 443,432 Q419,449 382,455 Q494,592 553,799 L611,771 Q594,715 561,634 L904,634 L892,54 Q889,-85 755,-85 M731,93 Q728,98 722,111 Q712,134 705,147 L492,123 Q457,118 421,107 L391,158 Q424,170 447,211 Q524,346 575,482 L629,461 Q572,313 489,177 L679,197 Q639,274 604,329 L657,347 Q724,245 777,129"/> 
            <glyph glyph-name="架" unicode="&#x67B6;" horiz-adv-x="956" d=" M85,220 L85,277 L466,277 L466,369 L531,369 L531,277 L914,277 L914,220 L573,220 Q721,61 956,11 Q924,-12 907,-46 Q656,31 531,198 L531,-96 L466,-96 L466,194 Q342,40 96,-51 Q77,-21 43,-3 Q279,72 427,220 M570,401 L570,712 L866,712 L866,401 M123,344 Q99,371 67,379 Q227,474 249,624 L110,624 L110,681 L257,681 Q261,732 261,796 L322,790 Q322,730 318,681 L493,681 L484,494 Q478,380 380,380 Q351,380 315,386 Q314,422 294,448 Q343,439 369,439 Q425,436 425,501 L430,624 L311,624 Q285,449 123,344 M629,458 L806,458 L806,656 L629,656"/> 
            <glyph glyph-name="正" unicode="&#x6B63;" horiz-adv-x="936" d=" M117,662 L117,723 L883,723 L883,662 L563,662 L563,385 L848,385 L848,325 L563,325 L563,7 L936,7 L936,-56 L63,-56 L63,7 L208,7 L208,498 L276,498 L276,7 L493,7 L493,662"/> 
            <glyph glyph-name="每" unicode="&#x6BCF;" horiz-adv-x="949" d=" M54,272 L54,328 L229,328 L258,567 L804,567 L792,328 L949,328 L949,272 L789,272 L780,87 L889,87 L889,31 L777,31 Q770,-96 663,-92 Q624,-92 584,-88 Q580,-59 561,-29 Q615,-36 650,-36 Q708,-38 713,31 L193,31 L222,272 M287,272 L266,87 L716,87 L724,272 M316,510 L294,328 L727,328 L736,510 M133,463 Q108,484 69,495 Q227,632 298,804 L360,777 Q341,738 325,708 L883,708 L883,650 L290,650 Q224,545 133,463 M550,102 Q482,163 404,221 L452,255 Q511,213 586,146 M561,341 Q501,397 419,458 L465,491 Q536,439 595,386"/> 
            <glyph glyph-name="池" unicode="&#x6C60;" horiz-adv-x="951" d=" M608,110 L608,480 L462,441 L462,67 Q460,1 525,3 L791,3 Q860,1 876,58 Q887,90 897,135 Q920,107 951,92 Q950,90 949,86 Q940,47 932,27 Q904,-60 801,-58 L519,-58 Q396,-60 398,68 L398,423 L306,398 L285,453 L398,483 L398,734 L462,734 L462,501 L608,541 L608,793 L671,793 L671,558 L890,619 L880,280 Q877,179 785,178 Q756,178 732,181 Q729,214 712,242 Q751,236 775,236 Q819,236 819,287 L827,541 L671,498 L671,110 M147,-77 L89,-34 Q192,134 244,304 L296,265 Q237,76 147,-77 M227,349 Q141,419 53,471 L99,515 Q175,473 259,403 M285,590 Q216,653 120,714 L166,755 Q247,707 320,642"/> 
            <glyph glyph-name="满" unicode="&#x6EE1;" horiz-adv-x="942" d=" M283,474 L283,527 L942,527 L942,474 L729,474 L729,374 L900,374 L900,23 Q904,-89 795,-85 Q759,-85 735,-82 Q733,-54 721,-21 Q754,-26 786,-26 Q842,-29 839,30 L839,321 L724,321 Q722,281 719,243 Q776,174 834,84 L797,49 Q756,113 707,181 Q677,64 603,-15 Q577,1 548,6 Q667,122 671,321 L551,321 Q549,277 544,243 Q591,193 625,142 L591,107 Q557,157 533,187 Q509,97 443,22 Q417,38 386,44 L386,-95 L325,-95 L325,374 L493,374 L493,474 M303,642 L303,695 L467,695 L467,796 L527,796 L527,695 L687,695 L687,796 L747,796 L747,695 L919,695 L919,642 L747,642 L747,553 L687,553 L687,642 L527,642 L527,552 L467,552 L467,642 M140,-79 L81,-37 Q158,112 208,298 L261,264 Q206,63 140,-79 M386,321 L386,45 Q497,149 497,321 M213,356 Q124,428 44,475 L90,520 Q182,462 246,408 M551,474 L551,374 L671,374 L671,474 M245,597 Q162,675 89,723 L138,765 Q219,709 280,646"/> 
            <glyph glyph-name="漂" unicode="&#x6F02;" horiz-adv-x="940" d=" M310,696 L310,748 L931,748 L931,696 L727,696 L727,611 L891,611 L891,406 L342,406 L342,611 L506,611 L506,696 M309,151 L309,203 L932,203 L932,151 L651,151 L651,11 Q649,-90 548,-92 Q528,-92 481,-87 Q481,-56 465,-27 Q509,-33 540,-33 Q591,-34 590,18 L590,151 M384,281 L384,331 L850,331 L850,281 M137,-83 L82,-40 Q159,105 219,285 L269,251 Q209,60 137,-83 M310,-64 Q288,-32 260,-21 Q369,30 468,127 L514,88 Q421,-4 310,-64 M911,-59 Q818,21 715,87 L759,123 Q857,61 940,-9 M219,362 Q142,427 51,483 L95,525 Q173,480 249,417 M252,601 Q161,682 88,727 L134,766 Q203,724 284,653 M835,560 L727,560 L727,456 L835,456 M564,560 L564,456 L671,456 L671,560 M399,456 L506,456 L506,560 L399,560 M564,696 L564,611 L671,611 L671,696"/> 
            <glyph glyph-name="爱" unicode="&#x7231;" horiz-adv-x="944" d=" M140,336 L140,392 L398,392 Q416,439 425,487 L486,468 Q478,434 465,392 L853,392 L853,336 L444,336 Q423,285 408,261 L789,261 L789,211 Q736,118 636,45 Q785,-14 944,-25 Q917,-49 902,-91 Q724,-65 575,6 Q452,-63 277,-101 Q266,-75 232,-48 Q396,-16 511,40 Q418,97 347,172 Q250,48 103,-28 Q79,-2 44,15 Q270,120 376,336 M94,407 L94,552 L285,552 Q238,612 198,649 L257,669 Q308,621 343,571 L308,552 L622,552 Q702,632 757,711 L813,678 Q755,606 700,552 L901,552 L901,407 L836,407 L836,496 L159,496 L159,407 M165,688 Q156,721 137,745 Q512,741 815,789 L857,736 Q574,692 165,688 M713,207 L385,207 Q464,130 573,76 Q661,132 713,207 M511,558 Q471,624 426,673 L484,692 Q520,652 562,586"/> 
            <glyph glyph-name="生" unicode="&#x751F;" horiz-adv-x="931" d=" M215,241 L215,302 L481,302 L481,509 L240,509 Q177,375 103,295 Q76,313 35,322 Q196,500 252,745 L314,715 Q296,641 267,570 L481,570 L481,794 L549,794 L549,570 L868,570 L868,509 L549,509 L549,302 L815,302 L815,241 L549,241 L549,4 L931,4 L931,-57 L73,-57 L73,4 L481,4 L481,241"/> 
            <glyph glyph-name="电" unicode="&#x7535;" horiz-adv-x="950" d=" M152,157 L152,648 L451,648 L451,795 L517,795 L517,648 L823,648 L823,157 L517,157 L517,59 Q516,-6 584,-5 L791,-5 Q861,-7 876,60 Q887,100 892,135 Q916,110 950,96 Q942,54 935,33 Q909,-70 803,-67 L575,-67 Q449,-69 451,51 L451,157 M517,216 L758,216 L758,375 L517,375 M758,590 L517,590 L517,430 L758,430 M218,590 L218,430 L451,430 L451,590 M218,216 L451,216 L451,375 L218,375"/> 
            <glyph glyph-name="的" unicode="&#x7684;" horiz-adv-x="911" d=" M120,-82 L120,629 L216,629 Q271,730 290,798 L351,774 Q321,693 286,629 L450,629 L450,-64 L388,-64 L388,15 L182,15 L182,-82 M755,-83 Q716,-83 679,-78 Q676,-42 658,-12 Q705,-21 747,-21 Q830,-23 831,70 L846,578 L614,578 Q566,483 517,422 Q487,438 454,443 Q569,588 630,800 L690,774 Q667,696 640,637 L911,637 L895,60 Q893,-85 755,-83 M182,296 L182,74 L388,74 L388,296 M182,570 L182,352 L388,352 L388,570 M672,181 Q608,282 534,365 L588,393 Q647,332 719,226"/> 
            <glyph glyph-name="相" unicode="&#x76F8;" horiz-adv-x="901" d=" M489,-92 L489,734 L901,734 L901,-91 L836,-91 L836,-7 L553,-7 L553,-92 M75,527 L75,586 L242,586 L242,793 L306,793 L306,586 L441,586 L441,527 L306,527 L306,418 L328,425 Q412,318 444,263 L405,223 Q349,308 306,367 L306,-96 L242,-96 L242,387 Q188,237 107,133 Q80,156 49,164 Q184,333 233,527 M553,224 L553,52 L836,52 L836,224 M553,449 L553,279 L836,279 L836,449 M553,675 L553,506 L836,506 L836,675"/> 
            <glyph glyph-name="磅" unicode="&#x78C5;" horiz-adv-x="942" d=" M81,662 L81,718 L407,718 L407,662 L273,662 Q256,559 215,458 L374,458 L374,15 L317,15 L317,63 L215,63 L215,-14 L159,-14 L159,347 Q121,287 82,248 Q61,276 33,286 Q172,422 214,662 M418,274 L418,326 L684,326 Q655,363 604,412 L664,432 Q705,395 746,345 L713,326 L942,326 L942,274 L625,274 Q622,224 615,182 L872,182 L860,23 Q853,-87 740,-85 Q700,-84 663,-78 Q662,-43 647,-17 Q694,-27 731,-27 Q796,-30 799,31 L806,129 L602,129 Q564,-14 417,-96 Q396,-72 359,-53 Q559,29 563,274 M435,365 L435,512 L584,512 Q559,547 510,606 L564,629 Q606,584 641,532 L614,512 L713,512 Q760,568 795,633 L849,610 Q814,553 780,512 L920,512 L920,365 L862,365 L862,460 L494,460 L494,365 M438,637 L438,691 L683,691 Q642,741 601,779 L663,801 Q707,760 749,708 L720,691 L926,691 L926,637 M215,403 L215,118 L317,118 L317,403"/> 
            <glyph glyph-name="精" unicode="&#x7CBE;" horiz-adv-x="945" d=" M460,-96 L460,343 L868,343 L868,8 Q869,-90 778,-89 Q753,-89 717,-85 Q715,-57 701,-28 Q732,-33 765,-34 Q811,-36 809,15 L809,56 L520,56 L520,-96 M60,400 L60,455 L206,455 L206,793 L264,793 L264,455 L382,455 L382,400 L264,400 L264,309 L298,323 Q345,266 394,190 L353,151 Q315,211 264,280 L264,-96 L206,-96 L206,305 Q159,163 82,60 Q64,78 25,93 Q141,225 193,400 M426,648 L426,700 L630,700 L630,797 L691,797 L691,700 L908,700 L908,648 L691,648 L691,578 L873,578 L873,528 L691,528 L691,456 L945,456 L945,404 L408,404 L408,456 L630,456 L630,528 L460,528 L460,578 L630,578 L630,648 M520,175 L520,103 L809,103 L809,175 M520,293 L520,223 L809,223 L809,293 M320,510 Q297,523 270,527 Q322,607 353,694 L402,669 Q366,588 320,510 M142,507 Q107,588 58,669 L109,686 Q154,612 186,537"/> 
            <glyph glyph-name="线" unicode="&#x7EBF;" horiz-adv-x="952" d=" M428,480 L417,537 L572,562 Q563,683 562,793 L625,798 Q625,696 634,571 L885,612 L898,555 L639,514 Q646,450 656,383 L913,431 L925,374 L666,325 Q683,235 705,169 Q794,226 860,301 L900,255 Q828,176 726,110 Q741,73 764,38 Q800,-17 831,-14 Q858,-15 875,31 Q889,61 901,118 Q923,84 952,74 Q943,36 927,-2 Q895,-81 836,-82 Q768,-83 717,-3 Q691,36 672,78 Q564,17 435,-19 Q413,16 389,32 Q539,71 650,135 Q623,212 604,314 L428,281 L413,338 L594,372 Q593,378 591,389 Q580,462 577,504 M108,184 L79,241 Q112,252 142,293 Q189,350 241,428 L134,423 Q103,421 78,412 L49,467 Q79,478 100,509 Q194,643 259,785 L318,762 Q250,619 148,477 L280,485 Q311,533 353,611 L406,582 Q297,391 191,261 L356,282 L370,227 L175,202 Q136,196 108,184 M91,-40 L54,14 L375,131 L404,86 M801,618 Q746,685 687,735 L739,766 Q809,702 843,657"/> 
            <glyph glyph-name="细" unicode="&#x7EC6;" horiz-adv-x="894" d=" M421,-72 L421,714 L894,714 L894,-72 L830,-72 L830,7 L484,7 L484,-72 M105,189 L76,243 Q110,256 139,296 Q187,357 234,429 L129,423 Q106,423 76,415 L50,465 Q76,477 100,512 Q191,649 251,793 L308,767 Q239,614 144,479 L269,484 Q314,558 340,613 L393,586 Q293,397 184,264 L358,285 L373,231 L172,204 Q131,199 105,189 M687,334 L687,66 L830,66 L830,334 M484,334 L484,66 L626,66 L626,334 M830,655 L687,655 L687,392 L830,392 M484,655 L484,392 L626,392 L626,655 M85,-46 L52,12 L370,110 L394,62"/> 
            <glyph glyph-name="继" unicode="&#x7EE7;" horiz-adv-x="940" d=" M498,400 L498,454 L672,454 L672,787 L731,787 L731,454 L900,454 L900,400 L731,400 L731,27 L672,27 L672,330 Q618,199 525,100 Q503,121 472,131 Q596,263 650,400 M403,-59 L403,724 L466,724 L466,-1 L940,-1 L940,-59 M103,181 L74,234 Q105,247 124,273 Q171,336 235,435 L141,429 Q119,428 79,419 L52,467 Q81,477 99,509 Q195,667 246,793 L306,769 Q240,627 153,485 L272,492 Q316,565 334,599 L386,571 Q288,400 182,256 L345,276 L359,225 L168,197 Q131,193 103,181 M87,-53 L51,5 L349,112 L377,64 M880,109 Q818,212 732,324 L782,342 Q869,234 923,150 M810,510 Q789,523 758,527 Q813,603 859,709 L910,683 Q858,577 810,510 M595,509 Q565,574 494,684 L548,701 Q604,614 640,539"/> 
            <glyph glyph-name="续" unicode="&#x7EED;" horiz-adv-x="943" d=" M438,634 L438,688 L629,688 L629,796 L692,796 L692,688 L889,688 L889,634 L692,634 L692,537 L924,537 L924,487 L874,335 Q847,343 815,343 L862,482 L401,482 L401,537 L629,537 L629,634 M104,182 L74,235 Q106,248 125,274 Q176,342 237,436 L142,430 Q110,428 80,420 L53,469 Q81,479 100,510 Q199,674 247,795 L307,770 Q244,633 154,487 L274,493 Q321,568 342,608 L394,580 Q286,393 183,257 L352,279 L368,227 L169,199 Q130,193 104,182 M379,136 L379,190 L645,190 Q655,225 660,281 Q665,351 665,452 L726,449 Q726,342 721,275 Q716,218 709,190 L943,190 L943,136 L693,136 Q640,-21 428,-97 Q412,-70 378,-48 Q578,20 626,136 M83,-45 L48,14 L359,106 L385,56 M905,-98 Q781,4 686,60 L726,101 Q836,38 932,-39 M554,212 Q475,268 402,302 L433,340 Q507,306 575,258 M603,314 Q531,368 461,403 L492,440 Q561,408 624,360"/> 
            <glyph glyph-name="背" unicode="&#x80CC;" horiz-adv-x="929" d=" M214,-96 L214,406 L777,406 L777,11 Q777,-91 672,-91 Q645,-91 605,-87 Q602,-52 587,-25 Q631,-32 666,-32 Q716,-36 712,16 L712,74 L280,74 L280,-96 M662,456 Q558,456 558,557 L558,796 L623,796 L623,654 Q756,697 855,755 L897,711 Q782,645 623,593 L623,563 Q621,511 673,513 L801,513 Q846,511 863,557 Q871,580 878,618 Q900,590 929,577 Q920,543 914,526 Q888,454 807,456 M90,643 L90,699 L351,699 L351,796 L417,796 L417,439 L351,439 L351,506 L95,444 L62,502 L351,561 L351,643 M280,351 L280,263 L712,263 L712,351 M280,212 L280,125 L712,125 L712,212"/> 
            <glyph glyph-name="色" unicode="&#x8272;" horiz-adv-x="936" d=" M313,-66 Q187,-67 187,53 L187,503 L495,503 L643,644 L344,644 Q242,536 120,470 Q119,471 117,473 Q91,501 64,511 Q288,629 387,810 L443,776 Q412,725 392,701 L738,701 L738,651 L581,503 L842,503 L842,218 L253,218 L253,56 Q254,-3 318,-4 L775,-4 Q843,-7 860,49 Q873,86 880,135 Q905,105 936,91 Q935,89 934,84 Q923,36 917,22 Q891,-70 781,-66 M777,445 L545,445 L545,275 L777,275 M253,445 L253,275 L483,275 L483,445"/> 
            <glyph glyph-name="艳" unicode="&#x8273;" horiz-adv-x="954" d=" M578,-63 Q462,-66 465,50 L465,496 Q462,493 456.5,487 Q451,481 448,478 Q425,502 394,510 Q527,644 586,800 L640,767 Q623,727 602,688 L846,688 L846,644 L744,502 L897,502 L897,221 L527,221 L527,53 Q525,-5 586,-3 L805,-3 Q866,-7 883,64 Q890,90 899,134 Q928,105 954,94 Q950,73 941,40 Q917,-67 816,-63 M67,580 L67,637 L218,637 L218,796 L280,796 L280,637 L425,637 L425,580 L280,580 L280,429 L404,429 L404,374 L280,374 L280,218 L433,218 L433,161 L280,161 L280,-95 L218,-95 L218,161 L49,161 L49,218 L218,218 L218,374 L84,374 L84,429 L218,429 L218,580 M571,633 Q526,562 470,502 L672,502 L766,633 M835,446 L709,446 L709,276 L835,276 M527,446 L527,276 L653,276 L653,446"/> 
            <glyph glyph-name="节" unicode="&#x8282;" horiz-adv-x="939" d=" M401,-96 L401,367 L133,367 L133,428 L842,428 L832,142 Q828,-3 696,0 Q662,0 604,6 Q603,38 587,72 Q648,63 692,63 Q768,58 768,150 L775,367 L469,367 L469,-96 M59,612 L59,673 L306,673 L306,796 L371,796 L371,673 L624,673 L624,796 L690,796 L690,673 L939,673 L939,612 L690,612 L690,497 L624,497 L624,612 L371,612 L371,495 L306,495 L306,612"/> 
            <glyph glyph-name="见" unicode="&#x89C1;" horiz-adv-x="945" d=" M215,221 L215,737 L788,737 L788,221 L723,221 L723,677 L280,677 L280,221 M110,-97 Q89,-69 56,-44 Q476,82 467,477 L467,585 L532,585 L532,482 Q538,47 110,-97 M653,-67 Q529,-71 532,56 L532,328 L596,328 L596,70 Q592,-12 663,-7 L793,-7 Q862,-10 874,50 Q887,103 891,135 Q913,106 945,92 Q936,42 929,26 Q908,-72 795,-67"/> 
            <glyph glyph-name="解" unicode="&#x89E3;" horiz-adv-x="941" d=" M274,-18 L274,144 L178,144 Q171,4 116,-95 Q87,-81 53,-76 Q93,-9 107.5,56.5 Q122,122 122,233 L122,526 Q108,514 96,502 Q77,522 43,532 Q173,655 233,802 L288,775 Q272,736 255,707 L460,707 L460,660 L371,534 L479,534 L479,21 Q480,-80 391,-79 Q376,-79 345,-76 Q344,-76 343,-76 Q340,-43 328,-18 Q356,-21 380,-21 Q423,-24 421,28 L421,144 L327,144 L327,-18 M554,178 Q527,193 495,197 Q558,277 585,396 L638,375 Q633,357 621,320 Q618,312 617,309 L716,309 L716,408 L775,408 L775,309 L921,309 L921,254 L775,254 L775,130 L941,130 L941,76 L775,76 L775,-95 L716,-95 L716,76 L511,76 L511,130 L716,130 L716,254 L595,254 Q575,212 554,178 M558,417 Q530,438 500,448 Q628,523 639,674 L521,674 L521,729 L911,729 L902,548 Q898,439 801,440 Q771,440 731,445 Q729,480 717,503 Q760,496 787,496 Q841,496 844,553 L850,674 L698,674 Q685,502 558,417 M222,653 Q180,589 130,534 L298,534 L385,653 M421,481 L327,481 L327,363 L421,363 M327,313 L327,194 L421,194 L421,313 M181,232 Q181,212 180,194 L274,194 L274,313 L181,313 M181,481 L181,363 L274,363 L274,481"/> 
            <glyph glyph-name="计" unicode="&#x8BA1;" horiz-adv-x="950" d=" M383,404 L383,465 L631,465 L631,793 L698,793 L698,465 L950,465 L950,404 L698,404 L698,-96 L631,-96 L631,404 M208,-72 L168,-18 Q194,8 192,69 L192,399 L50,399 L50,459 L257,459 L257,61 L382,176 L422,135 L247,-29 Q235,-39 211,-68 Q209,-71 208,-72 M316,563 Q238,641 136,720 L189,760 Q290,679 352,617"/> 
            <glyph glyph-name="设" unicode="&#x8BBE;" horiz-adv-x="956" d=" M908,-91 Q740,-41 623,45 Q506,-44 337,-97 Q319,-67 284,-47 Q456,3 573,86 Q464,184 404,318 L363,318 L363,376 L840,376 L840,324 Q782,187 673,87 Q787,10 956,-32 Q924,-56 908,-91 M370,403 Q352,426 313,441 Q449,517 447,620 Q452,682 447,753 L775,753 L770,570 Q766,494 832,498 Q877,498 942,507 Q930,478 930,444 Q875,439 826,439 Q701,435 708,561 L712,695 L512,695 Q512,642 509,606 Q503,484 370,403 M183,-62 L147,-9 Q181,23 179,72 L179,416 L49,416 L49,474 L242,474 L242,68 L356,157 L395,114 L228,-18 Q207,-33 183,-62 M770,318 L472,318 Q532,202 623,126 Q718,208 770,318 M261,575 Q179,664 103,724 L156,762 Q228,705 304,626"/> 
            <glyph glyph-name="身" unicode="&#x8EAB;" horiz-adv-x="942" d=" M91,212 L91,268 L220,268 L220,700 L373,700 Q415,756 436,803 L501,782 Q474,732 450,700 L773,700 L773,311 Q837,368 888,436 L942,405 Q867,308 773,232 L773,18 Q772,-87 653,-88 Q612,-88 579,-85 Q574,-46 561,-21 Q612,-28 645,-28 Q708,-27 709,28 L709,183 Q475,22 106,-63 Q86,-29 53,-6 Q414,64 643,212 M283,360 L283,268 L709,268 L709,360 M283,644 L283,554 L709,554 L709,644 M283,502 L283,412 L709,412 L709,502"/> 
            <glyph glyph-name="轻" unicode="&#x8F7B;" horiz-adv-x="952" d=" M64,612 L64,667 L209,667 Q232,731 248,798 L308,780 Q291,723 273,667 L451,667 L451,612 L253,612 Q212,496 155,374 L262,374 L262,522 L322,522 L322,374 L430,374 L430,320 L322,320 L322,183 L435,210 L456,159 L322,125 L322,-96 L262,-96 L262,110 L69,61 L42,118 L262,169 L262,320 L85,320 L85,376 Q134,463 189,612 M488,222 L488,278 L882,278 L882,222 L718,222 L718,0 L945,0 L945,-57 L418,-57 L418,0 L655,0 L655,222 M922,347 Q837,413 708,494 Q606,403 488,350 Q466,379 440,394 Q681,509 780,674 L486,674 L486,730 L859,730 L859,683 Q817,603 750,535 Q874,460 952,402"/> 
            <glyph glyph-name="都" unicode="&#x90FD;" horiz-adv-x="931" d=" M121,626 L121,681 L273,681 L273,796 L334,796 L334,681 L463,681 L463,626 L334,626 L334,501 L374,501 Q476,608 545,731 L597,702 Q538,598 452,501 L580,501 L580,446 L401,446 Q354,399 303,358 L524,358 L524,-54 L463,-54 L463,0 L249,0 L249,-66 L187,-66 L187,274 Q135,239 81,212 Q60,240 30,256 Q188,332 317,446 L59,446 L59,501 L273,501 L273,626 M620,-96 L620,735 L927,735 L927,687 L793,411 Q930,285 931,160 Q929,24 794,22 Q755,22 731,28 Q727,66 714,93 Q760,84 790,84 Q865,87 868,162 Q867,272 722,399 L856,678 L682,678 L682,-96 M249,155 L249,53 L463,53 L463,155 M249,305 L249,205 L463,205 L463,305"/> 
            <glyph glyph-name="重" unicode="&#x91CD;" horiz-adv-x="938" d=" M61,555 L61,607 L466,607 L466,684 Q311,676 175,677 Q168,710 145,732 Q514,725 791,768 L828,717 Q682,697 532,687 L532,607 L938,607 L938,555 L532,555 L532,486 L815,486 L815,189 L532,189 L532,114 L853,114 L853,65 L532,65 L532,-15 L924,-15 L924,-67 L76,-67 L76,-15 L466,-15 L466,65 L146,65 L146,114 L466,114 L466,189 L184,189 L184,486 L466,486 L466,555 M532,239 L751,239 L751,316 L532,316 M248,239 L466,239 L466,316 L248,316 M751,436 L532,436 L532,361 L751,361 M248,436 L248,361 L466,361 L466,436"/> 
            <glyph glyph-name="金" unicode="&#x91D1;" horiz-adv-x="967" d=" M255,427 L255,472 Q175,421 87,385 Q69,415 33,436 Q370,571 491,809 L549,776 Q541,761 532,746 Q691,539 967,464 Q936,440 913,404 Q829,432 747,478 L747,427 L532,427 L532,300 L822,300 L822,242 L532,242 L532,-7 L916,-7 L916,-66 L84,-66 L84,-7 L467,-7 L467,242 L178,242 L178,300 L467,300 L467,427 M499,695 Q413,577 276,485 L735,485 Q591,570 499,695 M651,21 Q629,42 600,54 Q686,127 739,204 L795,174 Q731,90 651,21 M347,23 Q284,98 196,171 L249,201 Q331,138 386,70"/> 
            <glyph glyph-name="铝" unicode="&#x94DD;" horiz-adv-x="905" d=" M447,-94 L447,310 L905,310 L905,-94 L840,-94 L840,-22 L511,-22 L511,-94 M477,426 L477,740 L871,740 L871,426 M86,418 Q62,440 30,449 Q161,596 219,799 L275,772 Q259,716 235,660 L417,660 L417,604 L209,604 Q176,538 135,479 L385,479 L385,423 L273,423 L273,291 L410,291 L410,235 L273,235 L273,34 L381,106 L419,66 L258,-47 Q237,-64 220,-83 L182,-31 Q213,-6 211,46 L211,235 L75,235 L75,291 L211,291 L211,423 L128,423 L128,469 Q107,441 86,418 M511,252 L511,35 L840,35 L840,252 M541,484 L809,484 L809,682 L541,682"/> 
            <glyph glyph-name="面" unicode="&#x9762;" horiz-adv-x="938" d=" M63,678 L63,736 L938,736 L938,678 L507,678 Q477,601 446,548 L860,548 L860,-95 L796,-95 L796,-22 L203,-22 L203,-95 L139,-95 L139,548 L376,548 Q419,623 439,678 M796,491 L649,491 L649,34 L796,34 M203,491 L203,34 L349,34 L349,491 M409,154 L409,34 L589,34 L589,154 M409,323 L409,204 L589,204 L589,323 M409,491 L409,373 L589,373 L589,491"/> 
            <glyph glyph-name="风" unicode="&#x98CE;" horiz-adv-x="972" d=" M88,-93 Q64,-70 24,-55 Q122,43 151,153 Q184,261 183,500 Q183,653 175,744 L803,744 Q780,553 780,395 Q779,162 819,56 Q838,-2 873,-4 Q898,-5 913,56 Q918,76 924,121 Q944,92 972,79 Q968,47 961,20 Q938,-74 873,-75 Q792,-74 757,32 Q714,146 715,404 Q715,511 728,685 L247,685 Q248,647 249,602 Q249,580 249,555 Q249,533 249,493 Q250,249 216,131 Q185,11 88,-93 M636,48 Q582,144 496,274 Q404,142 307,54 Q280,79 247,87 Q355,179 460,328 Q373,457 298,552 L359,573 Q412,505 497,384 Q566,497 603,596 L659,564 Q608,445 534,329 Q634,183 687,95"/> 
            <glyph glyph-name="，" unicode="&#xFF0C;" horiz-adv-x="294" d=" M294,72 L294,31 Q293,-50 246,-128 L208,-128 Q249,-57 249,0 Q248,18 228,19 L207,19 L207,110 L251,110 Q292,108 294,72"/> 
        </font>
</defs>
</svg>
