<?xml version="1.0" standalone="no"?>
<!DOCTYPE svg PUBLIC "-//W3C//DTD SVG 1.1//EN" "http://www.w3.org/Graphics/SVG/1.1/DTD/svg11.dtd" >
<svg xmlns="http://www.w3.org/2000/svg">
    <defs>
        <font id="">
            <font-face font-family=""
                       units-per-em="2048"
                       ascent="1900"
                       descent="-500"
                       bbox="-1504 -555 2330 2163"
                    />
            <missing-glyph horiz-adv-x="0" />
            
            <glyph glyph-name="0" unicode="&#x30;" horiz-adv-x="1015" d=" M1015,607 Q1015,299 902,139.5 Q789,-20 569,-20 Q353,-20 238,136.5 Q123,293 120,592 L120,853 Q120,1160 234,1318 Q348,1476 567,1476 Q783,1476 897,1323.5 Q1011,1171 1015,874 M895,868 Q895,1118 813.5,1246 Q732,1374 567,1374 Q405,1374 323,1249 Q241,1124 239,880 L239,594 Q239,345 323.5,213 Q408,81 569,81 Q729,81 811.5,210 Q894,339 895,588"/> 
            <glyph glyph-name="1" unicode="&#x31;" horiz-adv-x="694" d=" M694,0 L574,0 L574,1312 L178,1165 L178,1277 L674,1461 L694,1461"/> 
            <glyph glyph-name="2" unicode="&#x32;" horiz-adv-x="1049" d=" M1049,0 L137,0 L137,92 L636,658 Q760,801 808,894 Q856,987 856,1075 Q856,1213 775,1293.5 Q694,1374 552,1374 Q405,1374 314.5,1280 Q224,1186 224,1036 L105,1036 Q105,1159 160.5,1260 Q216,1361 318.5,1418.5 Q421,1476 552,1476 Q752,1476 864.5,1371 Q977,1266 977,1085 Q977,983 913.5,862 Q850,741 690,560 L284,101 L1049,101"/> 
            <glyph glyph-name="3" unicode="&#x33;" horiz-adv-x="1012" d=" M403,793 L527,793 Q630,793 707,829.5 Q784,866 824.5,929.5 Q865,993 865,1076 Q865,1216 786,1295 Q707,1374 559,1374 Q419,1374 329.5,1291.5 Q240,1209 240,1074 L120,1074 Q120,1187 177,1280.5 Q234,1374 335,1425 Q436,1476 559,1476 Q757,1476 871,1368 Q985,1260 985,1072 Q985,967 918.5,878.5 Q852,790 736,746 Q872,708 942,615.5 Q1012,523 1012,395 Q1012,208 890,94 Q768,-20 564,-20 Q434,-20 325.5,32 Q217,84 157.5,177.5 Q98,271 98,395 L218,395 Q218,256 315,168.5 Q412,81 564,81 Q719,81 805.5,160.5 Q892,240 892,391 Q892,537 798.5,614 Q705,691 523,691 L403,691"/> 
            <glyph glyph-name="4" unicode="&#x34;" horiz-adv-x="1099" d=" M872,469 L1099,469 L1099,368 L872,368 L872,0 L752,0 L752,368 L67,368 L67,436 L741,1456 L872,1456 M214,469 L752,469 L752,1301 L699,1209"/> 
            <glyph glyph-name="5" unicode="&#x35;" horiz-adv-x="1046" d=" M218,746 L289,1456 L1017,1456 L1017,1345 L392,1345 L341,853 Q458,933 615,933 Q812,933 929,805 Q1046,677 1046,464 Q1046,234 932,107 Q818,-20 611,-20 Q421,-20 303,86 Q185,192 168,383 L283,383 Q300,234 384,157.5 Q468,81 611,81 Q767,81 846.5,180 Q926,279 926,462 Q926,622 837,723 Q748,824 594,824 Q509,824 446,802.5 Q383,781 313,719"/> 
            <glyph glyph-name="6" unicode="&#x36;" horiz-adv-x="1032" d=" M843,1467 L843,1362 L829,1362 Q568,1362 418,1208.5 Q268,1055 252,782 Q312,865 405,910.5 Q498,956 613,956 Q805,956 918.5,823.5 Q1032,691 1032,477 Q1032,335 979,221 Q926,107 827,43.5 Q728,-20 601,-20 Q392,-20 261,131.5 Q130,283 130,523 L130,643 Q130,1034 308,1248.5 Q486,1463 813,1467 M594,853 Q480,853 381.5,785.5 Q283,718 250,614 L250,512 Q250,322 347.5,202 Q445,82 601,82 Q741,82 827.5,193 Q914,304 914,473 Q914,645 827.5,749 Q741,853 594,853"/> 
            <glyph glyph-name="7" unicode="&#x37;" horiz-adv-x="1034" d=" M1034,1387 L412,0 L287,0 L905,1354 L77,1354 L77,1456 L1034,1456"/> 
            <glyph glyph-name="8" unicode="&#x38;" horiz-adv-x="1033" d=" M995,1081 Q995,968 929,878.5 Q863,789 755,747 Q881,704 957,608 Q1033,512 1033,386 Q1033,199 906,89.5 Q779,-20 570,-20 Q359,-20 232.5,89 Q106,198 106,386 Q106,510 179,607 Q252,704 379,747 Q271,789 207,878.5 Q143,968 143,1081 Q143,1262 259.5,1369 Q376,1476 568,1476 Q760,1476 877.5,1368 Q995,1260 995,1081 M913,385 Q913,521 816,608.5 Q719,696 568,696 Q417,696 321,610 Q225,524 225,385 Q225,246 318,163.5 Q411,81 570,81 Q725,81 819,163 Q913,245 913,385 M875,1082 Q875,1207 788.5,1290.5 Q702,1374 568,1374 Q432,1374 347.5,1293.5 Q263,1213 263,1082 Q263,954 347.5,876 Q432,798 569,798 Q704,798 789.5,876.5 Q875,955 875,1082"/> 
            <glyph glyph-name="9" unicode="&#x39;" horiz-adv-x="1004" d=" M884,674 Q820,580 725,528.5 Q630,477 519,477 Q395,477 300,541 Q205,605 153,718 Q101,831 101,965 Q101,1109 156.5,1227 Q212,1345 311.5,1410.5 Q411,1476 541,1476 Q760,1476 882,1322.5 Q1004,1169 1004,887 L1004,779 Q1004,385 836,187 Q668,-11 323,-11 L301,-11 L302,93 L344,93 Q605,97 741,241 Q877,385 884,674 M534,580 Q654,580 749.5,651.5 Q845,723 885,837 L885,906 Q885,1128 792.5,1250.5 Q700,1373 543,1373 Q401,1373 310,1258.5 Q219,1144 219,970 Q219,803 306.5,691.5 Q394,580 534,580"/> 
            <glyph glyph-name="A" unicode="&#x41;" horiz-adv-x="1249" d=" M970,408 L309,408 L159,0 L30,0 L581,1456 L698,1456 L1249,0 L1121,0 M347,513 L931,513 L639,1306"/> 
            <glyph glyph-name="B" unicode="&#x42;" horiz-adv-x="1142" d=" M184,0 L184,1456 L614,1456 Q848,1456 969,1359.5 Q1090,1263 1090,1075 Q1090,962 1028.5,878.5 Q967,795 860,759 Q987,731 1064.5,634 Q1142,537 1142,410 Q1142,217 1017.5,108.5 Q893,0 671,0 M307,700 L307,104 L676,104 Q834,104 926.5,184.5 Q1019,265 1019,408 Q1019,543 930.5,621.5 Q842,700 686,700 M307,803 L643,803 Q797,806 881.5,875.5 Q966,945 966,1078 Q966,1218 878.5,1284.5 Q791,1351 614,1351 L307,1351"/> 
            <glyph glyph-name="C" unicode="&#x43;" horiz-adv-x="1215" d=" M1215,454 Q1190,224 1050.5,102 Q911,-20 679,-20 Q517,-20 392.5,61 Q268,142 200,290.5 Q132,439 131,630 L131,819 Q131,1013 199,1163 Q267,1313 394.5,1394.5 Q522,1476 688,1476 Q922,1476 1057.5,1349.5 Q1193,1223 1215,1000 L1091,1000 Q1045,1371 688,1371 Q490,1371 372.5,1223 Q255,1075 255,814 L255,636 Q255,384 369.5,234 Q484,84 679,84 Q872,84 970,176.5 Q1068,269 1091,454"/> 
            <glyph glyph-name="D" unicode="&#x44;" horiz-adv-x="1213" d=" M184,0 L184,1456 L591,1456 Q770,1456 912,1374.5 Q1054,1293 1133.5,1141 Q1213,989 1213,795 L1213,661 Q1213,466 1134,315 Q1055,164 911.5,82 Q768,0 582,0 M307,1351 L307,104 L583,104 Q813,104 952,256.5 Q1091,409 1091,669 L1091,797 Q1091,1048 954,1199 Q817,1350 593,1351"/> 
            <glyph glyph-name="E" unicode="&#x45;" horiz-adv-x="1090" d=" M988,698 L307,698 L307,104 L1090,104 L1090,0 L184,0 L184,1456 L1085,1456 L1085,1351 L307,1351 L307,802 L988,802"/> 
            <glyph glyph-name="F" unicode="&#x46;" horiz-adv-x="1086" d=" M986,680 L307,680 L307,0 L184,0 L184,1456 L1086,1456 L1086,1351 L307,1351 L307,785 L986,785"/> 
            <glyph glyph-name="G" unicode="&#x47;" horiz-adv-x="1235" d=" M1235,173 Q1171,82 1034.5,31 Q898,-20 729,-20 Q558,-20 425,62 Q292,144 219,294 Q146,444 145,638 L145,822 Q145,1125 298,1300.5 Q451,1476 709,1476 Q934,1476 1071,1361.5 Q1208,1247 1234,1046 L1111,1046 Q1084,1206 980.5,1288.5 Q877,1371 710,1371 Q506,1371 387,1226 Q268,1081 268,817 L268,645 Q268,479 324.5,351.5 Q381,224 486.5,154 Q592,84 729,84 Q888,84 1002,134 Q1076,167 1112,211 L1112,587 L721,587 L721,691 L1235,691"/> 
            <glyph glyph-name="H" unicode="&#x48;" horiz-adv-x="1263" d=" M1263,0 L1139,0 L1139,698 L307,698 L307,0 L184,0 L184,1456 L307,1456 L307,802 L1139,802 L1139,1456 L1263,1456"/> 
            <glyph glyph-name="I" unicode="&#x49;" horiz-adv-x="334" d=" M334,0 L211,0 L211,1456 L334,1456"/> 
            <glyph glyph-name="J" unicode="&#x4A;" horiz-adv-x="951" d=" M827,1456 L951,1456 L951,433 Q951,226 831.5,103 Q712,-20 511,-20 Q299,-20 185,91 Q71,202 71,401 L194,401 Q194,243 277,163.5 Q360,84 511,84 Q650,84 737.5,176 Q825,268 827,426"/> 
            <glyph glyph-name="K" unicode="&#x4B;" horiz-adv-x="1255" d=" M512,723 L307,521 L307,0 L184,0 L184,1456 L307,1456 L307,671 L1053,1456 L1208,1456 L598,808 L1255,0 L1105,0"/> 
            <glyph glyph-name="L" unicode="&#x4C;" horiz-adv-x="1027" d=" M308,104 L1027,104 L1027,0 L184,0 L184,1456 L308,1456"/> 
            <glyph glyph-name="M" unicode="&#x4D;" horiz-adv-x="1587" d=" M347,1456 L884,171 L1423,1456 L1587,1456 L1587,0 L1464,0 L1464,634 L1474,1284 L932,0 L837,0 L297,1279 L307,638 L307,0 L184,0 L184,1456"/> 
            <glyph glyph-name="N" unicode="&#x4E;" horiz-adv-x="1268" d=" M1268,0 L1145,0 L308,1246 L308,0 L184,0 L184,1456 L308,1456 L1146,209 L1146,1456 L1268,1456"/> 
            <glyph glyph-name="O" unicode="&#x4F;" horiz-adv-x="1260" d=" M1260,649 Q1260,448 1190.5,296 Q1121,144 992,62 Q863,-20 694,-20 Q439,-20 282,162.5 Q125,345 125,655 L125,805 Q125,1004 195.5,1157.5 Q266,1311 395,1393.5 Q524,1476 692,1476 Q860,1476 988.5,1395 Q1117,1314 1187,1166 Q1257,1018 1260,823 M1137,807 Q1137,1070 1018,1219 Q899,1368 692,1368 Q489,1368 368.5,1218.5 Q248,1069 248,801 L248,649 Q248,390 368,238.5 Q488,87 694,87 Q903,87 1020,236.5 Q1137,386 1137,653"/> 
            <glyph glyph-name="P" unicode="&#x50;" horiz-adv-x="1170" d=" M307,593 L307,0 L184,0 L184,1456 L680,1456 Q907,1456 1038.5,1340 Q1170,1224 1170,1021 Q1170,816 1043.5,704.5 Q917,593 677,593 M307,697 L680,697 Q859,697 953,782 Q1047,867 1047,1019 Q1047,1170 953.5,1259.5 Q860,1349 688,1351 L307,1351"/> 
            <glyph glyph-name="Q" unicode="&#x51;" horiz-adv-x="1256" d=" M1256,649 Q1256,441 1182.5,286.5 Q1109,132 973,53 L1238,-178 L1153,-254 L856,3 Q774,-20 689,-20 Q523,-20 393.5,62 Q264,144 193,294.5 Q122,445 121,642 L121,805 Q121,1004 191.5,1157.5 Q262,1311 391,1393.5 Q520,1476 687,1476 Q857,1476 986,1394 Q1115,1312 1185.5,1159 Q1256,1006 1256,806 M1133,807 Q1133,1070 1014,1219 Q895,1368 687,1368 Q485,1368 364.5,1218.5 Q244,1069 244,801 L244,649 Q244,390 363.5,238.5 Q483,87 689,87 Q897,87 1015,236 Q1133,385 1133,652"/> 
            <glyph glyph-name="R" unicode="&#x52;" horiz-adv-x="1211" d=" M728,606 L305,606 L305,0 L181,0 L181,1456 L654,1456 Q887,1456 1018,1343 Q1149,1230 1149,1027 Q1149,887 1067,780 Q985,673 847,632 L1211,13 L1211,0 L1080,0 M305,711 L682,711 Q837,711 931,799 Q1025,887 1025,1027 Q1025,1181 927,1266 Q829,1351 652,1351 L305,1351"/> 
            <glyph glyph-name="S" unicode="&#x53;" horiz-adv-x="1132" d=" M1008,358 Q1008,479 923,549.5 Q838,620 612,683.5 Q386,747 282,822 Q134,928 134,1100 Q134,1267 271.5,1371.5 Q409,1476 623,1476 Q768,1476 882.5,1420 Q997,1364 1060,1264 Q1123,1164 1123,1041 L999,1041 Q999,1190 897,1280.5 Q795,1371 623,1371 Q456,1371 357,1296.5 Q258,1222 258,1102 Q258,991 347,921 Q436,851 632,797.5 Q828,744 929,686.5 Q1030,629 1081,549 Q1132,469 1132,360 Q1132,188 994.5,84 Q857,-20 632,-20 Q478,-20 349.5,35 Q221,90 154.5,189 Q88,288 88,416 L211,416 Q211,262 326,173 Q441,84 632,84 Q802,84 905,159 Q1008,234 1008,358"/> 
            <glyph glyph-name="T" unicode="&#x54;" horiz-adv-x="1172" d=" M1172,1351 L673,1351 L673,0 L550,0 L550,1351 L52,1351 L52,1456 L1172,1456"/> 
            <glyph glyph-name="U" unicode="&#x55;" horiz-adv-x="1187" d=" M1187,1456 L1187,462 Q1186,315 1122,206 Q1058,97 941.5,38.5 Q825,-20 674,-20 Q444,-20 305.5,105.5 Q167,231 162,453 L162,1456 L284,1456 L284,471 Q284,287 389,185.5 Q494,84 674,84 Q854,84 958.5,186 Q1063,288 1063,470 L1063,1456"/> 
            <glyph glyph-name="V" unicode="&#x56;" horiz-adv-x="1233" d=" M623,180 L631,149 L640,180 L1098,1456 L1233,1456 L691,0 L573,0 L31,1456 L165,1456"/> 
            <glyph glyph-name="W" unicode="&#x57;" horiz-adv-x="1783" d=" M453,393 L498,167 L553,383 L869,1456 L980,1456 L1292,383 L1346,165 L1394,393 L1657,1456 L1783,1456 L1410,0 L1292,0 L962,1139 L925,1283 L889,1139 L551,0 L433,0 L61,1456 L187,1456"/> 
            <glyph glyph-name="X" unicode="&#x58;" horiz-adv-x="1199" d=" M627,840 L1037,1456 L1184,1456 L702,738 L1199,0 L1051,0 L627,636 L201,0 L55,0 L553,738 L70,1456 L217,1456"/> 
            <glyph glyph-name="Y" unicode="&#x59;" horiz-adv-x="1198" d=" M611,662 L1056,1456 L1198,1456 L672,548 L672,0 L549,0 L549,548 L24,1456 L170,1456"/> 
            <glyph glyph-name="Z" unicode="&#x5A;" horiz-adv-x="1138" d=" M239,104 L1138,104 L1138,0 L90,0 L90,93 L954,1351 L116,1351 L116,1456 L1106,1456 L1106,1368"/> 
            <glyph glyph-name="a" unicode="&#x61;" horiz-adv-x="967" d=" M839,0 Q821,51 816,151 Q753,69 655.5,24.5 Q558,-20 449,-20 Q293,-20 196.5,67 Q100,154 100,287 Q100,445 231.5,537 Q363,629 598,629 L815,629 L815,752 Q815,868 743.5,934.5 Q672,1001 535,1001 Q410,1001 328,937 Q246,873 246,783 L126,784 Q126,913 246,1007.5 Q366,1102 541,1102 Q722,1102 826.5,1011.5 Q931,921 934,759 L934,247 Q934,90 967,12 L967,0 M463,86 Q583,86 677.5,144 Q772,202 815,299 L815,537 L601,537 Q422,535 321,471.5 Q220,408 220,297 Q220,206 287.5,146 Q355,86 463,86"/> 
            <glyph glyph-name="b" unicode="&#x62;" horiz-adv-x="1027" d=" M1027,530 Q1027,277 915,128.5 Q803,-20 614,-20 Q388,-20 272,148 L267,0 L155,0 L155,1536 L274,1536 L274,925 Q388,1102 612,1102 Q804,1102 915.5,955.5 Q1027,809 1027,548 M907,551 Q907,765 824,881.5 Q741,998 590,998 Q475,998 395,941.5 Q315,885 274,776 L274,288 Q364,84 592,84 Q740,84 823.5,201 Q907,318 907,551"/> 
            <glyph glyph-name="c" unicode="&#x63;" horiz-adv-x="972" d=" M556,81 Q681,81 765.5,151.5 Q850,222 857,334 L972,334 Q967,235 910,153.5 Q853,72 758.5,26 Q664,-20 556,-20 Q343,-20 218.5,128 Q94,276 94,526 L94,562 Q94,722 150,845 Q206,968 310.5,1035 Q415,1102 555,1102 Q733,1102 848.5,996 Q964,890 972,717 L857,717 Q849,844 765.5,922 Q682,1000 555,1000 Q393,1000 303.5,883 Q214,766 214,555 L214,520 Q214,313 303.5,197 Q393,81 556,81"/> 
            <glyph glyph-name="d" unicode="&#x64;" horiz-adv-x="979" d=" M108,551 Q108,803 220.5,952.5 Q333,1102 526,1102 Q745,1102 860,929 L860,1536 L979,1536 L979,0 L867,0 L862,144 Q747,-20 524,-20 Q337,-20 222.5,130.5 Q108,281 108,537 M229,530 Q229,323 312,203.5 Q395,84 546,84 Q767,84 860,279 L860,787 Q767,998 548,998 Q397,998 313,879.5 Q229,761 229,530"/> 
            <glyph glyph-name="e" unicode="&#x65;" horiz-adv-x="981" d=" M575,-20 Q437,-20 325.5,48 Q214,116 152,237.5 Q90,359 90,510 L90,553 Q90,709 150.5,834 Q211,959 319,1030.5 Q427,1102 553,1102 Q750,1102 865.5,967.5 Q981,833 981,600 L981,533 L209,533 L209,510 Q209,326 314.5,203.5 Q420,81 580,81 Q676,81 749.5,116 Q823,151 883,228 L958,171 Q826,-20 575,-20 M553,1000 Q418,1000 325.5,901 Q233,802 213,635 L862,635 L862,648 Q857,804 773,902 Q689,1000 553,1000"/> 
            <glyph glyph-name="f" unicode="&#x66;" horiz-adv-x="689" d=" M242,0 L242,984 L63,984 L63,1082 L242,1082 L242,1213 Q242,1379 326.5,1468 Q411,1557 562,1557 Q630,1557 689,1540 L680,1440 Q630,1452 571,1452 Q472,1452 417,1390.5 Q362,1329 362,1216 L362,1082 L620,1082 L620,984 L362,984 L362,0"/> 
            <glyph glyph-name="g" unicode="&#x67;" horiz-adv-x="980" d=" M108,551 Q108,805 220.5,953.5 Q333,1102 526,1102 Q747,1102 862,926 L868,1082 L980,1082 L980,22 Q980,-187 863,-309 Q746,-431 546,-431 Q433,-431 330.5,-380.5 Q228,-330 169,-246 L236,-174 Q363,-330 538,-330 Q688,-330 772,-241.5 Q856,-153 859,4 L859,140 Q744,-20 524,-20 Q336,-20 222,130 Q108,280 108,535 M229,530 Q229,323 312,203.5 Q395,84 546,84 Q767,84 859,282 L859,785 Q817,889 738,943.5 Q659,998 548,998 Q397,998 313,879.5 Q229,761 229,530"/> 
            <glyph glyph-name="h" unicode="&#x68;" horiz-adv-x="972" d=" M275,899 Q334,996 426,1049 Q518,1102 627,1102 Q801,1102 886,1004 Q971,906 972,710 L972,0 L853,0 L853,711 Q852,856 791.5,927 Q731,998 598,998 Q487,998 401.5,928.5 Q316,859 275,741 L275,0 L156,0 L156,1536 L275,1536"/> 
            <glyph glyph-name="i" unicode="&#x69;" horiz-adv-x="314" d=" M290,0 L170,0 L170,1082 L290,1082 M149,1395 Q149,1429 171,1452.5 Q193,1476 231,1476 Q269,1476 291.5,1452.5 Q314,1429 314,1395 Q314,1361 291.5,1338 Q269,1315 231,1315 Q193,1315 171,1338 Q149,1361 149,1395"/> 
            <glyph glyph-name="j" unicode="&#x6A;" horiz-adv-x="309" d=" M285,1082 L285,-129 Q285,-279 213,-358 Q141,-437 1,-437 Q-53,-437 -104,-418 L-102,-319 Q-58,-332 -12,-332 Q166,-332 166,-127 L166,1082 M226,1476 Q265,1476 287,1452.5 Q309,1429 309,1395 Q309,1361 287,1338 Q265,1315 226,1315 Q188,1315 166.5,1338 Q145,1361 145,1395 Q145,1429 166.5,1452.5 Q188,1476 226,1476"/> 
            <glyph glyph-name="k" unicode="&#x6B;" horiz-adv-x="994" d=" M413,545 L276,413 L276,0 L156,0 L156,1536 L276,1536 L276,553 L389,675 L803,1082 L954,1082 L495,626 L994,0 L851,0"/> 
            <glyph glyph-name="l" unicode="&#x6C;" horiz-adv-x="290" d=" M290,0 L170,0 L170,1536 L290,1536"/> 
            <glyph glyph-name="m" unicode="&#x6D;" horiz-adv-x="1668" d=" M265,1082 L269,906 Q329,1004 419,1053 Q509,1102 619,1102 Q875,1102 944,892 Q1002,993 1099,1047.5 Q1196,1102 1313,1102 Q1661,1102 1668,722 L1668,0 L1548,0 L1548,713 Q1547,858 1485.5,928 Q1424,998 1285,998 Q1156,996 1067,914.5 Q978,833 968,716 L968,0 L848,0 L848,722 Q847,861 782.5,929.5 Q718,998 584,998 Q471,998 390,933.5 Q309,869 270,742 L270,0 L150,0 L150,1082"/> 
            <glyph glyph-name="n" unicode="&#x6E;" horiz-adv-x="972" d=" M270,1082 L274,897 Q335,997 426,1049.5 Q517,1102 627,1102 Q801,1102 886,1004 Q971,906 972,710 L972,0 L853,0 L853,711 Q852,856 791.5,927 Q731,998 598,998 Q487,998 401.5,928.5 Q316,859 275,741 L275,0 L156,0 L156,1082"/> 
            <glyph glyph-name="o" unicode="&#x6F;" horiz-adv-x="1056" d=" M90,557 Q90,713 150.5,838 Q211,963 321.5,1032.5 Q432,1102 572,1102 Q788,1102 922,950.5 Q1056,799 1056,549 L1056,524 Q1056,367 995.5,241.5 Q935,116 825,48 Q715,-20 574,-20 Q359,-20 224.5,131.5 Q90,283 90,533 M210,524 Q210,330 310.5,205.5 Q411,81 574,81 Q736,81 836.5,205.5 Q937,330 937,534 L937,557 Q937,681 891,784 Q845,887 762,943.5 Q679,1000 572,1000 Q412,1000 311,874.5 Q210,749 210,546"/> 
            <glyph glyph-name="p" unicode="&#x70;" horiz-adv-x="1026" d=" M1026,530 Q1026,277 914,128.5 Q802,-20 614,-20 Q392,-20 274,136 L274,-416 L155,-416 L155,1082 L266,1082 L272,929 Q389,1102 611,1102 Q805,1102 915.5,955 Q1026,808 1026,547 M906,551 Q906,758 821,878 Q736,998 584,998 Q474,998 395,945 Q316,892 274,791 L274,272 Q317,179 397,130 Q477,81 586,81 Q737,81 821.5,201.5 Q906,322 906,551"/> 
            <glyph glyph-name="q" unicode="&#x71;" horiz-adv-x="979" d=" M108,551 Q108,805 220.5,953.5 Q333,1102 528,1102 Q747,1102 861,935 L867,1082 L979,1082 L979,-416 L859,-416 L859,134 Q741,-20 526,-20 Q336,-20 222,130 Q108,280 108,535 M229,530 Q229,320 313.5,200.5 Q398,81 548,81 Q763,81 859,268 L859,798 Q814,895 734.5,947.5 Q655,1000 550,1000 Q399,1000 314,880.5 Q229,761 229,530"/> 
            <glyph glyph-name="r" unicode="&#x72;" horiz-adv-x="659" d=" M656,980 Q618,987 575,987 Q463,987 385.5,924.5 Q308,862 275,743 L275,0 L156,0 L156,1082 L273,1082 L275,910 Q370,1102 580,1102 Q630,1102 659,1089"/> 
            <glyph glyph-name="s" unicode="&#x73;" horiz-adv-x="924" d=" M804,275 Q804,364 732.5,418 Q661,472 517,502.5 Q373,533 293.5,572.5 Q214,612 175.5,669 Q137,726 137,807 Q137,935 244,1018.5 Q351,1102 518,1102 Q699,1102 808.5,1012.5 Q918,923 918,779 L798,779 Q798,874 718.5,937 Q639,1000 518,1000 Q400,1000 328.5,947.5 Q257,895 257,811 Q257,730 316.5,685.5 Q376,641 533.5,604 Q691,567 769.5,525 Q848,483 886,424 Q924,365 924,281 Q924,144 813.5,62 Q703,-20 525,-20 Q336,-20 218.5,71.5 Q101,163 101,303 L221,303 Q228,198 309.5,139.5 Q391,81 525,81 Q650,81 727,136 Q804,191 804,275"/> 
            <glyph glyph-name="t" unicode="&#x74;" horiz-adv-x="585" d=" M342,1359 L342,1082 L566,1082 L566,984 L342,984 L342,263 Q342,173 374.5,129 Q407,85 483,85 Q513,85 580,95 L585,-3 Q538,-20 457,-20 Q334,-20 278,51.5 Q222,123 222,262 L222,984 L23,984 L23,1082 L222,1082 L222,1359"/> 
            <glyph glyph-name="u" unicode="&#x75;" horiz-adv-x="970" d=" M852,137 Q744,-20 507,-20 Q334,-20 244,80.5 Q154,181 152,378 L152,1082 L271,1082 L271,393 Q271,84 521,84 Q781,84 850,299 L850,1082 L970,1082 L970,0 L854,0"/> 
            <glyph glyph-name="v" unicode="&#x76;" horiz-adv-x="945" d=" M493,165 L822,1082 L945,1082 L541,0 L444,0 L38,1082 L161,1082"/> 
            <glyph glyph-name="w" unicode="&#x77;" horiz-adv-x="1473" d=" M415,249 L433,156 L457,254 L717,1082 L819,1082 L1076,261 L1104,147 L1127,252 L1349,1082 L1473,1082 L1158,0 L1056,0 L778,858 L765,917 L752,857 L479,0 L377,0 L63,1082 L186,1082"/> 
            <glyph glyph-name="x" unicode="&#x78;" horiz-adv-x="946" d=" M496,643 L788,1082 L930,1082 L563,551 L946,0 L805,0 L497,458 L189,0 L48,0 L430,551 L63,1082 L204,1082"/> 
            <glyph glyph-name="y" unicode="&#x79;" horiz-adv-x="944" d=" M499,172 L815,1082 L944,1082 L482,-184 L458,-240 Q369,-437 183,-437 Q140,-437 91,-423 L90,-324 L152,-330 Q240,-330 294.5,-286.5 Q349,-243 387,-137 L440,9 L32,1082 L163,1082"/> 
            <glyph glyph-name="z" unicode="&#x7A;" horiz-adv-x="938" d=" M235,101 L938,101 L938,0 L87,0 L87,88 L743,979 L107,979 L107,1082 L894,1082 L894,993"/> 
            <glyph glyph-name="0" unicode="&#x30;" horiz-adv-x="694" d=" M694,0 L574,0 L574,1312 L178,1165 L178,1277 L674,1461 L694,1461"/> 
            <glyph glyph-name="1" unicode="&#x31;" horiz-adv-x="1049" d=" M1049,0 L137,0 L137,92 L636,658 Q760,801 808,894 Q856,987 856,1075 Q856,1213 775,1293.5 Q694,1374 552,1374 Q405,1374 314.5,1280 Q224,1186 224,1036 L105,1036 Q105,1159 160.5,1260 Q216,1361 318.5,1418.5 Q421,1476 552,1476 Q752,1476 864.5,1371 Q977,1266 977,1085 Q977,983 913.5,862 Q850,741 690,560 L284,101 L1049,101"/> 
            <glyph glyph-name="2" unicode="&#x32;" horiz-adv-x="1012" d=" M403,793 L527,793 Q630,793 707,829.5 Q784,866 824.5,929.5 Q865,993 865,1076 Q865,1216 786,1295 Q707,1374 559,1374 Q419,1374 329.5,1291.5 Q240,1209 240,1074 L120,1074 Q120,1187 177,1280.5 Q234,1374 335,1425 Q436,1476 559,1476 Q757,1476 871,1368 Q985,1260 985,1072 Q985,967 918.5,878.5 Q852,790 736,746 Q872,708 942,615.5 Q1012,523 1012,395 Q1012,208 890,94 Q768,-20 564,-20 Q434,-20 325.5,32 Q217,84 157.5,177.5 Q98,271 98,395 L218,395 Q218,256 315,168.5 Q412,81 564,81 Q719,81 805.5,160.5 Q892,240 892,391 Q892,537 798.5,614 Q705,691 523,691 L403,691"/> 
            <glyph glyph-name="3" unicode="&#x33;" horiz-adv-x="1099" d=" M872,469 L1099,469 L1099,368 L872,368 L872,0 L752,0 L752,368 L67,368 L67,436 L741,1456 L872,1456 M214,469 L752,469 L752,1301 L699,1209"/> 
            <glyph glyph-name="4" unicode="&#x34;" horiz-adv-x="1046" d=" M218,746 L289,1456 L1017,1456 L1017,1345 L392,1345 L341,853 Q458,933 615,933 Q812,933 929,805 Q1046,677 1046,464 Q1046,234 932,107 Q818,-20 611,-20 Q421,-20 303,86 Q185,192 168,383 L283,383 Q300,234 384,157.5 Q468,81 611,81 Q767,81 846.5,180 Q926,279 926,462 Q926,622 837,723 Q748,824 594,824 Q509,824 446,802.5 Q383,781 313,719"/> 
            <glyph glyph-name="5" unicode="&#x35;" horiz-adv-x="1032" d=" M843,1467 L843,1362 L829,1362 Q568,1362 418,1208.5 Q268,1055 252,782 Q312,865 405,910.5 Q498,956 613,956 Q805,956 918.5,823.5 Q1032,691 1032,477 Q1032,335 979,221 Q926,107 827,43.5 Q728,-20 601,-20 Q392,-20 261,131.5 Q130,283 130,523 L130,643 Q130,1034 308,1248.5 Q486,1463 813,1467 M594,853 Q480,853 381.5,785.5 Q283,718 250,614 L250,512 Q250,322 347.5,202 Q445,82 601,82 Q741,82 827.5,193 Q914,304 914,473 Q914,645 827.5,749 Q741,853 594,853"/> 
            <glyph glyph-name="6" unicode="&#x36;" horiz-adv-x="1034" d=" M1034,1387 L412,0 L287,0 L905,1354 L77,1354 L77,1456 L1034,1456"/> 
            <glyph glyph-name="7" unicode="&#x37;" horiz-adv-x="1033" d=" M995,1081 Q995,968 929,878.5 Q863,789 755,747 Q881,704 957,608 Q1033,512 1033,386 Q1033,199 906,89.5 Q779,-20 570,-20 Q359,-20 232.5,89 Q106,198 106,386 Q106,510 179,607 Q252,704 379,747 Q271,789 207,878.5 Q143,968 143,1081 Q143,1262 259.5,1369 Q376,1476 568,1476 Q760,1476 877.5,1368 Q995,1260 995,1081 M913,385 Q913,521 816,608.5 Q719,696 568,696 Q417,696 321,610 Q225,524 225,385 Q225,246 318,163.5 Q411,81 570,81 Q725,81 819,163 Q913,245 913,385 M875,1082 Q875,1207 788.5,1290.5 Q702,1374 568,1374 Q432,1374 347.5,1293.5 Q263,1213 263,1082 Q263,954 347.5,876 Q432,798 569,798 Q704,798 789.5,876.5 Q875,955 875,1082"/> 
            <glyph glyph-name="8" unicode="&#x38;" horiz-adv-x="1004" d=" M884,674 Q820,580 725,528.5 Q630,477 519,477 Q395,477 300,541 Q205,605 153,718 Q101,831 101,965 Q101,1109 156.5,1227 Q212,1345 311.5,1410.5 Q411,1476 541,1476 Q760,1476 882,1322.5 Q1004,1169 1004,887 L1004,779 Q1004,385 836,187 Q668,-11 323,-11 L301,-11 L302,93 L344,93 Q605,97 741,241 Q877,385 884,674 M534,580 Q654,580 749.5,651.5 Q845,723 885,837 L885,906 Q885,1128 792.5,1250.5 Q700,1373 543,1373 Q401,1373 310,1258.5 Q219,1144 219,970 Q219,803 306.5,691.5 Q394,580 534,580"/> 
            <glyph glyph-name="9" unicode="&#x39;" horiz-adv-x="1249" d=" M970,408 L309,408 L159,0 L30,0 L581,1456 L698,1456 L1249,0 L1121,0 M347,513 L931,513 L639,1306"/> 
            <glyph glyph-name="A" unicode="&#x41;" horiz-adv-x="1142" d=" M184,0 L184,1456 L614,1456 Q848,1456 969,1359.5 Q1090,1263 1090,1075 Q1090,962 1028.5,878.5 Q967,795 860,759 Q987,731 1064.5,634 Q1142,537 1142,410 Q1142,217 1017.5,108.5 Q893,0 671,0 M307,700 L307,104 L676,104 Q834,104 926.5,184.5 Q1019,265 1019,408 Q1019,543 930.5,621.5 Q842,700 686,700 M307,803 L643,803 Q797,806 881.5,875.5 Q966,945 966,1078 Q966,1218 878.5,1284.5 Q791,1351 614,1351 L307,1351"/> 
            <glyph glyph-name="B" unicode="&#x42;" horiz-adv-x="1215" d=" M1215,454 Q1190,224 1050.5,102 Q911,-20 679,-20 Q517,-20 392.5,61 Q268,142 200,290.5 Q132,439 131,630 L131,819 Q131,1013 199,1163 Q267,1313 394.5,1394.5 Q522,1476 688,1476 Q922,1476 1057.5,1349.5 Q1193,1223 1215,1000 L1091,1000 Q1045,1371 688,1371 Q490,1371 372.5,1223 Q255,1075 255,814 L255,636 Q255,384 369.5,234 Q484,84 679,84 Q872,84 970,176.5 Q1068,269 1091,454"/> 
            <glyph glyph-name="C" unicode="&#x43;" horiz-adv-x="1213" d=" M184,0 L184,1456 L591,1456 Q770,1456 912,1374.5 Q1054,1293 1133.5,1141 Q1213,989 1213,795 L1213,661 Q1213,466 1134,315 Q1055,164 911.5,82 Q768,0 582,0 M307,1351 L307,104 L583,104 Q813,104 952,256.5 Q1091,409 1091,669 L1091,797 Q1091,1048 954,1199 Q817,1350 593,1351"/> 
            <glyph glyph-name="D" unicode="&#x44;" horiz-adv-x="1090" d=" M988,698 L307,698 L307,104 L1090,104 L1090,0 L184,0 L184,1456 L1085,1456 L1085,1351 L307,1351 L307,802 L988,802"/> 
            <glyph glyph-name="E" unicode="&#x45;" horiz-adv-x="1086" d=" M986,680 L307,680 L307,0 L184,0 L184,1456 L1086,1456 L1086,1351 L307,1351 L307,785 L986,785"/> 
            <glyph glyph-name="F" unicode="&#x46;" horiz-adv-x="1235" d=" M1235,173 Q1171,82 1034.5,31 Q898,-20 729,-20 Q558,-20 425,62 Q292,144 219,294 Q146,444 145,638 L145,822 Q145,1125 298,1300.5 Q451,1476 709,1476 Q934,1476 1071,1361.5 Q1208,1247 1234,1046 L1111,1046 Q1084,1206 980.5,1288.5 Q877,1371 710,1371 Q506,1371 387,1226 Q268,1081 268,817 L268,645 Q268,479 324.5,351.5 Q381,224 486.5,154 Q592,84 729,84 Q888,84 1002,134 Q1076,167 1112,211 L1112,587 L721,587 L721,691 L1235,691"/> 
            <glyph glyph-name="G" unicode="&#x47;" horiz-adv-x="1263" d=" M1263,0 L1139,0 L1139,698 L307,698 L307,0 L184,0 L184,1456 L307,1456 L307,802 L1139,802 L1139,1456 L1263,1456"/> 
            <glyph glyph-name="H" unicode="&#x48;" horiz-adv-x="334" d=" M334,0 L211,0 L211,1456 L334,1456"/> 
            <glyph glyph-name="I" unicode="&#x49;" horiz-adv-x="951" d=" M827,1456 L951,1456 L951,433 Q951,226 831.5,103 Q712,-20 511,-20 Q299,-20 185,91 Q71,202 71,401 L194,401 Q194,243 277,163.5 Q360,84 511,84 Q650,84 737.5,176 Q825,268 827,426"/> 
            <glyph glyph-name="J" unicode="&#x4A;" horiz-adv-x="1255" d=" M512,723 L307,521 L307,0 L184,0 L184,1456 L307,1456 L307,671 L1053,1456 L1208,1456 L598,808 L1255,0 L1105,0"/> 
            <glyph glyph-name="K" unicode="&#x4B;" horiz-adv-x="1027" d=" M308,104 L1027,104 L1027,0 L184,0 L184,1456 L308,1456"/> 
            <glyph glyph-name="L" unicode="&#x4C;" horiz-adv-x="1587" d=" M347,1456 L884,171 L1423,1456 L1587,1456 L1587,0 L1464,0 L1464,634 L1474,1284 L932,0 L837,0 L297,1279 L307,638 L307,0 L184,0 L184,1456"/> 
            <glyph glyph-name="M" unicode="&#x4D;" horiz-adv-x="1268" d=" M1268,0 L1145,0 L308,1246 L308,0 L184,0 L184,1456 L308,1456 L1146,209 L1146,1456 L1268,1456"/> 
            <glyph glyph-name="N" unicode="&#x4E;" horiz-adv-x="1260" d=" M1260,649 Q1260,448 1190.5,296 Q1121,144 992,62 Q863,-20 694,-20 Q439,-20 282,162.5 Q125,345 125,655 L125,805 Q125,1004 195.5,1157.5 Q266,1311 395,1393.5 Q524,1476 692,1476 Q860,1476 988.5,1395 Q1117,1314 1187,1166 Q1257,1018 1260,823 M1137,807 Q1137,1070 1018,1219 Q899,1368 692,1368 Q489,1368 368.5,1218.5 Q248,1069 248,801 L248,649 Q248,390 368,238.5 Q488,87 694,87 Q903,87 1020,236.5 Q1137,386 1137,653"/> 
            <glyph glyph-name="O" unicode="&#x4F;" horiz-adv-x="1170" d=" M307,593 L307,0 L184,0 L184,1456 L680,1456 Q907,1456 1038.5,1340 Q1170,1224 1170,1021 Q1170,816 1043.5,704.5 Q917,593 677,593 M307,697 L680,697 Q859,697 953,782 Q1047,867 1047,1019 Q1047,1170 953.5,1259.5 Q860,1349 688,1351 L307,1351"/> 
            <glyph glyph-name="P" unicode="&#x50;" horiz-adv-x="1256" d=" M1256,649 Q1256,441 1182.5,286.5 Q1109,132 973,53 L1238,-178 L1153,-254 L856,3 Q774,-20 689,-20 Q523,-20 393.5,62 Q264,144 193,294.5 Q122,445 121,642 L121,805 Q121,1004 191.5,1157.5 Q262,1311 391,1393.5 Q520,1476 687,1476 Q857,1476 986,1394 Q1115,1312 1185.5,1159 Q1256,1006 1256,806 M1133,807 Q1133,1070 1014,1219 Q895,1368 687,1368 Q485,1368 364.5,1218.5 Q244,1069 244,801 L244,649 Q244,390 363.5,238.5 Q483,87 689,87 Q897,87 1015,236 Q1133,385 1133,652"/> 
            <glyph glyph-name="Q" unicode="&#x51;" horiz-adv-x="1211" d=" M728,606 L305,606 L305,0 L181,0 L181,1456 L654,1456 Q887,1456 1018,1343 Q1149,1230 1149,1027 Q1149,887 1067,780 Q985,673 847,632 L1211,13 L1211,0 L1080,0 M305,711 L682,711 Q837,711 931,799 Q1025,887 1025,1027 Q1025,1181 927,1266 Q829,1351 652,1351 L305,1351"/> 
            <glyph glyph-name="R" unicode="&#x52;" horiz-adv-x="1132" d=" M1008,358 Q1008,479 923,549.5 Q838,620 612,683.5 Q386,747 282,822 Q134,928 134,1100 Q134,1267 271.5,1371.5 Q409,1476 623,1476 Q768,1476 882.5,1420 Q997,1364 1060,1264 Q1123,1164 1123,1041 L999,1041 Q999,1190 897,1280.5 Q795,1371 623,1371 Q456,1371 357,1296.5 Q258,1222 258,1102 Q258,991 347,921 Q436,851 632,797.5 Q828,744 929,686.5 Q1030,629 1081,549 Q1132,469 1132,360 Q1132,188 994.5,84 Q857,-20 632,-20 Q478,-20 349.5,35 Q221,90 154.5,189 Q88,288 88,416 L211,416 Q211,262 326,173 Q441,84 632,84 Q802,84 905,159 Q1008,234 1008,358"/> 
            <glyph glyph-name="S" unicode="&#x53;" horiz-adv-x="1172" d=" M1172,1351 L673,1351 L673,0 L550,0 L550,1351 L52,1351 L52,1456 L1172,1456"/> 
            <glyph glyph-name="T" unicode="&#x54;" horiz-adv-x="1187" d=" M1187,1456 L1187,462 Q1186,315 1122,206 Q1058,97 941.5,38.5 Q825,-20 674,-20 Q444,-20 305.5,105.5 Q167,231 162,453 L162,1456 L284,1456 L284,471 Q284,287 389,185.5 Q494,84 674,84 Q854,84 958.5,186 Q1063,288 1063,470 L1063,1456"/> 
            <glyph glyph-name="U" unicode="&#x55;" horiz-adv-x="1233" d=" M623,180 L631,149 L640,180 L1098,1456 L1233,1456 L691,0 L573,0 L31,1456 L165,1456"/> 
            <glyph glyph-name="V" unicode="&#x56;" horiz-adv-x="1783" d=" M453,393 L498,167 L553,383 L869,1456 L980,1456 L1292,383 L1346,165 L1394,393 L1657,1456 L1783,1456 L1410,0 L1292,0 L962,1139 L925,1283 L889,1139 L551,0 L433,0 L61,1456 L187,1456"/> 
            <glyph glyph-name="W" unicode="&#x57;" horiz-adv-x="1199" d=" M627,840 L1037,1456 L1184,1456 L702,738 L1199,0 L1051,0 L627,636 L201,0 L55,0 L553,738 L70,1456 L217,1456"/> 
            <glyph glyph-name="X" unicode="&#x58;" horiz-adv-x="1198" d=" M611,662 L1056,1456 L1198,1456 L672,548 L672,0 L549,0 L549,548 L24,1456 L170,1456"/> 
            <glyph glyph-name="Y" unicode="&#x59;" horiz-adv-x="1138" d=" M239,104 L1138,104 L1138,0 L90,0 L90,93 L954,1351 L116,1351 L116,1456 L1106,1456 L1106,1368"/> 
            <glyph glyph-name="Z" unicode="&#x5A;" horiz-adv-x="967" d=" M839,0 Q821,51 816,151 Q753,69 655.5,24.5 Q558,-20 449,-20 Q293,-20 196.5,67 Q100,154 100,287 Q100,445 231.5,537 Q363,629 598,629 L815,629 L815,752 Q815,868 743.5,934.5 Q672,1001 535,1001 Q410,1001 328,937 Q246,873 246,783 L126,784 Q126,913 246,1007.5 Q366,1102 541,1102 Q722,1102 826.5,1011.5 Q931,921 934,759 L934,247 Q934,90 967,12 L967,0 M463,86 Q583,86 677.5,144 Q772,202 815,299 L815,537 L601,537 Q422,535 321,471.5 Q220,408 220,297 Q220,206 287.5,146 Q355,86 463,86"/> 
            <glyph glyph-name="a" unicode="&#x61;" horiz-adv-x="1027" d=" M1027,530 Q1027,277 915,128.5 Q803,-20 614,-20 Q388,-20 272,148 L267,0 L155,0 L155,1536 L274,1536 L274,925 Q388,1102 612,1102 Q804,1102 915.5,955.5 Q1027,809 1027,548 M907,551 Q907,765 824,881.5 Q741,998 590,998 Q475,998 395,941.5 Q315,885 274,776 L274,288 Q364,84 592,84 Q740,84 823.5,201 Q907,318 907,551"/> 
            <glyph glyph-name="b" unicode="&#x62;" horiz-adv-x="972" d=" M556,81 Q681,81 765.5,151.5 Q850,222 857,334 L972,334 Q967,235 910,153.5 Q853,72 758.5,26 Q664,-20 556,-20 Q343,-20 218.5,128 Q94,276 94,526 L94,562 Q94,722 150,845 Q206,968 310.5,1035 Q415,1102 555,1102 Q733,1102 848.5,996 Q964,890 972,717 L857,717 Q849,844 765.5,922 Q682,1000 555,1000 Q393,1000 303.5,883 Q214,766 214,555 L214,520 Q214,313 303.5,197 Q393,81 556,81"/> 
            <glyph glyph-name="c" unicode="&#x63;" horiz-adv-x="979" d=" M108,551 Q108,803 220.5,952.5 Q333,1102 526,1102 Q745,1102 860,929 L860,1536 L979,1536 L979,0 L867,0 L862,144 Q747,-20 524,-20 Q337,-20 222.5,130.5 Q108,281 108,537 M229,530 Q229,323 312,203.5 Q395,84 546,84 Q767,84 860,279 L860,787 Q767,998 548,998 Q397,998 313,879.5 Q229,761 229,530"/> 
            <glyph glyph-name="d" unicode="&#x64;" horiz-adv-x="981" d=" M575,-20 Q437,-20 325.5,48 Q214,116 152,237.5 Q90,359 90,510 L90,553 Q90,709 150.5,834 Q211,959 319,1030.5 Q427,1102 553,1102 Q750,1102 865.5,967.5 Q981,833 981,600 L981,533 L209,533 L209,510 Q209,326 314.5,203.5 Q420,81 580,81 Q676,81 749.5,116 Q823,151 883,228 L958,171 Q826,-20 575,-20 M553,1000 Q418,1000 325.5,901 Q233,802 213,635 L862,635 L862,648 Q857,804 773,902 Q689,1000 553,1000"/> 
            <glyph glyph-name="e" unicode="&#x65;" horiz-adv-x="689" d=" M242,0 L242,984 L63,984 L63,1082 L242,1082 L242,1213 Q242,1379 326.5,1468 Q411,1557 562,1557 Q630,1557 689,1540 L680,1440 Q630,1452 571,1452 Q472,1452 417,1390.5 Q362,1329 362,1216 L362,1082 L620,1082 L620,984 L362,984 L362,0"/> 
            <glyph glyph-name="f" unicode="&#x66;" horiz-adv-x="980" d=" M108,551 Q108,805 220.5,953.5 Q333,1102 526,1102 Q747,1102 862,926 L868,1082 L980,1082 L980,22 Q980,-187 863,-309 Q746,-431 546,-431 Q433,-431 330.5,-380.5 Q228,-330 169,-246 L236,-174 Q363,-330 538,-330 Q688,-330 772,-241.5 Q856,-153 859,4 L859,140 Q744,-20 524,-20 Q336,-20 222,130 Q108,280 108,535 M229,530 Q229,323 312,203.5 Q395,84 546,84 Q767,84 859,282 L859,785 Q817,889 738,943.5 Q659,998 548,998 Q397,998 313,879.5 Q229,761 229,530"/> 
            <glyph glyph-name="g" unicode="&#x67;" horiz-adv-x="972" d=" M275,899 Q334,996 426,1049 Q518,1102 627,1102 Q801,1102 886,1004 Q971,906 972,710 L972,0 L853,0 L853,711 Q852,856 791.5,927 Q731,998 598,998 Q487,998 401.5,928.5 Q316,859 275,741 L275,0 L156,0 L156,1536 L275,1536"/> 
            <glyph glyph-name="h" unicode="&#x68;" horiz-adv-x="314" d=" M290,0 L170,0 L170,1082 L290,1082 M149,1395 Q149,1429 171,1452.5 Q193,1476 231,1476 Q269,1476 291.5,1452.5 Q314,1429 314,1395 Q314,1361 291.5,1338 Q269,1315 231,1315 Q193,1315 171,1338 Q149,1361 149,1395"/> 
            <glyph glyph-name="i" unicode="&#x69;" horiz-adv-x="309" d=" M285,1082 L285,-129 Q285,-279 213,-358 Q141,-437 1,-437 Q-53,-437 -104,-418 L-102,-319 Q-58,-332 -12,-332 Q166,-332 166,-127 L166,1082 M226,1476 Q265,1476 287,1452.5 Q309,1429 309,1395 Q309,1361 287,1338 Q265,1315 226,1315 Q188,1315 166.5,1338 Q145,1361 145,1395 Q145,1429 166.5,1452.5 Q188,1476 226,1476"/> 
            <glyph glyph-name="j" unicode="&#x6A;" horiz-adv-x="994" d=" M413,545 L276,413 L276,0 L156,0 L156,1536 L276,1536 L276,553 L389,675 L803,1082 L954,1082 L495,626 L994,0 L851,0"/> 
            <glyph glyph-name="k" unicode="&#x6B;" horiz-adv-x="290" d=" M290,0 L170,0 L170,1536 L290,1536"/> 
            <glyph glyph-name="l" unicode="&#x6C;" horiz-adv-x="1668" d=" M265,1082 L269,906 Q329,1004 419,1053 Q509,1102 619,1102 Q875,1102 944,892 Q1002,993 1099,1047.5 Q1196,1102 1313,1102 Q1661,1102 1668,722 L1668,0 L1548,0 L1548,713 Q1547,858 1485.5,928 Q1424,998 1285,998 Q1156,996 1067,914.5 Q978,833 968,716 L968,0 L848,0 L848,722 Q847,861 782.5,929.5 Q718,998 584,998 Q471,998 390,933.5 Q309,869 270,742 L270,0 L150,0 L150,1082"/> 
            <glyph glyph-name="m" unicode="&#x6D;" horiz-adv-x="972" d=" M270,1082 L274,897 Q335,997 426,1049.5 Q517,1102 627,1102 Q801,1102 886,1004 Q971,906 972,710 L972,0 L853,0 L853,711 Q852,856 791.5,927 Q731,998 598,998 Q487,998 401.5,928.5 Q316,859 275,741 L275,0 L156,0 L156,1082"/> 
            <glyph glyph-name="n" unicode="&#x6E;" horiz-adv-x="1056" d=" M90,557 Q90,713 150.5,838 Q211,963 321.5,1032.5 Q432,1102 572,1102 Q788,1102 922,950.5 Q1056,799 1056,549 L1056,524 Q1056,367 995.5,241.5 Q935,116 825,48 Q715,-20 574,-20 Q359,-20 224.5,131.5 Q90,283 90,533 M210,524 Q210,330 310.5,205.5 Q411,81 574,81 Q736,81 836.5,205.5 Q937,330 937,534 L937,557 Q937,681 891,784 Q845,887 762,943.5 Q679,1000 572,1000 Q412,1000 311,874.5 Q210,749 210,546"/> 
            <glyph glyph-name="o" unicode="&#x6F;" horiz-adv-x="1026" d=" M1026,530 Q1026,277 914,128.5 Q802,-20 614,-20 Q392,-20 274,136 L274,-416 L155,-416 L155,1082 L266,1082 L272,929 Q389,1102 611,1102 Q805,1102 915.5,955 Q1026,808 1026,547 M906,551 Q906,758 821,878 Q736,998 584,998 Q474,998 395,945 Q316,892 274,791 L274,272 Q317,179 397,130 Q477,81 586,81 Q737,81 821.5,201.5 Q906,322 906,551"/> 
            <glyph glyph-name="p" unicode="&#x70;" horiz-adv-x="979" d=" M108,551 Q108,805 220.5,953.5 Q333,1102 528,1102 Q747,1102 861,935 L867,1082 L979,1082 L979,-416 L859,-416 L859,134 Q741,-20 526,-20 Q336,-20 222,130 Q108,280 108,535 M229,530 Q229,320 313.5,200.5 Q398,81 548,81 Q763,81 859,268 L859,798 Q814,895 734.5,947.5 Q655,1000 550,1000 Q399,1000 314,880.5 Q229,761 229,530"/> 
            <glyph glyph-name="q" unicode="&#x71;" horiz-adv-x="659" d=" M656,980 Q618,987 575,987 Q463,987 385.5,924.5 Q308,862 275,743 L275,0 L156,0 L156,1082 L273,1082 L275,910 Q370,1102 580,1102 Q630,1102 659,1089"/> 
            <glyph glyph-name="r" unicode="&#x72;" horiz-adv-x="924" d=" M804,275 Q804,364 732.5,418 Q661,472 517,502.5 Q373,533 293.5,572.5 Q214,612 175.5,669 Q137,726 137,807 Q137,935 244,1018.5 Q351,1102 518,1102 Q699,1102 808.5,1012.5 Q918,923 918,779 L798,779 Q798,874 718.5,937 Q639,1000 518,1000 Q400,1000 328.5,947.5 Q257,895 257,811 Q257,730 316.5,685.5 Q376,641 533.5,604 Q691,567 769.5,525 Q848,483 886,424 Q924,365 924,281 Q924,144 813.5,62 Q703,-20 525,-20 Q336,-20 218.5,71.5 Q101,163 101,303 L221,303 Q228,198 309.5,139.5 Q391,81 525,81 Q650,81 727,136 Q804,191 804,275"/> 
            <glyph glyph-name="s" unicode="&#x73;" horiz-adv-x="585" d=" M342,1359 L342,1082 L566,1082 L566,984 L342,984 L342,263 Q342,173 374.5,129 Q407,85 483,85 Q513,85 580,95 L585,-3 Q538,-20 457,-20 Q334,-20 278,51.5 Q222,123 222,262 L222,984 L23,984 L23,1082 L222,1082 L222,1359"/> 
            <glyph glyph-name="t" unicode="&#x74;" horiz-adv-x="970" d=" M852,137 Q744,-20 507,-20 Q334,-20 244,80.5 Q154,181 152,378 L152,1082 L271,1082 L271,393 Q271,84 521,84 Q781,84 850,299 L850,1082 L970,1082 L970,0 L854,0"/> 
            <glyph glyph-name="u" unicode="&#x75;" horiz-adv-x="945" d=" M493,165 L822,1082 L945,1082 L541,0 L444,0 L38,1082 L161,1082"/> 
            <glyph glyph-name="v" unicode="&#x76;" horiz-adv-x="1473" d=" M415,249 L433,156 L457,254 L717,1082 L819,1082 L1076,261 L1104,147 L1127,252 L1349,1082 L1473,1082 L1158,0 L1056,0 L778,858 L765,917 L752,857 L479,0 L377,0 L63,1082 L186,1082"/> 
            <glyph glyph-name="w" unicode="&#x77;" horiz-adv-x="946" d=" M496,643 L788,1082 L930,1082 L563,551 L946,0 L805,0 L497,458 L189,0 L48,0 L430,551 L63,1082 L204,1082"/> 
            <glyph glyph-name="x" unicode="&#x78;" horiz-adv-x="944" d=" M499,172 L815,1082 L944,1082 L482,-184 L458,-240 Q369,-437 183,-437 Q140,-437 91,-423 L90,-324 L152,-330 Q240,-330 294.5,-286.5 Q349,-243 387,-137 L440,9 L32,1082 L163,1082"/> 
            <glyph glyph-name="y" unicode="&#x79;" horiz-adv-x="938" d=" M235,101 L938,101 L938,0 L87,0 L87,88 L743,979 L107,979 L107,1082 L894,1082 L894,993"/> 
            <glyph glyph-name="z" unicode="&#x7A;" horiz-adv-x="928" d=" M228,0 L228,984 L48,984 L48,1082 L228,1082 L228,1193 Q228,1366 322,1461.5 Q416,1557 587,1557 Q721,1557 863,1498 L843,1395 Q721,1448 595,1448 Q348,1448 348,1191 L348,1082 L601,1082 L601,984 L348,984 L348,0 M928,0 L808,0 L808,1082 L928,1082"/> 
        </font>
</defs>
</svg>
