<?xml version="1.0" standalone="no"?>
<!DOCTYPE svg PUBLIC "-//W3C//DTD SVG 1.1//EN" "http://www.w3.org/Graphics/SVG/1.1/DTD/svg11.dtd" >
<svg xmlns="http://www.w3.org/2000/svg">
    <defs>
        <font id="">
            <font-face font-family=""
                       units-per-em="2048"
                       ascent="1900"
                       descent="-500"
                       bbox="-1500 -555 2308 2163"
                    />
            <missing-glyph horiz-adv-x="0" />
            
            <glyph glyph-name="'" unicode="&#x27;" horiz-adv-x="200" d=" M200,1367 L186,1122 L136,1122 L145,1365 L145,1536 L200,1536"/> 
            <glyph glyph-name="," unicode="&#x2C;" horiz-adv-x="235" d=" M129,-255 L92,-223 Q173,-119 180,-8 L181,159 L235,159 L235,13 Q231,-146 129,-255"/> 
            <glyph glyph-name="-" unicode="&#x2D;" horiz-adv-x="531" d=" M531,639 L61,639 L61,693 L531,693"/> 
            <glyph glyph-name="." unicode="&#x2E;" horiz-adv-x="258" d=" M147,49 Q147,72 163,88.5 Q179,105 202,105 Q225,105 241.5,88.5 Q258,72 258,49 Q258,26 241.5,10 Q225,-6 202,-6 Q179,-6 163,10 Q147,26 147,49"/> 
            <glyph glyph-name="/" unicode="&#x2F;" horiz-adv-x="709" d=" M101,-125 L42,-125 L650,1456 L709,1456"/> 
            <glyph glyph-name="0" unicode="&#x30;" horiz-adv-x="996" d=" M996,594 Q996,301 882,140.5 Q768,-20 562,-20 Q357,-20 241,142 Q125,304 125,598 L125,862 Q125,1152 239.5,1314.5 Q354,1477 560,1477 Q767,1477 881.5,1314.5 Q996,1152 996,858 M942,862 Q942,1127 842.5,1275 Q743,1423 560,1423 Q376,1423 277.5,1274.5 Q179,1126 179,857 L179,596 Q179,332 280,183 Q381,34 562,34 Q744,34 843,183 Q942,332 942,601"/> 
            <glyph glyph-name="1" unicode="&#x31;" horiz-adv-x="659" d=" M659,0 L605,0 L605,1388 L187,1231 L187,1290 L648,1460 L659,1460"/> 
            <glyph glyph-name="2" unicode="&#x32;" horiz-adv-x="1024" d=" M1024,0 L153,0 L153,54 L650,627 Q772,770 831.5,881 Q891,992 891,1085 Q891,1245 798,1333.5 Q705,1422 536,1422 Q434,1422 350,1373 Q266,1324 218.5,1237.5 Q171,1151 171,1045 L117,1045 Q117,1162 171,1262 Q225,1362 321,1419 Q417,1476 536,1476 Q730,1476 838,1373 Q946,1270 946,1085 Q946,915 755,678 L664,567 L224,54 L1024,54"/> 
            <glyph glyph-name="3" unicode="&#x33;" horiz-adv-x="1007" d=" M417,770 L539,770 Q710,773 815.5,861 Q921,949 921,1085 Q921,1240 826.5,1331 Q732,1422 564,1422 Q400,1422 294,1326 Q188,1230 188,1074 L134,1074 Q134,1190 190,1282 Q246,1374 345,1425 Q444,1476 564,1476 Q753,1476 864,1369.5 Q975,1263 975,1081 Q975,965 901.5,874 Q828,783 703,745 Q846,712 926.5,621 Q1007,530 1007,386 Q1007,200 888,90 Q769,-20 573,-20 Q441,-20 329,37 Q217,94 160,188 Q103,282 103,405 L157,405 Q157,245 275,139.5 Q393,34 573,34 Q752,34 852.5,126.5 Q953,219 953,382 Q953,543 845.5,628 Q738,713 531,714 L417,714"/> 
            <glyph glyph-name="4" unicode="&#x34;" horiz-adv-x="1094" d=" M842,451 L1094,451 L1094,397 L842,397 L842,0 L788,0 L788,397 L82,397 L82,427 L777,1456 L842,1456 M166,451 L788,451 L788,1391 L704,1253"/> 
            <glyph glyph-name="5" unicode="&#x35;" horiz-adv-x="1024" d=" M231,762 L299,1456 L1009,1456 L1009,1403 L348,1403 L289,819 Q341,862 426.5,889 Q512,916 594,916 Q790,916 907,792 Q1024,668 1024,464 Q1024,227 918,103.5 Q812,-20 614,-20 Q427,-20 312,87 Q197,194 182,383 L237,383 Q253,212 349,123 Q445,34 614,34 Q794,34 881.5,142.5 Q969,251 969,462 Q969,644 867.5,753 Q766,862 595,862 Q490,862 412,834 Q334,806 272,746"/> 
            <glyph glyph-name="6" unicode="&#x36;" horiz-adv-x="1013" d=" M840,1476 L840,1422 Q534,1422 365,1241 Q196,1060 183,733 Q241,836 351,896.5 Q461,957 592,957 Q784,957 898.5,826 Q1013,695 1013,480 Q1013,341 961,226 Q909,111 814,45.5 Q719,-20 602,-20 Q468,-20 360,42 Q252,104 191,219 Q130,334 128,481 L128,660 Q128,1048 311,1262 Q494,1476 840,1476 M585,903 Q445,903 328.5,822.5 Q212,742 182,621 L182,493 Q182,287 299,160 Q416,33 602,33 Q757,33 858,162.5 Q959,292 959,480 Q959,674 859,788.5 Q759,903 585,903"/> 
            <glyph glyph-name="7" unicode="&#x37;" horiz-adv-x="1007" d=" M1007,1422 L366,0 L311,0 L945,1402 L77,1402 L77,1456 L1007,1456"/> 
            <glyph glyph-name="8" unicode="&#x38;" horiz-adv-x="1028" d=" M986,1086 Q986,964 910.5,872.5 Q835,781 715,745 Q858,707 943,607 Q1028,507 1028,379 Q1028,194 901.5,87 Q775,-20 565,-20 Q351,-20 225.5,87 Q100,194 100,379 Q100,508 182.5,607.5 Q265,707 408,745 Q288,781 214.5,872.5 Q141,964 141,1086 Q141,1266 256.5,1371 Q372,1476 561,1476 Q751,1476 868.5,1369 Q986,1262 986,1086 M973,374 Q973,524 858,621 Q743,718 563,718 Q382,718 268,621.5 Q154,525 154,374 Q154,220 265.5,127 Q377,34 565,34 Q749,34 861,127.5 Q973,221 973,374 M932,1091 Q932,1233 825,1327.5 Q718,1422 561,1422 Q400,1422 297.5,1331 Q195,1240 195,1091 Q195,949 297,860.5 Q399,772 563,772 Q725,772 828.5,861.5 Q932,951 932,1091"/> 
            <glyph glyph-name="9" unicode="&#x39;" horiz-adv-x="993" d=" M939,724 Q886,609 774.5,538.5 Q663,468 523,468 Q403,468 307,532.5 Q211,597 157,710 Q103,823 103,958 Q103,1101 158,1220.5 Q213,1340 312,1408 Q411,1476 531,1476 Q756,1476 874,1329.5 Q992,1183 993,907 L993,740 Q993,371 829,177.5 Q665,-16 346,-20 L298,-20 L300,34 L343,34 Q635,37 787,212 Q939,387 939,724 M523,522 Q671,522 785,609 Q899,696 939,840 L939,902 Q939,1155 834.5,1288.5 Q730,1422 535,1422 Q428,1422 341,1359 Q254,1296 205.5,1187.5 Q157,1079 157,958 Q157,839 204,737.5 Q251,636 334,579 Q417,522 523,522"/> 
            <glyph glyph-name=";" unicode="&#x3B;" horiz-adv-x="237" d=" M65662,1011 Q65662,1034 65678,1050.5 Q65694,1067 65717,1067 Q65740,1067 65756.5,1050.5 Q65773,1034 65773,1011 Q65773,988 65756.5,972 Q65740,956 65717,956 Q65694,956 65678,972 Q65662,988 65662,1011 M374,-255 L337,-223 Q418,-119 425,-8 L426,159 L480,159 L480,13 Q476,-146 374,-255"/> 
            <glyph glyph-name="?" unicode="&#x3F;" horiz-adv-x="801" d=" M395,400 Q397,512 429.5,583.5 Q462,655 552,739 Q642,823 678,874 Q714,925 730.5,980 Q747,1035 747,1112 Q747,1257 670,1340 Q593,1423 458,1423 Q314,1423 231.5,1337 Q149,1251 147,1116 L93,1116 Q95,1278 198,1377 Q301,1476 458,1476 Q615,1476 708,1377 Q801,1278 801,1110 Q801,995 756,905.5 Q711,816 581,698 Q449,595 449,400 M371,49 Q371,72 387,88.5 Q403,105 426,105 Q449,105 465.5,88.5 Q482,72 482,49 Q482,26 465.5,10 Q449,-6 426,-6 Q403,-6 387,10 Q371,26 371,49"/> 
            <glyph glyph-name="A" unicode="&#x41;" horiz-adv-x="1189" d=" M967,435 L254,435 L92,0 L33,0 L578,1456 L644,1456 L1189,0 L1130,0 M274,489 L947,489 L611,1391"/> 
            <glyph glyph-name="B" unicode="&#x42;" horiz-adv-x="1125" d=" M200,0 L200,1456 L583,1456 Q818,1456 938.5,1360.5 Q1059,1265 1059,1083 Q1059,951 992,864 Q925,777 803,753 Q941,735 1033,633.5 Q1125,532 1125,401 Q1125,215 1004.5,107.5 Q884,0 669,0 M254,719 L254,54 L675,54 Q860,54 965.5,145.5 Q1071,237 1071,399 Q1071,537 969,626.5 Q867,716 696,719 M254,773 L603,773 Q802,773 903,849.5 Q1004,926 1004,1087 Q1004,1397 595,1402 L254,1402"/> 
            <glyph glyph-name="C" unicode="&#x43;" horiz-adv-x="1190" d=" M1190,446 Q1169,221 1035,100.5 Q901,-20 671,-20 Q516,-20 396.5,58.5 Q277,137 211,281.5 Q145,426 144,612 L144,837 Q144,1023 209,1169.5 Q274,1316 394.5,1396 Q515,1476 671,1476 Q899,1476 1034,1356 Q1169,1236 1190,1012 L1136,1012 Q1113,1213 996,1317.5 Q879,1422 671,1422 Q459,1422 328.5,1262 Q198,1102 198,833 L198,619 Q198,447 256,314.5 Q314,182 422.5,108 Q531,34 671,34 Q880,34 997.5,137 Q1115,240 1136,446"/> 
            <glyph glyph-name="D" unicode="&#x44;" horiz-adv-x="1204" d=" M200,0 L200,1456 L603,1456 Q772,1456 909,1376 Q1046,1296 1124,1151.5 Q1202,1007 1204,828 L1204,639 Q1204,457 1127.5,311 Q1051,165 914,83 Q777,1 608,0 M254,1402 L254,54 L603,54 Q756,54 881.5,128.5 Q1007,203 1078,336.5 Q1149,470 1150,633 L1150,820 Q1150,983 1080.5,1116 Q1011,1249 886.5,1324.5 Q762,1400 611,1402"/> 
            <glyph glyph-name="E" unicode="&#x45;" horiz-adv-x="1086" d=" M984,722 L254,722 L254,54 L1086,54 L1086,0 L200,0 L200,1456 L1086,1456 L1086,1402 L254,1402 L254,776 L984,776"/> 
            <glyph glyph-name="F" unicode="&#x46;" horiz-adv-x="1102" d=" M1000,716 L254,716 L254,0 L200,0 L200,1456 L1102,1456 L1102,1402 L254,1402 L254,772 L1000,772"/> 
            <glyph glyph-name="G" unicode="&#x47;" horiz-adv-x="1226" d=" M1226,156 Q1171,80 1033,30 Q895,-20 729,-20 Q567,-20 440,59 Q313,138 241.5,282 Q170,426 168,608 L168,858 Q168,1037 237,1179 Q306,1321 431,1398.5 Q556,1476 712,1476 Q929,1476 1065.5,1365 Q1202,1254 1224,1062 L1170,1062 Q1143,1236 1025,1329 Q907,1422 712,1422 Q492,1422 357,1265 Q222,1108 222,852 L222,620 Q222,449 285.5,315 Q349,181 464.5,107.5 Q580,34 729,34 Q875,34 1000,77 Q1125,120 1172,181 L1172,605 L727,605 L727,660 L1226,660"/> 
            <glyph glyph-name="H" unicode="&#x48;" horiz-adv-x="1238" d=" M1238,0 L1184,0 L1184,722 L254,722 L254,0 L200,0 L200,1456 L254,1456 L254,776 L1184,776 L1184,1456 L1238,1456"/> 
            <glyph glyph-name="I" unicode="&#x49;" horiz-adv-x="294" d=" M294,0 L240,0 L240,1456 L294,1456"/> 
            <glyph glyph-name="J" unicode="&#x4A;" horiz-adv-x="930" d=" M876,1456 L930,1456 L930,442 Q930,231 815,105.5 Q700,-20 510,-20 Q306,-20 198,89 Q90,198 90,401 L144,401 Q144,223 235.5,128.5 Q327,34 510,34 Q670,34 771.5,141 Q873,248 876,432"/> 
            <glyph glyph-name="K" unicode="&#x4B;" horiz-adv-x="1226" d=" M487,766 L254,551 L254,0 L200,0 L200,1456 L254,1456 L254,614 L494,849 L1098,1456 L1176,1456 L527,803 L1226,0 L1156,0"/> 
            <glyph glyph-name="L" unicode="&#x4C;" horiz-adv-x="1002" d=" M255,54 L1002,54 L1002,0 L200,0 L200,1456 L255,1456"/> 
            <glyph glyph-name="M" unicode="&#x4D;" horiz-adv-x="1556" d=" M277,1456 L876,79 L1477,1456 L1556,1456 L1556,0 L1502,0 L1502,1376 L898,0 L855,0 L254,1369 L254,0 L200,0 L200,1456"/> 
            <glyph glyph-name="N" unicode="&#x4E;" horiz-adv-x="1249" d=" M1249,0 L1195,0 L255,1364 L255,0 L200,0 L200,1456 L255,1456 L1195,95 L1195,1456 L1249,1456"/> 
            <glyph glyph-name="O" unicode="&#x4F;" horiz-adv-x="1231" d=" M1231,619 Q1231,430 1163.5,284.5 Q1096,139 971,59.5 Q846,-20 683,-20 Q437,-20 285,155 Q133,330 133,627 L133,837 Q133,1025 200.5,1171 Q268,1317 393.5,1396.5 Q519,1476 681,1476 Q844,1476 969.5,1396.5 Q1095,1317 1163,1170.5 Q1231,1024 1231,837 M1177,839 Q1177,1103 1043,1262.5 Q909,1422 681,1422 Q456,1422 322,1263.5 Q188,1105 188,832 L188,619 Q188,445 248.5,311.5 Q309,178 421,106 Q533,34 683,34 Q911,34 1044,193 Q1177,352 1177,627"/> 
            <glyph glyph-name="P" unicode="&#x50;" horiz-adv-x="1125" d=" M254,615 L254,0 L200,0 L200,1456 L655,1456 Q878,1456 1001.5,1343.5 Q1125,1231 1125,1031 Q1125,833 1004.5,725 Q884,617 662,615 M254,669 L655,669 Q852,669 961.5,764 Q1071,859 1071,1029 Q1071,1205 961.5,1303.5 Q852,1402 655,1402 L254,1402"/> 
            <glyph glyph-name="Q" unicode="&#x51;" horiz-adv-x="1231" d=" M1231,619 Q1231,415 1151.5,261 Q1072,107 924,33 L1191,-228 L1152,-263 L868,10 Q778,-20 683,-20 Q437,-20 285,155 Q133,330 133,627 L133,837 Q133,1025 200.5,1171 Q268,1317 393.5,1396.5 Q519,1476 681,1476 Q844,1476 969.5,1396.5 Q1095,1317 1163,1170.5 Q1231,1024 1231,837 M1177,839 Q1177,1103 1043,1262.5 Q909,1422 681,1422 Q456,1422 322,1263.5 Q188,1105 188,832 L188,619 Q188,445 248.5,311.5 Q309,178 421,106 Q533,34 683,34 Q911,34 1044,193 Q1177,352 1177,627"/> 
            <glyph glyph-name="R" unicode="&#x52;" horiz-adv-x="1198" d=" M754,623 L249,623 L249,0 L195,0 L195,1456 L659,1456 Q878,1456 1007.5,1343 Q1137,1230 1137,1036 Q1137,887 1044.5,775.5 Q952,664 809,637 L1198,14 L1198,0 L1141,0 M249,677 L708,677 Q876,677 979.5,779 Q1083,881 1083,1036 Q1083,1206 968.5,1304 Q854,1402 655,1402 L249,1402"/> 
            <glyph glyph-name="S" unicode="&#x53;" horiz-adv-x="1127" d=" M1072,349 Q1072,442 1028.5,506.5 Q985,571 891.5,620.5 Q798,670 609,722 Q420,774 325.5,827 Q231,880 187,950 Q143,1020 143,1120 Q143,1279 277,1377.5 Q411,1476 626,1476 Q766,1476 877.5,1421.5 Q989,1367 1050,1268.5 Q1111,1170 1111,1046 L1057,1046 Q1057,1209 937,1315.5 Q817,1422 626,1422 Q434,1422 315.5,1336.5 Q197,1251 197,1122 Q197,991 300,911 Q403,831 640,769.5 Q877,708 987,627 Q1127,524 1127,351 Q1127,241 1065,156.5 Q1003,72 889,26 Q775,-20 633,-20 Q475,-20 349,32.5 Q223,85 159.5,182 Q96,279 96,411 L150,411 Q150,232 284,133 Q418,34 633,34 Q824,34 948,121.5 Q1072,209 1072,349"/> 
            <glyph glyph-name="T" unicode="&#x54;" horiz-adv-x="1169" d=" M1169,1402 L639,1402 L639,0 L585,0 L585,1402 L55,1402 L55,1456 L1169,1456"/> 
            <glyph glyph-name="U" unicode="&#x55;" horiz-adv-x="1180" d=" M1180,1456 L1180,470 Q1180,239 1046,109.5 Q912,-20 683,-20 Q454,-20 320,109.5 Q186,239 185,466 L185,1456 L239,1456 L239,472 Q239,270 360.5,152 Q482,34 683,34 Q884,34 1005,152 Q1126,270 1126,473 L1126,1456"/> 
            <glyph glyph-name="V" unicode="&#x56;" horiz-adv-x="1189" d=" M583,142 L612,54 L641,142 L1130,1456 L1189,1456 L645,0 L579,0 L35,1456 L94,1456"/> 
            <glyph glyph-name="W" unicode="&#x57;" horiz-adv-x="1793" d=" M489,90 L555,330 L899,1456 L959,1456 L1301,330 L1366,90 L1434,330 L1734,1456 L1793,1456 L1401,0 L1340,0 L979,1214 L928,1368 L879,1214 L515,0 L454,0 L61,1456 L121,1456 L423,330"/> 
            <glyph glyph-name="X" unicode="&#x58;" horiz-adv-x="1168" d=" M611,785 L1081,1456 L1149,1456 L645,743 L1168,0 L1101,0 L611,701 L119,0 L54,0 L577,743 L73,1456 L141,1456"/> 
            <glyph glyph-name="Y" unicode="&#x59;" horiz-adv-x="1185" d=" M609,602 L1119,1456 L1185,1456 L636,553 L636,0 L582,0 L582,553 L33,1456 L105,1456"/> 
            <glyph glyph-name="Z" unicode="&#x5A;" horiz-adv-x="1130" d=" M168,54 L1130,54 L1130,0 L94,0 L94,44 L1023,1403 L134,1403 L134,1456 L1098,1456 L1098,1418"/> 
            <glyph glyph-name="[" unicode="&#x5B;" horiz-adv-x="464" d=" M464,1610 L235,1610 L235,-258 L464,-258 L464,-312 L181,-312 L181,1664 L464,1664"/> 
            <glyph glyph-name="]" unicode="&#x5D;" horiz-adv-x="275" d=" M-8,1664 L275,1664 L275,-312 L-8,-312 L-8,-258 L220,-258 L220,1610 L-8,1610"/> 
            <glyph glyph-name="a" unicode="&#x61;" horiz-adv-x="933" d=" M871,0 Q851,69 851,198 Q787,94 676,37 Q565,-20 425,-20 Q275,-20 183.5,61.5 Q92,143 92,274 Q92,423 226.5,512.5 Q361,602 584,604 L851,604 L851,762 Q851,898 765.5,973 Q680,1048 521,1048 Q373,1048 274,972 Q175,896 175,784 L121,786 Q121,918 237,1010 Q353,1102 521,1102 Q696,1102 799,1014.5 Q902,927 905,768 L905,251 Q905,73 933,9 L933,0 M425,33 Q577,33 686.5,101 Q796,169 851,292 L851,549 L601,549 Q369,549 246,457 Q146,382 146,270 Q146,171 225,102 Q304,33 425,33"/> 
            <glyph glyph-name="b" unicode="&#x62;" horiz-adv-x="999" d=" M999,531 Q999,278 890,129 Q781,-20 593,-20 Q471,-20 375,30.5 Q279,81 224,171 L224,0 L170,0 L170,1536 L224,1536 L224,885 Q281,992 374.5,1047 Q468,1102 591,1102 Q781,1102 890,956.5 Q999,811 999,548 M943,552 Q943,785 850.5,916.5 Q758,1048 592,1048 Q456,1048 361.5,978 Q267,908 224,770 L224,274 Q267,159 361.5,96.5 Q456,34 594,34 Q761,34 852,167 Q943,300 943,552"/> 
            <glyph glyph-name="c" unicode="&#x63;" horiz-adv-x="940" d=" M539,34 Q686,34 781.5,112 Q877,190 886,328 L940,328 Q932,171 819,75.5 Q706,-20 539,-20 Q336,-20 216.5,127 Q97,274 97,526 L97,562 Q97,808 216.5,955 Q336,1102 537,1102 Q709,1102 821,999 Q933,896 940,725 L886,725 Q879,871 783.5,959.5 Q688,1048 537,1048 Q356,1048 253.5,917.5 Q151,787 151,555 L151,520 Q151,293 254.5,163.5 Q358,34 539,34"/> 
            <glyph glyph-name="d" unicode="&#x64;" horiz-adv-x="951" d=" M122,552 Q122,811 231,956.5 Q340,1102 530,1102 Q652,1102 745.5,1047 Q839,992 897,883 L897,1536 L951,1536 L951,0 L897,0 L897,173 Q842,81 746,30.5 Q650,-20 528,-20 Q340,-20 231,129 Q122,278 122,538 M178,531 Q178,301 269,167.5 Q360,34 527,34 Q661,34 756,93.5 Q851,153 897,268 L897,775 Q804,1048 529,1048 Q363,1048 270.5,917 Q178,786 178,531"/> 
            <glyph glyph-name="e" unicode="&#x65;" horiz-adv-x="952" d=" M561,-20 Q430,-20 320.5,50.5 Q211,121 149,244 Q87,367 87,517 L87,562 Q87,712 147,837 Q207,962 312,1032 Q417,1102 541,1102 Q722,1102 837,973 Q952,844 952,634 L952,577 L141,577 L141,518 Q141,386 196.5,273.5 Q252,161 349.5,97 Q447,33 561,33 Q670,33 746.5,69.5 Q823,106 882,182 L920,155 Q799,-20 561,-20 M541,1048 Q383,1048 273,930.5 Q163,813 144,631 L898,631 L898,644 Q898,754 851.5,848.5 Q805,943 723.5,995.5 Q642,1048 541,1048"/> 
            <glyph glyph-name="f" unicode="&#x66;" horiz-adv-x="665" d=" M254,0 L254,1027 L66,1027 L66,1082 L254,1082 L254,1240 Q255,1390 329.5,1473.5 Q404,1557 537,1557 Q611,1557 665,1540 L657,1488 Q605,1503 538,1503 Q431,1503 369.5,1433.5 Q308,1364 308,1236 L308,1082 L594,1082 L594,1027 L308,1027 L308,0"/> 
            <glyph glyph-name="g" unicode="&#x67;" horiz-adv-x="950" d=" M121,552 Q121,811 230,956.5 Q339,1102 529,1102 Q650,1102 744,1046.5 Q838,991 895,884 L895,1082 L950,1082 L950,19 Q950,-195 840,-315.5 Q730,-436 541,-436 Q432,-436 341.5,-389 Q251,-342 187,-254 L225,-218 Q288,-298 363,-340.5 Q438,-383 539,-383 Q706,-383 799,-281.5 Q892,-180 895,5 L895,171 Q839,79 743.5,29.5 Q648,-20 527,-20 Q339,-20 230,129 Q121,278 121,538 M176,531 Q176,299 268,166.5 Q360,34 526,34 Q663,34 759,97.5 Q855,161 895,276 L895,767 Q807,1048 528,1048 Q361,1048 268.5,917 Q176,786 176,531"/> 
            <glyph glyph-name="h" unicode="&#x68;" horiz-adv-x="954" d=" M226,830 Q279,956 382,1029 Q485,1102 610,1102 Q784,1102 868.5,1003.5 Q953,905 954,706 L954,0 L900,0 L900,708 Q899,882 829,965.5 Q759,1049 607,1049 Q467,1049 364.5,949.5 Q262,850 226,693 L226,0 L172,0 L172,1536 L226,1536"/> 
            <glyph glyph-name="i" unicode="&#x69;" horiz-adv-x="268" d=" M239,0 L185,0 L185,1082 L239,1082 M157,1420 Q157,1443 173,1459.5 Q189,1476 212,1476 Q235,1476 251.5,1459.5 Q268,1443 268,1420 Q268,1397 251.5,1381 Q235,1365 212,1365 Q189,1365 173,1381 Q157,1397 157,1420"/> 
            <glyph glyph-name="j" unicode="&#x6A;" horiz-adv-x="274" d=" M240,1082 L240,-129 Q240,-279 165,-358 Q90,-437 -45,-437 Q-94,-437 -143,-417 L-140,-365 Q-92,-383 -45,-383 Q67,-383 126.5,-316.5 Q186,-250 186,-129 L186,1082 M163,1420 Q163,1443 179,1459.5 Q195,1476 218,1476 Q241,1476 257.5,1459.5 Q274,1443 274,1420 Q274,1397 257.5,1381 Q241,1365 218,1365 Q195,1365 179,1381 Q163,1397 163,1420"/> 
            <glyph glyph-name="k" unicode="&#x6B;" horiz-adv-x="953" d=" M385,585 L383,583 L226,448 L226,0 L172,0 L172,1536 L226,1536 L226,507 L353,627 L845,1082 L922,1082 L425,621 L953,0 L883,0"/> 
            <glyph glyph-name="l" unicode="&#x6C;" horiz-adv-x="239" d=" M239,0 L185,0 L185,1536 L239,1536"/> 
            <glyph glyph-name="m" unicode="&#x6D;" horiz-adv-x="1680" d=" M946,0 L892,0 L892,727 Q891,890 820.5,969.5 Q750,1049 596,1049 Q418,1049 305,892 Q238,798 216,684 L216,0 L161,0 L161,1082 L216,1082 L216,826 Q271,958 373,1030 Q475,1102 599,1102 Q735,1102 821.5,1042 Q908,982 935,846 Q983,963 1091,1032.5 Q1199,1102 1333,1102 Q1508,1102 1593.5,1003 Q1679,904 1680,706 L1680,0 L1626,0 L1626,702 Q1626,880 1554.5,965.5 Q1483,1051 1330,1049 Q1133,1046 1018,892 Q952,803 946,720"/> 
            <glyph glyph-name="n" unicode="&#x6E;" horiz-adv-x="954" d=" M226,830 Q279,956 382,1029 Q485,1102 610,1102 Q784,1102 868.5,1003.5 Q953,905 954,706 L954,0 L900,0 L900,708 Q899,882 829,965.5 Q759,1049 607,1049 Q467,1049 364.5,949.5 Q262,850 226,693 L226,0 L172,0 L172,1082 L226,1082"/> 
            <glyph glyph-name="o" unicode="&#x6F;" horiz-adv-x="1037" d=" M90,562 Q90,717 149.5,840.5 Q209,964 317.5,1033 Q426,1102 563,1102 Q699,1102 807,1035 Q915,968 975.5,845 Q1036,722 1037,568 L1037,520 Q1037,364 978,241 Q919,118 810.5,49 Q702,-20 565,-20 Q428,-20 319.5,48 Q211,116 151,238.5 Q91,361 90,514 M144,520 Q144,385 197.5,272.5 Q251,160 346.5,97 Q442,34 565,34 Q750,34 866.5,173 Q983,312 983,531 L983,562 Q983,695 929,808 Q875,921 779.5,984.5 Q684,1048 563,1048 Q378,1048 261,907 Q144,766 144,552"/> 
            <glyph glyph-name="p" unicode="&#x70;" horiz-adv-x="999" d=" M999,531 Q999,278 890,129 Q781,-20 593,-20 Q470,-20 374,30 Q278,80 224,168 L224,-416 L170,-416 L170,1082 L224,1082 L224,889 Q280,992 375,1047 Q470,1102 591,1102 Q781,1102 890,956.5 Q999,811 999,548 M944,552 Q944,785 851.5,916.5 Q759,1048 592,1048 Q456,1048 361,977.5 Q266,907 224,775 L224,269 Q266,157 361.5,95.5 Q457,34 594,34 Q760,34 852,166 Q944,298 944,552"/> 
            <glyph glyph-name="q" unicode="&#x71;" horiz-adv-x="951" d=" M122,552 Q122,811 231,956.5 Q340,1102 530,1102 Q651,1102 746,1047 Q841,992 897,889 L897,1082 L951,1082 L951,-416 L897,-416 L897,168 Q839,77 743.5,28.5 Q648,-20 528,-20 Q340,-20 231,129 Q122,278 122,538 M178,531 Q178,301 269,167.5 Q360,34 527,34 Q661,34 756,93.5 Q851,153 897,268 L897,775 Q850,910 755,979 Q660,1048 529,1048 Q363,1048 270.5,917 Q178,786 178,531"/> 
            <glyph glyph-name="r" unicode="&#x72;" horiz-adv-x="655" d=" M649,1043 L579,1049 Q441,1049 348,959.5 Q255,870 226,709 L226,0 L172,0 L172,1082 L226,1082 L226,857 Q270,970 358,1036 Q446,1102 579,1102 Q626,1102 655,1091"/> 
            <glyph glyph-name="s" unicode="&#x73;" horiz-adv-x="893" d=" M839,265 Q839,462 503,533 Q301,576 222,643.5 Q143,711 143,829 Q143,948 243.5,1025 Q344,1102 505,1102 Q680,1102 786,1018.5 Q892,935 892,793 L837,793 Q837,902 745,975 Q653,1048 505,1048 Q363,1048 280,986 Q197,924 197,831 Q197,758 228,716.5 Q259,675 329,641.5 Q399,608 533,577 Q667,546 745,504 Q823,462 858,404.5 Q893,347 893,264 Q893,136 788,58 Q683,-20 513,-20 Q331,-20 219.5,62.5 Q108,145 108,275 L162,275 Q170,161 262.5,97.5 Q355,34 513,34 Q658,34 748.5,101.5 Q839,169 839,265"/> 
            <glyph glyph-name="t" unicode="&#x74;" horiz-adv-x="572" d=" M293,1374 L293,1082 L539,1082 L539,1027 L293,1027 L293,259 Q293,144 330.5,89 Q368,34 456,34 Q500,34 563,43 L572,-8 Q539,-20 459,-20 Q341,-20 290,45.5 Q239,111 238,252 L238,1027 L38,1027 L38,1082 L238,1082 L238,1374"/> 
            <glyph glyph-name="u" unicode="&#x75;" horiz-adv-x="952" d=" M897,0 L897,175 Q849,85 757,32.5 Q665,-20 524,-20 Q347,-20 258.5,83.5 Q170,187 168,385 L168,1082 L222,1082 L222,383 Q224,211 300,122.5 Q376,34 522,34 Q677,34 774,107 Q871,180 897,321 L897,1082 L952,1082 L952,0"/> 
            <glyph glyph-name="v" unicode="&#x76;" horiz-adv-x="937" d=" M490,86 L879,1082 L937,1082 L516,0 L463,0 L43,1082 L101,1082"/> 
            <glyph glyph-name="w" unicode="&#x77;" horiz-adv-x="1456" d=" M366,313 L425,80 L742,1082 L797,1082 L1112,80 L1173,313 L1393,1082 L1456,1082 L1141,0 L1087,0 L820,813 L769,1007 L714,813 L451,0 L397,0 L83,1082 L145,1082"/> 
            <glyph glyph-name="x" unicode="&#x78;" horiz-adv-x="922" d=" M489,602 L834,1082 L902,1082 L522,555 L922,0 L855,0 L488,508 L122,0 L55,0 L455,555 L75,1082 L143,1082"/> 
            <glyph glyph-name="y" unicode="&#x79;" horiz-adv-x="944" d=" M503,84 L510,104 L884,1082 L944,1082 L460,-188 L436,-248 Q358,-437 178,-437 Q120,-437 98,-426 L97,-375 Q129,-384 170,-384 Q255,-384 311,-334.5 Q367,-285 408,-173 L474,6 L43,1082 L102,1082"/> 
            <glyph glyph-name="z" unicode="&#x7A;" horiz-adv-x="930" d=" M160,54 L930,54 L930,0 L87,0 L87,44 L798,1027 L118,1027 L118,1082 L871,1082 L871,1034"/> 
            <glyph glyph-name="'" unicode="&#x27;" horiz-adv-x="235" d=" M129,-255 L92,-223 Q173,-119 180,-8 L181,159 L235,159 L235,13 Q231,-146 129,-255"/> 
            <glyph glyph-name="," unicode="&#x2C;" horiz-adv-x="531" d=" M531,639 L61,639 L61,693 L531,693"/> 
            <glyph glyph-name="-" unicode="&#x2D;" horiz-adv-x="258" d=" M147,49 Q147,72 163,88.5 Q179,105 202,105 Q225,105 241.5,88.5 Q258,72 258,49 Q258,26 241.5,10 Q225,-6 202,-6 Q179,-6 163,10 Q147,26 147,49"/> 
            <glyph glyph-name="." unicode="&#x2E;" horiz-adv-x="709" d=" M101,-125 L42,-125 L650,1456 L709,1456"/> 
            <glyph glyph-name="/" unicode="&#x2F;" horiz-adv-x="996" d=" M996,594 Q996,301 882,140.5 Q768,-20 562,-20 Q357,-20 241,142 Q125,304 125,598 L125,862 Q125,1152 239.5,1314.5 Q354,1477 560,1477 Q767,1477 881.5,1314.5 Q996,1152 996,858 M942,862 Q942,1127 842.5,1275 Q743,1423 560,1423 Q376,1423 277.5,1274.5 Q179,1126 179,857 L179,596 Q179,332 280,183 Q381,34 562,34 Q744,34 843,183 Q942,332 942,601"/> 
            <glyph glyph-name="0" unicode="&#x30;" horiz-adv-x="659" d=" M659,0 L605,0 L605,1388 L187,1231 L187,1290 L648,1460 L659,1460"/> 
            <glyph glyph-name="1" unicode="&#x31;" horiz-adv-x="1024" d=" M1024,0 L153,0 L153,54 L650,627 Q772,770 831.5,881 Q891,992 891,1085 Q891,1245 798,1333.5 Q705,1422 536,1422 Q434,1422 350,1373 Q266,1324 218.5,1237.5 Q171,1151 171,1045 L117,1045 Q117,1162 171,1262 Q225,1362 321,1419 Q417,1476 536,1476 Q730,1476 838,1373 Q946,1270 946,1085 Q946,915 755,678 L664,567 L224,54 L1024,54"/> 
            <glyph glyph-name="2" unicode="&#x32;" horiz-adv-x="1007" d=" M417,770 L539,770 Q710,773 815.5,861 Q921,949 921,1085 Q921,1240 826.5,1331 Q732,1422 564,1422 Q400,1422 294,1326 Q188,1230 188,1074 L134,1074 Q134,1190 190,1282 Q246,1374 345,1425 Q444,1476 564,1476 Q753,1476 864,1369.5 Q975,1263 975,1081 Q975,965 901.5,874 Q828,783 703,745 Q846,712 926.5,621 Q1007,530 1007,386 Q1007,200 888,90 Q769,-20 573,-20 Q441,-20 329,37 Q217,94 160,188 Q103,282 103,405 L157,405 Q157,245 275,139.5 Q393,34 573,34 Q752,34 852.5,126.5 Q953,219 953,382 Q953,543 845.5,628 Q738,713 531,714 L417,714"/> 
            <glyph glyph-name="3" unicode="&#x33;" horiz-adv-x="1094" d=" M842,451 L1094,451 L1094,397 L842,397 L842,0 L788,0 L788,397 L82,397 L82,427 L777,1456 L842,1456 M166,451 L788,451 L788,1391 L704,1253"/> 
            <glyph glyph-name="4" unicode="&#x34;" horiz-adv-x="1024" d=" M231,762 L299,1456 L1009,1456 L1009,1403 L348,1403 L289,819 Q341,862 426.5,889 Q512,916 594,916 Q790,916 907,792 Q1024,668 1024,464 Q1024,227 918,103.5 Q812,-20 614,-20 Q427,-20 312,87 Q197,194 182,383 L237,383 Q253,212 349,123 Q445,34 614,34 Q794,34 881.5,142.5 Q969,251 969,462 Q969,644 867.5,753 Q766,862 595,862 Q490,862 412,834 Q334,806 272,746"/> 
            <glyph glyph-name="5" unicode="&#x35;" horiz-adv-x="1013" d=" M840,1476 L840,1422 Q534,1422 365,1241 Q196,1060 183,733 Q241,836 351,896.5 Q461,957 592,957 Q784,957 898.5,826 Q1013,695 1013,480 Q1013,341 961,226 Q909,111 814,45.5 Q719,-20 602,-20 Q468,-20 360,42 Q252,104 191,219 Q130,334 128,481 L128,660 Q128,1048 311,1262 Q494,1476 840,1476 M585,903 Q445,903 328.5,822.5 Q212,742 182,621 L182,493 Q182,287 299,160 Q416,33 602,33 Q757,33 858,162.5 Q959,292 959,480 Q959,674 859,788.5 Q759,903 585,903"/> 
            <glyph glyph-name="6" unicode="&#x36;" horiz-adv-x="1007" d=" M1007,1422 L366,0 L311,0 L945,1402 L77,1402 L77,1456 L1007,1456"/> 
            <glyph glyph-name="7" unicode="&#x37;" horiz-adv-x="1028" d=" M986,1086 Q986,964 910.5,872.5 Q835,781 715,745 Q858,707 943,607 Q1028,507 1028,379 Q1028,194 901.5,87 Q775,-20 565,-20 Q351,-20 225.5,87 Q100,194 100,379 Q100,508 182.5,607.5 Q265,707 408,745 Q288,781 214.5,872.5 Q141,964 141,1086 Q141,1266 256.5,1371 Q372,1476 561,1476 Q751,1476 868.5,1369 Q986,1262 986,1086 M973,374 Q973,524 858,621 Q743,718 563,718 Q382,718 268,621.5 Q154,525 154,374 Q154,220 265.5,127 Q377,34 565,34 Q749,34 861,127.5 Q973,221 973,374 M932,1091 Q932,1233 825,1327.5 Q718,1422 561,1422 Q400,1422 297.5,1331 Q195,1240 195,1091 Q195,949 297,860.5 Q399,772 563,772 Q725,772 828.5,861.5 Q932,951 932,1091"/> 
            <glyph glyph-name="8" unicode="&#x38;" horiz-adv-x="993" d=" M939,724 Q886,609 774.5,538.5 Q663,468 523,468 Q403,468 307,532.5 Q211,597 157,710 Q103,823 103,958 Q103,1101 158,1220.5 Q213,1340 312,1408 Q411,1476 531,1476 Q756,1476 874,1329.5 Q992,1183 993,907 L993,740 Q993,371 829,177.5 Q665,-16 346,-20 L298,-20 L300,34 L343,34 Q635,37 787,212 Q939,387 939,724 M523,522 Q671,522 785,609 Q899,696 939,840 L939,902 Q939,1155 834.5,1288.5 Q730,1422 535,1422 Q428,1422 341,1359 Q254,1296 205.5,1187.5 Q157,1079 157,958 Q157,839 204,737.5 Q251,636 334,579 Q417,522 523,522"/> 
            <glyph glyph-name="9" unicode="&#x39;" horiz-adv-x="237" d=" M65662,1011 Q65662,1034 65678,1050.5 Q65694,1067 65717,1067 Q65740,1067 65756.5,1050.5 Q65773,1034 65773,1011 Q65773,988 65756.5,972 Q65740,956 65717,956 Q65694,956 65678,972 Q65662,988 65662,1011 M374,-255 L337,-223 Q418,-119 425,-8 L426,159 L480,159 L480,13 Q476,-146 374,-255"/> 
            <glyph glyph-name=";" unicode="&#x3B;" horiz-adv-x="801" d=" M395,400 Q397,512 429.5,583.5 Q462,655 552,739 Q642,823 678,874 Q714,925 730.5,980 Q747,1035 747,1112 Q747,1257 670,1340 Q593,1423 458,1423 Q314,1423 231.5,1337 Q149,1251 147,1116 L93,1116 Q95,1278 198,1377 Q301,1476 458,1476 Q615,1476 708,1377 Q801,1278 801,1110 Q801,995 756,905.5 Q711,816 581,698 Q449,595 449,400 M371,49 Q371,72 387,88.5 Q403,105 426,105 Q449,105 465.5,88.5 Q482,72 482,49 Q482,26 465.5,10 Q449,-6 426,-6 Q403,-6 387,10 Q371,26 371,49"/> 
            <glyph glyph-name="?" unicode="&#x3F;" horiz-adv-x="1189" d=" M967,435 L254,435 L92,0 L33,0 L578,1456 L644,1456 L1189,0 L1130,0 M274,489 L947,489 L611,1391"/> 
            <glyph glyph-name="A" unicode="&#x41;" horiz-adv-x="1125" d=" M200,0 L200,1456 L583,1456 Q818,1456 938.5,1360.5 Q1059,1265 1059,1083 Q1059,951 992,864 Q925,777 803,753 Q941,735 1033,633.5 Q1125,532 1125,401 Q1125,215 1004.5,107.5 Q884,0 669,0 M254,719 L254,54 L675,54 Q860,54 965.5,145.5 Q1071,237 1071,399 Q1071,537 969,626.5 Q867,716 696,719 M254,773 L603,773 Q802,773 903,849.5 Q1004,926 1004,1087 Q1004,1397 595,1402 L254,1402"/> 
            <glyph glyph-name="B" unicode="&#x42;" horiz-adv-x="1190" d=" M1190,446 Q1169,221 1035,100.5 Q901,-20 671,-20 Q516,-20 396.5,58.5 Q277,137 211,281.5 Q145,426 144,612 L144,837 Q144,1023 209,1169.5 Q274,1316 394.5,1396 Q515,1476 671,1476 Q899,1476 1034,1356 Q1169,1236 1190,1012 L1136,1012 Q1113,1213 996,1317.5 Q879,1422 671,1422 Q459,1422 328.5,1262 Q198,1102 198,833 L198,619 Q198,447 256,314.5 Q314,182 422.5,108 Q531,34 671,34 Q880,34 997.5,137 Q1115,240 1136,446"/> 
            <glyph glyph-name="C" unicode="&#x43;" horiz-adv-x="1204" d=" M200,0 L200,1456 L603,1456 Q772,1456 909,1376 Q1046,1296 1124,1151.5 Q1202,1007 1204,828 L1204,639 Q1204,457 1127.5,311 Q1051,165 914,83 Q777,1 608,0 M254,1402 L254,54 L603,54 Q756,54 881.5,128.5 Q1007,203 1078,336.5 Q1149,470 1150,633 L1150,820 Q1150,983 1080.5,1116 Q1011,1249 886.5,1324.5 Q762,1400 611,1402"/> 
            <glyph glyph-name="D" unicode="&#x44;" horiz-adv-x="1086" d=" M984,722 L254,722 L254,54 L1086,54 L1086,0 L200,0 L200,1456 L1086,1456 L1086,1402 L254,1402 L254,776 L984,776"/> 
            <glyph glyph-name="E" unicode="&#x45;" horiz-adv-x="1102" d=" M1000,716 L254,716 L254,0 L200,0 L200,1456 L1102,1456 L1102,1402 L254,1402 L254,772 L1000,772"/> 
            <glyph glyph-name="F" unicode="&#x46;" horiz-adv-x="1226" d=" M1226,156 Q1171,80 1033,30 Q895,-20 729,-20 Q567,-20 440,59 Q313,138 241.5,282 Q170,426 168,608 L168,858 Q168,1037 237,1179 Q306,1321 431,1398.5 Q556,1476 712,1476 Q929,1476 1065.5,1365 Q1202,1254 1224,1062 L1170,1062 Q1143,1236 1025,1329 Q907,1422 712,1422 Q492,1422 357,1265 Q222,1108 222,852 L222,620 Q222,449 285.5,315 Q349,181 464.5,107.5 Q580,34 729,34 Q875,34 1000,77 Q1125,120 1172,181 L1172,605 L727,605 L727,660 L1226,660"/> 
            <glyph glyph-name="G" unicode="&#x47;" horiz-adv-x="1238" d=" M1238,0 L1184,0 L1184,722 L254,722 L254,0 L200,0 L200,1456 L254,1456 L254,776 L1184,776 L1184,1456 L1238,1456"/> 
            <glyph glyph-name="H" unicode="&#x48;" horiz-adv-x="294" d=" M294,0 L240,0 L240,1456 L294,1456"/> 
            <glyph glyph-name="I" unicode="&#x49;" horiz-adv-x="930" d=" M876,1456 L930,1456 L930,442 Q930,231 815,105.5 Q700,-20 510,-20 Q306,-20 198,89 Q90,198 90,401 L144,401 Q144,223 235.5,128.5 Q327,34 510,34 Q670,34 771.5,141 Q873,248 876,432"/> 
            <glyph glyph-name="J" unicode="&#x4A;" horiz-adv-x="1226" d=" M487,766 L254,551 L254,0 L200,0 L200,1456 L254,1456 L254,614 L494,849 L1098,1456 L1176,1456 L527,803 L1226,0 L1156,0"/> 
            <glyph glyph-name="K" unicode="&#x4B;" horiz-adv-x="1002" d=" M255,54 L1002,54 L1002,0 L200,0 L200,1456 L255,1456"/> 
            <glyph glyph-name="L" unicode="&#x4C;" horiz-adv-x="1556" d=" M277,1456 L876,79 L1477,1456 L1556,1456 L1556,0 L1502,0 L1502,1376 L898,0 L855,0 L254,1369 L254,0 L200,0 L200,1456"/> 
            <glyph glyph-name="M" unicode="&#x4D;" horiz-adv-x="1249" d=" M1249,0 L1195,0 L255,1364 L255,0 L200,0 L200,1456 L255,1456 L1195,95 L1195,1456 L1249,1456"/> 
            <glyph glyph-name="N" unicode="&#x4E;" horiz-adv-x="1231" d=" M1231,619 Q1231,430 1163.5,284.5 Q1096,139 971,59.5 Q846,-20 683,-20 Q437,-20 285,155 Q133,330 133,627 L133,837 Q133,1025 200.5,1171 Q268,1317 393.5,1396.5 Q519,1476 681,1476 Q844,1476 969.5,1396.5 Q1095,1317 1163,1170.5 Q1231,1024 1231,837 M1177,839 Q1177,1103 1043,1262.5 Q909,1422 681,1422 Q456,1422 322,1263.5 Q188,1105 188,832 L188,619 Q188,445 248.5,311.5 Q309,178 421,106 Q533,34 683,34 Q911,34 1044,193 Q1177,352 1177,627"/> 
            <glyph glyph-name="O" unicode="&#x4F;" horiz-adv-x="1125" d=" M254,615 L254,0 L200,0 L200,1456 L655,1456 Q878,1456 1001.5,1343.5 Q1125,1231 1125,1031 Q1125,833 1004.5,725 Q884,617 662,615 M254,669 L655,669 Q852,669 961.5,764 Q1071,859 1071,1029 Q1071,1205 961.5,1303.5 Q852,1402 655,1402 L254,1402"/> 
            <glyph glyph-name="P" unicode="&#x50;" horiz-adv-x="1231" d=" M1231,619 Q1231,415 1151.5,261 Q1072,107 924,33 L1191,-228 L1152,-263 L868,10 Q778,-20 683,-20 Q437,-20 285,155 Q133,330 133,627 L133,837 Q133,1025 200.5,1171 Q268,1317 393.5,1396.5 Q519,1476 681,1476 Q844,1476 969.5,1396.5 Q1095,1317 1163,1170.5 Q1231,1024 1231,837 M1177,839 Q1177,1103 1043,1262.5 Q909,1422 681,1422 Q456,1422 322,1263.5 Q188,1105 188,832 L188,619 Q188,445 248.5,311.5 Q309,178 421,106 Q533,34 683,34 Q911,34 1044,193 Q1177,352 1177,627"/> 
            <glyph glyph-name="Q" unicode="&#x51;" horiz-adv-x="1198" d=" M754,623 L249,623 L249,0 L195,0 L195,1456 L659,1456 Q878,1456 1007.5,1343 Q1137,1230 1137,1036 Q1137,887 1044.5,775.5 Q952,664 809,637 L1198,14 L1198,0 L1141,0 M249,677 L708,677 Q876,677 979.5,779 Q1083,881 1083,1036 Q1083,1206 968.5,1304 Q854,1402 655,1402 L249,1402"/> 
            <glyph glyph-name="R" unicode="&#x52;" horiz-adv-x="1127" d=" M1072,349 Q1072,442 1028.5,506.5 Q985,571 891.5,620.5 Q798,670 609,722 Q420,774 325.5,827 Q231,880 187,950 Q143,1020 143,1120 Q143,1279 277,1377.5 Q411,1476 626,1476 Q766,1476 877.5,1421.5 Q989,1367 1050,1268.5 Q1111,1170 1111,1046 L1057,1046 Q1057,1209 937,1315.5 Q817,1422 626,1422 Q434,1422 315.5,1336.5 Q197,1251 197,1122 Q197,991 300,911 Q403,831 640,769.5 Q877,708 987,627 Q1127,524 1127,351 Q1127,241 1065,156.5 Q1003,72 889,26 Q775,-20 633,-20 Q475,-20 349,32.5 Q223,85 159.5,182 Q96,279 96,411 L150,411 Q150,232 284,133 Q418,34 633,34 Q824,34 948,121.5 Q1072,209 1072,349"/> 
            <glyph glyph-name="S" unicode="&#x53;" horiz-adv-x="1169" d=" M1169,1402 L639,1402 L639,0 L585,0 L585,1402 L55,1402 L55,1456 L1169,1456"/> 
            <glyph glyph-name="T" unicode="&#x54;" horiz-adv-x="1180" d=" M1180,1456 L1180,470 Q1180,239 1046,109.5 Q912,-20 683,-20 Q454,-20 320,109.5 Q186,239 185,466 L185,1456 L239,1456 L239,472 Q239,270 360.5,152 Q482,34 683,34 Q884,34 1005,152 Q1126,270 1126,473 L1126,1456"/> 
            <glyph glyph-name="U" unicode="&#x55;" horiz-adv-x="1189" d=" M583,142 L612,54 L641,142 L1130,1456 L1189,1456 L645,0 L579,0 L35,1456 L94,1456"/> 
            <glyph glyph-name="V" unicode="&#x56;" horiz-adv-x="1793" d=" M489,90 L555,330 L899,1456 L959,1456 L1301,330 L1366,90 L1434,330 L1734,1456 L1793,1456 L1401,0 L1340,0 L979,1214 L928,1368 L879,1214 L515,0 L454,0 L61,1456 L121,1456 L423,330"/> 
            <glyph glyph-name="W" unicode="&#x57;" horiz-adv-x="1168" d=" M611,785 L1081,1456 L1149,1456 L645,743 L1168,0 L1101,0 L611,701 L119,0 L54,0 L577,743 L73,1456 L141,1456"/> 
            <glyph glyph-name="X" unicode="&#x58;" horiz-adv-x="1185" d=" M609,602 L1119,1456 L1185,1456 L636,553 L636,0 L582,0 L582,553 L33,1456 L105,1456"/> 
            <glyph glyph-name="Y" unicode="&#x59;" horiz-adv-x="1130" d=" M168,54 L1130,54 L1130,0 L94,0 L94,44 L1023,1403 L134,1403 L134,1456 L1098,1456 L1098,1418"/> 
            <glyph glyph-name="Z" unicode="&#x5A;" horiz-adv-x="464" d=" M464,1610 L235,1610 L235,-258 L464,-258 L464,-312 L181,-312 L181,1664 L464,1664"/> 
            <glyph glyph-name="[" unicode="&#x5B;" horiz-adv-x="275" d=" M-8,1664 L275,1664 L275,-312 L-8,-312 L-8,-258 L220,-258 L220,1610 L-8,1610"/> 
            <glyph glyph-name="]" unicode="&#x5D;" horiz-adv-x="933" d=" M871,0 Q851,69 851,198 Q787,94 676,37 Q565,-20 425,-20 Q275,-20 183.5,61.5 Q92,143 92,274 Q92,423 226.5,512.5 Q361,602 584,604 L851,604 L851,762 Q851,898 765.5,973 Q680,1048 521,1048 Q373,1048 274,972 Q175,896 175,784 L121,786 Q121,918 237,1010 Q353,1102 521,1102 Q696,1102 799,1014.5 Q902,927 905,768 L905,251 Q905,73 933,9 L933,0 M425,33 Q577,33 686.5,101 Q796,169 851,292 L851,549 L601,549 Q369,549 246,457 Q146,382 146,270 Q146,171 225,102 Q304,33 425,33"/> 
            <glyph glyph-name="a" unicode="&#x61;" horiz-adv-x="999" d=" M999,531 Q999,278 890,129 Q781,-20 593,-20 Q471,-20 375,30.5 Q279,81 224,171 L224,0 L170,0 L170,1536 L224,1536 L224,885 Q281,992 374.5,1047 Q468,1102 591,1102 Q781,1102 890,956.5 Q999,811 999,548 M943,552 Q943,785 850.5,916.5 Q758,1048 592,1048 Q456,1048 361.5,978 Q267,908 224,770 L224,274 Q267,159 361.5,96.5 Q456,34 594,34 Q761,34 852,167 Q943,300 943,552"/> 
            <glyph glyph-name="b" unicode="&#x62;" horiz-adv-x="940" d=" M539,34 Q686,34 781.5,112 Q877,190 886,328 L940,328 Q932,171 819,75.5 Q706,-20 539,-20 Q336,-20 216.5,127 Q97,274 97,526 L97,562 Q97,808 216.5,955 Q336,1102 537,1102 Q709,1102 821,999 Q933,896 940,725 L886,725 Q879,871 783.5,959.5 Q688,1048 537,1048 Q356,1048 253.5,917.5 Q151,787 151,555 L151,520 Q151,293 254.5,163.5 Q358,34 539,34"/> 
            <glyph glyph-name="c" unicode="&#x63;" horiz-adv-x="951" d=" M122,552 Q122,811 231,956.5 Q340,1102 530,1102 Q652,1102 745.5,1047 Q839,992 897,883 L897,1536 L951,1536 L951,0 L897,0 L897,173 Q842,81 746,30.5 Q650,-20 528,-20 Q340,-20 231,129 Q122,278 122,538 M178,531 Q178,301 269,167.5 Q360,34 527,34 Q661,34 756,93.5 Q851,153 897,268 L897,775 Q804,1048 529,1048 Q363,1048 270.5,917 Q178,786 178,531"/> 
            <glyph glyph-name="d" unicode="&#x64;" horiz-adv-x="952" d=" M561,-20 Q430,-20 320.5,50.5 Q211,121 149,244 Q87,367 87,517 L87,562 Q87,712 147,837 Q207,962 312,1032 Q417,1102 541,1102 Q722,1102 837,973 Q952,844 952,634 L952,577 L141,577 L141,518 Q141,386 196.5,273.5 Q252,161 349.5,97 Q447,33 561,33 Q670,33 746.5,69.5 Q823,106 882,182 L920,155 Q799,-20 561,-20 M541,1048 Q383,1048 273,930.5 Q163,813 144,631 L898,631 L898,644 Q898,754 851.5,848.5 Q805,943 723.5,995.5 Q642,1048 541,1048"/> 
            <glyph glyph-name="e" unicode="&#x65;" horiz-adv-x="665" d=" M254,0 L254,1027 L66,1027 L66,1082 L254,1082 L254,1240 Q255,1390 329.5,1473.5 Q404,1557 537,1557 Q611,1557 665,1540 L657,1488 Q605,1503 538,1503 Q431,1503 369.5,1433.5 Q308,1364 308,1236 L308,1082 L594,1082 L594,1027 L308,1027 L308,0"/> 
            <glyph glyph-name="f" unicode="&#x66;" horiz-adv-x="950" d=" M121,552 Q121,811 230,956.5 Q339,1102 529,1102 Q650,1102 744,1046.5 Q838,991 895,884 L895,1082 L950,1082 L950,19 Q950,-195 840,-315.5 Q730,-436 541,-436 Q432,-436 341.5,-389 Q251,-342 187,-254 L225,-218 Q288,-298 363,-340.5 Q438,-383 539,-383 Q706,-383 799,-281.5 Q892,-180 895,5 L895,171 Q839,79 743.5,29.5 Q648,-20 527,-20 Q339,-20 230,129 Q121,278 121,538 M176,531 Q176,299 268,166.5 Q360,34 526,34 Q663,34 759,97.5 Q855,161 895,276 L895,767 Q807,1048 528,1048 Q361,1048 268.5,917 Q176,786 176,531"/> 
            <glyph glyph-name="g" unicode="&#x67;" horiz-adv-x="954" d=" M226,830 Q279,956 382,1029 Q485,1102 610,1102 Q784,1102 868.5,1003.5 Q953,905 954,706 L954,0 L900,0 L900,708 Q899,882 829,965.5 Q759,1049 607,1049 Q467,1049 364.5,949.5 Q262,850 226,693 L226,0 L172,0 L172,1536 L226,1536"/> 
            <glyph glyph-name="h" unicode="&#x68;" horiz-adv-x="268" d=" M239,0 L185,0 L185,1082 L239,1082 M157,1420 Q157,1443 173,1459.5 Q189,1476 212,1476 Q235,1476 251.5,1459.5 Q268,1443 268,1420 Q268,1397 251.5,1381 Q235,1365 212,1365 Q189,1365 173,1381 Q157,1397 157,1420"/> 
            <glyph glyph-name="i" unicode="&#x69;" horiz-adv-x="274" d=" M240,1082 L240,-129 Q240,-279 165,-358 Q90,-437 -45,-437 Q-94,-437 -143,-417 L-140,-365 Q-92,-383 -45,-383 Q67,-383 126.5,-316.5 Q186,-250 186,-129 L186,1082 M163,1420 Q163,1443 179,1459.5 Q195,1476 218,1476 Q241,1476 257.5,1459.5 Q274,1443 274,1420 Q274,1397 257.5,1381 Q241,1365 218,1365 Q195,1365 179,1381 Q163,1397 163,1420"/> 
            <glyph glyph-name="j" unicode="&#x6A;" horiz-adv-x="953" d=" M385,585 L383,583 L226,448 L226,0 L172,0 L172,1536 L226,1536 L226,507 L353,627 L845,1082 L922,1082 L425,621 L953,0 L883,0"/> 
            <glyph glyph-name="k" unicode="&#x6B;" horiz-adv-x="239" d=" M239,0 L185,0 L185,1536 L239,1536"/> 
            <glyph glyph-name="l" unicode="&#x6C;" horiz-adv-x="1680" d=" M946,0 L892,0 L892,727 Q891,890 820.5,969.5 Q750,1049 596,1049 Q418,1049 305,892 Q238,798 216,684 L216,0 L161,0 L161,1082 L216,1082 L216,826 Q271,958 373,1030 Q475,1102 599,1102 Q735,1102 821.5,1042 Q908,982 935,846 Q983,963 1091,1032.5 Q1199,1102 1333,1102 Q1508,1102 1593.5,1003 Q1679,904 1680,706 L1680,0 L1626,0 L1626,702 Q1626,880 1554.5,965.5 Q1483,1051 1330,1049 Q1133,1046 1018,892 Q952,803 946,720"/> 
            <glyph glyph-name="m" unicode="&#x6D;" horiz-adv-x="954" d=" M226,830 Q279,956 382,1029 Q485,1102 610,1102 Q784,1102 868.5,1003.5 Q953,905 954,706 L954,0 L900,0 L900,708 Q899,882 829,965.5 Q759,1049 607,1049 Q467,1049 364.5,949.5 Q262,850 226,693 L226,0 L172,0 L172,1082 L226,1082"/> 
            <glyph glyph-name="n" unicode="&#x6E;" horiz-adv-x="1037" d=" M90,562 Q90,717 149.5,840.5 Q209,964 317.5,1033 Q426,1102 563,1102 Q699,1102 807,1035 Q915,968 975.5,845 Q1036,722 1037,568 L1037,520 Q1037,364 978,241 Q919,118 810.5,49 Q702,-20 565,-20 Q428,-20 319.5,48 Q211,116 151,238.5 Q91,361 90,514 M144,520 Q144,385 197.5,272.5 Q251,160 346.5,97 Q442,34 565,34 Q750,34 866.5,173 Q983,312 983,531 L983,562 Q983,695 929,808 Q875,921 779.5,984.5 Q684,1048 563,1048 Q378,1048 261,907 Q144,766 144,552"/> 
            <glyph glyph-name="o" unicode="&#x6F;" horiz-adv-x="999" d=" M999,531 Q999,278 890,129 Q781,-20 593,-20 Q470,-20 374,30 Q278,80 224,168 L224,-416 L170,-416 L170,1082 L224,1082 L224,889 Q280,992 375,1047 Q470,1102 591,1102 Q781,1102 890,956.5 Q999,811 999,548 M944,552 Q944,785 851.5,916.5 Q759,1048 592,1048 Q456,1048 361,977.5 Q266,907 224,775 L224,269 Q266,157 361.5,95.5 Q457,34 594,34 Q760,34 852,166 Q944,298 944,552"/> 
            <glyph glyph-name="p" unicode="&#x70;" horiz-adv-x="951" d=" M122,552 Q122,811 231,956.5 Q340,1102 530,1102 Q651,1102 746,1047 Q841,992 897,889 L897,1082 L951,1082 L951,-416 L897,-416 L897,168 Q839,77 743.5,28.5 Q648,-20 528,-20 Q340,-20 231,129 Q122,278 122,538 M178,531 Q178,301 269,167.5 Q360,34 527,34 Q661,34 756,93.5 Q851,153 897,268 L897,775 Q850,910 755,979 Q660,1048 529,1048 Q363,1048 270.5,917 Q178,786 178,531"/> 
            <glyph glyph-name="q" unicode="&#x71;" horiz-adv-x="655" d=" M649,1043 L579,1049 Q441,1049 348,959.5 Q255,870 226,709 L226,0 L172,0 L172,1082 L226,1082 L226,857 Q270,970 358,1036 Q446,1102 579,1102 Q626,1102 655,1091"/> 
            <glyph glyph-name="r" unicode="&#x72;" horiz-adv-x="893" d=" M839,265 Q839,462 503,533 Q301,576 222,643.5 Q143,711 143,829 Q143,948 243.5,1025 Q344,1102 505,1102 Q680,1102 786,1018.5 Q892,935 892,793 L837,793 Q837,902 745,975 Q653,1048 505,1048 Q363,1048 280,986 Q197,924 197,831 Q197,758 228,716.5 Q259,675 329,641.5 Q399,608 533,577 Q667,546 745,504 Q823,462 858,404.5 Q893,347 893,264 Q893,136 788,58 Q683,-20 513,-20 Q331,-20 219.5,62.5 Q108,145 108,275 L162,275 Q170,161 262.5,97.5 Q355,34 513,34 Q658,34 748.5,101.5 Q839,169 839,265"/> 
            <glyph glyph-name="s" unicode="&#x73;" horiz-adv-x="572" d=" M293,1374 L293,1082 L539,1082 L539,1027 L293,1027 L293,259 Q293,144 330.5,89 Q368,34 456,34 Q500,34 563,43 L572,-8 Q539,-20 459,-20 Q341,-20 290,45.5 Q239,111 238,252 L238,1027 L38,1027 L38,1082 L238,1082 L238,1374"/> 
            <glyph glyph-name="t" unicode="&#x74;" horiz-adv-x="952" d=" M897,0 L897,175 Q849,85 757,32.5 Q665,-20 524,-20 Q347,-20 258.5,83.5 Q170,187 168,385 L168,1082 L222,1082 L222,383 Q224,211 300,122.5 Q376,34 522,34 Q677,34 774,107 Q871,180 897,321 L897,1082 L952,1082 L952,0"/> 
            <glyph glyph-name="u" unicode="&#x75;" horiz-adv-x="937" d=" M490,86 L879,1082 L937,1082 L516,0 L463,0 L43,1082 L101,1082"/> 
            <glyph glyph-name="v" unicode="&#x76;" horiz-adv-x="1456" d=" M366,313 L425,80 L742,1082 L797,1082 L1112,80 L1173,313 L1393,1082 L1456,1082 L1141,0 L1087,0 L820,813 L769,1007 L714,813 L451,0 L397,0 L83,1082 L145,1082"/> 
            <glyph glyph-name="w" unicode="&#x77;" horiz-adv-x="922" d=" M489,602 L834,1082 L902,1082 L522,555 L922,0 L855,0 L488,508 L122,0 L55,0 L455,555 L75,1082 L143,1082"/> 
            <glyph glyph-name="x" unicode="&#x78;" horiz-adv-x="944" d=" M503,84 L510,104 L884,1082 L944,1082 L460,-188 L436,-248 Q358,-437 178,-437 Q120,-437 98,-426 L97,-375 Q129,-384 170,-384 Q255,-384 311,-334.5 Q367,-285 408,-173 L474,6 L43,1082 L102,1082"/> 
            <glyph glyph-name="y" unicode="&#x79;" horiz-adv-x="930" d=" M160,54 L930,54 L930,0 L87,0 L87,44 L798,1027 L118,1027 L118,1082 L871,1082 L871,1034"/> 
            <glyph glyph-name="z" unicode="&#x7A;" horiz-adv-x="884" d=" M254,0 L254,1027 L66,1027 L66,1082 L254,1082 L254,1218 Q255,1379 340,1468 Q425,1557 577,1557 Q722,1557 845,1500 L837,1448 L778,1472 Q695,1503 578,1503 Q453,1503 380.5,1426.5 Q308,1350 308,1214 L308,1082 L594,1082 L594,1027 L308,1027 L308,0 M884,0 L830,0 L830,1082 L884,1082"/> 
        </font>
</defs>
</svg>
