<?xml version="1.0" standalone="no"?>
<!DOCTYPE svg PUBLIC "-//W3C//DTD SVG 1.1//EN" "http://www.w3.org/Graphics/SVG/1.1/DTD/svg11.dtd" >
<svg xmlns="http://www.w3.org/2000/svg">
    <defs>
        <font id="">
            <font-face font-family=""
                       units-per-em="1000"
                       ascent="888"
                       descent="-237"
                       bbox="-56 -237 1003 888"
                    />
            <missing-glyph horiz-adv-x="0" />
            
            <glyph glyph-name="/" unicode="&#x2F;" horiz-adv-x="340" d=" M55,-10 L6,-10 L290,726 L340,726"/> 
            <glyph glyph-name="0" unicode="&#x30;" horiz-adv-x="489" d=" M264,729 Q485,723 489,361 Q486,-4 264,-10 Q46,-6 43,361 Q47,722 264,729 M264,668 Q112,664 110,361 Q111,54 264,51 Q420,56 422,361 Q420,663 264,668"/> 
            <glyph glyph-name="1" unicode="&#x31;" horiz-adv-x="301" d=" M233,0 L233,635 L90,569 L90,634 L267,714 L301,714 L301,0"/> 
            <glyph glyph-name="2" unicode="&#x32;" horiz-adv-x="461" d=" M461,0 L47,0 L47,45 Q109,134 273,318 Q386,442 382,538 Q381,663 243,664 Q173,664 90,616 L73,673 Q161,726 258,725 Q444,718 450,538 Q453,422 333,291 Q242,192 143,62 L461,62"/> 
            <glyph glyph-name="3" unicode="&#x33;" horiz-adv-x="452" d=" M50,32 L67,88 Q134,54 211,52 Q382,54 384,211 Q376,341 222,349 L166,349 L166,411 L222,411 Q364,416 368,547 Q367,663 238,664 Q178,664 95,629 L79,687 Q165,725 242,725 Q430,719 436,553 Q433,426 305,378 Q446,343 452,207 Q441,-1 226,-10 Q123,-9 50,32"/> 
            <glyph glyph-name="4" unicode="&#x34;" horiz-adv-x="496" d=" M410,0 L342,0 L342,172 L26,172 L26,231 L332,714 L410,714 L410,234 L496,234 L496,172 L410,172 M91,234 L342,234 L342,635"/> 
            <glyph glyph-name="6" unicode="&#x36;" horiz-adv-x="489" d=" M427,725 L436,669 Q158,663 118,362 Q187,457 299,455 Q479,444 489,233 Q477,2 274,-10 Q57,-4 52,294 Q65,706 427,725 M274,49 Q414,58 422,233 Q422,396 271,396 Q170,389 120,284 Q124,55 274,49"/> 
            <glyph glyph-name="8" unicode="&#x38;" horiz-adv-x="493" d=" M200,383 Q73,445 71,557 Q82,715 267,725 Q453,716 464,557 Q464,446 325,377 Q493,310 488,182 Q475,3 267,-10 Q59,1 48,182 Q51,313 200,383 M267,50 Q413,59 422,184 Q432,292 255,352 Q114,304 114,183 Q123,58 267,50 M267,669 Q146,660 135,557 Q137,459 277,404 Q399,467 400,557 Q392,662 267,669"/> 
            <glyph glyph-name="A" unicode="&#x41;" horiz-adv-x="577" d=" M507,0 L439,220 L157,220 L91,0 L21,0 L258,714 L339,714 L577,0 M300,662 L177,282 L420,282"/> 
            <glyph glyph-name="B" unicode="&#x42;" horiz-adv-x="507" d=" M82,13 L82,700 Q178,722 248,723 Q478,721 480,544 Q473,407 351,375 Q499,344 507,198 Q499,-10 248,-10 Q165,-8 82,13 M150,650 L150,404 L248,404 Q413,403 412,537 Q417,670 248,666 Q199,666 150,650 M150,346 L150,61 Q199,48 248,47 Q444,43 439,201 Q444,350 248,346"/> 
            <glyph glyph-name="G" unicode="&#x47;" horiz-adv-x="600" d=" M600,367 L600,34 Q513,-8 413,-10 Q58,5 44,362 Q60,711 415,725 Q498,724 580,697 L564,639 Q495,664 415,664 Q116,659 112,362 Q117,58 413,52 Q470,52 532,76 L532,305 L409,305 L409,367"/> 
            <glyph glyph-name="H" unicode="&#x48;" horiz-adv-x="582" d=" M84,714 L152,714 L152,407 L514,407 L514,714 L582,714 L582,0 L514,0 L514,345 L152,345 L152,0 L84,0"/> 
            <glyph glyph-name="K" unicode="&#x4B;" horiz-adv-x="539" d=" M152,0 L84,0 L84,714 L152,714 L152,379 L443,714 L521,714 L225,378 L539,0 L455,0 L152,374"/> 
            <glyph glyph-name="M" unicode="&#x4D;" horiz-adv-x="761" d=" M686,0 L657,641 L449,0 L363,0 L156,642 L126,0 L52,0 L100,714 L197,714 L406,57 L616,714 L713,714 L761,0"/> 
            <glyph glyph-name="P" unicode="&#x50;" horiz-adv-x="509" d=" M82,0 L82,701 Q171,724 252,725 Q507,723 509,514 Q507,299 252,297 Q202,298 150,310 L150,0 M150,650 L150,367 Q194,356 252,356 Q440,357 441,514 Q444,668 252,666 Q201,666 150,650"/> 
            <glyph glyph-name="R" unicode="&#x52;" horiz-adv-x="522" d=" M82,0 L82,700 Q185,724 254,725 Q500,724 501,528 Q497,397 360,355 Q442,315 469,206 Q484,145 513,32 Q519,10 522,0 L455,0 Q435,76 406,196 Q371,327 254,328 L150,328 L150,0 M150,653 L150,387 L254,387 Q437,384 433,528 Q438,670 254,666 Q193,665 150,653"/> 
            <glyph glyph-name="T" unicode="&#x54;" horiz-adv-x="519" d=" M234,0 L234,652 L16,652 L16,714 L519,714 L519,652 L302,652 L302,0"/> 
            <glyph glyph-name="V" unicode="&#x56;" horiz-adv-x="572" d=" M334,0 L257,0 L20,714 L99,714 L295,51 L492,714 L572,714"/> 
            <glyph glyph-name="X" unicode="&#x58;" horiz-adv-x="535" d=" M535,0 L452,0 L278,321 L108,0 L27,0 L241,363 L39,714 L120,714 L278,406 L441,714 L521,714 L318,364"/> 
            <glyph glyph-name="e" unicode="&#x65;" horiz-adv-x="471" d=" M471,232 L106,232 Q120,47 293,49 Q356,49 426,76 L440,19 Q376,-10 293,-10 Q47,-4 41,250 Q53,495 261,509 Q460,496 471,271 M106,289 L405,289 Q399,444 260,451 Q128,445 106,289"/> 
            <glyph glyph-name="h" unicode="&#x68;" horiz-adv-x="486" d=" M74,0 L74,746 L140,746 L140,418 Q196,510 320,509 Q481,502 486,292 L486,0 L420,0 L420,285 Q422,452 292,449 Q156,434 140,285 L140,0"/> 
            <glyph glyph-name="i" unicode="&#x69;" horiz-adv-x="149" d=" M146,0 L80,0 L80,498 L146,498 M149,636 L77,636 L77,714 L149,714"/> 
            <glyph glyph-name="l" unicode="&#x6C;" horiz-adv-x="148" d=" M82,0 L82,746 L148,746 L148,0"/> 
            <glyph glyph-name="m" unicode="&#x6D;" horiz-adv-x="783" d=" M71,0 L71,335 Q71,407 64,498 L121,498 L133,424 Q193,511 300,509 Q397,510 442,411 Q502,513 616,509 Q777,497 783,288 L783,0 L717,0 L717,288 Q719,452 594,449 Q468,438 458,288 L458,0 L392,0 L392,288 Q394,452 273,449 Q148,436 137,288 L137,0"/> 
            <glyph glyph-name="o" unicode="&#x6F;" horiz-adv-x="500" d=" M269,509 Q490,498 500,249 Q490,1 269,-10 Q46,0 37,249 Q47,498 269,509 M269,449 Q110,444 103,249 Q108,54 269,49 Q429,54 434,249 Q426,443 269,449"/> 
            <glyph glyph-name="r" unicode="&#x72;" horiz-adv-x="312" d=" M79,0 L79,335 Q80,375 71,498 L127,498 L141,414 Q180,506 267,508 Q291,508 312,500 L300,439 Q299,439 296,440 Q276,446 259,446 Q153,432 145,287 L145,0"/> 
            <glyph glyph-name="w" unicode="&#x77;" horiz-adv-x="732" d=" M19,498 L90,498 L208,64 L336,498 L416,498 L545,64 L661,498 L732,498 L580,0 L511,0 L376,433 L241,0 L172,0"/> 
            <glyph glyph-name="、" unicode="&#x3001;" horiz-adv-x="360" d=" M307,-30 L144,162 L192,204 L360,14"/> 
            <glyph glyph-name="一" unicode="&#x4E00;" horiz-adv-x="932" d=" M67,345 L67,413 L932,413 L932,345"/> 
            <glyph glyph-name="了" unicode="&#x4E86;" horiz-adv-x="872" d=" M427,-88 Q391,-88 332,-81 Q328,-42 312,-12 Q378,-21 420,-21 Q490,-23 488,44 L488,472 Q632,554 766,661 L117,661 L117,723 L872,723 L872,668 Q746,552 557,437 L557,34 Q558,-89 427,-88"/> 
            <glyph glyph-name="付" unicode="&#x4ED8;" horiz-adv-x="953" d=" M358,513 L358,574 L740,574 L740,790 L808,790 L808,574 L953,574 L953,513 L808,513 L808,37 Q809,-86 687,-85 Q641,-86 598,-78 Q593,-38 577,-9 Q629,-20 673,-19 Q743,-22 740,45 L740,513 M208,-96 L208,478 Q148,395 90,343 Q64,371 29,383 Q208,549 298,795 L362,759 Q323,664 275,580 L275,-96 M566,159 Q490,274 413,359 L473,388 Q556,296 622,199"/> 
            <glyph glyph-name="位" unicode="&#x4F4D;" horiz-adv-x="945" d=" M193,-96 L193,469 Q138,385 90,343 Q74,367 33,382 Q197,546 280,798 L340,768 Q313,681 257,574 L257,-96 M313,-51 L313,8 L623,8 Q696,206 758,467 L825,445 Q756,181 690,8 L945,8 L945,-51 M354,536 L354,595 L913,595 L913,536 M507,88 Q462,279 402,435 L470,444 Q521,309 570,111 M634,601 Q591,694 528,785 L595,801 Q646,731 693,635"/> 
            <glyph glyph-name="体" unicode="&#x4F53;" horiz-adv-x="970" d=" M183,-96 L183,467 Q131,396 78,346 Q55,370 21,386 Q199,557 287,798 L344,766 Q302,656 247,564 L247,101 Q455,282 539,537 L320,537 L320,596 L573,596 L573,790 L636,790 L636,596 L905,596 L905,537 L669,537 Q761,259 970,115 Q941,98 914,61 Q716,219 634,500 L636,481 L636,138 L809,138 L809,81 L636,81 L636,-96 L573,-96 L573,81 L401,81 L401,138 L573,138 L573,481 L574,499 Q499,231 296,55 Q275,79 247,94 L247,-96"/> 
            <glyph glyph-name="使" unicode="&#x4F7F;" horiz-adv-x="963" d=" M331,610 L331,667 L593,667 L593,795 L657,795 L657,667 L918,667 L918,610 L657,610 L657,504 L876,504 L876,254 L653,254 Q643,137 593,67 Q638,44 686,31 Q792,3 963,-10 Q937,-41 930,-75 Q770,-56 674,-29 Q608,-12 553,20 Q478,-50 329,-97 Q311,-71 279,-50 Q433,-1 499,55 Q428,108 367,198 L409,237 Q471,146 539,99 Q583,156 590,254 L371,254 L371,504 L593,504 L593,610 M186,-96 L186,472 Q140,396 95,348 Q75,368 35,383 Q196,563 266,796 L327,766 Q295,674 249,583 L249,-96 M431,308 L593,308 L593,315 L593,450 L431,450 M817,450 L657,450 L657,328 L657,308 L817,308"/> 
            <glyph glyph-name="储" unicode="&#x50A8;" horiz-adv-x="951" d=" M525,604 L525,659 L644,659 L644,794 L703,794 L703,659 L816,659 L816,604 L703,604 L703,480 L741,480 Q831,586 882,704 L934,680 Q883,568 816,480 L951,480 L951,426 L771,426 Q725,374 672,329 L889,329 L889,-96 L829,-96 L829,-44 L633,-44 L633,-96 L574,-96 L574,254 Q518,218 481,197 Q464,223 432,237 Q580,313 691,426 L480,426 L480,480 L644,480 L644,604 M174,-96 L174,483 Q122,402 84,363 Q59,387 30,397 Q181,564 254,796 L310,766 Q279,675 233,587 L233,-96 M370,-54 L331,-5 Q362,24 359,71 L359,432 L268,432 L268,488 L418,488 L418,68 L507,138 L541,102 L405,-17 Q381,-36 370,-54 M633,118 L633,9 L829,9 L829,118 M633,276 L633,169 L829,169 L829,276 M431,563 Q381,632 314,699 L366,726 Q433,660 474,603"/> 
            <glyph glyph-name="元" unicode="&#x5143;" horiz-adv-x="951" d=" M695,-66 Q572,-69 575,62 L575,401 L415,401 Q429,23 104,-91 Q83,-63 48,-40 Q221,25 282,119 Q346,210 348,401 L77,401 L77,461 L923,461 L923,401 L642,401 L642,70 Q640,-5 708,-3 L806,-3 Q871,-6 881,61 Q889,100 892,131 Q921,104 951,94 Q948,81 944,56 Q942,42 941,36 Q923,-69 811,-66 M181,666 L181,725 L818,725 L818,666"/> 
            <glyph glyph-name="全" unicode="&#x5168;" horiz-adv-x="972" d=" M225,390 L225,447 Q149,402 86,376 Q69,404 32,426 Q344,558 491,810 L548,778 Q544,771 536,758 Q532,751 530,748 Q710,534 972,449 Q938,420 918,389 Q661,497 498,699 Q392,553 226,448 L773,448 L773,390 L531,390 L531,226 L784,226 L784,169 L531,169 L531,-7 L893,-7 L893,-66 L106,-66 L106,-7 L466,-7 L466,169 L214,169 L214,226 L466,226 L466,390"/> 
            <glyph glyph-name="内" unicode="&#x5185;" horiz-adv-x="869" d=" M278,92 Q258,119 220,131 Q448,277 465,543 Q467,557 467,572 L196,572 L196,-96 L130,-96 L130,632 L470,632 Q473,699 473,799 L539,793 Q539,706 536,632 L869,632 L869,35 Q869,-89 744,-89 Q704,-89 659,-84 Q656,-49 638,-16 Q706,-24 735,-24 Q806,-27 803,44 L803,572 L532,572 Q532,567 531.5,556 Q531,545 530,539 Q523,466 506,406 L534,421 Q653,301 763,159 L718,106 Q591,271 496,372 Q444,205 278,92"/> 
            <glyph glyph-name="准" unicode="&#x51C6;" horiz-adv-x="942" d=" M385,-95 L385,477 Q343,414 296,364 Q270,390 236,399 Q392,562 472,793 L530,762 Q508,697 465,613 L922,613 L922,557 L719,557 L719,421 L902,421 L902,367 L719,367 L719,228 L903,228 L903,175 L719,175 L719,31 L942,31 L942,-23 L450,-23 L450,-95 M450,175 L450,31 L654,31 L654,175 M450,367 L450,228 L654,228 L654,367 M450,557 L450,421 L654,421 L654,557 M109,-24 L54,26 Q144,162 215,359 L265,319 Q212,154 109,-24 M207,460 Q142,591 66,700 L127,726 Q199,623 259,502 M704,623 Q659,686 590,758 L646,783 Q705,724 750,665"/> 
            <glyph glyph-name="别" unicode="&#x522B;" horiz-adv-x="892" d=" M148,463 L148,747 L537,747 L537,463 M113,-96 Q88,-72 53,-61 Q238,62 269,271 L89,271 L89,326 L276,326 Q280,375 280,424 L340,419 Q340,396 336,326 L547,326 L533,46 Q527,-74 412,-75 Q381,-75 338,-71 Q337,-41 324,-10 Q371,-17 404,-17 Q470,-18 474,56 L484,271 L330,271 Q299,37 113,-96 M774,-86 Q745,-86 693,-80 Q692,-46 676,-14 Q734,-23 769,-23 Q831,-25 829,42 L829,794 L892,794 L892,32 Q892,-86 774,-86 M208,518 L476,518 L476,691 L208,691 M650,150 L650,664 L710,664 L710,150"/> 
            <glyph glyph-name="到" unicode="&#x5230;" horiz-adv-x="891" d=" M84,676 L84,734 L556,734 L556,676 L334,676 L349,670 Q279,553 196,453 L444,471 Q415,511 365,573 L419,595 Q488,514 560,405 L515,364 Q508,374 494,395 Q484,411 478,419 L187,398 Q148,395 115,386 L88,442 Q123,453 152,490 Q220,574 280,676 M104,208 L104,266 L293,266 L293,374 L357,374 L357,266 L537,266 L537,208 L357,208 L357,56 L552,93 L573,43 L88,-60 L60,0 L293,44 L293,208 M773,-85 Q731,-85 691,-79 Q689,-41 672,-12 Q723,-20 764,-20 Q829,-22 827,45 L827,796 L891,796 L891,35 Q890,-84 773,-85 M633,149 L633,675 L696,675 L696,149"/> 
            <glyph glyph-name="动" unicode="&#x52A8;" horiz-adv-x="913" d=" M476,-101 Q451,-78 414,-69 Q631,103 634,518 Q634,522 634,530 Q635,541 635,546 L502,546 L502,603 L637,603 Q638,698 638,684 Q638,705 638,731 Q638,753 638,796 L702,791 Q702,732 700,603 L913,603 L897,67 Q894,-73 768,-72 Q747,-72 700,-68 Q691,-67 687,-67 Q685,-34 670,-1 Q728,-10 760,-10 Q833,-12 834,71 L848,546 L698,546 Q698,540 697,528 Q697,518 697,513 Q687,81 476,-101 M453,31 Q451,36 447,46 Q438,72 431,86 L183,42 Q135,32 104,16 L66,72 Q104,91 126,141 Q179,252 231,408 L55,408 L55,465 L504,465 L504,408 L297,408 Q234,222 177,104 L410,140 Q367,241 328,323 L386,333 Q445,220 505,66 M114,646 L114,704 L469,704 L469,646"/> 
            <glyph glyph-name="千" unicode="&#x5343;" horiz-adv-x="941" d=" M173,637 Q165,670 139,701 Q518,710 802,764 L844,703 Q703,678 534,661 L534,399 L941,399 L941,335 L534,335 L534,-96 L464,-96 L464,335 L57,335 L57,399 L464,399 L464,655 Q319,642 173,637"/> 
            <glyph glyph-name="友" unicode="&#x53CB;" horiz-adv-x="953" d=" M900,-93 Q704,-42 568,60 Q440,-39 242,-100 Q224,-69 189,-46 Q387,8 515,102 Q413,192 345,312 Q251,152 100,38 Q73,63 35,73 Q281,243 375,553 Q377,559 378,566 L93,566 L93,625 L394,625 Q412,705 423,799 L488,787 Q476,685 462,625 L920,625 L920,566 L447,566 Q445,559 441,545 Q440,542 440,540 Q423,479 399,422 L790,422 L790,369 Q732,211 619,103 Q756,6 953,-31 Q920,-55 900,-93 M720,363 L387,363 Q460,233 566,143 Q668,235 720,363"/> 
            <glyph glyph-name="双" unicode="&#x53CC;" horiz-adv-x="975" d=" M909,-74 Q773,16 685,138 Q583,7 425,-83 Q398,-56 360,-41 Q534,46 646,198 Q541,372 505,631 L560,649 L469,649 L469,710 L876,710 L876,656 Q845,382 724,196 Q818,61 975,-26 Q937,-43 909,-74 M430,89 Q390,145 316,233 Q233,71 100,-40 Q75,-19 32,-6 Q180,106 270,288 Q162,414 95,479 L147,516 Q229,434 298,355 Q353,494 362,638 L97,638 L97,700 L429,700 L429,645 Q412,456 346,299 Q438,192 475,141 M808,649 L563,649 Q596,417 685,259 Q784,426 808,649"/> 
            <glyph glyph-name="叫" unicode="&#x53EB;" horiz-adv-x="866" d=" M107,48 L107,707 L391,707 L391,69 L329,69 L329,129 L170,129 L170,48 M800,-96 L800,175 L604,125 Q573,117 535,92 L505,145 Q530,170 528,234 L528,705 L592,705 L592,188 L800,239 L800,793 L866,793 L866,-96 M170,649 L170,187 L329,187 L329,649"/> 
            <glyph glyph-name="吧" unicode="&#x5427;" horiz-adv-x="947" d=" M571,-67 Q441,-70 444,58 L444,732 L888,732 L888,320 L506,320 L506,61 Q504,-8 576,-6 L788,-6 Q859,-10 875,56 Q884,83 896,139 Q921,107 947,97 Q936,49 928,26 Q904,-71 796,-67 M103,46 L103,708 L348,708 L348,63 L289,63 L289,129 L163,129 L163,46 M163,651 L163,186 L289,186 L289,651 M506,674 L506,377 L637,377 L637,674 M826,674 L695,674 L695,377 L826,377"/> 
            <glyph glyph-name="听" unicode="&#x542C;" horiz-adv-x="949" d=" M102,40 L102,708 L359,708 L359,68 L297,68 L297,116 L164,116 L164,40 M722,-93 L722,395 L533,395 L533,357 Q541,64 391,-84 Q360,-66 325,-58 Q408,27 438,118 Q471,208 470,361 L470,711 Q699,719 853,756 L893,703 Q759,669 533,654 L533,454 L949,454 L949,395 L787,395 L787,-93 M164,650 L164,174 L297,174 L297,650"/> 
            <glyph glyph-name="器" unicode="&#x5668;" horiz-adv-x="964" d=" M929,203 Q641,224 509,371 L486,371 Q386,226 82,201 Q67,229 41,253 Q304,268 409,371 L87,371 L87,423 L447,423 Q466,464 473,512 L533,496 Q533,495 532,492 Q521,444 512,423 L710,423 Q676,448 635,473 L682,500 Q738,468 782,429 L775,423 L911,423 L911,371 L580,371 Q724,266 964,266 Q937,233 929,203 M538,-96 L538,205 L856,205 L856,-96 L797,-96 L797,-41 L597,-41 L597,-96 M147,-96 L147,205 L462,205 L462,-96 L403,-96 L403,-41 L205,-41 L205,-96 M542,504 L542,749 L854,749 L854,504 M148,504 L148,749 L459,749 L459,504 M597,154 L597,10 L797,10 L797,154 M205,154 L205,10 L403,10 L403,154 M600,555 L796,555 L796,698 L600,698 M207,555 L400,555 L400,698 L207,698"/> 
            <glyph glyph-name="图" unicode="&#x56FE;" horiz-adv-x="882" d=" M116,-96 L116,747 L882,747 L882,-96 L819,-96 L819,-43 L180,-43 L180,-96 M180,690 L180,14 L819,14 L819,690 M765,275 Q612,311 506,375 Q390,304 235,265 Q218,293 188,311 Q333,339 455,408 Q397,451 356,500 Q319,459 279,429 Q261,446 229,461 Q359,559 411,686 L462,654 Q449,628 434,604 L691,604 L691,561 Q642,476 554,409 Q667,349 808,328 Q780,305 765,275 M618,27 Q487,91 331,135 L365,179 Q514,136 632,80 M617,552 L399,552 L390,540 Q437,484 504,439 Q579,491 617,552 M605,168 Q522,216 404,261 L438,301 Q546,261 620,218"/> 
            <glyph glyph-name="在" unicode="&#x5728;" horiz-adv-x="935" d=" M229,-96 L229,314 Q153,241 92,202 Q77,226 31,249 Q233,372 360,607 L100,607 L100,667 L390,667 Q421,737 442,809 L507,785 Q491,726 465,667 L932,667 L932,607 L437,607 Q380,491 294,386 L294,-96 M377,293 L377,351 L601,351 L601,534 L668,534 L668,351 L893,351 L893,293 L668,293 L668,16 L935,16 L935,-43 L339,-43 L339,16 L601,16 L601,293"/> 
            <glyph glyph-name="处" unicode="&#x5904;" horiz-adv-x="955" d=" M103,-98 Q81,-69 47,-52 Q196,29 284,143 Q219,230 176,380 Q139,308 96,246 Q73,269 41,280 Q195,503 246,792 L310,772 Q294,692 268,611 L489,611 L489,559 Q471,309 365,144 Q460,42 640,18 Q772,0 955,1 Q937,-33 931,-68 Q778,-66 654,-50 Q438,-21 328,92 Q242,-17 103,-98 M249,553 Q233,507 214,464 Q254,295 322,197 Q413,344 427,553 M616,72 L616,795 L681,795 L681,72 M889,285 Q788,431 684,546 L741,573 Q843,462 934,333"/> 
            <glyph glyph-name="外" unicode="&#x5916;" horiz-adv-x="955" d=" M102,-72 Q70,-41 37,-27 Q231,89 322,226 Q241,293 166,340 L215,380 Q299,322 354,277 Q419,394 437,553 L248,553 Q179,413 99,329 Q66,346 34,352 Q207,545 265,788 L329,767 Q312,700 276,612 L503,612 L503,559 Q466,149 102,-72 M913,211 Q838,299 683,454 L683,-99 L617,-99 L617,791 L683,791 L683,494 L714,510 Q859,372 955,262"/> 
            <glyph glyph-name="多" unicode="&#x591A;" horiz-adv-x="893" d=" M245,130 Q220,161 194,178 Q453,255 606,426 L663,401 Q630,360 594,327 L893,327 L893,277 Q719,-55 179,-101 Q166,-71 134,-44 Q400,-20 561,56 Q513,100 436,156 L489,189 Q537,158 617,85 Q740,156 816,271 L525,271 Q403,183 245,130 M155,298 Q140,330 110,352 Q315,384 474,454 Q417,501 359,542 L412,574 Q467,537 532,482 Q665,550 750,645 L407,645 Q320,552 208,489 Q176,517 149,527 Q344,636 446,806 L509,781 Q476,728 456,703 L839,703 L839,653 Q637,385 155,298"/> 
            <glyph glyph-name="大" unicode="&#x5927;" horiz-adv-x="960" d=" M892,-83 Q603,62 499,365 Q425,69 106,-89 Q79,-61 42,-40 Q401,120 453,456 L100,456 L100,520 L458,520 Q463,620 461,794 L530,788 Q531,664 525,520 L896,520 L896,456 L529,456 Q633,107 960,-22 Q923,-43 892,-83"/> 
            <glyph glyph-name="好" unicode="&#x597D;" horiz-adv-x="952" d=" M418,-6 Q412,0 399,12 Q333,76 293,109 Q229,13 120,-75 Q88,-54 53,-46 Q184,60 244,151 Q173,209 106,259 Q137,352 171,534 L61,534 L61,592 L182,592 Q183,596 184,603 Q204,735 211,795 L275,783 Q267,714 245,592 L420,592 L420,540 Q407,315 327,165 Q387,116 455,54 M437,322 L437,381 L672,381 L672,500 Q776,592 832,666 L488,666 L488,724 L920,724 L920,672 Q835,563 736,472 L736,381 L952,381 L952,322 L736,322 L736,32 Q740,-90 617,-86 Q581,-86 544,-80 Q540,-41 525,-14 Q580,-23 611,-23 Q674,-26 672,44 L672,322 M358,534 L235,534 Q204,368 178,281 Q185,276 198,266 Q248,227 277,205 Q343,324 358,534"/> 
            <glyph glyph-name="存" unicode="&#x5B58;" horiz-adv-x="936" d=" M231,-96 L231,319 Q155,243 92,203 Q73,227 31,248 Q226,363 356,602 L96,602 L96,663 L386,663 Q419,735 439,809 L504,785 Q486,725 460,663 L925,663 L925,602 L431,602 Q378,494 297,392 L297,-96 M378,183 L378,244 L641,244 L641,314 Q712,360 770,417 L432,417 L432,475 L864,475 L864,422 Q790,347 707,287 L707,244 L936,244 L936,183 L707,183 L707,22 Q708,-87 595,-86 Q561,-86 519,-80 Q519,-45 501,-13 Q558,-22 584,-22 Q643,-24 641,31 L641,183"/> 
            <glyph glyph-name="它" unicode="&#x5B83;" horiz-adv-x="902" d=" M410,-67 Q275,-68 276,62 L276,504 L342,504 L342,257 Q606,336 761,421 L812,374 Q608,272 342,195 L342,66 Q342,-6 413,-6 L699,-6 Q772,-6 790,56 Q802,98 812,152 Q832,126 868,111 Q860,66 848,29 Q820,-69 709,-67 M98,439 L98,644 L525,644 Q460,725 404,779 L474,804 Q540,735 583,678 L533,644 L902,644 L902,439 L836,439 L836,585 L165,585 L165,439"/> 
            <glyph glyph-name="安" unicode="&#x5B89;" horiz-adv-x="937" d=" M868,-99 Q706,-25 542,41 Q398,-53 132,-97 Q113,-64 80,-39 Q329,-6 467,72 Q341,121 218,166 Q270,238 322,327 L59,327 L59,387 L354,387 Q400,472 434,563 L493,530 Q470,471 427,387 L937,387 L937,327 L747,327 Q702,175 599,86 Q798,8 891,-34 M125,470 L125,658 L503,658 Q444,720 383,767 L446,800 Q511,751 570,686 L529,658 L872,658 L872,470 L808,470 L808,599 L190,599 L190,470 M530,113 Q634,193 677,327 L396,327 Q356,254 312,190 Q380,169 530,113"/> 
            <glyph glyph-name="容" unicode="&#x5BB9;" horiz-adv-x="966" d=" M233,-95 L233,217 Q173,189 88,160 Q75,185 38,209 Q371,310 501,490 L554,457 Q545,445 536,435 Q704,282 966,227 Q932,203 917,170 Q834,192 764,224 L764,-95 L699,-95 L699,-34 L299,-34 L299,-95 M112,508 L112,688 L496,688 Q433,748 388,781 L452,809 Q518,756 574,699 L557,688 L886,688 L886,519 L820,519 L820,631 L177,631 L177,508 M299,175 L299,22 L699,22 L699,175 M501,397 Q405,302 261,230 L748,230 Q594,300 501,397 M151,372 Q126,403 99,417 Q268,480 377,583 L426,544 Q305,437 151,372 M873,376 Q762,445 579,537 L623,578 Q783,501 897,432"/> 
            <glyph glyph-name="密" unicode="&#x5BC6;" horiz-adv-x="940" d=" M422,224 Q364,223 342,247 Q214,193 80,164 Q62,191 34,213 Q174,236 322,299 Q321,308 321,317 L321,530 L380,530 L380,326 Q580,428 677,561 L732,531 Q617,380 405,278 Q416,276 429,276 L615,276 Q678,274 697,337 Q701,351 711,389 Q734,357 762,345 Q752,314 745,297 Q716,220 625,224 M187,-57 L187,161 L251,161 L251,-1 L477,-1 L477,186 L541,186 L541,-1 L769,-1 L769,174 L832,174 L832,-96 L769,-96 L769,-57 M111,496 L111,688 L499,688 Q448,740 398,778 L464,804 Q536,743 578,700 L559,688 L891,688 L891,507 L827,507 L827,633 L175,633 L175,496 M119,298 L77,343 Q168,419 224,511 L269,472 Q213,380 119,298 M901,292 Q825,380 735,458 L789,488 Q879,408 940,338 M524,474 Q463,531 398,579 L444,613 Q510,567 559,521"/> 
            <glyph glyph-name="就" unicode="&#x5C31;" horiz-adv-x="953" d=" M123,270 L123,504 L471,504 L471,270 L336,270 L336,12 Q339,-85 248,-81 Q216,-81 191,-77 Q187,-48 174,-18 Q218,-24 237,-24 Q277,-27 275,22 L275,270 M512,469 L512,524 L621,524 L621,796 L682,796 L682,524 L932,524 L932,469 L682,469 Q680,406 677,364 Q677,354 675,340 Q650,76 474,-98 Q446,-72 408,-66 Q627,124 621,469 M792,-74 Q696,-75 697,24 L697,408 L757,408 L757,28 Q756,-18 799,-17 L839,-17 Q879,-19 889,41 Q895,71 900,113 Q926,83 953,74 Q949,43 944,23 Q927,-76 843,-74 M316,646 Q274,707 216,773 L280,797 Q332,738 373,678 M535,644 L535,589 L52,589 L52,644 M183,323 L410,323 L410,451 L183,451 M92,-18 Q68,0 35,6 Q118,102 156,213 L210,193 Q165,68 92,-18 M841,569 Q783,652 725,711 L776,736 Q836,680 884,607 M459,57 Q422,132 378,194 L429,216 Q470,161 506,90"/> 
            <glyph glyph-name="年" unicode="&#x5E74;" horiz-adv-x="946" d=" M54,129 L54,190 L239,190 L239,454 L525,454 L525,629 L288,629 Q221,516 134,439 Q110,465 68,472 Q227,606 298,807 L360,776 Q343,732 323,691 L888,691 L888,629 L593,629 L593,454 L859,454 L859,392 L593,392 L593,190 L946,190 L946,129 L593,129 L593,-96 L525,-96 L525,129 M305,392 L305,190 L525,190 L525,392"/> 
            <glyph glyph-name="应" unicode="&#x5E94;" horiz-adv-x="940" d=" M101,-92 Q71,-71 32,-66 Q157,88 160,357 L160,661 L541,661 Q487,730 434,779 L502,801 Q550,756 611,681 L576,661 L917,661 L917,601 L226,601 L226,358 Q222,75 101,-92 M234,-54 L234,5 L622,5 Q747,242 824,495 L885,465 Q813,235 695,5 L940,5 L940,-54 M411,91 Q345,264 265,419 L330,428 Q403,290 468,127 M592,191 Q540,345 465,496 L529,506 Q596,380 649,225"/> 
            <glyph glyph-name="度" unicode="&#x5EA6;" horiz-adv-x="953" d=" M915,-91 Q709,-60 573,7 Q432,-64 226,-98 Q216,-69 183,-42 Q367,-17 508,44 Q403,110 333,210 L279,210 L279,265 L819,265 L819,215 Q749,113 637,43 Q769,-11 953,-30 Q922,-60 915,-91 M223,481 L223,536 L388,536 L388,617 L451,617 L451,536 L687,536 L687,617 L750,617 L750,536 L898,536 L898,481 L750,481 L750,330 L388,330 L388,481 M95,-97 Q69,-79 31,-68 Q151,89 146,362 L146,696 L525,696 Q484,748 445,785 L512,805 Q569,748 608,696 L909,696 L909,639 L211,639 L211,361 Q214,79 95,-97 M735,210 L408,210 Q474,129 571,76 Q675,135 735,210 M451,383 L687,383 L687,481 L451,481"/> 
            <glyph glyph-name="开" unicode="&#x5F00;" horiz-adv-x="944" d=" M121,668 L121,731 L881,731 L881,668 L707,668 L707,396 L944,396 L944,334 L707,334 L707,-87 L638,-87 L638,334 L377,334 Q369,65 146,-99 Q122,-73 83,-62 Q303,90 309,334 L57,334 L57,396 L310,396 L310,668 M378,668 L378,396 L638,396 L638,668"/> 
            <glyph glyph-name="形" unicode="&#x5F62;" horiz-adv-x="953" d=" M93,670 L93,728 L569,728 L569,670 L470,670 L470,398 L587,398 L587,341 L470,341 L470,-90 L408,-90 L408,341 L258,341 Q266,70 113,-94 Q83,-69 49,-61 Q205,86 197,341 L69,341 L69,398 L197,398 L197,670 M258,670 L258,398 L408,398 L408,670 M580,-95 Q561,-73 522,-49 Q753,48 900,244 L953,209 Q813,12 580,-95 M612,490 Q588,514 559,528 Q734,640 835,772 L889,732 Q783,599 612,490 M627,226 Q607,250 574,268 Q746,363 861,496 L911,461 Q810,335 627,226"/> 
            <glyph glyph-name="快" unicode="&#x5FEB;" horiz-adv-x="952" d=" M353,273 L353,330 L574,330 Q574,335 574,341 Q577,395 579,569 L403,569 L403,626 L580,626 L580,797 L644,790 Q643,699 643,717 Q643,698 643,677 Q643,659 643,626 L850,626 L850,330 L935,330 L935,273 L646,273 Q729,60 952,-33 Q917,-52 892,-87 Q690,18 615,213 Q569,19 360,-97 Q332,-67 300,-53 Q528,51 567,273 M203,-95 L203,796 L266,796 L266,-95 M642,569 Q641,444 637,330 L787,330 L787,569 M100,304 L41,331 Q91,457 100,586 L157,570 Q138,394 100,304 M364,396 Q329,496 286,583 L340,598 Q383,515 414,428"/> 
            <glyph glyph-name="性" unicode="&#x6027;" horiz-adv-x="948" d=" M407,335 Q376,349 344,352 Q435,508 470,729 L529,709 Q517,638 497,566 L637,566 L637,795 L702,795 L702,566 L917,566 L917,508 L702,508 L702,297 L883,297 L883,239 L702,239 L702,1 L948,1 L948,-57 L359,-57 L359,1 L637,1 L637,239 L441,239 L441,297 L637,297 L637,508 L479,508 Q448,409 407,335 M196,-96 L196,795 L260,795 L260,-96 M102,305 L46,333 Q83,420 101,585 L155,568 Q144,419 102,305 M334,439 Q305,529 272,594 L323,607 Q358,536 382,470"/> 
            <glyph glyph-name="感" unicode="&#x611F;" horiz-adv-x="943" d=" M585,195 Q566,221 536,232 Q614,282 673,345 Q622,456 596,620 L221,620 L221,477 Q225,287 129,161 Q108,181 67,190 Q164,304 159,476 L159,673 L589,673 Q582,733 581,795 L641,800 Q642,753 650,673 L811,673 Q763,719 705,761 L750,791 Q752,790 755,787 Q820,738 848,709 L813,673 L911,673 L911,620 L657,620 Q678,491 718,397 Q775,472 812,564 L863,536 Q812,421 745,340 Q765,308 775,295 Q806,256 830,257 Q854,256 868,294 Q880,323 891,369 Q913,337 937,326 Q926,286 912,256 Q884,194 830,195 Q776,193 723,264 Q713,277 703,293 Q650,240 585,195 M285,242 L285,429 L537,429 L537,242 M422,-67 Q310,-69 312,31 L312,166 L376,166 L376,37 Q375,-12 428,-11 L617,-11 Q670,-13 686,41 Q694,66 701,99 Q728,71 754,60 Q748,35 738,9 Q714,-70 621,-67 M124,-68 L71,-24 Q147,72 184,167 L236,131 Q189,18 124,-68 M262,499 L262,548 L556,548 L556,499 M338,288 L483,288 L483,384 L338,384 M895,-43 Q824,64 751,143 L812,166 Q883,89 943,-2 M562,54 Q508,121 453,172 L508,198 Q552,158 607,94"/> 
            <glyph glyph-name="手" unicode="&#x624B;" horiz-adv-x="946" d=" M148,429 L148,489 L481,489 L481,655 Q281,640 161,641 Q154,665 128,702 Q554,703 806,761 L848,702 Q733,677 550,661 L550,489 L852,489 L852,429 L550,429 L550,270 L946,270 L946,209 L550,209 L550,28 Q550,-89 425,-89 Q387,-89 328,-80 Q323,-40 308,-11 Q376,-22 415,-22 Q483,-24 481,46 L481,209 L51,209 L51,270 L481,270 L481,429"/> 
            <glyph glyph-name="指" unicode="&#x6307;" horiz-adv-x="921" d=" M438,-96 L438,352 L876,352 L876,-96 L813,-96 L813,-31 L503,-31 L503,-96 M68,537 L68,595 L202,595 L202,796 L265,796 L265,595 L375,595 L375,537 L265,537 L265,355 L368,405 L395,361 L265,293 L265,12 Q266,-87 171,-86 Q137,-86 102,-81 Q100,-50 84,-18 Q88,-18 97,-20 Q142,-25 162,-25 Q204,-28 202,24 L202,261 L78,196 L38,245 L202,325 L202,537 M561,437 Q433,434 436,554 L436,796 L499,796 L499,639 Q693,687 847,759 L886,713 Q714,631 499,580 L499,555 Q498,492 566,493 L774,493 Q838,490 852,543 Q861,564 868,612 Q894,584 921,576 Q915,542 906,514 Q878,435 786,437 M503,296 L503,187 L813,187 L813,296 M503,133 L503,25 L813,25 L813,133"/> 
            <glyph glyph-name="控" unicode="&#x63A7;" horiz-adv-x="949" d=" M66,534 L66,590 L188,590 L188,796 L250,796 L250,590 L357,590 L357,534 L250,534 L250,352 L352,400 L380,357 L250,292 L250,16 Q249,-83 144,-84 Q120,-84 86,-79 Q83,-43 69,-18 Q109,-25 139,-25 Q189,-26 188,23 L188,262 L79,208 L43,256 L188,324 L188,534 M446,228 L446,286 L878,286 L878,228 L692,228 L692,-2 L949,-2 L949,-60 L373,-60 L373,-2 L628,-2 L628,228 M403,492 L403,667 L661,667 Q610,727 560,771 L615,800 Q668,753 719,694 L687,667 L919,667 L919,492 L860,492 L860,611 L464,611 L464,492 M431,303 Q410,323 373,333 Q476,407 558,528 L609,501 Q532,389 431,303 M887,305 Q784,425 703,500 L750,530 Q843,443 923,350"/> 
            <glyph glyph-name="支" unicode="&#x652F;" horiz-adv-x="951" d=" M77,594 L77,654 L465,654 L465,794 L531,794 L531,654 L917,654 L917,594 L531,594 L531,440 L792,440 L792,385 Q716,230 563,114 Q727,14 951,-24 Q915,-50 899,-87 Q668,-34 505,73 Q335,-36 97,-97 Q84,-69 47,-42 Q285,14 448,113 Q311,217 208,382 L162,382 L162,440 L465,440 L465,594 M718,382 L283,382 Q371,247 506,151 Q644,250 718,382"/> 
            <glyph glyph-name="放" unicode="&#x653E;" horiz-adv-x="969" d=" M494,-96 Q468,-68 429,-52 Q588,22 672,134 Q596,254 564,410 Q543,376 519,346 Q493,370 462,376 Q584,530 642,796 L702,772 Q687,702 655,608 L939,608 L939,550 L861,550 Q845,294 747,135 Q829,31 969,-41 Q932,-60 908,-94 Q788,-18 710,81 Q628,-25 494,-96 M331,-50 Q299,-50 268,-45 Q266,-13 250,19 Q296,11 325,11 Q386,8 387,86 L398,364 L248,364 Q237,77 96,-81 Q70,-61 34,-54 Q181,94 186,392 Q186,410 188,458 Q190,531 191,562 L64,562 L64,618 L518,618 L518,562 L254,562 Q254,557 254,546 Q252,466 250,420 L461,420 L448,79 Q445,-51 331,-50 M632,550 Q631,548 629,543 Q614,506 605,487 Q637,309 709,192 Q783,323 798,550 M318,626 Q272,699 212,769 L273,793 Q326,735 371,666"/> 
            <glyph glyph-name="新" unicode="&#x65B0;" horiz-adv-x="949" d=" M770,-95 L770,410 L632,410 L632,342 Q636,61 529,-86 Q503,-70 464,-65 Q574,73 571,328 L571,697 Q763,712 872,753 L914,698 Q786,661 632,646 L632,466 L949,466 L949,410 L832,410 L832,-95 M60,409 L60,463 L326,463 Q392,553 417,618 L476,598 Q441,528 393,463 L534,463 L534,409 L344,409 L344,304 L517,304 L517,249 L344,249 L344,17 Q346,-79 246,-77 Q226,-77 190,-71 Q187,-36 175,-11 Q210,-18 238,-18 Q284,-20 282,30 L282,249 L91,249 L91,304 L282,304 L282,409 M94,632 L94,686 L311,686 Q270,742 236,778 L297,798 Q345,748 377,696 L357,686 L524,686 L524,632 M109,-8 Q84,9 48,13 Q133,106 168,201 L222,180 Q176,71 109,-8 M467,41 Q422,118 378,177 L428,197 Q476,138 511,73 M226,474 Q184,548 150,590 L207,610 Q240,566 279,501"/> 
            <glyph glyph-name="旗" unicode="&#x65D7;" horiz-adv-x="945" d=" M443,475 L443,527 L514,527 L514,595 L574,595 L574,527 L773,527 L773,595 L833,595 L833,527 L907,527 L907,475 L833,475 L833,136 L945,136 L945,83 L414,83 L414,136 L514,136 L514,475 M65,578 L65,634 L409,634 L409,590 Q499,687 540,803 L597,778 Q580,736 559,696 L935,696 L935,642 L526,642 Q488,584 440,536 Q415,556 380,563 Q382,565 386,569 Q393,574 396,578 L221,578 L221,451 L380,451 L375,36 Q374,-66 279,-66 Q258,-66 233,-63 Q230,-23 217,2 Q250,-3 272,-3 Q315,-4 316,48 L322,395 L220,395 Q218,85 99,-88 Q76,-70 41,-61 Q166,115 162,449 L162,578 M574,219 L574,136 L773,136 L773,219 M574,347 L574,266 L773,266 L773,347 M574,475 L574,394 L773,394 L773,475 M459,-97 Q437,-71 407,-56 Q514,0 586,73 L636,37 Q556,-44 459,-97 M904,-97 Q828,-36 721,34 L766,74 Q882,-3 934,-44 M260,645 Q217,717 168,772 L230,794 Q276,740 314,676"/> 
            <glyph glyph-name="有" unicode="&#x6709;" horiz-adv-x="932" d=" M272,-96 L272,384 Q192,302 97,243 Q75,270 38,287 Q253,416 360,610 L87,610 L87,668 L388,668 Q418,731 433,800 L500,775 Q483,721 462,668 L932,668 L932,610 L434,610 Q404,550 364,496 L818,496 L818,18 Q816,-86 710,-88 Q681,-88 639,-84 Q636,-49 622,-20 Q662,-27 696,-27 Q752,-28 751,27 L751,108 L338,108 L338,-96 M338,274 L338,163 L751,163 L751,274 M338,438 L338,328 L751,328 L751,438"/> 
            <glyph glyph-name="朋" unicode="&#x670B;" horiz-adv-x="887" d=" M508,-97 Q480,-78 442,-67 Q505,10 526,105 Q550,198 549,383 L549,746 L886,746 L886,31 Q887,-84 776,-83 Q745,-83 703,-79 Q700,-46 685,-12 Q731,-19 768,-19 Q825,-21 823,42 L823,237 L608,237 Q596,23 508,-97 M98,-87 Q70,-68 35,-59 Q141,64 138,281 L138,744 L444,744 L444,43 Q445,-68 336,-67 Q300,-67 274,-64 Q271,-30 257,-2 Q291,-6 329,-7 Q383,-7 382,48 L382,240 L200,240 Q193,34 98,-87 M612,382 Q612,335 610,293 L823,293 L823,464 L612,464 M612,688 L612,520 L823,520 L823,688 M201,464 L201,296 L382,296 L382,464 M201,687 L201,520 L382,520 L382,687"/> 
            <glyph glyph-name="标" unicode="&#x6807;" horiz-adv-x="950" d=" M69,525 L69,581 L217,581 L217,794 L277,794 L277,581 L393,581 L393,525 L277,525 L277,403 L305,417 Q376,327 402,282 L360,241 Q359,243 356,247 Q308,327 277,368 L277,-96 L217,-96 L217,385 Q170,248 94,154 Q71,175 38,185 Q163,328 209,525 M383,417 L383,474 L933,474 L933,417 L687,417 L687,17 Q688,-88 582,-87 Q553,-87 519,-83 Q517,-49 502,-18 Q546,-26 575,-26 Q626,-30 623,28 L623,417 M446,659 L446,717 L870,717 L870,659 M397,6 Q372,21 331,28 Q438,154 484,302 L542,281 Q490,128 397,6 M900,10 Q817,175 747,276 L803,297 Q880,189 950,47"/> 
            <glyph glyph-name="核" unicode="&#x6838;" horiz-adv-x="952" d=" M67,523 L67,581 L210,581 L210,793 L271,793 L271,581 L385,581 L385,523 L271,523 L271,419 L301,431 Q373,340 405,286 L364,247 Q316,325 271,386 L271,-96 L210,-96 L210,384 Q160,252 84,155 Q60,176 29,185 Q156,335 202,523 M402,592 L402,648 L941,648 L941,592 L683,592 Q616,488 535,401 L721,406 Q766,461 795,521 L846,485 Q696,232 414,98 Q393,122 358,140 Q543,219 673,352 L521,346 Q480,344 453,337 L427,395 Q458,403 495,443 Q556,505 612,592 M916,-93 Q818,8 725,90 Q595,-24 416,-98 Q401,-74 365,-51 Q698,77 873,358 L919,320 Q853,214 770,131 Q888,29 952,-38 M694,651 Q630,721 564,773 L620,802 Q694,744 738,691"/> 
            <glyph glyph-name="池" unicode="&#x6C60;" horiz-adv-x="951" d=" M608,110 L608,480 L462,441 L462,67 Q460,1 525,3 L791,3 Q860,1 876,58 Q887,90 897,135 Q920,107 951,92 Q950,90 949,86 Q940,47 932,27 Q904,-60 801,-58 L519,-58 Q396,-60 398,68 L398,423 L306,398 L285,453 L398,483 L398,734 L462,734 L462,501 L608,541 L608,793 L671,793 L671,558 L890,619 L880,280 Q877,179 785,178 Q756,178 732,181 Q729,214 712,242 Q751,236 775,236 Q819,236 819,287 L827,541 L671,498 L671,110 M147,-77 L89,-34 Q192,134 244,304 L296,265 Q237,76 147,-77 M227,349 Q141,419 53,471 L99,515 Q175,473 259,403 M285,590 Q216,653 120,714 L166,755 Q247,707 320,642"/> 
            <glyph glyph-name="没" unicode="&#x6CA1;" horiz-adv-x="963" d=" M915,-91 Q738,-39 621,44 Q495,-46 317,-97 Q299,-70 263,-47 Q436,-1 568,85 Q463,175 398,309 L355,309 L355,367 L844,367 L844,315 Q784,183 672,86 Q785,12 963,-31 Q931,-57 915,-91 M366,397 Q341,424 308,435 Q446,507 444,614 Q445,642 445,686 Q444,726 443,753 L782,753 L775,560 Q768,484 836,489 Q905,490 946,497 Q933,463 935,433 Q885,428 832,428 Q703,425 712,551 L716,695 L508,695 Q508,629 506,596 Q500,477 366,397 M770,309 L468,309 Q530,199 620,126 Q716,203 770,309 M129,-87 L71,-44 Q165,86 247,285 L298,247 Q222,57 129,-87 M226,352 Q142,415 42,469 L88,517 Q178,468 256,410 M290,590 Q206,662 113,721 L160,765 Q251,710 323,646"/> 
            <glyph glyph-name="现" unicode="&#x73B0;" horiz-adv-x="961" d=" M67,673 L67,729 L398,729 L398,673 L269,673 L269,429 L384,429 L384,374 L269,374 L269,129 L401,171 L427,124 L74,3 L39,58 L207,110 L207,374 L79,374 L79,429 L207,429 L207,673 M770,-70 Q670,-72 672,30 L672,254 Q614,20 360,-99 Q335,-69 302,-56 Q648,93 632,435 L632,599 L691,599 L691,431 Q691,341 673,266 L730,266 L730,36 Q728,-16 778,-14 L837,-14 Q887,-16 898,39 Q905,70 911,112 Q934,85 961,74 Q957,46 946,6 Q927,-71 843,-70 M811,207 L811,691 L512,691 L512,214 L450,214 L450,747 L872,747 L872,207"/> 
            <glyph glyph-name="理" unicode="&#x7406;" horiz-adv-x="951" d=" M423,310 L423,746 L894,746 L894,310 L689,310 L689,192 L907,192 L907,134 L689,134 L689,1 L951,1 L951,-57 L360,-57 L360,1 L626,1 L626,134 L409,134 L409,192 L626,192 L626,310 M60,660 L60,715 L376,715 L376,660 L251,660 L251,426 L362,426 L362,372 L251,372 L251,127 L368,165 L389,115 L73,2 L37,58 L190,107 L190,372 L73,372 L73,426 L190,426 L190,660 M689,367 L833,367 L833,502 L689,502 M484,367 L626,367 L626,502 L484,502 M833,688 L689,688 L689,555 L833,555 M484,688 L484,555 L626,555 L626,688"/> 
            <glyph glyph-name="用" unicode="&#x7528;" horiz-adv-x="849" d=" M469,-58 L469,207 L225,207 Q214,20 133,-98 Q105,-78 66,-70 Q121,6 141,90 Q162,172 162,315 L162,744 L849,744 L849,29 Q849,-85 735,-85 Q706,-85 664,-81 Q660,-47 644,-17 Q694,-23 722,-23 Q785,-25 783,40 L783,207 L533,207 L533,-58 M533,447 L533,265 L783,265 L783,447 M783,686 L533,686 L533,505 L783,505 M228,313 Q228,288 227,265 L469,265 L469,447 L228,447 M228,686 L228,505 L469,505 L469,686"/> 
            <glyph glyph-name="电" unicode="&#x7535;" horiz-adv-x="950" d=" M152,157 L152,648 L451,648 L451,795 L517,795 L517,648 L823,648 L823,157 L517,157 L517,59 Q516,-6 584,-5 L791,-5 Q861,-7 876,60 Q887,100 892,135 Q916,110 950,96 Q942,54 935,33 Q909,-70 803,-67 L575,-67 Q449,-69 451,51 L451,157 M517,216 L758,216 L758,375 L517,375 M758,590 L517,590 L517,430 L758,430 M218,590 L218,430 L451,430 L451,590 M218,216 L451,216 L451,375 L218,375"/> 
            <glyph glyph-name="着" unicode="&#x7740;" horiz-adv-x="941" d=" M132,635 L132,687 L372,687 Q309,746 265,781 L322,808 Q388,756 436,706 L414,687 L575,687 Q647,751 684,809 L747,786 Q708,735 658,687 L875,687 L875,635 L515,635 Q509,602 500,570 L825,570 L825,521 L484,521 Q472,485 456,454 L941,454 L941,403 L427,403 Q404,368 377,335 L811,335 L811,-96 L748,-96 L748,-47 L346,-47 L346,-96 L283,-96 L283,247 Q203,185 100,139 Q81,166 45,186 Q248,266 350,403 L77,403 L77,454 L384,454 Q405,489 417,521 L185,521 L185,570 L434,570 Q444,602 450,635 M346,67 L346,3 L748,3 L748,67 M346,177 L346,114 L748,114 L748,177 M346,285 L346,223 L748,223 L748,285"/> 
            <glyph glyph-name="私" unicode="&#x79C1;" horiz-adv-x="954" d=" M284,-94 L284,352 Q211,192 96,84 Q74,106 36,117 Q199,265 274,458 L76,458 L76,514 L284,514 L284,667 Q205,655 144,650 Q131,680 108,703 Q332,720 463,767 L503,717 Q438,695 346,678 L346,514 L514,514 L514,458 L346,458 L346,375 L375,389 Q457,304 503,238 L463,198 Q411,268 346,342 L346,-94 M892,-58 Q887,-43 876,-9 Q867,18 862,33 L544,-8 Q506,-13 466,-29 L434,27 Q475,47 494,94 Q622,414 696,752 L765,733 Q685,402 547,54 L841,89 Q762,304 721,384 L782,398 Q879,192 954,-25"/> 
            <glyph glyph-name="种" unicode="&#x79CD;" horiz-adv-x="908" d=" M654,-96 L654,185 L525,185 L525,109 L465,109 L465,600 L654,600 L654,793 L718,793 L718,600 L908,600 L908,109 L847,109 L847,185 L718,185 L718,-96 M74,468 L74,524 L241,524 L241,675 Q174,664 121,661 Q108,691 84,711 Q279,731 399,771 L439,721 Q381,703 304,687 L304,524 L429,524 L429,468 L304,468 L304,369 L332,382 Q399,309 441,239 L401,196 Q357,265 304,332 L304,-96 L241,-96 L241,353 Q185,211 100,109 Q72,128 36,131 Q172,287 228,468 M847,542 L718,542 L718,243 L847,243 M525,542 L525,243 L654,243 L654,542"/> 
            <glyph glyph-name="秒" unicode="&#x79D2;" horiz-adv-x="958" d=" M104,654 Q93,682 71,704 Q250,721 382,763 L424,714 Q374,698 287,680 L287,522 L420,522 L420,467 L287,467 L287,353 L315,368 Q368,313 420,241 L380,195 Q341,253 287,320 L287,-96 L226,-96 L226,346 Q174,213 99,113 Q73,132 35,139 Q161,289 215,467 L66,467 L66,522 L226,522 L226,668 Q156,659 104,654 M418,-98 Q397,-67 366,-45 Q714,53 824,351 L875,311 Q757,18 418,-98 M637,198 L637,792 L700,792 L700,198 M461,282 Q436,296 398,301 Q481,445 511,615 L569,593 Q531,418 461,282 M909,331 Q839,465 746,612 L799,632 Q886,510 958,367"/> 
            <glyph glyph-name="红" unicode="&#x7EA2;" horiz-adv-x="955" d=" M452,645 L452,706 L914,706 L914,645 L716,645 L716,19 L955,19 L955,-42 L402,-42 L402,19 L648,19 L648,645 M117,186 L83,244 Q121,258 159,300 Q218,366 271,437 L144,426 Q106,422 84,415 L60,469 Q90,483 110,511 Q221,661 282,796 L342,769 Q252,601 162,484 L314,495 Q365,566 390,610 L445,582 Q335,416 205,266 L401,295 L416,240 L178,203 Q151,200 117,186 M91,-45 L54,13 L408,125 L434,75"/> 
            <glyph glyph-name="纹" unicode="&#x7EB9;" horiz-adv-x="966" d=" M907,-87 Q756,-16 652,97 Q548,-23 380,-96 Q354,-65 323,-49 Q508,25 611,148 Q514,274 456,472 L511,503 Q564,317 650,202 Q739,336 760,545 L387,545 L387,603 L929,603 L929,545 L823,545 Q801,306 692,150 Q798,33 966,-30 Q930,-54 907,-87 M104,170 L72,227 Q108,239 131,265 Q177,316 250,419 L136,412 Q105,409 77,400 L46,451 Q81,466 98,495 Q192,636 262,783 L322,755 Q251,609 151,468 L289,475 Q324,527 346,566 L398,536 Q287,356 192,246 L369,267 L387,213 L168,184 Q127,178 104,170 M87,-58 L46,-1 L374,112 L403,64 M680,622 Q626,683 528,765 L584,801 Q664,735 721,673"/> 
            <glyph glyph-name="络" unicode="&#x7EDC;" horiz-adv-x="966" d=" M456,-96 L456,266 L858,266 L858,-96 L794,-96 L794,-38 L520,-38 L520,-96 M399,260 Q384,288 351,310 Q509,361 613,438 Q554,489 503,551 Q469,506 429,466 Q411,482 373,495 Q504,619 572,800 L626,773 Q611,731 591,693 L864,693 L864,643 Q798,521 710,439 Q824,362 966,325 Q939,300 922,267 Q767,322 663,399 Q560,319 399,260 M99,185 L69,240 Q99,252 126,284 Q179,347 242,439 L138,431 Q110,429 77,420 L48,470 Q80,482 104,519 Q188,643 254,798 L311,771 Q238,613 149,486 L279,495 Q323,564 342,604 L396,578 Q299,407 177,259 L351,280 L365,228 L164,202 Q129,197 99,185 M520,210 L520,18 L794,18 L794,210 M561,638 Q549,617 536,598 Q593,529 661,475 Q740,546 793,638 M84,-40 L51,20 L372,106 L395,55"/> 
            <glyph glyph-name="继" unicode="&#x7EE7;" horiz-adv-x="940" d=" M498,400 L498,454 L672,454 L672,787 L731,787 L731,454 L900,454 L900,400 L731,400 L731,27 L672,27 L672,330 Q618,199 525,100 Q503,121 472,131 Q596,263 650,400 M403,-59 L403,724 L466,724 L466,-1 L940,-1 L940,-59 M103,181 L74,234 Q105,247 124,273 Q171,336 235,435 L141,429 Q119,428 79,419 L52,467 Q81,477 99,509 Q195,667 246,793 L306,769 Q240,627 153,485 L272,492 Q316,565 334,599 L386,571 Q288,400 182,256 L345,276 L359,225 L168,197 Q131,193 103,181 M87,-53 L51,5 L349,112 L377,64 M880,109 Q818,212 732,324 L782,342 Q869,234 923,150 M810,510 Q789,523 758,527 Q813,603 859,709 L910,683 Q858,577 810,510 M595,509 Q565,574 494,684 L548,701 Q604,614 640,539"/> 
            <glyph glyph-name="续" unicode="&#x7EED;" horiz-adv-x="943" d=" M438,634 L438,688 L629,688 L629,796 L692,796 L692,688 L889,688 L889,634 L692,634 L692,537 L924,537 L924,487 L874,335 Q847,343 815,343 L862,482 L401,482 L401,537 L629,537 L629,634 M104,182 L74,235 Q106,248 125,274 Q176,342 237,436 L142,430 Q110,428 80,420 L53,469 Q81,479 100,510 Q199,674 247,795 L307,770 Q244,633 154,487 L274,493 Q321,568 342,608 L394,580 Q286,393 183,257 L352,279 L368,227 L169,199 Q130,193 104,182 M379,136 L379,190 L645,190 Q655,225 660,281 Q665,351 665,452 L726,449 Q726,342 721,275 Q716,218 709,190 L943,190 L943,136 L693,136 Q640,-21 428,-97 Q412,-70 378,-48 Q578,20 626,136 M83,-45 L48,14 L359,106 L385,56 M905,-98 Q781,4 686,60 L726,101 Q836,38 932,-39 M554,212 Q475,268 402,302 L433,340 Q507,306 575,258 M603,314 Q531,368 461,403 L492,440 Q561,408 624,360"/> 
            <glyph glyph-name="网" unicode="&#x7F51;" horiz-adv-x="880" d=" M118,-92 L118,741 L880,741 L880,33 Q879,-86 770,-87 Q728,-87 690,-81 Q687,-43 672,-16 Q723,-22 758,-22 Q817,-23 816,42 L816,682 L182,682 L182,-92 M532,61 Q506,79 475,83 Q546,175 617,327 Q554,445 489,544 L543,560 Q585,500 645,392 Q696,518 716,603 L771,581 Q739,462 679,329 Q738,226 785,121 L736,81 Q706,151 649,265 Q594,149 532,61 M253,71 Q230,86 194,90 Q264,186 333,341 Q271,446 199,547 L254,568 Q318,476 361,406 Q402,512 423,603 L478,584 Q444,458 397,345 Q450,257 500,166 L454,124 Q414,201 369,281 Q310,157 253,71"/> 
            <glyph glyph-name="能" unicode="&#x80FD;" horiz-adv-x="945" d=" M132,-96 L132,431 L477,431 L477,10 Q480,-93 382,-90 Q363,-90 329,-88 Q327,-56 311,-28 Q342,-32 372,-32 Q418,-33 417,17 L417,89 L192,89 L192,-96 M680,-69 Q575,-71 577,33 L577,351 L639,351 L639,182 Q783,239 866,297 L909,251 Q800,182 639,125 L639,37 Q640,-11 687,-12 L813,-12 Q863,-14 877,42 Q885,68 892,103 Q916,71 945,61 Q942,47 936,24 Q933,15 932,11 Q909,-71 819,-69 M684,390 Q574,386 578,492 L578,793 L640,793 L640,620 Q780,676 868,742 L910,696 Q789,617 640,562 L640,496 Q641,448 688,447 L806,447 Q852,444 867,500 Q868,506 872,519 Q879,544 882,558 Q904,529 935,516 Q930,495 921,469 Q899,386 814,390 M497,474 Q487,490 476,509 L162,495 Q121,493 83,485 L59,544 Q99,555 133,594 Q213,681 287,803 L344,772 Q263,646 167,549 L438,559 Q407,599 347,668 L397,695 Q491,593 545,511 M192,234 L192,138 L417,138 L417,234 M192,378 L192,283 L417,283 L417,378"/> 
            <glyph glyph-name="舰" unicode="&#x8230;" horiz-adv-x="961" d=" M49,320 L49,375 L130,375 L130,696 L213,696 Q240,749 258,802 L317,781 Q301,740 280,696 L407,696 L407,25 Q410,-74 307,-72 Q278,-72 257,-69 Q253,-35 239,-8 Q281,-15 303,-15 Q351,-16 350,37 L350,320 L188,320 L188,285 Q190,48 105,-86 Q76,-64 41,-61 Q133,68 130,298 L130,320 M785,-70 Q686,-71 687,30 L687,218 Q641,25 436,-97 Q422,-71 385,-55 Q667,96 651,423 L651,599 L709,599 L709,414 Q709,333 697,266 L746,266 L746,36 Q744,-16 794,-14 L839,-14 Q888,-16 899,39 Q906,70 912,112 Q936,84 961,74 Q955,35 947,6 Q927,-72 844,-70 M809,207 L809,692 L550,692 L550,214 L490,214 L490,747 L868,747 L868,207 M188,641 L188,375 L350,375 L350,641 M282,102 Q253,173 203,248 L250,263 Q282,218 325,130 M280,423 Q246,495 204,560 L250,575 Q283,528 320,452"/> 
            <glyph glyph-name="芯" unicode="&#x82AF;" horiz-adv-x="943" d=" M59,615 L59,674 L304,674 L304,796 L369,796 L369,674 L626,674 L626,796 L691,796 L691,674 L938,674 L938,615 L691,615 L691,495 L626,495 L626,615 L369,615 L369,495 L304,495 L304,615 M438,-67 Q321,-65 319,56 L319,390 L383,390 L383,66 Q384,-4 448,-5 L612,-5 Q681,-8 700,57 Q714,97 721,145 Q749,113 779,102 Q778,96 775,84 Q767,45 761,31 Q727,-69 618,-67 M114,63 L60,107 Q137,229 181,373 L234,335 Q188,182 114,63 M894,111 Q804,263 722,361 L783,386 Q872,280 943,156 M569,222 Q490,371 423,465 L485,483 Q558,384 620,263"/> 
            <glyph glyph-name="解" unicode="&#x89E3;" horiz-adv-x="941" d=" M274,-18 L274,144 L178,144 Q171,4 116,-95 Q87,-81 53,-76 Q93,-9 107.5,56.5 Q122,122 122,233 L122,526 Q108,514 96,502 Q77,522 43,532 Q173,655 233,802 L288,775 Q272,736 255,707 L460,707 L460,660 L371,534 L479,534 L479,21 Q480,-80 391,-79 Q376,-79 345,-76 Q344,-76 343,-76 Q340,-43 328,-18 Q356,-21 380,-21 Q423,-24 421,28 L421,144 L327,144 L327,-18 M554,178 Q527,193 495,197 Q558,277 585,396 L638,375 Q633,357 621,320 Q618,312 617,309 L716,309 L716,408 L775,408 L775,309 L921,309 L921,254 L775,254 L775,130 L941,130 L941,76 L775,76 L775,-95 L716,-95 L716,76 L511,76 L511,130 L716,130 L716,254 L595,254 Q575,212 554,178 M558,417 Q530,438 500,448 Q628,523 639,674 L521,674 L521,729 L911,729 L902,548 Q898,439 801,440 Q771,440 731,445 Q729,480 717,503 Q760,496 787,496 Q841,496 844,553 L850,674 L698,674 Q685,502 558,417 M222,653 Q180,589 130,534 L298,534 L385,653 M421,481 L327,481 L327,363 L421,363 M327,313 L327,194 L421,194 L421,313 M181,232 Q181,212 180,194 L274,194 L274,313 L181,313 M181,481 L181,363 L274,363 L274,481"/> 
            <glyph glyph-name="计" unicode="&#x8BA1;" horiz-adv-x="950" d=" M383,404 L383,465 L631,465 L631,793 L698,793 L698,465 L950,465 L950,404 L698,404 L698,-96 L631,-96 L631,404 M208,-72 L168,-18 Q194,8 192,69 L192,399 L50,399 L50,459 L257,459 L257,61 L382,176 L422,135 L247,-29 Q235,-39 211,-68 Q209,-71 208,-72 M316,563 Q238,641 136,720 L189,760 Q290,679 352,617"/> 
            <glyph glyph-name="设" unicode="&#x8BBE;" horiz-adv-x="956" d=" M908,-91 Q740,-41 623,45 Q506,-44 337,-97 Q319,-67 284,-47 Q456,3 573,86 Q464,184 404,318 L363,318 L363,376 L840,376 L840,324 Q782,187 673,87 Q787,10 956,-32 Q924,-56 908,-91 M370,403 Q352,426 313,441 Q449,517 447,620 Q452,682 447,753 L775,753 L770,570 Q766,494 832,498 Q877,498 942,507 Q930,478 930,444 Q875,439 826,439 Q701,435 708,561 L712,695 L512,695 Q512,642 509,606 Q503,484 370,403 M183,-62 L147,-9 Q181,23 179,72 L179,416 L49,416 L49,474 L242,474 L242,68 L356,157 L395,114 L228,-18 Q207,-33 183,-62 M770,318 L472,318 Q532,202 623,126 Q718,208 770,318 M261,575 Q179,664 103,724 L156,762 Q228,705 304,626"/> 
            <glyph glyph-name="识" unicode="&#x8BC6;" horiz-adv-x="949" d=" M435,280 L435,732 L873,732 L873,280 M501,340 L808,340 L808,673 L501,673 M295,578 Q209,664 128,728 L182,767 Q266,701 333,633 M210,-59 L167,-7 Q195,25 194,78 L194,434 L52,434 L52,493 L258,493 L258,80 L362,187 L407,148 L259,-2 Q236,-23 210,-59 M395,-93 Q373,-70 332,-61 Q464,60 539,206 L599,178 Q522,30 395,-93 M899,-94 Q822,36 711,179 L769,208 Q864,95 949,-47"/> 
            <glyph glyph-name="说" unicode="&#x8BF4;" horiz-adv-x="962" d=" M396,273 L396,600 L638,600 Q730,702 782,793 L844,766 Q786,679 716,600 L860,600 L860,273 L739,273 L739,33 Q735,-15 787,-12 L840,-12 Q889,-13 899,40 Q906,75 911,111 Q934,83 962,74 Q958,47 950,18 Q930,-73 846,-68 L777,-68 Q675,-71 677,28 L677,273 L574,273 Q579,5 360,-96 Q336,-74 298,-57 Q522,31 515,273 M458,328 L798,328 L798,544 L458,544 M181,-63 L143,-8 Q178,22 176,74 L176,430 L49,430 L49,489 L236,489 L236,71 L349,165 L380,119 L224,-19 Q200,-40 181,-63 M266,580 Q196,662 102,735 L158,771 Q258,690 307,630 M539,615 Q471,701 407,763 L466,789 Q536,722 584,660"/> 
            <glyph glyph-name="超" unicode="&#x8D85;" horiz-adv-x="969" d=" M112,600 L112,655 L263,655 L263,795 L326,795 L326,655 L457,655 L457,600 L326,600 L326,467 L472,467 L472,412 L343,412 L343,269 L462,269 L462,214 L343,214 L343,56 Q434,5 587,-3 Q792,-13 969,4 Q949,-31 944,-67 Q866,-68 776.5,-67.5 Q687,-67 610,-65 Q301,-60 176,129 Q146,9 88,-75 Q62,-56 31,-49 Q135,98 146,330 L204,320 Q201,256 190,198 Q235,136 280,98 L280,412 L77,412 L77,467 L263,467 L263,600 M511,88 L511,371 L883,371 L883,88 M771,434 Q742,434 716,437 Q715,469 698,498 Q735,491 766,491 Q823,489 825,552 L834,679 L678,679 Q671,495 535,403 Q516,426 481,439 Q615,519 618,679 L487,679 L487,735 L898,735 L886,546 Q879,433 771,434 M573,144 L821,144 L821,315 L573,315"/> 
            <glyph glyph-name="身" unicode="&#x8EAB;" horiz-adv-x="942" d=" M91,212 L91,268 L220,268 L220,700 L373,700 Q415,756 436,803 L501,782 Q474,732 450,700 L773,700 L773,311 Q837,368 888,436 L942,405 Q867,308 773,232 L773,18 Q772,-87 653,-88 Q612,-88 579,-85 Q574,-46 561,-21 Q612,-28 645,-28 Q708,-27 709,28 L709,183 Q475,22 106,-63 Q86,-29 53,-6 Q414,64 643,212 M283,360 L283,268 L709,268 L709,360 M283,644 L283,554 L709,554 L709,644 M283,502 L283,412 L709,412 L709,502"/> 
            <glyph glyph-name="通" unicode="&#x901A;" horiz-adv-x="952" d=" M362,54 L362,544 L611,544 Q529,595 456,630 L496,668 Q529,651 598,612 Q611,605 618,601 Q688,641 764,696 L354,696 L354,749 L859,749 L859,703 Q796,648 669,570 Q678,564 687,558 L677,544 L869,544 L869,147 Q868,54 775,53 Q748,53 725,56 Q724,85 710,112 Q743,106 766,106 Q810,106 810,153 L810,208 L644,208 L644,78 L585,78 L585,208 L422,208 L422,54 M112,-78 L61,-32 Q125,42 185,97 L185,415 L56,415 L56,472 L247,472 L247,99 Q344,15 482,4 Q569,-4 702.5,-3.5 Q836,-3 952,6 Q932,-27 928,-64 Q831,-67 719,-67 Q613,-67 541,-63 Q336,-57 219,46 Q149,-22 112,-78 M644,352 L644,257 L810,257 L810,352 M422,352 L422,257 L585,257 L585,352 M810,493 L644,493 L644,401 L810,401 M422,493 L422,401 L585,401 L585,493 M243,560 Q170,646 91,718 L145,752 Q225,684 287,607"/> 
            <glyph glyph-name="道" unicode="&#x9053;" horiz-adv-x="947" d=" M302,595 L302,650 L503,650 Q447,713 383,766 L436,796 Q498,743 553,680 L522,650 L649,650 Q715,724 760,797 L819,772 Q772,702 723,650 L917,650 L917,595 L633,595 Q617,554 592,514 L835,514 L835,74 L381,74 L381,514 L525,514 Q552,554 569,595 M99,-84 L50,-38 Q124,51 182,99 L182,409 L51,409 L51,467 L244,467 L244,100 Q346,-2 577,-3 Q672,-6 777,-4 Q880,-1 947,6 Q928,-27 925,-64 Q864,-66 769,-66.5 Q674,-67 599,-66 Q320,-63 214,48 Q158,-3 99,-84 M442,125 L774,125 L774,206 L442,206 M442,335 L442,254 L774,254 L774,335 M442,464 L442,383 L774,383 L774,464 M223,562 Q153,648 76,717 L129,752 Q210,679 267,607"/> 
            <glyph glyph-name="遥" unicode="&#x9065;" horiz-adv-x="954" d=" M378,347 Q357,367 325,375 Q418,461 465,564 L515,538 Q501,511 486,485 L853,485 L853,434 L645,434 L645,329 L923,329 L923,277 L645,277 L645,119 L801,119 L801,224 L860,224 L860,67 L371,67 L371,225 L429,225 L429,119 L584,119 L584,277 L297,277 L297,329 L584,329 L584,434 L453,434 Q413,381 378,347 M104,-87 L54,-43 Q127,48 182,97 L182,408 L54,408 L54,465 L244,465 L244,94 Q353,-10 581,-8 Q685,-11 790,-8 Q892,-6 954,1 Q936,-33 932,-67 Q876,-69 783,-69 Q687,-70 603,-68 Q329,-71 214,44 Q152,-13 104,-87 M336,684 Q329,715 302,740 Q623,738 854,776 L890,726 Q630,687 336,684 M231,563 Q157,652 83,718 L135,753 Q219,677 274,608 M776,511 Q754,527 723,537 Q789,610 833,687 L884,658 Q835,577 776,511 M613,542 Q578,603 534,654 L589,673 Q627,628 661,572 M408,524 Q367,586 324,630 L378,653 Q420,607 453,558"/> 
            <glyph glyph-name="量" unicode="&#x91CF;" horiz-adv-x="935" d=" M191,137 L191,374 L807,374 L807,137 L530,137 L530,82 L848,82 L848,38 L530,38 L530,-18 L918,-18 L918,-67 L82,-67 L82,-18 L467,-18 L467,38 L151,38 L151,82 L467,82 L467,137 M191,519 L191,750 L807,750 L807,519 M65,422 L65,473 L935,473 L935,422 M255,706 L255,656 L744,656 L744,706 M255,564 L744,564 L744,613 L255,613 M530,181 L744,181 L744,235 L530,235 M255,181 L467,181 L467,235 L255,235 M744,330 L530,330 L530,277 L744,277 M255,330 L255,277 L467,277 L467,330"/> 
            <glyph glyph-name="锁" unicode="&#x9501;" horiz-adv-x="947" d=" M117,426 L117,465 Q101,441 84,421 Q60,442 27,449 Q148,595 202,799 L259,775 Q241,715 220,661 L377,661 L377,607 L197,607 Q167,540 127,480 L367,480 L367,426 L257,426 L257,301 L381,301 L381,247 L257,247 L257,41 L358,124 L394,84 L249,-39 Q247,-41 242,-45 Q219,-66 208,-79 L170,-32 Q200,-5 198,52 L198,247 L64,247 L64,301 L198,301 L198,426 M428,117 L428,523 L623,523 L623,796 L685,796 L685,523 L879,523 L879,117 L819,117 L819,468 L489,468 L489,117 M380,-96 Q368,-70 335,-46 Q613,21 621,250 Q624,301 624,397 L684,392 Q684,288 680,241 Q663,-24 380,-96 M923,-94 Q807,-11 659,70 L695,117 Q837,43 947,-33 M789,559 Q766,578 733,585 Q810,661 862,749 L915,719 Q862,634 789,559 M525,561 Q468,648 394,717 L449,745 Q517,679 571,600"/> 
            <glyph glyph-name="随" unicode="&#x968F;" horiz-adv-x="955" d=" M523,365 Q507,385 476,398 L476,91 Q553,-7 686,-8 Q848,-13 955,3 Q936,-28 931,-65 Q833,-69 700,-67 Q533,-67 446,42 Q391,-10 337,-79 L296,-33 Q356,38 417,93 L417,439 L329,439 L329,493 L476,493 L476,400 Q590,509 639,628 L531,628 L531,682 L660,682 Q672,716 689,792 L746,776 Q734,727 720,682 L929,682 L929,628 L700,628 Q676,570 655,534 L881,534 L881,131 Q880,44 791,43 Q762,43 729,49 Q729,79 714,105 Q754,97 780,97 Q827,95 825,142 L825,205 L640,205 L640,36 L584,36 L584,431 Q555,397 523,365 M106,-96 L106,744 L352,744 L352,695 L256,442 Q342,345 343,222 Q341,98 238,95 Q216,95 190,100 Q188,132 173,161 Q208,152 230,152 Q285,153 286,224 Q284,332 192,434 L289,689 L166,689 L166,-96 M640,345 L640,255 L825,255 L825,345 M640,483 L640,395 L825,395 L825,483 M460,561 Q418,647 367,726 L425,744 Q474,667 511,590"/> 
            <glyph glyph-name="面" unicode="&#x9762;" horiz-adv-x="938" d=" M63,678 L63,736 L938,736 L938,678 L507,678 Q477,601 446,548 L860,548 L860,-95 L796,-95 L796,-22 L203,-22 L203,-95 L139,-95 L139,548 L376,548 Q419,623 439,678 M796,491 L649,491 L649,34 L796,34 M203,491 L203,34 L349,34 L349,491 M409,154 L409,34 L589,34 L589,154 M409,323 L409,204 L589,204 L589,323 M409,491 L409,373 L589,373 L589,491"/> 
            <glyph glyph-name="验" unicode="&#x9A8C;" horiz-adv-x="979" d=" M257,-86 Q228,-86 195,-83 Q192,-49 177,-21 Q219,-28 252,-28 Q310,-31 312,39 L326,297 L107,297 L135,631 L194,626 L170,351 L274,351 L300,681 L82,681 L82,736 L365,736 L339,451 Q545,582 636,801 L693,771 Q692,768 689,763 Q686,754 677,737 Q799,550 979,476 Q946,457 922,423 Q746,522 648,682 Q547,515 395,411 Q374,435 339,449 L331,351 L386,351 L371,31 Q367,-88 257,-86 M408,-57 L408,0 L689,0 Q756,144 811,340 L869,313 Q812,129 752,0 L917,0 L917,-57 M480,406 L480,462 L824,462 L824,406 M64,84 L34,141 L282,199 L305,150 M528,61 Q485,198 439,297 L495,310 Q545,201 582,87 M656,123 Q627,239 591,328 L648,336 Q681,258 710,145"/> 
            <glyph glyph-name="高" unicode="&#x9AD8;" horiz-adv-x="934" d=" M118,-96 L118,327 L879,327 L879,20 Q878,-91 772,-92 Q741,-92 703,-87 Q699,-50 685,-23 Q732,-30 759,-30 Q813,-31 812,28 L812,271 L184,271 L184,-96 M237,394 L237,581 L759,581 L759,394 M304,12 L304,203 L691,203 L691,12 M64,648 L64,705 L482,705 Q434,751 402,777 L469,802 Q526,756 572,705 L934,705 L934,648 M303,444 L694,444 L694,531 L303,531 M368,61 L628,61 L628,153 L368,153"/> 
            <glyph glyph-name="，" unicode="&#xFF0C;" horiz-adv-x="294" d=" M294,72 L294,31 Q293,-50 246,-128 L208,-128 Q249,-57 249,0 Q248,18 228,19 L207,19 L207,110 L251,110 Q292,108 294,72"/> 
        </font>
</defs>
</svg>
