<?xml version="1.0" standalone="no"?>
<!DOCTYPE svg PUBLIC "-//W3C//DTD SVG 1.1//EN" "http://www.w3.org/Graphics/SVG/1.1/DTD/svg11.dtd" >
<svg xmlns="http://www.w3.org/2000/svg">
    <defs>
        <font id="">
            <font-face font-family=""
                       units-per-em="1000"
                       ascent="888"
                       descent="-237"
                       bbox="-56 -237 1003 888"
                    />
            <missing-glyph horiz-adv-x="0" />
            
            <glyph glyph-name="." unicode="&#x2E;" horiz-adv-x="134" d=" M134,0 L66,0 L66,81 L134,81"/> 
            <glyph glyph-name="/" unicode="&#x2F;" horiz-adv-x="340" d=" M55,-10 L6,-10 L290,726 L340,726"/> 
            <glyph glyph-name="1" unicode="&#x31;" horiz-adv-x="301" d=" M233,0 L233,635 L90,569 L90,634 L267,714 L301,714 L301,0"/> 
            <glyph glyph-name="5" unicode="&#x35;" horiz-adv-x="463" d=" M441,714 L441,652 L172,652 L162,450 Q193,459 237,459 Q454,450 463,226 Q455,-3 210,-10 Q134,-10 64,22 L79,81 Q149,51 214,52 Q387,60 395,226 Q394,397 211,398 Q157,398 94,383 L114,714"/> 
            <glyph glyph-name="7" unicode="&#x37;" horiz-adv-x="467" d=" M58,714 L467,714 L467,674 L203,0 L125,0 L397,652 L58,652"/> 
            <glyph glyph-name="8" unicode="&#x38;" horiz-adv-x="493" d=" M200,383 Q73,445 71,557 Q82,715 267,725 Q453,716 464,557 Q464,446 325,377 Q493,310 488,182 Q475,3 267,-10 Q59,1 48,182 Q51,313 200,383 M267,50 Q413,59 422,184 Q432,292 255,352 Q114,304 114,183 Q123,58 267,50 M267,669 Q146,660 135,557 Q137,459 277,404 Q399,467 400,557 Q392,662 267,669"/> 
            <glyph glyph-name="°" unicode="&#xB0;" horiz-adv-x="324" d=" M218,546 Q290,550 294,621 Q290,694 218,698 Q147,694 143,621 Q147,550 218,546 M218,516 Q120,524 113,621 Q121,720 218,727 Q316,719 324,621 Q317,524 218,516"/> 
            <glyph glyph-name="下" unicode="&#x4E0B;" horiz-adv-x="929" d=" M69,660 L69,723 L929,723 L929,660 L515,660 L515,-96 L445,-96 L445,660 M820,195 Q703,311 547,429 L602,468 Q741,365 861,252"/> 
            <glyph glyph-name="不" unicode="&#x4E0D;" horiz-adv-x="941" d=" M89,659 L89,721 L919,721 L919,659 L584,659 Q552,569 495,480 L535,480 L535,-96 L466,-96 L466,437 Q328,249 108,124 Q85,155 46,169 Q389,357 510,659 M899,116 Q777,245 589,401 L643,438 Q824,293 941,174"/> 
            <glyph glyph-name="丽" unicode="&#x4E3D;" horiz-adv-x="934" d=" M66,683 L66,742 L934,742 L934,683 M132,-93 L132,573 L449,573 L449,16 Q451,-89 357,-87 Q328,-87 300,-84 Q296,-48 280,-23 Q319,-29 345,-29 Q388,-34 385,23 L385,515 L195,515 L195,-93 M315,169 Q272,278 213,387 L266,403 Q323,300 364,198 M543,-93 L543,573 L868,573 L868,11 Q870,-89 778,-87 Q752,-87 720,-82 Q718,-52 701,-22 Q743,-28 766,-28 Q807,-31 805,21 L805,515 L606,515 L606,-93 M732,164 Q680,286 625,384 L678,401 Q734,306 780,194"/> 
            <glyph glyph-name="书" unicode="&#x4E66;" horiz-adv-x="909" d=" M415,-96 L415,267 L87,267 L87,326 L415,326 L415,547 L148,547 L148,606 L415,606 L415,796 L481,796 L481,606 L759,606 L741,326 L898,326 L884,95 Q878,-30 749,-30 Q711,-30 670,-24 Q668,12 654,42 Q703,33 741,33 Q817,32 819,105 L829,267 L481,267 L481,-96 M690,547 L481,547 L481,326 L676,326 M874,544 Q758,655 650,732 L702,770 Q821,684 909,599"/> 
            <glyph glyph-name="亮" unicode="&#x4EAE;" horiz-adv-x="935" d=" M239,399 L239,585 L759,585 L759,399 M133,-97 Q116,-66 84,-44 Q327,-14 321,137 L323,217 L669,217 L669,49 Q665,-17 728,-12 L805,-12 Q858,-13 869,41 Q877,73 880,105 Q901,81 935,68 Q930,34 925,20 Q905,-74 809,-68 L718,-68 Q602,-71 605,37 L605,163 L384,163 L382,123 Q387,-50 133,-97 M105,178 L105,337 L895,337 L895,179 L830,179 L830,284 L170,284 L170,178 M101,646 L101,700 L494,700 Q448,747 404,784 L469,807 Q535,754 570,710 L551,700 L898,700 L898,646 M304,448 L694,448 L694,535 L304,535"/> 
            <glyph glyph-name="低" unicode="&#x4F4E;" horiz-adv-x="959" d=" M861,-79 Q809,-80 769,-13 Q683,123 654,370 L455,370 L455,49 L603,151 L641,108 L456,-21 Q434,-36 402,-68 L368,-21 Q393,7 392,61 L392,707 Q664,712 851,757 L890,703 Q808,685 699,670 Q700,537 711,427 L924,427 L924,370 L718,370 Q744,156 815,32 Q840,-15 861,-13 Q879,-14 893,34 Q902,66 910,111 Q930,83 959,71 Q952,31 941,-2 Q916,-79 861,-79 M193,-96 L193,466 Q138,387 92,347 Q65,372 34,379 Q205,552 287,798 L347,766 Q317,677 257,569 L257,-96 M455,653 L455,427 L648,427 Q638,534 636,664 Q534,655 455,653 M682,-105 Q623,-37 561,13 L608,43 Q668,-6 717,-61"/> 
            <glyph glyph-name="你" unicode="&#x4F60;" horiz-adv-x="944" d=" M195,-96 L195,469 Q136,381 93,344 Q74,368 33,383 Q198,542 285,798 L345,766 Q319,684 261,576 L261,-96 M854,416 Q830,425 790,423 L852,568 L500,568 Q457,487 396,416 Q367,438 331,443 Q467,595 517,797 L578,768 Q558,693 528,626 L922,626 L922,577 M557,-91 Q524,-91 480,-87 Q484,-52 463,-19 Q511,-28 544,-28 Q605,-31 602,33 L602,470 L668,470 L668,25 Q668,-91 557,-91 M889,29 Q827,166 749,297 L813,313 Q894,176 944,66 M374,38 Q341,56 306,57 Q405,178 444,322 L504,301 Q463,161 374,38"/> 
            <glyph glyph-name="促" unicode="&#x4FC3;" horiz-adv-x="962" d=" M414,421 L414,740 L863,740 L863,421 L678,421 L678,262 L901,262 L901,203 L678,203 L678,16 Q711,9 746,6 Q785,2 850,0 Q917,-1 962,1 Q941,-28 938,-67 Q853,-66 773,-61 Q527,-45 454,113 Q420,10 323,-85 Q298,-64 263,-54 Q433,88 425,353 L487,345 Q484,255 474,191 Q522,77 615,36 L615,421 M193,-96 L193,467 Q143,389 92,337 Q67,361 35,372 Q199,553 275,799 L336,766 Q305,673 258,579 L258,-96 M477,479 L799,479 L799,681 L477,681"/> 
            <glyph glyph-name="光" unicode="&#x5149;" horiz-adv-x="934" d=" M69,369 L69,427 L473,427 L473,796 L539,796 L539,427 L929,427 L929,369 L645,369 L645,53 Q645,-5 704,-5 L791,-5 Q848,-6 863,54 Q874,101 879,135 Q907,108 934,97 Q932,84 922,45 Q920,34 919,31 Q895,-69 798,-67 L698,-67 Q578,-68 579,42 L579,369 L412,369 L412,367 Q423,22 101,-96 Q87,-72 48,-46 Q359,50 346,368 L346,369 M676,478 Q653,499 619,507 Q724,616 796,740 L854,712 Q776,582 676,478 M334,482 Q257,591 149,707 L207,732 Q295,641 380,527"/> 
            <glyph glyph-name="全" unicode="&#x5168;" horiz-adv-x="972" d=" M225,390 L225,447 Q149,402 86,376 Q69,404 32,426 Q344,558 491,810 L548,778 Q544,771 536,758 Q532,751 530,748 Q710,534 972,449 Q938,420 918,389 Q661,497 498,699 Q392,553 226,448 L773,448 L773,390 L531,390 L531,226 L784,226 L784,169 L531,169 L531,-7 L893,-7 L893,-66 L106,-66 L106,-7 L466,-7 L466,169 L214,169 L214,226 L466,226 L466,390"/> 
            <glyph glyph-name="减" unicode="&#x51CF;" horiz-adv-x="960" d=" M567,-91 Q547,-73 507,-59 Q626,21 708,132 Q672,286 660,570 L358,570 L358,374 Q364,62 237,-94 Q209,-75 176,-69 Q303,82 298,379 L298,624 L658,624 Q655,702 655,792 L719,797 Q718,707 720,624 L923,624 L923,570 L721,570 Q728,360 756,207 Q820,319 851,457 L902,424 Q858,256 772,126 Q810,-10 861,-16 Q880,-16 894,29 Q900,48 911,94 Q912,99 913,101 Q932,76 960,60 Q951,20 942,-3 Q917,-83 863,-82 Q779,-80 727,63 Q656,-26 567,-91 M407,63 L407,319 L610,319 L610,63 M101,12 L47,54 Q129,195 196,384 L244,348 Q183,159 101,12 M190,468 Q133,586 63,695 L122,720 Q184,628 240,509 M460,111 L558,111 L558,270 L460,270 M393,414 L393,467 L621,467 L621,414 M843,642 Q800,706 755,753 L807,775 Q849,732 888,676"/> 
            <glyph glyph-name="力" unicode="&#x529B;" horiz-adv-x="861" d=" M673,-67 Q622,-67 578,-61 Q576,-18 557,11 Q623,1 669,1 Q770,0 772,101 L791,532 L500,532 Q465,93 145,-92 Q122,-67 79,-51 Q405,131 432,532 L134,532 L134,595 L436,595 Q437,631 438,677 Q438,699 438,726 Q438,750 438,797 L509,793 Q507,659 504,595 L861,595 L839,89 Q831,-67 673,-67"/> 
            <glyph glyph-name="劳" unicode="&#x52B3;" horiz-adv-x="926" d=" M652,-84 Q615,-84 573,-78 Q571,-44 553,-16 Q609,-23 643,-23 Q723,-24 728,53 L740,231 L480,231 Q479,225 477,219 Q419,-10 157,-101 Q131,-69 98,-52 Q358,28 413,231 L180,231 L180,289 L427,289 Q435,344 437,404 L504,396 Q500,340 492,289 L808,289 L794,47 Q787,-86 652,-84 M69,637 L69,695 L310,695 L310,796 L375,796 L375,695 L622,695 L622,796 L686,796 L686,695 L926,695 L926,637 L686,637 L686,536 L622,536 L622,637 L375,637 L375,536 L310,536 L310,637 M101,323 L101,500 L892,500 L892,324 L827,324 L827,443 L166,443 L166,323"/> 
            <glyph glyph-name="可" unicode="&#x53EF;" horiz-adv-x="939" d=" M195,158 L195,524 L561,524 L561,158 M61,663 L61,723 L939,723 L939,663 L778,663 L778,43 Q782,-90 643,-87 Q599,-86 545,-79 Q543,-40 527,-11 Q589,-20 639,-21 Q715,-25 711,54 L711,663 M261,217 L495,217 L495,466 L261,466"/> 
            <glyph glyph-name="合" unicode="&#x5408;" horiz-adv-x="964" d=" M209,-96 L209,282 L795,282 L795,-96 L729,-96 L729,-34 L275,-34 L275,-96 M275,225 L275,24 L729,24 L729,225 M87,375 Q70,402 32,425 Q344,557 493,808 L550,776 Q547,771 540.5,760 Q534,749 530,743 Q712,530 964,449 Q928,421 911,390 Q658,495 498,696 Q339,485 87,375 M269,402 L269,460 L743,460 L743,402"/> 
            <glyph glyph-name="图" unicode="&#x56FE;" horiz-adv-x="882" d=" M116,-96 L116,747 L882,747 L882,-96 L819,-96 L819,-43 L180,-43 L180,-96 M180,690 L180,14 L819,14 L819,690 M765,275 Q612,311 506,375 Q390,304 235,265 Q218,293 188,311 Q333,339 455,408 Q397,451 356,500 Q319,459 279,429 Q261,446 229,461 Q359,559 411,686 L462,654 Q449,628 434,604 L691,604 L691,561 Q642,476 554,409 Q667,349 808,328 Q780,305 765,275 M618,27 Q487,91 331,135 L365,179 Q514,136 632,80 M617,552 L399,552 L390,540 Q437,484 504,439 Q579,491 617,552 M605,168 Q522,216 404,261 L438,301 Q546,261 620,218"/> 
            <glyph glyph-name="夜" unicode="&#x591C;" horiz-adv-x="959" d=" M388,-93 Q369,-70 329,-49 Q469,7 577,104 Q496,182 437,277 Q410,245 375,214 Q348,232 314,242 Q485,392 556,600 L615,567 Q601,530 583,496 L849,496 L849,444 Q801,250 672,107 Q789,20 959,-25 Q923,-49 905,-85 Q748,-37 625,62 Q526,-31 388,-93 M222,-95 L222,323 Q159,251 105,209 Q79,234 46,246 Q236,399 329,607 L383,570 Q343,484 285,404 L285,-95 M90,616 L90,674 L508,674 Q456,732 406,775 L471,801 Q528,754 584,689 L562,674 L916,674 L916,616 M554,440 Q513,370 476,324 Q537,223 622,148 Q662,190 700,247 Q627,302 549,346 L588,384 Q668,340 729,296 Q765,364 783,440"/> 
            <glyph glyph-name="头" unicode="&#x5934;" horiz-adv-x="938" d=" M65,254 L65,316 L535,316 Q551,372 558,439 Q574,592 577,792 L647,784 Q640,592 624,431 Q619,368 605,316 L938,316 L938,254 L586,254 Q497,-6 158,-91 Q135,-55 104,-37 Q423,39 513,254 M872,-87 Q711,48 590,126 L640,172 Q790,70 910,-29 M402,381 Q276,465 172,516 L214,565 Q345,496 430,438 M447,564 Q342,639 238,700 L281,746 Q404,676 476,619"/> 
            <glyph glyph-name="好" unicode="&#x597D;" horiz-adv-x="952" d=" M418,-6 Q412,0 399,12 Q333,76 293,109 Q229,13 120,-75 Q88,-54 53,-46 Q184,60 244,151 Q173,209 106,259 Q137,352 171,534 L61,534 L61,592 L182,592 Q183,596 184,603 Q204,735 211,795 L275,783 Q267,714 245,592 L420,592 L420,540 Q407,315 327,165 Q387,116 455,54 M437,322 L437,381 L672,381 L672,500 Q776,592 832,666 L488,666 L488,724 L920,724 L920,672 Q835,563 736,472 L736,381 L952,381 L952,322 L736,322 L736,32 Q740,-90 617,-86 Q581,-86 544,-80 Q540,-41 525,-14 Q580,-23 611,-23 Q674,-26 672,44 L672,322 M358,534 L235,534 Q204,368 178,281 Q185,276 198,266 Q248,227 277,205 Q343,324 358,534"/> 
            <glyph glyph-name="寸" unicode="&#x5BF8;" horiz-adv-x="927" d=" M72,516 L72,578 L619,578 L619,792 L687,792 L687,578 L927,578 L927,516 L687,516 L687,23 Q687,-94 560,-94 Q497,-93 451,-84 Q446,-44 431,-15 Q495,-26 550,-27 Q620,-28 619,41 L619,516 M394,154 Q303,287 220,375 L280,407 Q369,312 448,197"/> 
            <glyph glyph-name="少" unicode="&#x5C11;" horiz-adv-x="938" d=" M125,-96 Q111,-64 76,-32 Q577,19 752,382 L805,332 Q615,-31 125,-96 M462,190 L462,789 L530,789 L530,190 M887,317 Q807,438 656,617 L720,644 Q867,468 938,359 M137,273 Q107,293 69,298 Q213,454 277,646 L339,621 Q262,408 137,273"/> 
            <glyph glyph-name="尽" unicode="&#x5C3D;" horiz-adv-x="971" d=" M914,128 Q657,235 539,454 L267,454 Q260,234 101,96 Q73,117 35,129 Q209,264 201,498 L201,745 L823,745 L823,454 L609,454 Q730,261 971,184 Q936,164 914,128 M268,685 L268,514 L758,514 L758,685 M656,-109 Q419,8 254,58 L292,113 Q486,49 672,-45 M619,119 Q463,209 354,256 L393,302 Q498,261 637,178"/> 
            <glyph glyph-name="屏" unicode="&#x5C4F;" horiz-adv-x="937" d=" M99,-86 Q68,-65 32,-61 Q165,102 161,388 L161,750 L868,750 L868,539 L227,539 L227,387 Q228,89 99,-86 M279,332 L279,387 L483,387 Q414,456 364,496 L419,528 Q483,480 531,424 L496,387 L613,387 Q691,467 737,528 L796,499 Q748,442 692,387 L892,387 L892,332 L743,332 L743,196 L937,196 L937,141 L743,141 L743,-95 L679,-95 L679,141 L488,141 Q471,-2 311,-98 Q288,-75 249,-62 Q403,19 424,141 L238,141 L238,196 L430,196 Q430,200 430.5,208 Q431,216 431,221 L431,332 M227,694 L227,594 L805,594 L805,694 M494,222 Q494,208 493,196 L679,196 L679,332 L494,332"/> 
            <glyph glyph-name="幕" unicode="&#x5E55;" horiz-adv-x="973" d=" M78,675 L78,727 L319,727 L319,796 L380,796 L380,727 L614,727 L614,796 L675,796 L675,727 L918,727 L918,675 L675,675 L675,614 L795,614 L795,360 L474,360 Q455,327 428,297 L925,297 L925,245 L700,245 Q807,168 973,138 Q947,117 930,80 Q856,100 787,133 L787,37 Q788,-57 701,-56 Q659,-56 627,-51 Q627,-23 615,7 Q658,-1 688,-1 Q727,-2 726,42 L726,108 L529,108 L529,-96 L469,-96 L469,108 L285,108 L285,-54 L225,-54 L225,131 Q155,91 85,67 Q59,101 35,115 Q182,163 291,245 L73,245 L73,297 L352,297 Q382,327 405,360 L199,360 L199,614 L319,614 L319,675 M262,408 L733,408 L733,465 L262,465 M379,245 Q325,194 267,158 L469,158 L469,220 L529,220 L529,158 L740,158 Q674,194 616,245 M262,566 L262,510 L733,510 L733,566 M380,675 L380,614 L614,614 L614,675"/> 
            <glyph glyph-name="广" unicode="&#x5E7F;" horiz-adv-x="910" d=" M110,-95 Q75,-73 40,-65 Q168,85 169,368 L169,650 L561,650 Q502,710 427,766 L486,801 Q553,753 622,686 L581,650 L910,650 L910,587 L238,587 L238,363 Q236,73 110,-95"/> 
            <glyph glyph-name="底" unicode="&#x5E95;" horiz-adv-x="932" d=" M834,-84 Q761,-88 698,32 Q648,125 623,242 L388,242 L388,46 L538,136 L574,91 L387,-22 Q358,-39 332,-67 L300,-20 Q326,7 325,55 L325,518 Q650,524 829,564 L869,509 Q786,492 655,477 Q661,378 675,299 L911,299 L911,242 L688,242 Q714,133 752,66 Q796,-19 830,-18 Q850,-19 864,31 Q870,56 880,107 Q904,78 932,69 Q925,35 915,-5 Q888,-84 834,-84 M106,-96 Q73,-75 38,-68 Q161,71 158,349 L158,687 L532,687 Q481,738 427,777 L488,808 Q552,761 599,713 L566,687 L922,687 L922,630 L223,630 L223,351 Q227,69 106,-96 M388,462 L388,299 L612,299 Q599,377 591,472 Q475,463 388,462 M621,-105 Q559,-41 504,-1 L552,31 Q608,-11 657,-61"/> 
            <glyph glyph-name="度" unicode="&#x5EA6;" horiz-adv-x="953" d=" M915,-91 Q709,-60 573,7 Q432,-64 226,-98 Q216,-69 183,-42 Q367,-17 508,44 Q403,110 333,210 L279,210 L279,265 L819,265 L819,215 Q749,113 637,43 Q769,-11 953,-30 Q922,-60 915,-91 M223,481 L223,536 L388,536 L388,617 L451,617 L451,536 L687,536 L687,617 L750,617 L750,536 L898,536 L898,481 L750,481 L750,330 L388,330 L388,481 M95,-97 Q69,-79 31,-68 Q151,89 146,362 L146,696 L525,696 Q484,748 445,785 L512,805 Q569,748 608,696 L909,696 L909,639 L211,639 L211,361 Q214,79 95,-97 M735,210 L408,210 Q474,129 571,76 Q675,135 735,210 M451,383 L687,383 L687,481 L451,481"/> 
            <glyph glyph-name="式" unicode="&#x5F0F;" horiz-adv-x="945" d=" M84,550 L84,609 L566,609 Q563,694 563,791 L630,797 Q627,706 632,609 L913,609 L913,550 L635,550 Q651,333 693,199 Q733,77 794,7 Q812,-14 831,-14 Q854,-16 869,31 Q881,66 893,123 Q919,89 945,79 Q932,26 921,-6 Q893,-84 834,-85 Q784,-83 741,-36 Q681,32 640,148 Q582,312 569,550 M120,325 L120,384 L511,384 L511,325 L351,325 L351,79 L545,117 L573,67 L102,-36 L63,22 L285,66 L285,325 M797,619 Q734,690 674,741 L726,770 Q791,715 835,664"/> 
            <glyph glyph-name="强" unicode="&#x5F3A;" horiz-adv-x="951" d=" M452,508 L452,744 L851,744 L851,508 L682,508 L682,406 L879,406 L879,164 L682,164 L682,19 Q699,21 732,26 Q798,34 825,38 Q804,75 778,110 L837,129 Q888,56 951,-57 L901,-94 Q886,-63 855,-11 Q608,-51 394,-74 L366,-15 Q457,-8 620,11 L620,164 L424,164 L424,406 L620,406 L620,508 M217,-86 Q200,-86 140,-80 Q137,-47 122,-18 Q187,-27 210,-27 Q269,-27 271,37 L283,237 L81,237 L99,514 L289,514 L289,688 L78,688 L78,743 L349,743 L349,459 L155,459 L144,291 L346,291 L330,35 Q330,-87 217,-86 M512,561 L791,561 L791,691 L512,691 M819,353 L682,353 L682,217 L819,217 M483,217 L620,217 L620,353 L483,353"/> 
            <glyph glyph-name="得" unicode="&#x5F97;" horiz-adv-x="951" d=" M398,433 L398,750 L859,750 L859,433 M349,304 L349,359 L919,359 L919,304 L800,304 L800,223 L951,223 L951,169 L800,169 L800,11 Q801,-91 694,-89 Q659,-89 628,-86 Q625,-47 612,-21 Q656,-29 687,-29 Q738,-32 736,28 L736,169 L308,169 L308,223 L736,223 L736,304 M190,-96 L190,331 Q141,276 91,235 Q69,264 38,276 Q191,398 292,573 L337,531 Q306,474 254,407 L254,-96 M460,698 L460,617 L797,617 L797,698 M460,486 L797,486 L797,568 L460,568 M108,506 Q85,528 50,541 Q202,662 276,800 L327,759 Q238,614 108,506 M543,-10 Q493,49 413,120 L468,150 Q534,92 586,35"/> 
            <glyph glyph-name="意" unicode="&#x610F;" horiz-adv-x="945" d=" M185,172 L185,448 L810,448 L810,172 M113,662 L113,713 L476,713 Q454,747 423,787 L485,804 Q518,762 548,713 L883,713 L883,662 L684,662 L727,640 Q702,603 663,562 L945,562 L945,510 L53,510 L53,562 L335,562 Q308,599 270,638 L330,660 Q368,623 412,562 L577,562 Q626,609 662,662 M391,-71 Q281,-77 287,27 L287,138 L349,138 L349,27 Q348,-17 394,-16 L609,-16 Q664,-17 679,35 Q683,44 689,64 Q693,78 695,85 Q721,55 747,43 Q741,23 735,5 Q709,-73 625,-71 M249,221 L747,221 L747,288 L249,288 M249,399 L249,333 L747,333 L747,399 M113,-67 L61,-23 Q132,53 169,137 L222,103 Q178,8 113,-67 M884,-51 Q820,37 745,108 L799,137 Q873,70 931,-8 M536,26 Q505,70 442,130 L493,156 Q547,113 585,62"/> 
            <glyph glyph-name="技" unicode="&#x6280;" horiz-adv-x="963" d=" M912,-93 Q767,-34 663,65 Q554,-30 386,-97 Q368,-66 334,-44 Q504,14 618,111 Q521,218 459,377 L426,377 L426,435 L628,435 L628,579 L400,579 L400,638 L628,638 L628,796 L692,796 L692,638 L928,638 L928,579 L692,579 L692,435 L862,435 L862,382 Q809,216 707,108 Q812,15 963,-36 Q929,-60 912,-93 M69,527 L69,585 L211,585 L211,796 L272,796 L272,585 L379,585 L379,527 L272,527 L272,336 L363,378 L393,336 L272,275 L272,18 Q272,-83 180,-83 Q155,-83 106,-76 Q103,-44 87,-15 Q92,-16 101,-17 Q153,-24 170,-24 Q213,-26 211,26 L211,243 L86,180 L44,230 L211,308 L211,527 M795,377 L521,377 Q575,246 661,152 Q753,251 795,377"/> 
            <glyph glyph-name="护" unicode="&#x62A4;" horiz-adv-x="910" d=" M364,-90 Q338,-70 298,-60 Q455,82 450,322 L450,634 L910,634 L910,261 L846,261 L846,316 L514,316 Q514,56 364,-90 M68,530 L68,588 L212,588 L212,796 L275,796 L275,588 L394,588 L394,530 L275,530 L275,344 L378,389 L406,345 L275,281 L275,20 Q274,-81 179,-83 Q154,-83 108,-75 Q105,-44 88,-15 Q146,-23 167,-23 Q213,-24 212,27 L212,252 L77,187 L38,240 L212,317 L212,530 M514,575 L514,374 L846,374 L846,575 M697,640 Q644,699 558,771 L617,799 Q696,735 748,678"/> 
            <glyph glyph-name="收" unicode="&#x6536;" horiz-adv-x="960" d=" M438,-86 Q415,-57 379,-42 Q543,37 631,145 Q546,262 502,419 Q470,362 437,320 Q411,334 375,342 Q518,534 574,799 L636,776 Q617,688 585,602 L929,602 L929,543 L831,543 Q810,288 713,145 Q807,40 960,-22 Q925,-46 902,-81 Q762,-7 673,93 Q594,-1 438,-86 M107,97 L81,149 Q107,176 105,231 L105,700 L169,700 L169,195 L305,234 L305,795 L370,795 L370,-96 L305,-96 L305,172 L170,129 Q144,122 107,97 M562,543 Q552,518 541,496 Q587,314 670,198 Q753,328 769,543"/> 
            <glyph glyph-name="普" unicode="&#x666E;" horiz-adv-x="937" d=" M206,-96 L206,296 L794,296 L794,-96 L730,-96 L730,-48 L270,-48 L270,-96 M122,630 L122,684 L362,684 Q326,721 266,773 L322,803 Q390,745 427,705 L404,684 L566,684 Q623,742 666,805 L726,780 Q693,734 645,684 L876,684 L876,630 L618,630 L618,426 L937,426 L937,373 L62,373 L62,426 L380,426 L380,630 M270,100 L270,4 L730,4 L730,100 M270,244 L270,149 L730,149 L730,244 M440,630 L440,426 L557,426 L557,630 M709,448 Q682,468 657,475 Q735,547 779,608 L827,577 Q778,511 709,448 M291,451 Q230,520 171,570 L222,599 Q289,541 331,490"/> 
            <glyph glyph-name="更" unicode="&#x66F4;" horiz-adv-x="949" d=" M93,688 L93,746 L912,746 L912,688 L543,688 L543,596 L833,596 L833,233 L536,233 Q521,120 467,54 Q536,27 629,14 Q716,1 804,-5 Q889,-10 949,-6 Q923,-37 917,-77 Q740,-67 617,-47 Q506,-29 422,10 Q328,-62 96,-100 Q80,-67 47,-44 Q259,-16 356,43 Q269,95 193,177 L236,214 Q313,131 405,82 Q460,136 470,233 L183,233 L183,596 L476,596 L476,688 M248,540 L248,442 L476,442 L476,540 M248,289 L475,289 Q476,310 476,358 L476,387 L248,387 M541,289 L769,289 L769,387 L543,387 L543,357 Q543,320 541,289 M769,540 L543,540 L543,442 L769,442"/> 
            <glyph glyph-name="有" unicode="&#x6709;" horiz-adv-x="932" d=" M272,-96 L272,384 Q192,302 97,243 Q75,270 38,287 Q253,416 360,610 L87,610 L87,668 L388,668 Q418,731 433,800 L500,775 Q483,721 462,668 L932,668 L932,610 L434,610 Q404,550 364,496 L818,496 L818,18 Q816,-86 710,-88 Q681,-88 639,-84 Q636,-49 622,-20 Q662,-27 696,-27 Q752,-28 751,27 L751,108 L338,108 L338,-96 M338,274 L338,163 L751,163 L751,274 M338,438 L338,328 L751,328 L751,438"/> 
            <glyph glyph-name="术" unicode="&#x672F;" horiz-adv-x="947" d=" M462,-95 L462,430 Q350,168 120,2 Q92,30 50,45 Q304,206 429,485 L95,485 L95,548 L462,548 L462,793 L530,793 L530,548 L900,548 L900,485 L560,485 Q680,213 947,66 Q903,43 876,10 Q634,175 530,431 L530,-95 M768,574 Q703,649 622,717 L674,750 Q742,695 810,619"/> 
            <glyph glyph-name="模" unicode="&#x6A21;" horiz-adv-x="956" d=" M431,236 L431,542 L872,542 L872,236 L676,236 Q675,215 671,178 Q672,180 670.5,174 Q669,168 669,163 L950,163 L950,109 L688,109 Q763,1 956,-36 Q928,-62 917,-90 Q721,-37 645,86 Q584,-44 378,-97 Q364,-71 332,-50 Q533,-4 589,109 L353,109 L353,163 L608,163 Q609,167 610.5,174.5 Q612,182 612,185 Q614,203 616,236 M61,535 L61,590 L207,590 L207,796 L268,796 L268,590 L388,590 L388,535 L268,535 L268,429 L298,440 Q361,356 392,296 L350,260 Q321,315 268,394 L268,-96 L207,-96 L207,379 Q159,238 85,153 Q61,176 28,182 Q159,339 202,535 M371,645 L371,699 L525,699 L525,796 L584,796 L584,699 L720,699 L720,796 L780,796 L780,699 L935,699 L935,645 L780,645 L780,569 L720,569 L720,645 L584,645 L584,569 L525,569 L525,645 M491,287 L813,287 L813,366 L491,366 M491,491 L491,414 L813,414 L813,491"/> 
            <glyph glyph-name="没" unicode="&#x6CA1;" horiz-adv-x="963" d=" M915,-91 Q738,-39 621,44 Q495,-46 317,-97 Q299,-70 263,-47 Q436,-1 568,85 Q463,175 398,309 L355,309 L355,367 L844,367 L844,315 Q784,183 672,86 Q785,12 963,-31 Q931,-57 915,-91 M366,397 Q341,424 308,435 Q446,507 444,614 Q445,642 445,686 Q444,726 443,753 L782,753 L775,560 Q768,484 836,489 Q905,490 946,497 Q933,463 935,433 Q885,428 832,428 Q703,425 712,551 L716,695 L508,695 Q508,629 506,596 Q500,477 366,397 M770,309 L468,309 Q530,199 620,126 Q716,203 770,309 M129,-87 L71,-44 Q165,86 247,285 L298,247 Q222,57 129,-87 M226,352 Q142,415 42,469 L88,517 Q178,468 256,410 M290,590 Q206,662 113,721 L160,765 Q251,710 323,646"/> 
            <glyph glyph-name="清" unicode="&#x6E05;" horiz-adv-x="945" d=" M383,-96 L383,354 L846,354 L846,6 Q849,-92 752,-89 Q727,-89 691,-85 Q689,-53 676,-28 Q709,-33 740,-33 Q788,-36 785,16 L785,53 L445,53 L445,-96 M340,665 L340,716 L582,716 L582,796 L645,796 L645,716 L890,716 L890,665 L645,665 L645,594 L854,594 L854,543 L645,543 L645,472 L945,472 L945,421 L288,421 L288,472 L582,472 L582,543 L378,543 L378,594 L582,594 L582,665 M445,178 L445,103 L785,103 L785,178 M445,303 L445,228 L785,228 L785,303 M140,-85 L82,-43 Q160,87 225,280 L275,243 Q222,69 140,-85 M212,354 Q130,424 38,478 L85,522 Q176,469 245,411 M265,602 Q184,678 101,734 L149,774 Q237,714 300,654"/> 
            <glyph glyph-name="烈" unicode="&#x70C8;" horiz-adv-x="936" d=" M111,681 L111,737 L600,737 L600,681 L369,681 Q348,618 317,564 L538,564 L538,513 Q462,241 154,129 Q129,158 102,175 Q258,231 347,313 Q283,357 216,393 L261,432 Q314,404 388,356 Q443,420 474,509 L280,509 Q225,431 139,367 Q115,389 84,399 Q248,518 305,681 M763,167 Q720,168 688,172 Q685,209 672,234 Q720,226 752,226 Q815,223 812,285 L812,772 L872,772 L872,273 Q874,165 763,167 M629,302 L629,675 L690,675 L690,302 M885,-92 Q832,7 757,120 L816,141 Q878,56 936,-54 M121,-95 L71,-47 Q151,36 201,141 L249,104 Q200,-3 121,-95 M633,-74 Q592,31 544,122 L604,135 Q658,41 689,-45 M404,-74 Q365,41 329,118 L389,130 Q427,57 462,-46"/> 
            <glyph glyph-name="爱" unicode="&#x7231;" horiz-adv-x="944" d=" M140,336 L140,392 L398,392 Q416,439 425,487 L486,468 Q478,434 465,392 L853,392 L853,336 L444,336 Q423,285 408,261 L789,261 L789,211 Q736,118 636,45 Q785,-14 944,-25 Q917,-49 902,-91 Q724,-65 575,6 Q452,-63 277,-101 Q266,-75 232,-48 Q396,-16 511,40 Q418,97 347,172 Q250,48 103,-28 Q79,-2 44,15 Q270,120 376,336 M94,407 L94,552 L285,552 Q238,612 198,649 L257,669 Q308,621 343,571 L308,552 L622,552 Q702,632 757,711 L813,678 Q755,606 700,552 L901,552 L901,407 L836,407 L836,496 L159,496 L159,407 M165,688 Q156,721 137,745 Q512,741 815,789 L857,736 Q574,692 165,688 M713,207 L385,207 Q464,130 573,76 Q661,132 713,207 M511,558 Q471,624 426,673 L484,692 Q520,652 562,586"/> 
            <glyph glyph-name="率" unicode="&#x7387;" horiz-adv-x="938" d=" M103,624 L103,681 L494,681 Q448,730 395,773 L456,801 Q519,751 564,700 L540,681 L895,681 L895,624 L532,624 Q476,547 413,479 L539,480 Q583,529 615,568 L667,539 Q525,379 415,286 L602,297 Q574,334 550,363 L598,386 Q657,321 713,244 L669,207 Q664,215 647,236 Q641,244 638,248 L398,234 Q368,233 333,222 L308,276 Q332,280 362,307 Q410,348 491,430 L396,428 Q373,428 337,422 L311,469 Q335,475 360,501 Q407,552 460,624 M60,102 L60,160 L466,160 L466,219 L531,219 L531,160 L938,160 L938,102 L531,102 L531,-96 L466,-96 L466,102 M142,205 L89,246 Q190,327 262,404 L308,371 Q232,283 142,205 M858,209 Q773,299 695,365 L745,396 Q821,334 896,256 M717,422 Q696,443 669,455 Q768,530 825,591 L874,556 Q794,475 717,422 M253,430 Q180,503 105,554 L154,587 Q228,538 290,475"/> 
            <glyph glyph-name="疲" unicode="&#x75B2;" horiz-adv-x="942" d=" M427,-96 Q408,-69 373,-49 Q511,-15 608,57 Q518,135 454,259 L431,259 Q424,42 301,-92 Q274,-69 238,-66 Q373,74 369,285 L369,506 L593,506 L593,606 L656,606 L656,506 L892,506 L892,458 L852,356 Q823,363 791,363 L828,453 L656,453 L656,310 L833,310 L833,266 Q791,147 703,60 Q802,-6 942,-39 Q912,-59 894,-95 Q756,-53 657,19 Q559,-60 427,-96 M88,185 L42,233 L205,379 L205,685 L557,685 Q520,731 471,778 L531,801 Q573,760 629,685 L922,685 L922,629 L267,629 L267,360 Q273,88 129,-89 Q106,-68 66,-58 Q196,88 204,303 M770,259 L516,259 Q574,162 655,95 Q731,166 770,259 M431,453 L431,310 L593,310 L593,453 M130,423 Q91,541 52,621 L107,637 Q145,556 181,447"/> 
            <glyph glyph-name="的" unicode="&#x7684;" horiz-adv-x="911" d=" M120,-82 L120,629 L216,629 Q271,730 290,798 L351,774 Q321,693 286,629 L450,629 L450,-64 L388,-64 L388,15 L182,15 L182,-82 M755,-83 Q716,-83 679,-78 Q676,-42 658,-12 Q705,-21 747,-21 Q830,-23 831,70 L846,578 L614,578 Q566,483 517,422 Q487,438 454,443 Q569,588 630,800 L690,774 Q667,696 640,637 L911,637 L895,60 Q893,-85 755,-83 M182,296 L182,74 L388,74 L388,296 M182,570 L182,352 L388,352 L388,570 M672,181 Q608,282 534,365 L588,393 Q647,332 719,226"/> 
            <glyph glyph-name="看" unicode="&#x770B;" horiz-adv-x="926" d=" M169,689 Q164,718 139,744 Q487,736 817,777 L854,726 Q719,708 518,696 Q508,655 495,619 L843,619 L843,567 L475,567 Q457,527 436,490 L926,490 L926,438 L405,438 Q380,400 352,367 L819,367 L819,-96 L754,-96 L754,-33 L339,-33 L339,-96 L275,-96 L275,283 Q195,209 102,149 Q84,177 48,192 Q220,296 327,438 L72,438 L72,490 L363,490 Q386,527 405,567 L177,567 L177,619 L427,619 Q436,640 450,688 Q451,691 451,693 Q316,687 169,689 M339,86 L339,17 L754,17 L754,86 M339,318 L339,249 L754,249 L754,318 M339,202 L339,133 L754,133 L754,202"/> 
            <glyph glyph-name="眠" unicode="&#x7720;" horiz-adv-x="965" d=" M456,-93 L422,-41 Q443,-19 441,38 L441,746 L883,746 L883,469 L712,469 Q715,383 723,312 L940,312 L940,256 L732,256 Q761,103 819,22 Q848,-14 870,-15 Q892,-12 904,38 Q908,52 913,76 Q915,89 917,97 Q939,70 965,59 Q958,24 949,-5 Q923,-83 874,-84 Q822,-83 779,-30 Q701,69 670,256 L502,256 L502,17 L634,96 L669,51 L517,-44 Q484,-65 456,-93 M98,-35 L98,734 L349,734 L349,-5 L291,-5 L291,54 L157,54 L157,-35 M502,691 L502,524 L822,524 L822,691 M662,312 Q653,385 649,469 L502,469 L502,312 M157,266 L157,109 L291,109 L291,266 M157,473 L157,319 L291,319 L291,473 M157,680 L157,525 L291,525 L291,680"/> 
            <glyph glyph-name="眼" unicode="&#x773C;" horiz-adv-x="963" d=" M908,-67 Q677,57 590,335 L511,335 L511,3 L653,76 L685,32 L513,-62 Q486,-76 465,-98 L432,-53 Q451,-32 449,15 L449,739 L853,739 L853,335 L650,335 Q683,247 724,181 Q823,249 878,306 L922,270 Q858,205 753,140 Q834,38 963,-18 Q927,-38 908,-67 M95,-36 L95,731 L354,731 L354,-5 L295,-5 L295,54 L155,54 L155,-36 M511,390 L794,390 L794,511 L511,511 M511,683 L511,564 L794,564 L794,683 M155,264 L155,109 L295,109 L295,264 M155,471 L155,317 L295,317 L295,471 M155,677 L155,523 L295,523 L295,677"/> 
            <glyph glyph-name="睛" unicode="&#x775B;" horiz-adv-x="949" d=" M102,-27 L102,723 L346,723 L346,-13 L289,-13 L289,63 L160,63 L160,-27 M451,-96 L451,342 L868,342 L868,9 Q869,-91 776,-90 Q751,-90 713,-86 Q711,-53 698,-29 Q744,-35 763,-35 Q809,-37 807,15 L807,55 L512,55 L512,-96 M413,651 L413,702 L625,702 L625,797 L687,797 L687,702 L913,702 L913,651 L687,651 L687,578 L874,578 L874,528 L687,528 L687,456 L949,456 L949,404 L380,404 L380,456 L625,456 L625,528 L451,528 L451,578 L625,578 L625,651 M512,174 L512,103 L807,103 L807,174 M512,292 L512,222 L807,222 L807,292 M160,267 L160,117 L289,117 L289,267 M160,469 L160,319 L289,319 L289,469 M160,669 L160,521 L289,521 L289,669"/> 
            <glyph glyph-name="睡" unicode="&#x7761;" horiz-adv-x="948" d=" M374,518 L374,571 L611,571 L611,676 Q498,668 416,668 Q409,696 387,723 Q646,721 853,761 L888,709 Q787,692 671,681 L671,571 L917,571 L917,518 L831,518 L831,371 L948,371 L948,316 L831,316 L831,168 L918,168 L918,114 L671,114 L671,-7 L902,-7 L902,-61 L386,-61 L386,-7 L611,-7 L611,114 L373,114 L373,168 L450,168 L450,316 L356,316 L356,371 L450,371 L450,518 M104,-22 L104,724 L332,724 L332,10 L277,10 L277,59 L161,59 L161,-22 M161,264 L161,113 L277,113 L277,264 M161,670 L161,520 L277,520 L277,670 M161,467 L161,317 L277,317 L277,467 M506,316 L506,168 L611,168 L611,316 M671,316 L671,168 L775,168 L775,316 M506,518 L506,371 L611,371 L611,518 M671,518 L671,371 L775,371 L775,518"/> 
            <glyph glyph-name="示" unicode="&#x793A;" horiz-adv-x="931" d=" M68,396 L68,455 L931,455 L931,396 L542,396 L542,24 Q543,-90 434,-89 Q395,-89 334,-80 Q334,-43 317,-15 Q396,-26 423,-26 Q478,-29 476,36 L476,396 M186,662 L186,722 L812,722 L812,662 M123,-22 Q94,0 60,6 Q194,125 266,280 L324,256 Q244,91 123,-22 M872,-16 Q784,118 664,251 L722,277 Q828,162 922,28"/> 
            <glyph glyph-name="美" unicode="&#x7F8E;" horiz-adv-x="953" d=" M115,606 L115,662 L380,662 Q327,716 264,769 L321,799 Q390,742 437,691 L401,662 L555,662 Q633,740 672,801 L733,773 Q683,708 636,662 L885,662 L885,606 L532,606 L532,513 L814,513 L814,457 L532,457 L532,363 L937,363 L937,307 L62,307 L62,363 L466,363 L466,457 L185,457 L185,513 L466,513 L466,606 M107,148 L107,205 L457,205 Q464,244 464,280 L531,274 Q530,247 524,205 L893,205 L893,148 L549,148 Q663,-3 953,-22 Q920,-58 913,-91 Q616,-54 499,122 Q406,-63 100,-95 Q85,-63 58,-36 Q367,-7 439,148"/> 
            <glyph glyph-name="能" unicode="&#x80FD;" horiz-adv-x="945" d=" M132,-96 L132,431 L477,431 L477,10 Q480,-93 382,-90 Q363,-90 329,-88 Q327,-56 311,-28 Q342,-32 372,-32 Q418,-33 417,17 L417,89 L192,89 L192,-96 M680,-69 Q575,-71 577,33 L577,351 L639,351 L639,182 Q783,239 866,297 L909,251 Q800,182 639,125 L639,37 Q640,-11 687,-12 L813,-12 Q863,-14 877,42 Q885,68 892,103 Q916,71 945,61 Q942,47 936,24 Q933,15 932,11 Q909,-71 819,-69 M684,390 Q574,386 578,492 L578,793 L640,793 L640,620 Q780,676 868,742 L910,696 Q789,617 640,562 L640,496 Q641,448 688,447 L806,447 Q852,444 867,500 Q868,506 872,519 Q879,544 882,558 Q904,529 935,516 Q930,495 921,469 Q899,386 814,390 M497,474 Q487,490 476,509 L162,495 Q121,493 83,485 L59,544 Q99,555 133,594 Q213,681 287,803 L344,772 Q263,646 167,549 L438,559 Q407,599 347,668 L397,695 Q491,593 545,511 M192,234 L192,138 L417,138 L417,234 M192,378 L192,283 L417,283 L417,378"/> 
            <glyph glyph-name="舒" unicode="&#x8212;" horiz-adv-x="939" d=" M155,487 L155,518 Q122,487 90,464 Q67,489 35,500 Q216,627 292,804 L347,775 Q344,769 339,757 Q330,737 325,727 Q458,635 531,572 L503,518 Q415,595 294,680 Q250,612 176,538 L452,538 L452,487 L330,487 L330,388 L493,388 L493,335 L330,335 L330,235 L468,235 L468,-62 L408,-62 L408,-16 L190,-16 L190,-74 L131,-74 L131,235 L270,235 L270,335 L77,335 L77,388 L270,388 L270,487 M654,-84 Q622,-84 584,-80 Q581,-47 566,-18 Q568,-18 573,-19 Q622,-23 642,-23 Q694,-26 691,28 L691,380 L511,380 L511,437 L736,437 Q673,499 584,574 L628,605 Q631,603 636,598 Q680,562 706,539 Q747,588 817,691 L535,691 L535,748 L890,748 L890,701 Q829,597 747,501 L787,461 L767,437 L939,437 L939,386 L892,230 Q869,237 836,235 L879,380 L754,380 L754,20 Q757,-87 654,-84 M190,182 L190,37 L408,37 L408,182"/> 
            <glyph glyph-name="英" unicode="&#x82F1;" horiz-adv-x="948" d=" M61,184 L61,241 L201,241 L201,484 L469,484 L469,600 L533,596 Q533,552 533,531 Q533,505 532,484 L799,484 L799,241 L938,241 L938,184 L555,184 Q673,21 948,-27 Q914,-52 896,-91 Q601,-15 497,171 Q426,-9 107,-96 Q85,-61 53,-43 Q364,28 433,184 M623,544 L623,641 L373,641 L373,544 L308,544 L308,641 L71,641 L71,698 L308,698 L308,796 L373,796 L373,698 L623,698 L623,796 L687,796 L687,698 L927,698 L927,641 L687,641 L687,544 M736,429 L531,429 Q530,358 525,286 Q524,276 521,256 Q520,246 519,241 L736,241 M263,429 L263,241 L453,241 Q459,266 461,293 Q466,358 467,429"/> 
            <glyph glyph-name="视" unicode="&#x89C6;" horiz-adv-x="961" d=" M770,-70 Q671,-71 672,31 L672,262 Q624,33 373,-96 Q354,-70 316,-53 Q643,97 630,434 L630,595 L690,595 L690,435 Q690,342 672,266 L731,266 L731,36 Q730,-13 779,-12 L839,-12 Q885,-14 896,37 Q905,71 911,113 Q935,84 961,75 Q956,45 948,9 Q928,-71 844,-70 M811,206 L811,685 L510,685 L510,210 L448,210 L448,742 L871,742 L871,206 M208,-96 L208,306 Q147,238 88,193 Q66,222 33,228 Q215,372 294,546 L73,546 L73,602 L366,602 L366,555 Q331,470 269,382 L269,346 L302,366 Q364,306 404,254 L366,214 Q315,277 269,324 L269,-96 M280,629 Q218,702 148,763 L204,795 Q275,735 327,675"/> 
            <glyph glyph-name="角" unicode="&#x89D2;" horiz-adv-x="857" d=" M505,-56 L505,127 L276,127 Q255,-1 170,-100 Q138,-74 105,-66 Q173,7 197,82 Q223,156 222,286 L222,510 Q174,470 128,441 Q102,467 68,477 Q284,616 395,803 L456,776 Q436,740 412,707 L771,707 L771,661 L642,535 L857,535 L857,22 Q857,-92 740,-90 Q699,-90 674,-86 Q671,-50 654,-21 Q710,-28 732,-28 Q795,-31 792,32 L792,127 L567,127 L567,-56 M367,651 Q314,590 251,535 L557,535 L675,651 M567,303 L567,180 L792,180 L792,303 M792,478 L567,478 L567,357 L792,357 M286,284 Q286,228 282,180 L505,180 L505,303 L286,303 M286,478 L286,357 L505,357 L505,478"/> 
            <glyph glyph-name="读" unicode="&#x8BFB;" horiz-adv-x="923" d=" M349,639 L349,696 L575,696 L575,796 L640,796 L640,696 L878,696 L878,639 L640,639 L640,545 L917,545 L917,493 L864,344 Q842,352 804,353 L852,488 L322,488 L322,545 L575,545 L575,639 M332,136 L332,192 L614,192 Q641,283 639,454 L704,448 Q702,278 679,192 L923,192 L923,136 L661,136 Q601,-26 367,-103 Q351,-78 318,-54 Q536,18 592,136 M182,-78 L142,-22 Q171,8 168,69 L168,426 L49,426 L49,484 L231,484 L231,53 L313,126 L349,83 L218,-38 Q201,-52 182,-78 M877,-100 Q754,-5 652,52 L695,96 Q813,30 904,-40 M247,568 Q171,660 101,725 L159,757 Q226,694 294,613 M514,213 Q434,264 341,306 L375,346 Q458,310 532,261 M560,323 Q487,373 403,414 L435,454 Q518,412 578,372"/> 
            <glyph glyph-name="贴" unicode="&#x8D34;" horiz-adv-x="942" d=" M495,-95 L495,363 L650,363 L650,797 L713,797 L713,617 L942,617 L942,559 L713,559 L713,363 L891,363 L891,-95 L829,-95 L829,-21 L558,-21 L558,-95 M103,160 L103,732 L415,732 L415,175 L356,175 L356,676 L162,676 L162,160 M558,305 L558,36 L829,36 L829,305 M102,-83 Q82,-63 44,-47 Q241,60 232,307 L232,584 L286,584 L286,299 Q291,38 102,-83 M419,-61 Q357,14 267,101 L319,129 Q395,60 458,-15"/> 
            <glyph glyph-name="轻" unicode="&#x8F7B;" horiz-adv-x="952" d=" M64,612 L64,667 L209,667 Q232,731 248,798 L308,780 Q291,723 273,667 L451,667 L451,612 L253,612 Q212,496 155,374 L262,374 L262,522 L322,522 L322,374 L430,374 L430,320 L322,320 L322,183 L435,210 L456,159 L322,125 L322,-96 L262,-96 L262,110 L69,61 L42,118 L262,169 L262,320 L85,320 L85,376 Q134,463 189,612 M488,222 L488,278 L882,278 L882,222 L718,222 L718,0 L945,0 L945,-57 L418,-57 L418,0 L655,0 L655,222 M922,347 Q837,413 708,494 Q606,403 488,350 Q466,379 440,394 Q681,509 780,674 L486,674 L486,730 L859,730 L859,683 Q817,603 750,535 Q874,460 952,402"/> 
            <glyph glyph-name="进" unicode="&#x8FDB;" horiz-adv-x="954" d=" M338,563 L338,621 L470,621 L470,793 L533,793 L533,621 L698,621 L698,793 L762,793 L762,621 L895,621 L895,563 L762,563 L762,374 L913,374 L913,316 L762,316 L762,52 L698,52 L698,316 L527,316 Q515,165 408,60 Q384,79 345,89 Q452,186 463,316 L317,316 L317,374 L468,374 Q470,421 470,453 L470,563 M114,-78 L62,-31 Q131,47 191,98 L191,418 L59,418 L59,476 L254,476 L254,100 Q351,22 481,9 Q569,-1 701,-2 Q835,-1 954,9 Q930,-30 928,-65 Q819,-67 715,-67 Q614,-66 545,-63 Q350,-56 224,47 Q155,-17 114,-78 M533,451 Q533,410 531,374 L698,374 L698,563 L533,563 M253,566 Q178,655 103,723 L160,758 Q233,692 300,611"/> 
            <glyph glyph-name="适" unicode="&#x9002;" horiz-adv-x="955" d=" M396,660 Q386,689 363,716 Q636,724 812,768 L853,715 Q769,695 654,681 L654,551 L915,551 L915,493 L654,493 L654,372 L840,372 L840,89 L406,89 L406,372 L590,372 L590,493 L332,493 L332,551 L590,551 L590,673 Q477,663 396,660 M114,-79 L64,-30 Q123,38 192,98 L192,423 L58,423 L58,480 L256,480 L256,100 Q344,18 488,7 Q577,-3 713,-3.5 Q849,-4 955,6 Q935,-25 931,-65 Q830,-67 729.5,-66.5 Q629,-66 562,-63 Q349,-58 226,48 Q157,-16 114,-79 M470,147 L776,147 L776,314 L470,314 M258,568 Q177,660 106,720 L158,756 Q232,694 300,615"/> 
            <glyph glyph-name="透" unicode="&#x900F;" horiz-adv-x="954" d=" M316,554 L316,606 L574,606 L574,691 Q461,682 379,681 Q374,703 353,734 Q632,738 812,775 L849,725 Q753,708 636,696 L636,606 L892,606 L892,554 L684,554 Q782,448 954,401 Q925,380 910,348 Q732,416 636,547 L636,403 L574,403 L574,547 Q482,417 305,335 Q285,364 257,378 Q427,450 524,554 M103,-78 L53,-31 Q113,40 182,100 L182,422 L52,422 L52,479 L244,479 L244,99 Q351,-3 578,-4 Q668,-8 771,-5 Q874,-2 946,6 Q930,-21 926,-66 Q837,-68 747,-68 Q661,-69 600,-67 Q331,-67 212,48 Q162,1 103,-78 M723,44 Q699,44 654,49 Q651,80 639,103 Q685,95 719,95 Q773,93 778,149 L784,210 L705,210 Q679,210 661,204 L644,241 Q668,251 679,282 L698,326 L547,326 Q531,136 365,49 Q342,74 312,88 Q478,170 487,326 L391,326 L391,375 L761,375 L761,331 L728,258 L847,258 L835,142 Q828,41 723,44 M244,571 Q177,654 98,724 L154,760 Q244,675 290,616"/> 
            <glyph glyph-name="通" unicode="&#x901A;" horiz-adv-x="952" d=" M362,54 L362,544 L611,544 Q529,595 456,630 L496,668 Q529,651 598,612 Q611,605 618,601 Q688,641 764,696 L354,696 L354,749 L859,749 L859,703 Q796,648 669,570 Q678,564 687,558 L677,544 L869,544 L869,147 Q868,54 775,53 Q748,53 725,56 Q724,85 710,112 Q743,106 766,106 Q810,106 810,153 L810,208 L644,208 L644,78 L585,78 L585,208 L422,208 L422,54 M112,-78 L61,-32 Q125,42 185,97 L185,415 L56,415 L56,472 L247,472 L247,99 Q344,15 482,4 Q569,-4 702.5,-3.5 Q836,-3 952,6 Q932,-27 928,-64 Q831,-67 719,-67 Q613,-67 541,-63 Q336,-57 219,46 Q149,-22 112,-78 M644,352 L644,257 L810,257 L810,352 M422,352 L422,257 L585,257 L585,352 M810,493 L644,493 L644,401 L810,401 M422,493 L422,401 L585,401 L585,493 M243,560 Q170,646 91,718 L145,752 Q225,684 287,607"/> 
            <glyph glyph-name="间" unicode="&#x95F4;" horiz-adv-x="882" d=" M331,79 L331,532 L668,532 L668,79 M761,-89 Q734,-89 686,-85 Q681,-46 666,-17 Q669,-17 674,-18 Q731,-24 750,-24 Q819,-26 817,40 L817,666 L386,666 L386,724 L881,724 L881,32 Q882,-90 761,-89 M120,-96 L120,617 L185,617 L185,-96 M391,134 L608,134 L608,279 L391,279 M391,476 L391,333 L608,333 L608,476 M288,606 Q221,693 164,747 L222,778 Q292,711 338,647"/> 
            <glyph glyph-name="阳" unicode="&#x9633;" horiz-adv-x="882" d=" M481,-77 L481,731 L882,731 L882,-77 L818,-77 L818,6 L546,6 L546,-77 M107,-96 L107,743 L410,743 L410,690 L297,433 Q411,318 407,212 Q404,85 280,82 Q253,82 224,88 Q223,119 207,153 Q245,142 271,142 Q344,143 345,217 Q345,311 229,423 L341,684 L170,684 L170,-96 M546,340 L546,66 L818,66 L818,340 M546,671 L546,398 L818,398 L818,671"/> 
            <glyph glyph-name="高" unicode="&#x9AD8;" horiz-adv-x="934" d=" M118,-96 L118,327 L879,327 L879,20 Q878,-91 772,-92 Q741,-92 703,-87 Q699,-50 685,-23 Q732,-30 759,-30 Q813,-31 812,28 L812,271 L184,271 L184,-96 M237,394 L237,581 L759,581 L759,394 M304,12 L304,203 L691,203 L691,12 M64,648 L64,705 L482,705 Q434,751 402,777 L469,802 Q526,756 572,705 L934,705 L934,648 M303,444 L694,444 L694,531 L303,531 M368,61 L628,61 L628,153 L368,153"/> 
            <glyph glyph-name="，" unicode="&#xFF0C;" horiz-adv-x="294" d=" M294,72 L294,31 Q293,-50 246,-128 L208,-128 Q249,-57 249,0 Q248,18 228,19 L207,19 L207,110 L251,110 Q292,108 294,72"/> 
        </font>
</defs>
</svg>
