<?xml version="1.0" standalone="no"?>
<!DOCTYPE svg PUBLIC "-//W3C//DTD SVG 1.1//EN" "http://www.w3.org/Graphics/SVG/1.1/DTD/svg11.dtd" >
<svg xmlns="http://www.w3.org/2000/svg">
    <defs>
        <font id="">
            <font-face font-family=""
                       units-per-em="256"
                       ascent="229"
                       descent="-67"
                       bbox="-14 -67 266 229"
                    />
            <missing-glyph horiz-adv-x="0" />
            
            <glyph glyph-name="." unicode="&#x2E;" horiz-adv-x="49" d=" M49,-8 L49,16 L25,16 L25,-8"/> 
            <glyph glyph-name="0" unicode="&#x30;" horiz-adv-x="144" d=" M78,0 Q129,-1 128,89 Q129,181 77,180 Q29,178 28,89 Q28,0 78,0 M78,193 Q144,193 144,89 Q143,-10 79,-12 Q13,-10 12,89 Q14,190 78,193"/> 
            <glyph glyph-name="1" unicode="&#x31;" horiz-adv-x="105" d=" M90,-9 L105,-9 L105,193 L94,193 Q82,160 31,135 L31,121 Q77,142 90,164"/> 
            <glyph glyph-name="2" unicode="&#x32;" horiz-adv-x="144" d=" M140,-9 L140,2 L27,2 Q44,36 87,67 Q144,107 139,140 Q136,191 80,193 Q30,194 13,146 L27,138 Q38,179 75,180 Q122,179 123,137 Q127,112 75,75 Q30,44 9,0 L9,-9"/> 
            <glyph glyph-name="3" unicode="&#x33;" horiz-adv-x="143" d=" M99,95 L99,96 Q133,106 135,141 Q133,192 76,193 Q25,193 14,143 L29,138 Q35,181 77,180 Q119,180 119,141 Q118,100 67,100 L56,100 L56,88 L74,88 Q126,88 127,48 Q126,1 75,0 Q32,0 25,44 L10,40 Q21,-11 77,-12 Q140,-9 143,46 Q141,87 99,95"/> 
            <glyph glyph-name="4" unicode="&#x34;" horiz-adv-x="144" d=" M21,52 L102,52 L102,171 Q102,168 98,162 M144,39 L116,39 L116,-10 L102,-10 L102,39 L4,39 L4,48 L105,193 L116,193 L116,52 L144,52"/> 
            <glyph glyph-name="5" unicode="&#x35;" horiz-adv-x="144" d=" M35,102 L43,176 L134,176 L134,189 L31,189 L19,85 L29,83 Q45,110 78,110 Q127,108 129,56 Q127,2 77,0 Q32,0 25,45 L11,41 Q23,-12 79,-12 Q142,-9 144,58 Q140,120 82,123 Q52,123 35,102"/> 
            <glyph glyph-name="7" unicode="&#x37;" horiz-adv-x="143" d=" M143,180 L143,189 L13,189 L13,176 L125,176 Q59,76 47,-10 L63,-10 Q74,80 143,180"/> 
            <glyph glyph-name="8" unicode="&#x38;" horiz-adv-x="147" d=" M79,89 Q30,88 28,43 Q30,0 80,0 Q130,1 132,41 Q129,87 79,89 M79,181 Q38,179 36,140 Q37,100 80,99 Q121,101 123,140 Q121,179 79,181 M52,94 Q22,108 20,139 Q24,189 79,193 Q133,189 139,139 Q137,106 108,94 Q144,82 147,41 Q145,-10 80,-12 Q14,-10 12,43 Q16,84 52,94"/> 
            <glyph glyph-name="D" unicode="&#x44;" horiz-adv-x="189" d=" M93,177 L37,177 L37,2 L92,2 Q172,2 172,90 Q170,174 93,177 M92,-9 L21,-9 L21,190 L94,190 Q184,187 187,90 Q189,-11 92,-9"/> 
            <glyph glyph-name="E" unicode="&#x45;" horiz-adv-x="171" d=" M38,2 L171,2 L171,-9 L23,-9 L23,190 L166,190 L166,177 L38,177 L38,100 L159,100 L159,87 L38,87"/> 
            <glyph glyph-name="L" unicode="&#x4C;" horiz-adv-x="146" d=" M146,-10 L146,2 L35,2 L35,190 L20,190 L20,-10"/> 
            <glyph glyph-name="[" unicode="&#x5B;" horiz-adv-x="73" d=" M73,-63 L73,-53 L32,-53 L32,181 L73,181 L73,191 L19,191 L19,-63"/> 
            <glyph glyph-name="]" unicode="&#x5D;" horiz-adv-x="58" d=" M4,-53 L4,-63 L58,-63 L58,191 L4,191 L4,181 L45,181 L45,-53"/> 
            <glyph glyph-name="g" unicode="&#x67;" horiz-adv-x="141" d=" M124,59 L124,81 Q120,124 76,128 Q26,126 24,66 Q25,6 74,5 Q123,6 124,59 M138,137 L138,10 Q141,-62 70,-59 Q34,-58 15,-37 L23,-29 Q40,-46 70,-47 Q126,-48 124,3 L124,23 Q112,-4 70,-4 Q10,-2 9,66 Q12,136 72,140 Q108,139 124,112 L124,137"/> 
            <glyph glyph-name="k" unicode="&#x6B;" horiz-adv-x="139" d=" M121,-9 L64,72 L33,43 L33,-9 L18,-9 L18,190 L33,190 L33,59 L113,137 L133,137 L73,81 L139,-9"/> 
            <glyph glyph-name="m" unicode="&#x6D;" horiz-adv-x="216" d=" M215,84 L215,-9 L200,-9 L200,82 Q201,130 165,128 Q129,126 123,81 L123,-9 L109,-9 L109,82 Q110,130 74,128 Q35,127 33,80 L33,-9 L18,-9 L18,137 L33,137 L33,108 Q44,139 77,140 Q116,140 122,104 Q132,139 168,140 Q216,141 215,84"/> 
            <glyph glyph-name="“" unicode="&#x201C;" horiz-adv-x="229" d=" M159,142 L159,164 Q159,199 184,216 L190,210 Q169,193 170,168 L184,168 L184,142 M198,142 L198,164 Q198,199 223,216 L229,210 Q208,193 209,168 L223,168 L223,142"/> 
            <glyph glyph-name="”" unicode="&#x201D;" horiz-adv-x="100" d=" M59,214 L59,192 Q60,156 35,140 L28,146 Q50,161 49,187 L35,187 L35,214 M99,214 L99,192 Q100,157 74,140 L68,146 Q89,162 88,187 L74,187 L74,214"/> 
            <glyph glyph-name="、" unicode="&#x3001;" horiz-adv-x="99" d=" M39,37 L49,46 L99,-10 L88,-19"/> 
            <glyph glyph-name="一" unicode="&#x4E00;" horiz-adv-x="249" d=" M7,104 L249,104 L249,89 L7,89"/> 
            <glyph glyph-name="上" unicode="&#x4E0A;" horiz-adv-x="247" d=" M109,206 L123,206 L123,130 L227,130 L227,116 L123,116 L123,0 L247,0 L247,-14 L9,-14 L9,0 L109,0"/> 
            <glyph glyph-name="两" unicode="&#x4E24;" horiz-adv-x="247" d=" M9,194 L247,194 L247,181 L171,181 Q171,175 171,162 Q170,149 170,142 L231,142 L231,3 Q232,-25 203,-24 Q189,-25 169,-25 Q169,-17 167,-11 Q171,-11 180,-11 Q192,-12 197,-12 Q220,-13 218,4 L218,129 L169,129 Q168,107 163,87 Q170,80 168,82 Q194,54 210,38 L199,28 Q175,57 159,74 Q150,43 123,10 Q117,15 112,19 Q153,62 156,129 L100,129 Q98,110 95,94 Q104,87 119,73 Q126,66 130,62 L121,52 Q117,56 110,63 Q99,75 92,81 Q83,48 56,17 Q49,24 45,26 Q84,65 87,129 L37,129 L37,-26 L24,-26 L24,142 L87,142 Q88,155 88,181 L9,181 M102,181 Q101,160 101,142 L156,142 Q157,159 157,181"/> 
            <glyph glyph-name="为" unicode="&#x4E3A;" horiz-adv-x="233" d=" M116,210 L130,210 Q130,174 126,144 L233,144 Q233,97 229,25 Q228,-24 182,-23 Q150,-24 138,-24 Q137,-15 134,-7 Q138,-7 152,-7 Q172,-8 180,-8 Q215,-11 215,25 Q217,50 219,124 Q219,121 219,130 L125,130 Q116,25 24,-31 Q23,-29 19,-25 Q15,-20 13,-18 Q105,36 111,130 L17,130 L17,144 L112,144 Q116,174 116,210 M136,83 L147,91 Q156,83 175,64 Q183,55 187,51 L175,41 Q156,64 136,83 M36,196 L47,205 Q48,204 50,202 Q66,188 84,170 L73,159 Q55,178 36,196"/> 
            <glyph glyph-name="九" unicode="&#x4E5D;" horiz-adv-x="249" d=" M88,209 L103,209 Q103,197 101,167 Q101,161 101,158 L182,158 L182,11 Q180,-9 199,-7 L211,-7 Q229,-7 231,8 Q234,21 235,45 Q243,43 249,40 Q248,18 245,2 Q240,-23 214,-22 L196,-22 Q166,-23 167,9 L167,145 L101,145 Q99,129 99,111 Q96,20 18,-28 Q16,-25 11,-20 Q8,-17 8,-16 Q84,28 84,114 Q86,129 86,145 L14,145 L14,158 L87,158 Q88,187 88,209"/> 
            <glyph glyph-name="也" unicode="&#x4E5F;" horiz-adv-x="250" d=" M7,112 L43,121 L43,181 L57,181 L57,125 L122,141 L122,209 L136,209 L136,145 L224,166 Q224,164 224,161 Q222,109 220,86 Q219,48 185,49 Q171,49 159,49 Q158,53 157,59 Q156,62 156,64 Q160,64 169,64 Q178,63 183,63 Q206,62 206,87 Q209,114 209,150 L136,131 L136,24 L122,24 L122,127 L57,111 L57,17 Q56,-7 83,-6 L197,-6 Q227,-7 230,13 Q233,28 234,48 Q242,45 250,43 Q248,25 243,6 Q238,-21 200,-20 L79,-20 Q42,-21 43,13 L43,108 L9,99"/> 
            <glyph glyph-name="习" unicode="&#x4E60;" horiz-adv-x="226" d=" M23,188 L226,188 Q226,180 226,164 Q224,76 222,33 Q222,-23 167,-21 Q151,-22 123,-22 Q122,-13 119,-5 Q136,-6 165,-6 Q210,-9 207,36 Q211,116 211,175 L23,175 M24,15 L18,31 Q114,61 184,86 Q184,77 186,69 Q92,39 24,15 M49,135 L57,147 Q111,123 138,108 L130,95 Q85,120 49,135"/> 
            <glyph glyph-name="亮" unicode="&#x4EAE;" horiz-adv-x="249" d=" M51,152 L203,152 L203,105 L51,105 M172,49 L172,3 Q172,-10 188,-10 L214,-10 Q231,-11 233,3 Q235,13 236,29 Q238,29 243,27 Q247,26 249,25 Q248,10 245,0 Q241,-23 216,-22 L185,-22 Q158,-23 159,2 L159,37 L86,37 L86,33 Q92,-19 16,-30 Q15,-25 10,-17 Q80,-9 73,33 L73,49 M17,83 L239,83 L239,48 L226,48 L226,71 L30,71 L30,48 L17,48 M13,186 L123,186 Q122,190 120,197 Q117,205 116,208 L130,211 Q131,207 134,199 Q136,190 137,186 L243,186 L243,174 L13,174 M64,141 L64,117 L190,117 L190,141"/> 
            <glyph glyph-name="人" unicode="&#x4EBA;" horiz-adv-x="247" d=" M237,-23 Q141,25 129,134 Q115,27 19,-26 Q18,-25 15,-22 Q11,-16 9,-15 Q104,38 118,144 Q121,164 121,206 L136,206 Q136,199 135,187 Q135,174 134,168 Q150,29 247,-11 Q245,-13 241,-18 Q238,-22 237,-23"/> 
            <glyph glyph-name="们" unicode="&#x4EEC;" horiz-adv-x="237" d=" M236,7 Q237,-26 204,-26 Q184,-26 168,-26 Q167,-19 165,-11 Q181,-12 199,-12 Q225,-13 223,8 L223,174 L157,174 L157,188 L236,188 M12,74 Q11,77 9,82 Q8,86 6,90 Q45,149 61,207 L75,202 Q65,174 53,148 L53,-29 L40,-29 L40,121 Q28,98 12,74 M96,-26 L96,151 L109,151 L109,-26 M99,199 L110,206 Q115,200 127,186 Q137,175 141,170 L129,162 Q127,164 123,170 Q117,178 99,199"/> 
            <glyph glyph-name="你" unicode="&#x4F60;" horiz-adv-x="249" d=" M13,73 Q12,76 10,81 Q9,85 7,89 Q47,146 66,210 L80,205 Q71,175 57,148 L57,-29 L44,-29 L44,121 Q29,93 13,73 M214,116 L231,157 L121,157 Q109,133 94,110 Q89,114 82,118 Q111,161 129,208 L143,204 Q142,201 139,196 Q136,187 127,170 L245,170 L245,156 L228,112 Q225,113 219,114 Q216,116 214,116 M159,133 L173,133 L173,4 Q174,-25 142,-26 Q125,-26 115,-26 Q114,-18 112,-12 Q124,-12 139,-12 Q160,-13 159,5 M82,16 Q103,54 119,97 L131,93 Q112,42 95,9 Q89,13 82,16 M236,12 Q213,64 198,92 L210,98 Q226,69 249,18"/> 
            <glyph glyph-name="便" unicode="&#x4FBF;" horiz-adv-x="249" d=" M83,194 L245,194 L245,183 L168,183 L168,154 L234,154 L234,45 L221,45 L221,55 L166,55 Q162,26 147,8 Q177,-6 249,-13 Q244,-18 242,-26 Q167,-18 137,0 Q122,-13 78,-30 Q77,-28 74,-24 Q71,-19 70,-17 Q111,-4 125,6 Q108,20 93,39 L104,47 Q119,28 135,15 Q148,30 152,55 L88,55 L88,154 L155,154 L155,183 L83,183 M12,72 Q11,75 8,82 Q7,85 6,87 Q46,143 63,208 L76,205 Q66,173 54,143 L54,-30 L40,-30 L40,117 Q28,95 12,72 M154,67 Q155,81 155,99 L101,99 L101,67 M167,67 L221,67 L221,99 L168,99 Q168,81 167,67 M101,143 L101,111 L155,111 L155,143 M221,143 L168,143 L168,111 L221,111"/> 
            <glyph glyph-name="保" unicode="&#x4FDD;" horiz-adv-x="249" d=" M93,196 L227,196 L227,117 L93,117 M75,-13 Q74,-12 72,-10 Q68,-4 65,-2 Q117,22 143,67 L70,67 L70,80 L153,80 L153,108 L166,108 L166,80 L249,80 L249,67 L177,67 Q200,23 249,1 Q244,-3 240,-10 Q187,16 166,64 L166,-29 L153,-29 L153,63 Q127,10 75,-13 M107,184 L107,130 L213,130 L213,184 M13,77 Q13,79 10,84 Q7,89 6,90 Q41,139 60,208 L73,205 Q60,164 52,146 L52,-29 L39,-29 L39,119 Q28,98 13,77"/> 
            <glyph glyph-name="倍" unicode="&#x500D;" horiz-adv-x="250" d=" M97,66 L227,66 L227,-29 L214,-29 L214,-13 L110,-13 L110,-29 L97,-29 M110,54 L110,-1 L214,-1 L214,54 M11,76 Q8,84 5,91 Q41,142 60,208 L74,205 Q64,172 50,144 L50,-29 L36,-29 L36,117 Q24,96 11,76 M74,108 L250,108 L250,95 L74,95 M83,173 L241,173 L241,161 L83,161 M193,111 L182,119 Q196,136 207,155 L219,148 Q212,138 198,118 Q195,113 193,111 M106,147 L116,155 Q128,140 143,119 L132,112 Q127,120 116,134 Q109,143 106,147 M146,204 L157,210 Q167,196 176,181 L164,174 Q160,181 152,194 Q148,201 146,204"/> 
            <glyph glyph-name="全" unicode="&#x5168;" horiz-adv-x="249" d=" M48,115 L207,115 L207,102 L135,102 L135,57 L217,57 L217,44 L135,44 L135,-3 L239,-3 L239,-16 L17,-16 L17,-3 L121,-3 L121,44 L39,44 L39,57 L121,57 L121,102 L48,102 M239,107 Q165,143 129,193 Q83,139 16,105 Q11,111 6,116 Q88,159 126,212 L141,209 Q139,206 136,203 Q177,151 249,120 Q246,115 239,107"/> 
            <glyph glyph-name="具" unicode="&#x5177;" horiz-adv-x="249" d=" M7,37 L44,37 L44,198 L212,198 L212,37 L249,37 L249,25 L7,25 M57,146 L57,117 L199,117 L199,146 M57,66 L57,37 L199,37 L199,66 M57,106 L57,77 L199,77 L199,106 M57,186 L57,157 L199,157 L199,186 M93,14 L102,2 Q92,-1 71,-10 Q34,-25 19,-31 Q17,-27 11,-18 Q67,1 93,14 M154,1 L161,13 Q177,7 212,-3 Q236,-12 245,-15 L238,-28 Q193,-10 154,1"/> 
            <glyph glyph-name="出" unicode="&#x51FA;" horiz-adv-x="229" d=" M33,100 L33,184 L47,184 L47,113 L121,113 L121,207 L134,207 L134,113 L209,113 L209,184 L222,184 L222,100 L134,100 L134,-3 L216,-3 L216,67 L229,67 L229,-25 L216,-25 L216,-16 L26,-16 L26,67 L40,67 L40,-3 L121,-3 L121,100"/> 
            <glyph glyph-name="分" unicode="&#x5206;" horiz-adv-x="248" d=" M39,99 L200,99 Q199,52 196,19 Q195,-22 152,-22 Q129,-23 114,-23 Q114,-16 112,-8 Q116,-8 126,-8 Q141,-9 151,-9 Q181,-11 182,21 Q185,51 185,87 L101,87 Q100,3 23,-30 Q22,-28 17,-22 Q15,-19 14,-18 Q86,8 87,87 L39,87 M148,205 L161,210 Q188,143 248,111 Q242,104 237,98 Q175,138 148,205 M17,98 Q16,100 12,104 Q9,108 7,109 Q63,147 95,206 L108,200 Q71,137 17,98"/> 
            <glyph glyph-name="到" unicode="&#x5230;" horiz-adv-x="237" d=" M134,97 Q130,106 125,113 Q106,112 73,110 Q56,109 48,109 Q46,109 42,108 Q28,107 23,105 L15,119 Q24,125 28,131 Q53,162 62,182 L11,182 L11,195 L150,195 L150,182 L79,182 Q60,152 37,121 Q49,122 78,123 Q106,125 118,125 Q114,131 106,143 Q101,152 98,156 L109,161 Q125,139 147,104 M73,98 L87,98 L87,66 L144,66 L144,54 L87,54 L87,2 Q119,5 150,10 Q150,4 150,-1 Q125,-4 72,-11 Q32,-16 11,-19 L8,-5 Q27,-3 73,0 L73,54 L14,54 L14,66 L73,66 M223,208 L236,208 L236,3 Q237,-23 209,-24 Q207,-24 196,-24 Q180,-25 176,-25 Q176,-22 175,-18 Q175,-12 174,-10 Q180,-11 207,-11 Q223,-11 223,4 M169,183 L183,183 L183,29 L169,29"/> 
            <glyph glyph-name="力" unicode="&#x529B;" horiz-adv-x="229" d=" M103,209 L117,209 Q117,171 116,152 L229,152 Q229,144 228,126 Q227,61 225,32 Q224,-22 176,-20 Q148,-21 134,-21 Q133,-17 132,-12 Q131,-8 131,-5 Q149,-6 174,-6 Q211,-9 211,36 Q211,43 212,58 Q214,114 214,139 L115,139 Q114,136 114,135 Q113,22 21,-27 Q20,-26 17,-23 Q12,-17 10,-16 Q99,33 100,131 Q100,134 100,139 L18,139 L18,152 L101,152 Q103,190 103,209"/> 
            <glyph glyph-name="动" unicode="&#x52A8;" horiz-adv-x="241" d=" M162,210 L175,210 Q175,187 175,157 L241,157 Q241,153 241,145 Q239,41 237,15 Q235,-22 201,-23 Q186,-23 170,-23 Q168,-14 165,-7 Q171,-7 182,-8 Q193,-8 199,-8 Q222,-9 223,15 Q227,88 227,144 L174,144 Q174,132 173,119 Q173,25 119,-29 Q117,-27 111,-23 Q108,-21 107,-20 Q158,28 159,120 Q160,124 160,132 Q161,140 161,144 L122,144 L122,157 L161,157 Q161,165 161,182 Q162,200 162,210 M108,0 Q105,5 102,11 Q80,10 47,7 Q36,6 30,5 Q25,4 18,3 Q19,3 14,2 L8,14 Q16,20 21,32 Q35,61 52,104 L8,104 L8,118 L123,118 L123,104 L67,104 Q48,58 28,17 Q61,19 97,23 Q93,32 84,52 Q79,61 77,66 L89,71 Q100,51 119,10 Q120,7 121,5 M19,188 L113,188 L113,175 L19,175"/> 
            <glyph glyph-name="助" unicode="&#x52A9;" horiz-adv-x="236" d=" M9,-3 L7,9 Q12,9 25,11 Q16,9 28,11 L28,193 L110,193 L110,22 Q111,22 113,22 Q119,24 126,24 Q126,17 126,11 Q92,7 19,-2 Q12,-3 9,-3 M161,208 L175,208 Q174,200 174,182 Q173,165 173,156 L236,156 Q235,134 234,91 Q232,30 231,8 Q231,-24 199,-24 Q195,-24 186,-24 Q174,-25 167,-25 Q166,-17 164,-11 Q170,-11 181,-12 Q191,-12 195,-12 Q217,-12 218,8 Q222,79 222,143 L173,143 Q173,139 173,130 Q172,121 172,116 Q170,16 118,-29 Q113,-24 107,-19 Q158,19 159,116 Q159,120 159,128 Q160,138 160,143 L129,143 L129,156 L160,156 Q161,182 161,208 M41,13 Q50,14 69,17 Q88,19 97,20 L97,65 L41,65 M41,181 L41,134 L97,134 L97,181 M41,123 L41,76 L97,76 L97,123"/> 
            <glyph glyph-name="匙" unicode="&#x5319;" horiz-adv-x="249" d=" M30,198 L127,198 L127,109 L30,109 M15,-28 Q11,-22 6,-17 Q30,11 30,63 L43,62 Q43,47 41,37 Q55,5 77,-1 L77,75 L9,75 L9,87 L146,87 L146,75 L90,75 L90,42 L142,42 L142,31 L90,31 L90,-5 Q103,-8 120,-8 Q207,-8 249,-7 Q249,-8 248,-10 Q246,-16 245,-21 Q187,-21 163,-21 Q134,-21 116,-20 Q55,-19 38,18 Q31,-5 15,-28 M232,163 L241,153 Q206,126 177,110 L177,51 Q176,32 195,33 L208,33 Q226,32 228,48 Q229,53 231,67 Q232,75 233,79 Q239,78 246,76 Q246,75 246,72 Q243,52 241,43 Q236,19 209,20 L192,20 Q163,19 164,49 L164,204 L177,204 L177,124 Q206,142 232,163 M44,148 L44,120 L114,120 L114,148 M44,187 L44,159 L114,159 L114,187"/> 
            <glyph glyph-name="压" unicode="&#x538B;" horiz-adv-x="247" d=" M57,-1 L145,-1 L145,91 L76,91 L76,104 L145,104 L145,160 L159,160 L159,104 L237,104 L237,91 L159,91 L159,-1 L247,-1 L247,-15 L57,-15 M51,111 Q51,54 45,28 Q39,1 20,-26 Q19,-25 15,-23 Q8,-18 7,-17 Q26,8 31,32 Q37,56 37,106 L37,192 L246,192 L246,178 L51,178 M186,60 L197,68 Q206,59 222,41 Q228,34 231,31 L219,22 Q203,42 186,60"/> 
            <glyph glyph-name="双" unicode="&#x53CC;" horiz-adv-x="250" d=" M118,177 L118,190 L233,190 L233,177 Q219,85 185,41 Q208,9 250,-12 Q247,-14 241,-24 Q240,-25 240,-25 Q197,1 176,30 Q152,-1 99,-30 Q97,-27 93,-22 Q90,-18 90,-17 Q142,9 168,42 Q135,88 126,177 M13,144 L25,151 Q32,140 46,118 Q63,92 71,80 Q87,118 94,177 L9,177 L9,190 L108,190 L108,177 Q99,107 80,66 Q98,36 114,11 L101,3 Q97,9 90,21 Q78,41 72,50 Q54,16 18,-21 Q14,-16 7,-11 Q45,28 64,64 Q52,84 25,125 Q17,138 13,144 M219,177 L140,177 Q147,96 177,53 Q208,96 219,177"/> 
            <glyph glyph-name="发" unicode="&#x53D1;" horiz-adv-x="247" d=" M33,153 L93,153 Q100,180 104,210 L119,208 Q117,200 114,183 Q110,163 108,153 L247,153 L247,140 L104,140 Q99,121 93,103 L218,103 L218,91 Q200,46 164,17 Q189,0 246,-13 Q243,-17 239,-25 Q238,-26 238,-27 Q184,-12 152,8 Q124,-8 59,-30 Q58,-26 53,-20 Q52,-17 51,-16 Q115,0 141,17 Q106,46 91,91 L88,91 Q63,29 16,-18 Q14,-15 9,-11 Q6,-8 5,-7 Q68,52 90,140 L19,140 L19,156 Q30,179 37,201 L51,197 Q50,193 47,186 Q38,163 33,153 M204,91 L104,91 Q119,51 153,25 Q188,52 204,91 M164,196 L172,206 Q194,192 215,177 L206,166 Q178,187 164,196"/> 
            <glyph glyph-name="变" unicode="&#x53D8;" horiz-adv-x="246" d=" M36,67 L36,80 L202,80 L202,65 Q178,32 142,10 Q182,-6 246,-13 Q245,-16 243,-20 Q240,-25 239,-27 Q171,-18 127,2 Q84,-17 18,-30 Q15,-24 10,-17 Q74,-5 114,10 Q85,30 61,67 M116,207 L130,211 Q136,198 142,180 L131,177 L244,177 L244,164 L164,164 L164,97 L151,97 L151,164 L105,164 L105,96 L92,96 L92,164 L11,164 L11,177 L129,177 Q123,192 116,207 M186,67 L78,67 Q99,36 128,18 Q160,34 186,67 M187,135 L197,144 Q210,133 235,107 Q242,100 246,96 L235,86 Q219,104 187,135 M55,144 L66,135 Q47,113 20,87 Q15,93 9,97 Q32,116 55,144"/> 
            <glyph glyph-name="台" unicode="&#x53F0;" horiz-adv-x="250" d=" M215,78 L215,-29 L201,-29 L201,-13 L55,-13 L55,-29 L41,-29 L41,78 M55,65 L55,0 L201,0 L201,65 M237,94 Q228,105 217,115 Q121,114 45,109 Q32,109 21,106 L14,121 Q26,127 33,133 Q79,172 111,211 L125,204 Q91,166 42,123 Q81,124 173,127 Q194,128 205,128 Q199,135 185,148 Q172,161 165,167 L176,175 Q193,160 225,128 Q242,112 250,104"/> 
            <glyph glyph-name="号" unicode="&#x53F7;" horiz-adv-x="249" d=" M46,198 L210,198 L210,130 L46,130 M45,44 L61,88 L7,88 L7,102 L249,102 L249,88 L76,88 L65,57 L214,57 Q213,43 211,22 Q210,14 210,10 Q207,-24 159,-24 Q135,-25 108,-25 Q107,-18 105,-9 Q121,-10 158,-10 Q194,-12 196,13 Q197,18 198,29 Q199,40 199,44 M60,185 L60,143 L196,143 L196,185"/> 
            <glyph glyph-name="合" unicode="&#x5408;" horiz-adv-x="248" d=" M43,75 L212,75 L212,-29 L198,-29 L198,-13 L57,-13 L57,-29 L43,-29 M57,62 L57,0 L198,0 L198,62 M239,105 Q165,141 129,189 Q89,141 17,102 Q16,104 13,109 Q10,113 8,115 Q86,153 128,211 L143,208 Q140,204 137,199 Q179,147 248,119 Q244,114 239,105 M58,124 L198,124 L198,111 L58,111"/> 
            <glyph glyph-name="后" unicode="&#x540E;" horiz-adv-x="247" d=" M79,77 L224,77 L224,-27 L210,-27 L210,-11 L93,-11 L93,-27 L79,-27 M51,115 Q51,63 45,35 Q39,7 19,-27 Q18,-26 15,-24 Q9,-20 7,-18 Q25,9 31,37 Q37,64 37,115 L37,188 Q133,190 227,202 L233,188 Q138,178 51,174 L51,135 L247,135 L247,122 L51,122 M93,64 L93,0 L210,0 L210,64"/> 
            <glyph glyph-name="吧" unicode="&#x5427;" horiz-adv-x="250" d=" M117,9 Q117,-8 138,-8 L204,-8 Q228,-8 232,10 Q232,13 233,19 Q235,36 236,47 Q243,44 250,43 Q248,23 244,5 Q239,-21 206,-21 L136,-21 Q103,-22 104,8 L104,197 L230,197 L230,86 L117,86 M18,186 L76,186 L76,16 L63,16 L63,35 L30,35 L30,8 L18,8 M30,174 L30,47 L63,47 L63,174 M117,185 L117,99 L161,99 L161,185 M217,185 L174,185 L174,99 L217,99"/> 
            <glyph glyph-name="在" unicode="&#x5728;" horiz-adv-x="248" d=" M103,210 L117,208 Q111,190 104,175 L248,175 L248,162 L98,162 Q84,130 63,103 L63,-28 L49,-28 L49,87 Q30,65 16,54 Q13,59 7,65 Q60,111 83,162 L18,162 L18,175 L89,175 Q97,191 103,210 M154,142 L167,142 L167,92 L234,92 L234,80 L167,80 L167,2 L248,2 L248,-9 L75,-9 L75,2 L154,2 L154,80 L88,80 L88,92 L154,92"/> 
            <glyph glyph-name="坡" unicode="&#x5761;" horiz-adv-x="249" d=" M167,209 L181,209 L181,175 L244,175 L236,129 Q231,131 223,131 L229,163 L181,163 L181,110 L230,110 L230,97 Q214,48 186,20 Q210,0 249,-14 Q248,-16 245,-21 Q242,-25 240,-27 Q202,-10 177,11 Q148,-12 108,-30 Q107,-28 104,-24 Q101,-20 99,-17 Q144,0 167,21 Q142,49 127,98 L115,98 L115,88 Q117,14 76,-28 Q71,-24 65,-19 Q104,21 102,88 L102,175 L167,175 M11,12 L6,26 Q14,28 30,34 Q38,37 42,38 L42,133 L9,133 L9,145 L42,145 L42,209 L56,209 L56,145 L88,145 L88,133 L56,133 L56,43 Q58,44 63,46 Q72,49 87,56 Q87,53 88,48 Q88,44 88,42 Q69,36 19,15 Q14,13 11,12 M141,98 Q153,55 177,30 Q202,56 216,98 M115,163 L115,110 L167,110 L167,163"/> 
            <glyph glyph-name="域" unicode="&#x57DF;" horiz-adv-x="249" d=" M143,-29 Q138,-24 132,-19 Q162,4 183,33 Q175,60 172,124 Q172,137 171,152 L84,152 L84,164 L171,164 Q171,186 171,210 L184,210 Q184,189 184,164 L246,164 L246,152 L185,152 Q185,137 185,125 Q188,78 193,48 Q213,79 226,121 L238,116 Q221,67 197,30 Q204,7 213,-4 Q219,-13 225,-12 Q231,-13 233,-1 Q236,9 237,35 Q243,32 249,30 Q247,5 244,-7 Q240,-28 225,-27 Q213,-27 204,-14 Q194,-1 187,17 Q175,0 143,-29 M90,121 L148,121 L148,50 L90,50 M9,3 L6,17 Q12,18 23,22 Q33,25 38,26 L38,128 L8,128 L8,140 L38,140 L38,210 L51,210 L51,140 L78,140 L78,128 L51,128 L51,30 Q65,35 78,39 Q78,29 79,26 Q40,14 9,3 M102,110 L102,62 L136,62 L136,110 M75,0 L71,12 Q88,15 128,22 Q148,26 157,28 Q157,22 157,15 Q148,13 126,9 Q91,2 75,0 M225,175 Q219,182 206,193 Q202,196 200,198 L208,206 Q222,196 234,185"/> 
            <glyph glyph-name="备" unicode="&#x5907;" horiz-adv-x="248" d=" M40,83 L216,83 L216,-29 L202,-29 L202,-18 L53,-18 L53,-29 L40,-29 M241,91 Q168,102 131,118 Q88,100 13,86 Q11,89 8,96 Q7,99 6,100 Q74,109 116,126 Q90,139 65,168 Q44,145 23,129 Q19,134 13,138 Q58,172 81,212 L94,206 Q87,197 81,188 L215,188 L215,175 Q184,143 148,125 Q188,110 248,106 Q247,104 245,99 Q242,94 241,91 M198,176 L74,176 Q98,148 132,132 Q166,147 198,176 M202,72 L134,72 L134,37 L202,37 M134,26 L134,-6 L202,-6 L202,26 M53,72 L53,37 L121,37 L121,72 M53,26 L53,-6 L121,-6 L121,26"/> 
            <glyph glyph-name="大" unicode="&#x5927;" horiz-adv-x="248" d=" M20,-28 Q18,-26 15,-23 Q11,-18 9,-16 Q114,34 119,127 L10,127 L10,141 L120,141 Q123,174 122,209 L136,209 Q136,164 135,141 L246,141 L246,127 L135,127 Q150,30 248,-11 Q239,-21 238,-24 Q144,19 128,104 Q117,19 20,-28"/> 
            <glyph glyph-name="学" unicode="&#x5B66;" horiz-adv-x="248" d=" M126,67 L180,98 L56,98 L56,111 L197,111 L197,95 L140,61 L140,51 L248,51 L248,38 L140,38 L140,1 Q141,-28 111,-28 Q96,-28 78,-28 Q78,-26 77,-23 Q76,-16 75,-12 Q90,-13 107,-13 Q128,-15 126,4 L126,38 L8,38 L8,51 L126,51 M17,155 L240,155 L240,108 L226,108 L226,142 L31,142 L31,108 L17,108 M184,158 L172,167 Q191,186 206,206 L218,197 Q213,191 202,179 Q190,165 184,158 M105,204 L117,210 Q131,192 144,171 L131,164 Q118,186 105,204 M37,197 L48,204 Q66,184 77,169 L65,160 Q55,175 37,197"/> 
            <glyph glyph-name="安" unicode="&#x5B89;" horiz-adv-x="249" d=" M25,-29 Q24,-27 22,-23 Q19,-17 17,-15 Q83,-5 122,19 Q105,27 67,44 Q57,49 51,51 Q56,58 67,75 Q73,85 76,90 L7,90 L7,103 L84,103 Q87,108 92,118 Q102,138 108,148 L121,143 Q119,140 116,133 Q111,123 99,103 L249,103 L249,90 L197,90 Q182,49 149,22 Q158,18 174,11 Q193,3 231,-14 L223,-27 Q215,-23 199,-16 Q158,3 136,12 Q95,-14 25,-29 M70,56 Q82,51 108,40 Q126,32 135,28 Q168,54 182,90 L91,90 Q81,72 70,56 M114,205 L126,211 Q130,206 137,195 Q144,184 147,179 L136,173 L236,173 L236,131 L222,131 L222,160 L35,160 L35,131 L21,131 L21,173 L133,173 Q130,178 124,189 Q117,200 114,205"/> 
            <glyph glyph-name="定" unicode="&#x5B9A;" horiz-adv-x="248" d=" M17,-29 Q16,-28 13,-24 Q9,-20 7,-18 Q49,18 55,86 L70,84 Q66,60 60,41 Q88,-2 127,-6 L127,109 L12,109 L12,121 L244,121 L244,109 L141,109 L141,62 L228,62 L228,49 L141,49 L141,-7 Q192,-9 248,-7 Q245,-15 243,-22 Q164,-22 135,-21 Q85,-19 55,26 Q43,-4 17,-29 M118,207 L133,210 Q134,207 136,200 Q139,187 140,180 L236,180 L236,137 L223,137 L223,167 L34,167 L34,138 L21,138 L21,180 L125,180 Q122,194 118,207"/> 
            <glyph glyph-name="小" unicode="&#x5C0F;" horiz-adv-x="249" d=" M63,152 L78,147 Q54,81 23,23 Q16,28 8,31 Q40,82 63,152 M176,145 L189,151 Q208,117 249,34 L234,27 Q207,87 176,145 M123,207 L138,207 L138,4 Q139,-25 107,-26 Q91,-26 73,-26 Q72,-19 69,-11 Q85,-11 101,-11 Q125,-13 123,8"/> 
            <glyph glyph-name="平" unicode="&#x5E73;" horiz-adv-x="247" d=" M21,198 L236,198 L236,184 L135,184 L135,74 L247,74 L247,60 L135,60 L135,-30 L121,-30 L121,60 L9,60 L9,74 L121,74 L121,184 L21,184 M173,93 L161,102 Q192,137 209,162 L221,154 Q211,140 188,111 Q178,99 173,93 M35,154 L46,162 Q69,133 91,103 L78,94 Q57,126 35,154"/> 
            <glyph glyph-name="年" unicode="&#x5E74;" horiz-adv-x="250" d=" M22,115 Q17,121 11,125 Q47,160 68,211 L82,207 Q76,194 69,182 L239,182 L239,169 L150,169 L150,120 L234,120 L234,107 L150,107 L150,48 L250,48 L250,35 L150,35 L150,-31 L136,-31 L136,35 L7,35 L7,48 L48,48 L48,120 L136,120 L136,169 L62,169 Q46,141 22,115 M61,107 L61,48 L136,48 L136,107"/> 
            <glyph glyph-name="应" unicode="&#x5E94;" horiz-adv-x="247" d=" M127,207 L140,211 Q141,207 146,195 Q151,180 153,174 L244,174 L244,161 L48,161 L48,111 Q48,55 42,27 Q36,0 17,-28 Q14,-26 6,-20 Q24,7 29,31 Q35,56 35,106 L35,174 L139,174 Q133,192 127,207 M211,132 L225,128 Q199,38 184,0 L247,0 L247,-13 L53,-13 L53,0 L170,0 Q197,74 211,132 M68,122 L81,125 Q95,80 108,28 L95,25 Q82,76 68,122 M128,134 L141,136 Q146,114 155,72 Q160,51 162,40 L148,37 Q137,94 128,134"/> 
            <glyph glyph-name="度" unicode="&#x5EA6;" horiz-adv-x="246" d=" M240,-27 Q181,-17 145,0 Q114,-16 52,-30 Q51,-29 50,-26 Q48,-23 44,-17 Q90,-9 131,7 Q102,25 81,53 L65,53 L65,65 L215,65 L215,52 Q186,21 159,6 Q197,-7 246,-13 Q245,-15 243,-19 Q241,-25 240,-27 M184,161 L197,161 L197,139 L243,139 L243,127 L197,127 L197,89 L94,89 L94,127 L57,127 L57,139 L94,139 L94,161 L107,161 L107,139 L184,139 M131,208 L144,211 Q148,198 151,182 L246,182 L246,170 L46,170 L46,98 Q46,49 40,24 Q35,-1 17,-29 Q12,-25 6,-20 Q23,6 27,28 Q32,49 32,100 L32,182 L137,182 Q136,187 134,195 Q132,204 131,208 M198,53 L97,53 Q122,26 145,14 Q175,29 198,53 M107,127 L107,100 L184,100 L184,127"/> 
            <glyph glyph-name="式" unicode="&#x5F0F;" horiz-adv-x="249" d=" M145,210 L159,210 Q159,183 159,158 L248,158 L248,145 L160,145 Q161,112 165,86 Q172,35 186,10 Q198,-15 214,-14 Q225,-14 230,1 Q235,20 236,33 Q237,32 240,31 Q243,30 249,28 Q246,9 242,-3 Q235,-29 214,-28 Q190,-29 173,5 Q158,34 151,84 Q148,114 146,145 L8,145 L8,158 L146,158 Q145,183 145,210 M12,-8 L8,4 Q20,5 50,9 Q61,10 66,11 L66,87 L17,87 L17,100 L129,100 L129,87 L80,87 L80,13 Q108,16 140,21 Q140,18 140,8 Q110,4 43,-4 Q21,-7 12,-8 M182,195 L192,204 Q212,188 226,175 L216,165 Q199,182 182,195"/> 
            <glyph glyph-name="强" unicode="&#x5F3A;" horiz-adv-x="250" d=" M101,103 L162,103 L162,135 L110,135 L110,197 L226,197 L226,135 L175,135 L175,103 L236,103 L236,36 L175,36 L175,-2 Q199,-2 220,0 Q213,8 205,20 L217,26 Q219,23 224,16 Q240,-6 250,-22 L238,-29 Q234,-20 229,-13 Q163,-16 88,-21 L86,-6 Q123,-5 162,-3 L162,36 L101,36 M31,123 L26,77 L79,77 Q78,34 75,8 Q74,-26 39,-24 Q29,-25 19,-25 Q18,-18 15,-10 Q27,-11 38,-11 Q61,-12 62,9 Q62,13 63,22 Q65,49 65,65 L12,65 L19,135 L69,135 L69,184 L13,184 L13,196 L82,196 L82,123 M123,185 L123,147 L213,147 L213,185 M114,91 L114,48 L162,48 L162,91 M223,91 L175,91 L175,48 L223,48"/> 
            <glyph glyph-name="彩" unicode="&#x5F69;" horiz-adv-x="248" d=" M16,-6 Q15,-4 11,0 Q8,2 7,4 Q45,33 69,81 L15,81 L15,93 L70,93 L70,113 L83,113 L83,93 L135,93 L135,81 L83,81 L83,50 L89,57 Q111,42 138,22 L129,11 Q104,32 83,47 L83,-29 L70,-29 L70,62 Q51,22 16,-6 M132,-29 Q131,-27 127,-22 Q125,-18 124,-16 Q197,10 237,64 L248,56 Q206,1 132,-29 M15,179 Q14,185 12,191 Q87,194 137,199 L140,187 Q116,185 65,182 Q32,180 15,179 M147,69 Q200,96 229,132 L240,123 Q205,84 157,58 Q156,60 152,64 Q149,68 147,69 M144,139 Q191,162 223,199 L233,190 Q202,155 153,127 Q150,133 144,139 M113,114 L101,121 Q120,148 129,168 L141,162 Q136,153 125,135 Q118,122 113,114 M14,156 L26,161 Q43,131 48,120 L36,114 Q26,136 14,156 M62,168 L74,172 Q80,156 89,130 L77,126 Q71,148 62,168"/> 
            <glyph glyph-name="待" unicode="&#x5F85;" horiz-adv-x="249" d=" M97,175 L159,175 L159,210 L173,210 L173,175 L238,175 L238,163 L173,163 L173,122 L249,122 L249,110 L85,110 L85,122 L159,122 L159,163 L97,163 M194,97 L207,97 L207,73 L249,73 L249,61 L207,61 L207,1 Q208,-25 175,-26 Q158,-26 143,-26 Q143,-20 140,-12 Q157,-12 172,-12 Q196,-13 194,5 L194,61 L84,61 L84,73 L194,73 M15,51 Q14,52 13,55 Q8,62 7,63 Q43,94 70,145 L82,138 Q70,118 58,100 L58,-29 L45,-29 L45,83 Q32,66 15,51 M19,128 Q16,134 11,140 Q44,167 70,210 L82,202 Q54,157 19,128 M102,40 L112,49 Q126,37 147,15 L136,6 Q130,12 112,30 Q105,37 102,40"/> 
            <glyph glyph-name="性" unicode="&#x6027;" horiz-adv-x="249" d=" M163,210 L176,210 L176,154 L242,154 L242,142 L176,142 L176,77 L237,77 L237,64 L176,64 L176,-5 L249,-5 L249,-18 L81,-18 L81,-5 L163,-5 L163,64 L98,64 L98,77 L163,77 L163,142 L117,142 Q109,119 98,98 Q91,102 85,105 Q108,147 118,193 L132,190 Q130,183 126,170 Q123,159 122,154 L163,154 M42,210 L56,210 L56,-30 L42,-30 M17,152 L30,150 Q29,146 28,136 Q26,123 20,92 Q14,94 7,94 Q14,124 17,152 M59,161 L69,167 Q80,153 90,135 L79,128 Q76,134 70,143 Q63,155 59,161"/> 
            <glyph glyph-name="想" unicode="&#x60F3;" horiz-adv-x="249" d=" M229,65 L117,65 L117,198 L229,198 M15,76 Q13,80 9,85 Q8,87 7,88 Q34,115 53,158 L12,158 L12,170 L54,170 L54,209 L66,209 L66,170 L104,170 L104,158 L66,158 L66,131 L73,137 Q88,125 103,112 L94,103 Q91,106 85,111 Q73,122 66,128 L66,60 L54,60 L54,138 Q41,106 15,76 M130,187 L130,157 L216,157 L216,187 M130,106 L130,77 L216,77 L216,106 M71,46 L85,46 L85,7 Q84,-10 108,-10 L152,-10 Q174,-10 178,7 Q180,19 182,28 Q189,25 195,24 Q192,9 189,0 Q183,-23 155,-23 L105,-23 Q71,-23 71,5 M130,146 L130,117 L216,117 L216,146 M33,44 L46,40 Q32,6 22,-13 Q16,-9 9,-6 Q23,14 33,44 M206,37 L217,44 Q222,37 232,25 Q243,10 249,2 L238,-4 Q231,3 220,18 Q211,31 206,37 M112,47 L122,55 Q137,40 152,24 L141,15 Q134,23 122,37 Q115,43 112,47"/> 
            <glyph glyph-name="感" unicode="&#x611F;" horiz-adv-x="250" d=" M150,44 Q148,47 141,54 Q162,69 177,84 Q163,114 159,164 L49,164 L49,138 Q51,77 22,41 Q18,45 12,49 Q38,83 36,138 L36,176 L158,176 Q157,181 157,193 Q156,203 156,209 L169,209 Q169,191 171,176 L247,176 L247,164 L172,164 Q176,125 186,95 Q202,114 217,147 L229,142 Q210,102 192,82 Q204,59 216,59 Q225,59 230,71 Q235,85 238,100 Q240,99 246,97 Q248,96 250,95 Q250,93 249,89 Q245,75 243,69 Q235,46 216,46 Q197,47 183,72 Q168,57 150,44 M67,112 L140,112 L140,61 L67,61 M69,38 L82,38 L82,8 Q80,-13 106,-11 L150,-11 Q174,-12 177,3 Q179,7 181,23 Q181,21 182,27 L195,22 Q195,20 194,15 Q193,7 190,0 Q185,-24 154,-23 L102,-23 Q67,-25 69,7 M80,101 L80,72 L127,72 L127,101 M61,144 L146,144 L146,133 L61,133 M34,37 L46,32 Q40,19 27,-4 Q23,-12 21,-15 L8,-9 Q22,10 34,37 M208,29 L219,36 Q225,28 223,31 Q242,4 249,-4 L237,-11 Q232,-5 223,8 Q213,22 208,29 M109,42 L119,50 Q127,42 140,28 Q144,23 147,20 L137,11 Q122,29 109,42 M188,197 L197,206 Q200,203 208,196 Q218,188 221,185 L212,176 Q196,192 188,197"/> 
            <glyph glyph-name="成" unicode="&#x6210;" horiz-adv-x="249" d=" M145,210 L158,210 Q158,201 159,185 Q159,168 160,160 L247,160 L247,147 L161,147 Q165,80 175,45 Q197,74 217,120 L230,114 Q205,59 180,30 Q195,-14 214,-14 Q225,-14 230,1 Q235,20 236,33 Q237,32 240,31 Q243,30 249,28 Q246,9 242,-3 Q234,-28 214,-27 Q188,-28 170,18 Q154,0 122,-24 Q117,-19 112,-13 Q143,7 165,33 Q151,71 147,147 L47,147 L47,105 L118,105 Q118,76 115,36 Q115,0 82,1 Q75,0 60,0 Q59,7 57,15 Q69,14 80,14 Q102,13 102,35 Q102,39 103,46 Q104,74 104,92 L47,92 Q46,45 40,22 Q35,0 17,-29 Q16,-28 12,-25 Q8,-21 6,-20 Q24,7 28,30 Q33,51 33,106 L33,160 L146,160 Q146,167 146,183 Q145,201 145,210 M180,194 L188,203 Q212,188 226,178 L217,168 Q215,170 210,173 Q191,187 180,194"/> 
            <glyph glyph-name="我" unicode="&#x6211;" horiz-adv-x="250" d=" M10,47 L6,61 Q9,61 14,62 Q43,67 62,70 L62,122 L6,122 L6,134 L62,134 L62,177 Q56,176 44,175 Q23,173 17,172 Q16,176 14,182 Q13,184 13,185 Q63,190 113,198 L117,186 Q114,185 107,184 Q99,183 76,179 L76,134 L147,134 Q145,170 145,210 L159,210 Q159,170 161,134 L250,134 L250,122 L161,122 Q162,115 163,101 Q165,91 165,86 Q168,63 172,48 Q198,71 220,102 L232,94 Q200,52 176,34 Q180,21 186,11 Q198,-13 214,-13 Q225,-13 229,1 Q234,15 236,34 Q237,33 240,32 Q243,31 249,29 Q246,11 241,-5 Q235,-27 214,-27 Q190,-28 173,6 Q168,14 165,24 Q139,4 102,-13 Q96,-4 93,-2 Q128,12 160,38 Q154,59 151,84 Q151,88 150,97 Q148,113 148,122 L76,122 L76,73 Q88,75 111,80 Q121,82 126,83 Q126,77 126,70 Q119,69 104,65 Q86,62 76,60 L76,2 Q77,-23 51,-24 Q44,-25 22,-25 Q21,-17 19,-11 Q30,-11 46,-11 Q63,-12 62,2 L62,57 Q58,56 49,55 Q38,53 10,47 M178,186 L188,195 Q207,180 229,159 L219,150 Q217,152 209,159 Q186,179 178,186"/> 
            <glyph glyph-name="戴" unicode="&#x6234;" horiz-adv-x="251" d=" M22,133 L144,133 L144,72 L118,72 L118,53 L149,53 L149,42 L118,42 L118,21 L154,21 L154,11 L8,11 L8,21 L49,21 L49,42 L15,42 L15,53 L49,53 L49,72 L22,72 M157,-13 Q156,-12 155,-11 Q151,-6 148,-4 Q167,12 182,34 Q175,65 173,110 Q172,116 172,130 Q171,142 171,149 L8,149 L8,160 L76,160 L76,179 L18,179 L18,190 L76,190 L76,209 L89,209 L89,190 L146,190 L146,179 L89,179 L89,160 L171,160 Q171,183 171,209 L184,209 Q184,183 184,160 L249,160 L249,149 L184,149 Q184,142 185,129 Q185,115 186,109 Q187,75 192,49 Q213,86 223,128 L236,124 Q219,68 196,32 Q201,11 209,-1 Q218,-14 225,-14 Q232,-14 235,-1 Q237,5 239,30 Q245,27 251,25 Q250,16 248,1 Q247,-2 247,-4 Q242,-27 226,-28 Q208,-28 197,-4 Q191,4 187,18 Q174,1 157,-13 M61,42 L61,21 L106,21 L106,42 M61,72 L61,53 L106,53 L106,72 M34,98 L34,82 L78,82 L78,98 M34,123 L34,107 L78,107 L78,123 M89,98 L89,82 L133,82 L133,98 M133,123 L89,123 L89,107 L133,107 M60,4 L67,-4 Q47,-16 17,-29 Q16,-27 14,-23 Q12,-20 11,-18 Q38,-7 60,4 M96,-4 L102,4 Q126,-5 147,-17 L141,-28 Q116,-13 96,-4 M198,198 L206,206 Q222,194 237,179 L228,170 Q218,180 200,196 Q201,195 198,198"/> 
            <glyph glyph-name="手" unicode="&#x624B;" horiz-adv-x="249" d=" M225,185 Q212,185 184,183 Q152,182 136,181 L136,129 L227,129 L227,117 L136,117 L136,65 L249,65 L249,52 L136,52 L136,4 Q137,-25 103,-25 Q82,-25 66,-25 Q65,-19 62,-10 Q74,-11 100,-11 Q123,-12 122,7 L122,52 L8,52 L8,65 L122,65 L122,117 L26,117 L26,129 L122,129 L122,180 Q69,179 24,177 Q24,184 22,190 Q133,192 222,198"/> 
            <glyph glyph-name="技" unicode="&#x6280;" horiz-adv-x="248" d=" M103,100 L103,112 L164,112 L164,156 L100,156 L100,169 L164,169 L164,209 L177,209 L177,169 L245,169 L245,156 L177,156 L177,112 L230,112 L230,100 Q210,47 179,19 Q201,2 248,-15 Q246,-17 241,-25 Q239,-27 239,-28 Q194,-9 169,10 Q140,-11 89,-30 Q87,-25 80,-18 Q138,3 159,19 Q131,48 115,100 M6,78 Q20,81 44,87 L44,147 L9,147 L9,159 L44,159 L44,208 L57,208 L57,159 L87,159 L87,147 L57,147 L57,91 Q74,96 89,100 Q89,95 89,87 Q86,86 78,84 Q65,80 57,78 L57,1 Q58,-26 32,-26 Q20,-26 14,-26 Q14,-25 13,-22 Q11,-15 10,-12 Q18,-13 29,-13 Q45,-14 44,1 L44,74 Q26,69 8,63 M216,100 L130,100 Q145,53 169,28 Q198,52 216,100"/> 
            <glyph glyph-name="护" unicode="&#x62A4;" horiz-adv-x="237" d=" M152,203 L164,209 Q169,202 180,186 Q183,180 185,178 L173,172 L237,172 L237,65 L223,65 L223,77 L121,77 Q120,13 87,-28 Q86,-27 84,-26 Q78,-21 75,-20 Q96,8 102,34 Q108,59 108,110 L108,172 L172,172 Q162,188 152,203 M121,159 L121,109 Q121,99 121,90 L223,90 L223,159 M8,63 L6,77 Q10,78 20,81 Q36,85 44,87 L44,150 L11,150 L11,162 L44,162 L44,209 L57,209 L57,162 L89,162 L89,150 L57,150 L57,91 Q74,96 90,100 Q90,95 91,87 Q86,86 74,83 Q63,80 57,78 L57,0 Q58,-26 32,-25 Q22,-25 14,-25 Q14,-23 13,-19 Q12,-13 11,-11 Q13,-11 18,-11 Q26,-12 30,-12 Q45,-13 44,1 L44,73 Q37,71 24,67 Q13,64 8,63"/> 
            <glyph glyph-name="掌" unicode="&#x638C;" horiz-adv-x="247" d=" M225,75 Q211,74 181,74 Q151,73 136,73 L136,54 L221,54 L221,42 L136,42 L136,23 L247,23 L247,11 L136,11 L136,0 Q137,-26 105,-25 Q94,-26 72,-26 Q72,-24 71,-19 Q70,-15 69,-12 Q84,-13 104,-13 Q124,-14 123,2 L123,11 L9,11 L9,23 L123,23 L123,42 L27,42 L27,54 L123,54 L123,73 Q107,73 74,72 Q43,72 28,72 Q27,78 25,83 Q167,85 222,87 M55,147 L201,147 L201,102 L55,102 M16,176 L81,176 Q76,179 66,186 Q52,196 46,199 L54,209 Q56,208 60,205 Q83,191 91,185 L83,176 L121,176 L121,211 L135,211 L135,176 L171,176 L164,185 Q194,203 201,209 L210,200 Q193,187 173,176 L241,176 L241,135 L229,135 L229,165 L28,165 L28,135 L16,135 M68,136 L68,113 L188,113 L188,136"/> 
            <glyph glyph-name="控" unicode="&#x63A7;" horiz-adv-x="248" d=" M8,62 L6,76 Q14,78 33,82 Q39,83 42,84 L42,148 L9,148 L9,160 L42,160 L42,210 L56,210 L56,160 L81,160 L81,148 L56,148 L56,88 Q63,90 76,93 Q81,94 83,95 Q83,87 84,82 Q80,81 72,79 Q62,76 56,75 L56,0 Q57,-27 31,-26 Q24,-27 9,-27 Q9,-21 6,-12 Q18,-13 28,-13 Q43,-14 42,0 L42,71 Q26,67 8,62 M100,72 L236,72 L236,60 L175,60 L175,-6 L248,-6 L248,-18 L83,-18 L83,-6 L161,-6 L161,60 L100,60 M97,172 L241,172 L241,130 L227,130 L227,159 L110,159 L110,130 L97,130 M182,127 L191,136 Q224,112 244,94 L235,83 Q209,106 182,127 M92,93 Q122,113 145,136 L155,126 Q133,105 101,83 Q98,88 92,93 M151,205 L162,210 Q172,195 181,180 L169,173 Q165,182 154,200 Q152,203 151,205"/> 
            <glyph glyph-name="握" unicode="&#x63E1;" horiz-adv-x="248" d=" M100,111 Q100,54 94,28 Q89,0 70,-28 Q69,-27 64,-23 Q60,-21 59,-20 Q77,7 82,31 Q88,55 88,106 L88,197 L238,197 L238,145 L100,145 M10,64 L6,77 Q12,79 22,84 Q33,88 38,90 L38,147 L9,147 L9,159 L38,159 L38,209 L51,209 L51,159 L76,159 L76,147 L51,147 L51,95 Q56,98 66,102 Q73,105 76,106 Q76,96 77,93 Q63,87 51,82 L51,1 Q52,-24 28,-24 Q21,-25 12,-25 Q12,-21 11,-15 Q10,-12 10,-11 Q15,-11 26,-11 Q39,-12 38,0 L38,76 Q25,70 10,64 M234,51 Q230,57 222,64 Q138,63 118,60 L114,73 Q136,86 156,112 L112,112 L112,123 L242,123 L242,112 L174,112 Q144,82 133,73 Q147,73 173,74 Q199,74 212,74 Q208,78 202,85 Q196,91 194,93 L203,100 Q230,75 245,59 M100,186 L100,155 L225,155 L225,186 M111,33 L167,33 L167,53 L180,53 L180,33 L234,33 L234,22 L180,22 L180,-6 L248,-6 L248,-18 L97,-18 L97,-6 L167,-6 L167,22 L111,22"/> 
            <glyph glyph-name="携" unicode="&#x643A;" horiz-adv-x="244" d=" M80,123 Q76,128 71,132 Q103,165 121,209 L133,205 Q127,190 119,176 L242,176 L242,166 L179,166 L179,145 L236,145 L236,135 L179,135 L179,115 L236,115 L236,104 L179,104 L179,84 L244,84 L244,74 L112,74 L112,65 L99,65 L99,145 Q90,133 80,123 M9,65 L7,79 Q26,83 39,88 L39,150 L9,150 L9,162 L39,162 L39,209 L52,209 L52,162 L78,162 L78,150 L52,150 L52,92 Q67,97 78,101 Q78,97 79,91 Q80,89 80,88 Q69,85 52,79 L52,-1 Q54,-26 27,-26 Q17,-26 11,-26 Q11,-20 9,-13 Q15,-13 23,-13 Q41,-14 39,0 L39,75 Q32,72 18,68 Q12,66 9,65 M74,-29 Q70,-23 66,-18 Q124,0 122,42 L86,42 L86,54 L206,54 L198,24 L241,24 L238,-2 Q236,-26 209,-25 Q201,-26 174,-26 Q174,-20 170,-13 Q185,-14 206,-14 Q223,-15 225,0 L227,13 L181,13 L189,42 L135,42 Q136,-9 74,-29 M112,104 L112,84 L167,84 L167,104 M113,166 Q112,164 112,164 L112,145 L167,145 L167,166 M112,135 L112,115 L167,115 L167,135 M157,205 L168,211 Q173,205 185,187 Q186,185 187,184 L175,177 Q168,190 157,205"/> 
            <glyph glyph-name="放" unicode="&#x653E;" horiz-adv-x="249" d=" M240,-28 Q202,-4 181,19 Q158,-6 117,-31 Q111,-22 108,-18 Q153,8 173,31 Q147,67 142,126 Q138,119 130,106 Q125,99 123,95 Q121,98 115,104 Q113,106 113,106 Q145,149 161,211 L175,208 Q168,184 158,162 L248,162 L248,149 L227,149 Q220,73 190,30 Q211,5 249,-14 Q248,-16 245,-21 Q241,-26 240,-28 M9,164 L124,164 L124,151 L53,151 Q53,132 51,104 L109,104 Q109,71 105,12 Q106,-22 72,-21 Q61,-21 53,-21 Q52,-15 50,-7 Q51,-7 56,-7 Q65,-8 69,-8 Q92,-9 92,11 Q95,52 95,92 L50,92 Q47,6 16,-29 Q15,-28 12,-25 Q7,-21 5,-19 Q36,15 37,99 Q39,135 39,151 L9,151 M181,42 Q207,77 214,149 L153,149 Q153,149 152,147 Q152,146 151,145 Q158,78 181,42 M56,207 L69,211 Q71,205 77,188 Q82,174 83,170 L70,166 Q65,182 56,207"/> 
            <glyph glyph-name="新" unicode="&#x65B0;" horiz-adv-x="249" d=" M114,-18 Q148,16 146,94 L146,189 Q187,191 238,198 L242,185 Q206,180 159,177 L159,113 L249,113 L249,101 L215,101 L215,-29 L201,-29 L201,101 L159,101 L159,93 Q161,13 126,-27 Q120,-23 114,-18 M64,103 L77,103 L77,77 L125,77 L125,65 L77,65 L77,1 Q78,-24 52,-25 Q43,-25 30,-25 Q30,-19 28,-12 Q38,-12 48,-12 Q64,-12 64,2 L64,65 L13,65 L13,77 L64,77 M7,122 L78,122 Q90,143 101,163 L113,157 Q103,139 92,122 L132,122 L132,111 L7,111 M57,207 L70,211 Q76,197 82,181 L125,181 L125,169 L14,169 L14,181 L68,181 Q62,197 57,207 M33,49 L44,44 Q29,11 19,-2 L8,2 Q16,15 33,49 M113,7 Q104,23 88,44 L98,51 Q106,42 118,23 Q122,18 124,15 M27,157 L38,163 Q48,149 58,131 L47,125 Q37,143 27,157"/> 
            <glyph glyph-name="无" unicode="&#x65E0;" horiz-adv-x="248" d=" M30,190 L227,190 L227,177 L133,177 Q132,142 126,112 L246,112 L246,99 L148,99 L148,13 Q146,-8 172,-7 L207,-7 Q230,-9 231,12 Q232,20 234,42 Q242,39 248,37 Q247,19 244,4 Q242,-21 208,-20 L167,-20 Q133,-21 134,11 L134,99 L123,99 Q107,17 19,-30 Q18,-29 16,-27 Q11,-21 8,-19 Q94,24 109,99 L10,99 L10,112 L112,112 Q118,141 119,177 L30,177"/> 
            <glyph glyph-name="是" unicode="&#x662F;" horiz-adv-x="249" d=" M46,198 L210,198 L210,110 L46,110 M56,62 L69,60 Q68,57 67,51 Q65,43 64,39 Q84,0 126,-4 L126,72 L11,72 L11,84 L246,84 L246,72 L139,72 L139,40 L229,40 L229,29 L139,29 L139,-5 Q142,-5 143,-5 Q179,-6 249,-6 Q246,-11 245,-20 Q201,-20 143,-18 Q84,-19 59,24 Q48,-6 15,-30 Q14,-29 11,-26 Q8,-22 6,-20 Q49,9 56,62 M59,149 L59,122 L196,122 L196,149 M59,187 L59,160 L196,160 L196,187"/> 
            <glyph glyph-name="智" unicode="&#x667A;" horiz-adv-x="234" d=" M48,77 L210,77 L210,-29 L197,-29 L197,-18 L61,-18 L61,-29 L48,-29 M145,190 L234,190 L234,100 L145,100 M121,86 Q118,88 113,92 Q88,112 74,121 Q62,95 16,73 Q13,79 8,85 Q56,103 65,133 L11,133 L11,145 L68,145 Q71,158 71,176 L38,176 Q31,164 19,154 Q16,157 10,162 Q35,185 45,212 L56,209 Q54,204 50,196 Q47,190 46,187 L123,187 L123,176 L84,176 Q84,158 82,145 L131,145 L131,133 L79,133 Q79,133 79,132 Q78,132 78,131 Q81,129 87,125 Q105,114 129,96 M158,178 L158,112 L221,112 L221,178 M61,65 L61,35 L197,35 L197,65 M61,23 L61,-6 L197,-6 L197,23"/> 
            <glyph glyph-name="更" unicode="&#x66F4;" horiz-adv-x="248" d=" M16,-31 Q13,-24 9,-18 Q67,-6 87,5 Q73,13 47,36 Q44,39 42,40 L52,49 Q77,25 98,15 Q115,32 118,57 L35,57 L35,157 L122,157 Q123,173 123,185 L16,185 L16,197 L240,197 L240,185 L136,185 Q136,173 136,157 L221,157 L221,45 L208,45 L208,57 L132,57 Q127,29 111,9 Q150,-5 248,-9 Q244,-17 242,-23 Q139,-18 101,0 Q83,-16 16,-31 M133,69 L208,69 L208,101 L135,101 Q135,95 134,85 Q134,74 133,69 M48,145 L48,113 L122,113 Q122,128 122,145 M120,69 Q121,74 121,85 Q122,95 122,101 L48,101 L48,69 M208,145 L136,145 Q135,128 135,113 L208,113"/> 
            <glyph glyph-name="期" unicode="&#x671F;" horiz-adv-x="237" d=" M154,199 L236,199 L236,0 Q237,-25 211,-26 Q201,-26 187,-26 Q187,-25 186,-24 Q186,-20 183,-12 Q198,-13 209,-13 Q224,-13 223,0 L223,57 L165,57 Q161,7 134,-30 Q128,-25 122,-22 Q142,3 148,29 Q154,55 154,109 M101,207 L115,207 L115,175 L135,175 L135,163 L115,163 L115,43 L136,43 L136,31 L8,31 L8,43 L31,43 L31,163 L11,163 L11,175 L31,175 L31,206 L44,206 L44,175 L101,175 M167,109 Q167,86 166,69 L223,69 L223,122 L167,122 M167,187 L167,134 L223,134 L223,187 M44,75 L44,43 L101,43 L101,75 M44,119 L44,87 L101,87 L101,119 M44,163 L44,131 L101,131 L101,163 M49,23 L60,15 Q29,-17 17,-28 Q11,-22 7,-18 Q33,4 49,23 M81,15 L91,23 Q107,9 119,-2 L109,-12 Q104,-6 90,6 Q84,12 81,15"/> 
            <glyph glyph-name="机" unicode="&#x673A;" horiz-adv-x="250" d=" M132,180 L132,109 Q132,51 123,25 Q115,-1 86,-28 Q82,-24 74,-18 Q103,8 111,31 Q119,54 119,110 L119,193 L203,193 L203,5 Q203,-8 213,-7 L218,-7 Q232,-7 233,7 Q236,23 237,47 Q244,44 250,42 Q249,15 246,3 Q242,-21 220,-20 L211,-20 Q189,-20 189,3 L189,180 M12,39 Q11,41 9,45 Q7,50 5,53 Q32,89 47,148 L11,148 L11,160 L47,160 L47,209 L60,209 L60,160 L95,160 L95,148 L60,148 L60,107 L67,115 Q89,95 100,84 L91,75 Q85,81 73,92 Q64,101 60,105 L60,-28 L47,-28 L47,122 Q33,67 12,39"/> 
            <glyph glyph-name="松" unicode="&#x677E;" horiz-adv-x="249" d=" M12,40 Q12,41 11,43 Q8,52 5,55 Q29,89 46,146 L10,146 L10,159 L47,159 L47,208 L60,208 L60,159 L94,159 L94,146 L60,146 L60,106 L66,112 Q83,95 100,78 L90,69 Q75,86 60,100 L60,-29 L47,-29 L47,120 Q36,77 12,40 M229,-28 Q228,-25 224,-19 Q221,-13 219,-10 Q163,-12 126,-14 Q119,-14 105,-16 Q115,-14 103,-16 L98,-4 Q107,0 110,8 Q135,52 159,113 L175,108 Q149,50 120,-1 Q139,0 182,0 Q203,1 213,1 Q200,26 185,51 L197,58 Q221,18 242,-20 M179,203 L192,207 Q213,143 249,105 Q248,104 244,101 Q239,97 237,95 Q199,138 179,203 M141,202 L154,198 Q137,144 108,95 Q101,101 94,104 Q123,145 141,202"/> 
            <glyph glyph-name="架" unicode="&#x67B6;" horiz-adv-x="248" d=" M145,189 L232,189 L232,102 L145,102 M17,-21 Q14,-15 8,-8 Q72,11 109,50 L10,50 L10,62 L121,62 L121,91 L135,91 L135,62 L246,62 L246,50 L147,50 Q182,12 248,-6 Q242,-13 239,-19 Q168,4 135,49 L135,-30 L121,-30 L121,49 Q88,5 17,-21 M51,211 L64,211 Q64,205 63,194 Q63,185 63,181 L118,181 Q118,174 117,163 Q117,138 115,123 Q115,93 85,93 Q75,93 65,93 Q64,97 62,102 Q61,105 61,106 Q74,106 83,106 Q103,105 103,124 Q104,141 104,169 L62,169 Q60,110 18,82 Q13,89 8,92 Q48,118 49,169 L14,169 L14,181 L50,181 Q50,185 50,195 Q51,205 51,211 M158,177 L158,114 L219,114 L219,177"/> 
            <glyph glyph-name="次" unicode="&#x6B21;" horiz-adv-x="248" d=" M147,110 Q147,113 147,121 Q148,131 148,136 L162,136 Q162,122 161,110 Q178,22 248,-13 Q242,-20 237,-26 Q167,17 155,88 Q146,17 65,-30 Q64,-28 60,-24 Q57,-19 55,-17 Q140,26 147,110 M215,99 Q208,102 201,103 L223,152 L120,152 Q113,134 93,102 Q89,106 81,110 Q111,154 125,208 L140,205 Q133,183 125,165 L237,165 L237,151 M7,5 Q32,44 59,103 Q65,99 72,94 Q64,79 44,42 Q29,12 21,-2 M58,131 Q30,168 15,186 L26,194 Q32,186 45,170 Q61,150 69,140"/> 
            <glyph glyph-name="毂" unicode="&#x6BC2;" horiz-adv-x="250" d=" M140,84 L140,96 L233,96 L233,83 Q220,42 197,17 Q211,3 250,-14 Q250,-14 249,-15 Q243,-23 242,-27 Q203,-5 188,8 Q164,-12 128,-30 Q127,-28 122,-22 Q120,-19 119,-18 Q166,4 179,17 Q158,41 148,84 M10,0 L9,11 Q40,13 73,14 L73,38 L23,38 L23,50 Q33,62 44,79 L15,79 L15,89 L51,89 Q53,93 57,100 Q61,108 63,111 L76,106 Q71,98 65,89 L126,89 L126,79 L58,79 Q55,74 48,64 Q40,53 37,48 L73,48 L73,68 L86,68 L86,48 L126,48 L126,38 L86,38 L86,15 Q110,17 133,18 Q133,17 133,13 Q132,8 132,6 Q111,4 86,4 L86,-29 L73,-29 L73,3 Q65,3 50,2 Q23,0 10,0 M170,185 L170,173 Q173,128 145,108 Q144,110 140,113 Q137,116 135,117 Q161,133 158,174 L158,197 L223,197 L223,142 Q222,129 235,130 L249,130 Q248,128 246,118 L229,118 Q209,117 210,138 L210,185 M12,188 L66,188 L66,209 L78,209 L78,188 L132,188 L132,178 L78,178 L78,156 L122,156 L122,146 L22,146 L22,156 L66,156 L66,178 L12,178 M220,84 L161,84 Q170,47 188,27 Q208,48 220,84 M11,130 L132,130 L132,98 L120,98 L120,120 L24,120 L24,98 L11,98"/> 
            <glyph glyph-name="每" unicode="&#x6BCF;" horiz-adv-x="249" d=" M31,9 L42,72 L8,72 L8,85 L44,85 L55,148 L215,148 Q215,141 214,127 Q213,99 212,85 L249,85 L249,72 L212,72 Q211,43 209,22 L240,22 L240,9 L208,9 Q204,-27 168,-27 Q150,-27 134,-27 Q134,-22 132,-12 Q141,-13 165,-13 Q192,-15 194,9 M195,22 Q196,36 198,72 L56,72 L47,22 M67,135 L58,85 L199,85 Q199,94 200,111 Q200,127 200,135 M17,129 Q16,131 12,136 Q9,138 8,140 Q44,171 64,211 L79,209 Q77,206 73,199 Q69,193 67,189 L243,189 L243,176 L59,176 Q41,152 17,129 M108,119 L116,127 Q133,115 148,102 L139,93 Q137,94 134,97 Q123,106 108,119 M105,55 L114,64 Q118,60 127,54 Q140,44 145,39 L136,29 Q121,43 105,55"/> 
            <glyph glyph-name="法" unicode="&#x6CD5;" horiz-adv-x="249" d=" M71,93 L153,93 L153,150 L83,150 L83,163 L153,163 L153,210 L166,210 L166,163 L237,163 L237,150 L166,150 L166,93 L249,93 L249,80 L146,80 L161,75 Q138,39 101,-2 Q113,-2 144,0 Q190,0 209,1 Q202,10 189,27 Q181,38 177,43 L188,50 Q219,13 243,-20 L231,-28 Q229,-24 223,-16 Q220,-12 219,-10 Q155,-11 111,-14 Q102,-15 90,-16 Q92,-16 85,-17 L77,-3 Q87,1 96,11 Q126,44 145,80 L71,80 M11,-22 Q26,14 42,69 Q45,67 52,64 Q55,63 56,62 Q46,36 26,-27 M55,162 Q50,167 35,180 Q23,191 18,196 L28,204 Q55,182 66,171 M46,98 Q25,117 8,130 L17,139 Q40,122 56,109"/> 
            <glyph glyph-name="源" unicode="&#x6E90;" horiz-adv-x="251" d=" M94,180 L94,109 Q96,17 60,-29 Q55,-25 49,-20 Q83,19 81,110 L81,192 L249,192 L249,180 L180,180 L169,147 L231,147 L231,54 L182,54 L182,-1 Q183,-26 158,-27 Q148,-27 136,-27 Q135,-21 133,-14 Q137,-14 145,-15 Q152,-15 156,-15 Q169,-16 169,-1 L169,54 L119,54 L119,147 L156,147 L166,180 M132,135 L132,106 L218,106 L218,135 M132,95 L132,66 L218,66 L218,95 M12,-22 Q26,27 35,70 Q42,67 48,65 Q36,20 26,-27 M251,-8 L240,-17 Q221,7 200,29 L211,37 Q233,13 251,-8 M105,-19 Q100,-14 95,-11 Q116,9 133,36 L144,29 Q126,2 105,-19 M46,98 Q26,116 7,130 L16,140 Q37,125 56,110 M55,162 Q54,163 52,164 Q29,186 17,195 L27,205 Q36,198 53,183 Q61,176 65,173"/> 
            <glyph glyph-name="滑" unicode="&#x6ED1;" horiz-adv-x="240" d=" M67,127 L89,127 L89,199 L217,199 L217,127 L240,127 L240,94 L227,94 L227,116 L80,116 L80,94 L67,94 M103,-28 L90,-28 L90,92 L217,92 L217,2 Q218,-23 191,-24 Q181,-25 158,-25 Q158,-24 157,-20 Q156,-13 155,-12 Q168,-12 187,-12 Q205,-13 204,4 L204,14 L103,14 M102,187 L102,164 L173,164 L173,127 L203,127 L203,187 M103,48 L103,25 L204,25 L204,48 M103,81 L103,59 L204,59 L204,81 M160,153 L102,153 L102,127 L160,127 M29,-29 L14,-24 Q23,3 39,65 Q41,64 46,62 Q50,60 52,59 Q43,29 29,-29 M56,162 Q49,168 35,181 Q23,192 17,197 L26,206 Q33,200 51,185 Q61,176 66,172 M45,99 Q31,112 8,130 L16,139 Q34,126 55,110"/> 
            <glyph glyph-name="漂" unicode="&#x6F02;" horiz-adv-x="248" d=" M71,199 L243,199 L243,187 L186,187 L186,159 L236,159 L236,104 L74,104 L74,159 L124,159 L124,187 L71,187 M63,45 L248,45 L248,33 L165,33 L165,0 Q166,-25 135,-25 Q131,-25 124,-25 Q116,-26 111,-26 Q111,-20 109,-12 Q116,-13 134,-13 Q153,-14 152,2 L152,33 L63,33 M82,81 L228,81 L228,69 L82,69 M29,-28 L14,-23 Q29,20 38,65 Q43,62 51,60 Q35,0 29,-28 M223,148 L186,148 L186,115 L223,115 M87,148 L87,115 L124,115 L124,148 M137,148 L137,115 L174,115 L174,148 M137,187 L137,159 L174,159 L174,187 M61,-19 Q60,-18 59,-16 Q54,-10 53,-7 Q79,2 110,22 L119,12 Q106,4 80,-9 Q68,-15 61,-19 M187,12 L195,22 Q218,8 248,-7 L240,-19 Q225,-9 187,12 M52,164 Q47,169 36,180 Q24,191 18,197 L28,205 Q43,191 63,173 M43,99 Q29,113 9,131 L18,140 Q24,135 38,123 Q48,114 54,109"/> 
            <glyph glyph-name="灯" unicode="&#x706F;" horiz-adv-x="248" d=" M117,188 L248,188 L248,175 L199,175 L199,7 Q200,-22 167,-23 Q152,-23 133,-23 Q132,-20 131,-13 Q130,-10 130,-8 Q140,-9 162,-9 Q186,-10 185,11 L185,175 L117,175 M66,72 Q93,33 109,9 L97,1 Q95,4 91,10 Q77,34 56,63 Q47,13 16,-25 Q15,-24 12,-21 Q11,-19 5,-14 Q47,35 48,112 Q50,145 50,207 L64,207 Q64,176 62,119 Q62,122 62,114 Q60,82 57,66 M95,166 L108,162 Q106,157 103,146 Q98,130 86,97 L73,101 Q82,123 95,166 M7,164 L19,166 Q22,156 27,131 Q31,111 34,101 L20,98 Q14,133 7,164"/> 
            <glyph glyph-name="爱" unicode="&#x7231;" horiz-adv-x="247" d=" M240,-26 Q182,-19 142,-1 Q104,-18 42,-30 Q40,-24 35,-17 Q90,-9 127,4 Q98,19 72,46 Q49,9 15,-17 Q11,-11 6,-5 Q53,27 78,88 L12,88 L12,100 L83,100 Q87,112 90,124 L104,122 Q101,110 97,100 L247,100 L247,88 L92,88 Q87,75 81,63 L217,63 L217,49 Q191,23 158,5 Q195,-7 247,-13 Q245,-16 241,-23 Q240,-25 240,-26 M19,144 L176,144 Q180,150 188,161 Q198,176 203,182 L215,176 Q210,169 200,156 Q194,148 191,144 L239,144 L239,112 L226,112 L226,132 L32,132 L32,112 L19,112 M237,190 Q174,187 25,183 Q24,190 22,196 Q124,196 233,203 M200,51 L85,51 Q110,26 143,11 Q176,27 200,51 M118,177 L129,182 Q130,180 133,176 Q141,162 146,153 L134,147 Q128,161 118,177 M49,173 L59,179 Q69,167 78,153 L66,146 Q62,152 55,164 Q51,170 49,173"/> 
            <glyph glyph-name="爽" unicode="&#x723D;" horiz-adv-x="247" d=" M238,-27 Q140,-12 128,51 Q120,-6 17,-30 Q15,-26 12,-22 Q10,-19 9,-17 Q74,-3 98,20 Q122,43 121,93 L121,166 L14,166 L14,178 L121,178 L121,210 L134,210 L134,178 L243,178 L243,166 L134,166 L134,79 Q140,-3 247,-14 Q244,-17 238,-27 M25,82 L33,91 Q48,81 63,70 Q76,82 88,95 L99,87 Q87,75 74,63 Q89,53 104,42 L94,32 Q89,36 79,44 Q69,51 64,55 Q48,42 28,30 Q26,34 19,41 Q40,52 54,62 Q37,74 25,82 M151,83 L159,92 Q163,89 173,83 Q185,75 192,71 Q204,82 216,94 L226,87 Q214,74 202,64 Q217,53 232,44 L224,33 Q219,37 208,45 Q198,52 192,56 Q177,43 161,34 Q158,38 152,44 Q167,53 182,63 Q172,69 156,79 Q153,82 151,83 M24,144 L32,153 Q34,152 40,148 Q56,139 65,133 Q79,143 92,155 L101,147 Q89,136 76,127 Q91,118 104,109 L95,99 Q80,108 65,119 Q49,108 29,99 Q26,103 20,109 Q39,117 54,126 Q36,137 24,144 M152,145 L160,153 Q166,150 177,144 Q188,137 193,134 Q207,143 220,155 L230,147 Q227,145 222,141 Q217,136 204,127 Q209,124 219,118 Q228,112 233,109 L223,99 Q212,108 193,119 Q176,108 158,99 Q156,101 152,106 Q150,108 149,109 Q167,117 182,126 Q178,128 172,133 Q166,137 152,145"/> 
            <glyph glyph-name="牙" unicode="&#x7259;" horiz-adv-x="246" d=" M48,111 L163,111 L163,181 L14,181 L14,194 L241,194 L241,181 L177,181 L177,111 L246,111 L246,98 L177,98 L177,10 Q177,-23 145,-23 Q131,-24 104,-24 Q103,-15 100,-8 Q103,-8 109,-9 Q128,-10 139,-10 Q164,-11 163,12 L163,98 L153,98 Q99,22 19,-15 Q18,-11 13,-5 Q11,-3 10,-2 Q88,33 136,98 L30,98 L49,165 L63,162"/> 
            <glyph glyph-name="玩" unicode="&#x73A9;" horiz-adv-x="250" d=" M96,118 L246,118 L246,105 L192,105 L192,6 Q191,-6 207,-6 L218,-6 Q233,-7 234,6 Q237,18 237,35 Q241,34 250,31 Q248,9 247,3 Q244,-20 219,-19 L204,-19 Q178,-20 179,5 L179,105 L141,105 Q141,48 128,22 Q118,-4 81,-30 Q76,-24 70,-19 Q107,5 116,27 Q127,49 127,105 L96,105 M9,2 L6,16 Q14,18 32,23 Q38,24 41,25 L41,99 L10,99 L10,110 L41,110 L41,176 L9,176 L9,188 L87,188 L87,176 L55,176 L55,110 L83,110 L83,99 L55,99 L55,28 Q63,31 78,35 Q85,37 89,38 Q89,32 90,25 Q48,14 9,2 M110,187 L232,187 L232,174 L110,174"/> 
            <glyph glyph-name="理" unicode="&#x7406;" horiz-adv-x="249" d=" M99,44 L162,44 L162,79 L104,79 L104,196 L233,196 L233,79 L175,79 L175,44 L239,44 L239,32 L175,32 L175,-8 L249,-8 L249,-20 L84,-20 L84,-8 L162,-8 L162,32 L99,32 M10,103 L42,103 L42,175 L8,175 L8,187 L88,187 L88,175 L55,175 L55,103 L87,103 L87,92 L55,92 L55,17 Q73,20 88,25 Q88,23 89,18 Q89,13 89,11 Q82,9 67,6 Q31,-1 9,-6 L6,6 Q14,8 33,12 Q39,13 42,14 L42,92 L10,92 M175,132 L175,91 L220,91 L220,132 M117,185 L117,143 L162,143 L162,185 M220,185 L175,185 L175,143 L220,143 M117,132 L117,91 L162,91 L162,132"/> 
            <glyph glyph-name="瓦" unicode="&#x74E6;" horiz-adv-x="249" d=" M50,0 Q60,2 80,5 Q128,14 158,19 Q157,16 157,11 Q156,7 156,4 Q99,-2 52,-12 Q43,-13 36,-16 L28,-3 Q37,2 38,11 L61,176 L9,176 L9,189 L241,189 L241,176 L76,176 L69,131 L194,131 L188,8 Q187,-10 203,-9 L212,-9 Q232,-10 233,8 Q233,11 234,17 Q236,36 236,46 Q240,44 249,41 Q248,18 245,3 Q241,-23 213,-22 L201,-22 Q173,-23 175,6 L180,118 L67,118 M86,83 L94,93 Q125,72 149,55 L140,45 Q116,63 86,83"/> 
            <glyph glyph-name="用" unicode="&#x7528;" horiz-adv-x="235" d=" M141,-26 L127,-26 L127,52 L48,52 Q46,10 19,-30 Q13,-24 6,-21 Q25,6 30,30 Q36,54 36,106 L36,195 L234,195 L234,3 Q235,-26 203,-26 Q189,-27 173,-27 Q173,-20 170,-12 Q180,-13 200,-13 Q221,-14 220,4 L220,52 L141,52 M220,182 L141,182 L141,130 L220,130 M141,117 L141,65 L220,65 L220,117 M50,106 Q50,97 49,82 Q49,70 49,65 L127,65 L127,117 L50,117 M50,182 L50,130 L127,130 L127,182"/> 
            <glyph glyph-name="电" unicode="&#x7535;" horiz-adv-x="247" d=" M112,210 L125,210 L125,176 L218,176 L218,42 L125,42 L125,13 Q124,-8 151,-7 L201,-7 Q226,-8 229,7 Q232,22 234,36 Q243,33 247,32 Q244,10 241,0 Q236,-22 204,-21 L147,-21 Q110,-22 112,12 L112,42 L33,42 L33,24 L20,24 L20,176 L112,176 M125,55 L204,55 L204,103 L125,103 M33,103 L33,55 L112,55 L112,103 M204,163 L125,163 L125,115 L204,115 M33,163 L33,115 L112,115 L112,163"/> 
            <glyph glyph-name="的" unicode="&#x7684;" horiz-adv-x="239" d=" M17,168 L43,168 Q51,192 55,209 L69,206 Q63,186 57,168 L108,168 L108,-24 L94,-24 L94,-4 L30,-4 L30,-26 L17,-26 M130,114 Q128,115 124,118 Q120,120 118,121 Q140,157 156,209 L170,206 Q164,188 156,169 L239,169 Q239,164 239,153 Q237,64 234,16 Q235,-23 191,-24 Q171,-24 152,-24 Q152,-23 151,-21 Q150,-13 148,-10 Q162,-11 189,-11 Q221,-12 221,18 Q223,43 224,123 Q225,146 225,156 L151,156 Q138,127 130,114 M30,76 L30,7 L94,7 L94,76 M30,156 L30,88 L94,88 L94,156 M141,102 L151,110 Q153,107 157,102 Q179,75 191,57 L180,49 Q161,77 141,102"/> 
            <glyph glyph-name="直" unicode="&#x76F4;" horiz-adv-x="249" d=" M7,-6 L41,-6 L41,148 L121,148 L121,174 L13,174 L13,186 L121,186 L121,210 L134,210 L134,186 L243,186 L243,174 L134,174 L134,148 L214,148 L214,-6 L249,-6 L249,-18 L7,-18 M55,19 L55,-6 L200,-6 L200,19 M55,136 L55,109 L200,109 L200,136 M55,58 L55,31 L200,31 L200,58 M55,97 L55,70 L200,70 L200,97"/> 
            <glyph glyph-name="真" unicode="&#x771F;" horiz-adv-x="248" d=" M9,29 L45,29 L45,156 L121,156 L121,178 L13,178 L13,189 L121,189 L121,210 L134,210 L134,189 L243,189 L243,178 L134,178 L134,156 L211,156 L211,29 L248,29 L248,17 L9,17 M58,145 L58,124 L198,124 L198,145 M58,113 L58,92 L198,92 L198,113 M58,49 L58,29 L198,29 L198,49 M58,81 L58,61 L198,61 L198,81 M96,10 L104,0 Q62,-17 20,-29 Q19,-27 17,-23 Q14,-19 13,-17 Q46,-8 96,10 M152,0 L158,11 Q164,9 175,6 Q217,-7 243,-16 L236,-29 Q197,-13 152,0"/> 
            <glyph glyph-name="碍" unicode="&#x788D;" horiz-adv-x="249" d=" M113,199 L230,199 L230,111 L113,111 M12,187 L97,187 L97,176 L58,176 Q52,145 42,119 L87,119 L87,-13 L74,-13 L74,4 L45,4 L45,-16 L32,-16 L32,93 Q30,90 27,84 Q23,76 13,59 Q12,61 9,64 Q6,68 4,69 Q34,113 46,176 L12,176 M105,87 L244,87 L244,75 L213,75 L213,50 L249,50 L249,38 L213,38 L213,1 Q214,-26 184,-25 Q180,-25 170,-25 Q157,-26 151,-26 Q150,-18 147,-12 Q154,-12 167,-13 Q177,-13 181,-13 Q201,-14 200,1 L200,38 L98,38 L98,50 L200,50 L200,75 L105,75 M45,108 L45,15 L74,15 L74,108 M126,149 L126,123 L217,123 L217,149 M126,187 L126,161 L217,161 L217,187 M119,28 L129,36 Q143,23 155,9 L145,0 Q133,14 119,28"/> 
            <glyph glyph-name="祖" unicode="&#x7956;" horiz-adv-x="249" d=" M77,-7 L112,-7 L112,195 L223,195 L223,-7 L249,-7 L249,-19 L77,-19 M126,183 L126,127 L209,127 L209,183 M126,47 L126,-7 L209,-7 L209,47 M126,115 L126,59 L209,59 L209,115 M11,148 L11,160 L84,160 L84,147 Q71,120 56,99 L56,-29 L43,-29 L43,83 Q30,68 13,53 Q12,55 9,59 Q7,63 5,65 Q46,96 70,148 M34,205 L45,210 Q55,194 65,175 L52,169 Q48,178 40,193 Q36,201 34,205 M61,84 L70,93 Q82,83 99,68 L89,58 Q74,73 61,84"/> 
            <glyph glyph-name="种" unicode="&#x79CD;" horiz-adv-x="238" d=" M168,210 L181,210 L181,159 L238,159 L238,44 L225,44 L225,56 L181,56 L181,-30 L168,-30 L168,56 L125,56 L125,44 L112,44 L112,159 L168,159 M11,133 L48,133 L48,180 Q37,179 14,179 Q14,185 12,191 Q54,192 94,195 L96,183 Q77,182 61,180 L61,133 L97,133 L97,121 L61,121 L61,87 L69,93 Q80,83 100,61 L90,52 Q76,68 61,85 L61,-29 L48,-29 L48,96 Q36,52 13,19 Q8,27 5,33 Q31,68 47,121 L11,121 M225,147 L181,147 L181,69 L225,69 M125,147 L125,69 L168,69 L168,147"/> 
            <glyph glyph-name="程" unicode="&#x7A0B;" horiz-adv-x="250" d=" M112,194 L231,194 L231,127 L112,127 M9,135 L47,135 L47,181 Q41,180 30,180 Q19,179 13,179 Q13,181 12,185 Q12,189 11,191 Q20,192 36,193 Q72,195 93,197 L95,185 Q89,185 78,184 Q66,183 60,182 L60,135 L95,135 L95,123 L60,123 L60,88 L69,94 Q85,78 100,63 L89,54 Q77,69 60,86 L60,-29 L47,-29 L47,95 Q36,52 12,20 Q11,23 8,27 Q6,31 4,33 Q32,69 47,123 L9,123 M88,-4 L165,-4 L165,36 L108,36 L108,47 L165,47 L165,87 L102,87 L102,99 L241,99 L241,87 L178,87 L178,47 L236,47 L236,36 L178,36 L178,-4 L250,-4 L250,-16 L88,-16 M126,182 L126,140 L218,140 L218,182"/> 
            <glyph glyph-name="空" unicode="&#x7A7A;" horiz-adv-x="246" d=" M41,79 L214,79 L214,67 L135,67 L135,-4 L240,-4 L240,-17 L16,-17 L16,-4 L121,-4 L121,67 L41,67 M116,207 L129,212 Q136,197 142,182 L130,177 L239,177 L239,131 L225,131 L225,165 L31,165 L31,131 L17,131 L17,177 L128,177 Q122,192 116,207 M96,145 L106,135 Q62,101 19,76 Q15,82 10,88 Q50,110 96,145 M237,77 Q191,110 152,135 L160,145 Q201,121 246,89"/> 
            <glyph glyph-name="管" unicode="&#x7BA1;" horiz-adv-x="249" d=" M46,102 L208,102 L208,54 L59,54 L59,31 L214,31 L214,-29 L201,-29 L201,-19 L59,-19 L59,-29 L46,-29 M201,20 L59,20 L59,-8 L201,-8 M59,91 L59,65 L195,65 L195,91 M117,154 L129,158 Q133,148 139,137 L239,137 L239,102 L226,102 L226,125 L30,125 L30,102 L17,102 L17,137 L125,137 Q122,145 117,154 M53,211 L67,208 Q61,197 55,188 L130,188 L130,176 L47,176 Q35,160 17,144 Q12,149 7,154 Q38,178 53,211 M165,211 L178,208 Q174,197 168,188 L249,188 L249,176 L161,176 Q154,166 144,154 Q142,156 137,159 Q135,161 133,162 Q154,184 165,211 M84,145 Q74,157 62,167 L71,174 Q83,164 93,152 M206,152 L197,144 Q190,153 176,167 L185,174 Q196,164 206,152"/> 
            <glyph glyph-name="箱" unicode="&#x7BB1;" horiz-adv-x="246" d=" M116,130 L232,130 L232,-29 L219,-29 L219,-13 L130,-13 L130,-29 L116,-29 M14,6 Q13,7 12,9 Q8,16 6,18 Q33,49 49,97 L13,97 L13,108 L51,108 L51,143 L64,143 L64,108 L98,108 L98,97 L64,97 L64,67 L71,74 Q82,65 101,46 L92,37 Q77,53 64,65 L64,-29 L51,-29 L51,76 Q38,36 14,6 M130,119 L130,86 L219,86 L219,119 M130,29 L130,-2 L219,-2 L219,29 M130,74 L130,41 L219,41 L219,74 M55,211 L68,208 Q62,196 56,185 L130,185 L130,174 L49,174 Q34,153 18,139 Q17,140 15,142 Q11,147 9,148 Q40,176 55,211 M163,211 L176,208 Q174,203 169,193 Q167,187 166,185 L246,185 L246,174 L159,174 Q150,158 137,143 Q136,144 132,147 Q128,150 126,151 Q151,176 163,211 M207,148 L197,140 Q187,153 177,163 L187,170 Q193,164 205,151 Q197,160 207,148 M98,149 L87,141 Q77,153 68,163 L77,170 Q82,166 91,156 Q96,151 98,149"/> 
            <glyph glyph-name="级" unicode="&#x7EA7;" horiz-adv-x="249" d=" M69,-16 Q98,16 107,52 Q116,86 116,159 L116,183 L94,183 L94,195 L214,195 L214,181 L188,125 L233,125 L233,112 Q217,63 192,28 Q211,7 249,-13 Q248,-14 246,-16 Q241,-22 240,-26 Q206,-4 183,17 Q156,-10 123,-29 Q122,-27 118,-23 Q114,-19 113,-17 Q152,4 174,28 Q146,59 129,116 Q129,27 81,-25 Q78,-22 69,-16 M174,127 L200,183 L130,183 L130,159 L130,146 Q150,76 183,38 Q205,68 219,113 L174,113 M31,69 Q47,71 80,73 Q82,73 83,73 Q81,66 81,61 Q72,60 57,59 Q28,56 16,55 L10,68 Q18,73 28,86 Q39,100 53,120 Q45,120 33,119 Q25,119 12,118 L6,131 Q14,138 21,149 Q22,151 25,155 Q44,188 53,206 L67,201 Q42,158 24,131 Q28,131 39,131 Q54,132 61,132 Q65,138 71,149 Q78,160 81,165 L94,158 Q58,105 31,69 M11,-1 L7,10 Q17,12 40,17 Q68,23 82,26 Q82,20 82,13 Q71,11 47,6 Q23,1 11,-1"/> 
            <glyph glyph-name="组" unicode="&#x7EC4;" horiz-adv-x="249" d=" M83,-17 L83,-5 L113,-5 L113,195 L228,195 L228,-5 L249,-5 L249,-17 M126,49 L126,-5 L214,-5 L214,49 M126,116 L126,60 L214,60 L214,116 M126,183 L126,127 L214,127 L214,183 M29,62 Q43,64 73,67 Q83,68 88,68 Q87,66 87,62 Q86,57 86,55 Q52,52 18,48 Q15,47 13,47 L8,61 Q18,67 22,73 Q39,94 55,118 Q31,117 11,115 L6,129 Q13,132 17,140 Q39,170 61,211 L75,205 Q52,167 24,128 Q45,130 64,130 Q68,136 75,148 Q79,154 81,157 L94,150 Q71,116 29,62 M9,-5 L6,7 Q16,9 39,12 Q72,17 90,20 Q90,13 90,7 Q50,1 9,-5"/> 
            <glyph glyph-name="胎" unicode="&#x80CE;" horiz-adv-x="248" d=" M25,195 L90,195 L90,0 Q90,-24 62,-24 Q53,-25 45,-25 Q45,-18 43,-12 Q52,-12 60,-12 Q77,-12 77,1 L77,56 L37,56 Q39,2 17,-28 Q16,-27 12,-24 Q8,-21 6,-20 Q27,5 25,65 M116,76 L231,76 L231,-29 L217,-29 L217,-12 L130,-12 L130,-29 L116,-29 M130,64 L130,0 L217,0 L217,64 M124,123 Q135,123 160,125 Q199,126 218,127 Q215,131 210,140 Q199,158 194,166 L205,173 Q226,143 248,103 L236,95 Q231,105 225,114 Q199,114 151,112 Q137,111 131,111 Q127,111 121,110 Q113,110 110,109 L102,122 Q111,128 119,139 Q140,168 161,210 L175,205 Q148,159 124,123 M37,183 L37,131 L77,131 L77,183 M37,120 L37,67 L77,67 L77,120"/> 
            <glyph glyph-name="能" unicode="&#x80FD;" horiz-adv-x="247" d=" M35,-27 L22,-27 L22,114 L116,114 L116,-1 Q117,-25 93,-25 Q82,-25 69,-25 Q69,-19 67,-12 Q70,-12 78,-12 Q86,-13 90,-13 Q104,-13 103,-1 L103,25 L35,25 M148,87 L161,87 L161,44 Q201,59 237,79 L244,67 Q203,46 161,30 L161,6 Q160,-11 180,-10 L209,-10 Q228,-10 231,3 Q233,12 234,29 Q237,28 242,27 Q245,25 247,25 Q246,15 243,0 Q239,-24 211,-23 L177,-23 Q147,-24 148,4 M148,209 L161,209 L161,162 Q190,172 232,195 L240,184 Q204,165 161,148 L161,132 Q160,114 180,115 L209,115 Q227,115 230,130 Q233,138 234,157 Q241,154 247,153 Q246,145 244,132 Q243,128 243,127 Q238,102 210,103 L178,103 Q147,102 148,130 M126,127 Q124,130 120,134 Q115,139 113,142 Q56,140 30,138 Q20,138 13,136 L7,149 Q14,153 22,161 Q46,187 63,212 L76,206 Q49,172 28,150 Q32,150 41,151 Q82,152 103,154 Q93,166 81,177 L91,185 Q113,164 137,136 M35,103 L35,75 L103,75 L103,103 M35,64 L35,36 L103,36 L103,64"/> 
            <glyph glyph-name="自" unicode="&#x81EA;" horiz-adv-x="222" d=" M34,176 L102,176 Q108,196 111,210 L126,208 Q125,206 124,201 Q122,193 116,176 L222,176 L222,-29 L208,-29 L208,-13 L48,-13 L48,-29 L34,-29 M48,104 L48,57 L208,57 L208,104 M48,163 L48,117 L208,117 L208,163 M48,45 L48,0 L208,0 L208,45"/> 
            <glyph glyph-name="航" unicode="&#x822A;" horiz-adv-x="250" d=" M7,98 L25,98 L25,183 L50,183 Q51,189 53,199 Q54,207 55,211 L68,210 Q67,203 62,183 L99,183 L99,0 Q100,-25 75,-25 Q73,-25 65,-25 Q57,-26 54,-26 Q54,-24 53,-19 Q52,-14 51,-12 Q59,-12 71,-12 Q87,-13 86,0 L86,87 L37,87 L37,83 Q37,39 33,17 Q29,-5 17,-28 Q16,-27 14,-26 Q7,-21 6,-20 Q27,11 25,82 L25,87 L7,87 M206,118 L206,1 Q205,-11 219,-10 L221,-10 Q232,-11 234,2 Q236,13 238,38 Q238,41 238,42 Q241,40 245,39 Q248,38 250,37 Q249,13 246,0 Q244,-23 223,-22 L215,-22 Q192,-23 193,0 L193,105 L147,105 L147,82 Q147,37 140,15 Q134,-6 113,-29 Q110,-26 104,-21 Q105,-22 102,-20 Q122,0 128,18 Q134,37 134,81 L134,118 M37,172 L37,98 L86,98 L86,172 M114,168 L239,168 L239,156 L114,156 M156,205 L169,210 Q173,203 181,186 Q185,178 187,174 L174,168 Q166,186 156,205 M50,65 L61,69 Q62,65 65,58 Q71,41 75,29 L63,25 Q57,46 50,65 M48,152 L60,155 Q63,146 68,131 Q71,123 72,119 L60,115 Q56,134 48,152"/> 
            <glyph glyph-name="蓝" unicode="&#x84DD;" horiz-adv-x="248" d=" M9,-9 L39,-9 L39,55 L219,55 L219,-9 L248,-9 L248,-21 L9,-21 M163,210 L176,210 L176,188 L247,188 L247,176 L176,176 L176,159 L163,159 L163,176 L95,176 L95,159 L82,159 L82,176 L9,176 L9,188 L82,188 L82,210 L95,210 L95,188 L163,188 M52,44 L52,-9 L95,-9 L95,44 M108,44 L108,-9 L150,-9 L150,44 M206,44 L163,44 L163,-9 L206,-9 M113,80 Q137,110 149,151 L162,147 Q159,138 156,130 L243,130 L243,118 L151,118 Q141,95 125,72 Q124,73 122,74 Q121,75 113,80 M86,150 L100,150 L100,71 L86,71 M34,143 L47,143 L47,74 L34,74 M161,99 L169,108 Q181,101 201,87 Q211,81 217,77 L209,67 Q203,71 192,79 Q173,92 161,99"/> 
            <glyph glyph-name="虹" unicode="&#x8679;" horiz-adv-x="248" d=" M16,163 L55,163 L55,209 L68,209 L68,163 L106,163 L106,75 L68,75 L68,14 Q73,15 83,16 Q90,18 94,18 Q93,22 91,29 Q87,44 85,51 L97,55 Q108,21 114,-7 L102,-10 Q101,-7 99,-1 Q98,3 97,6 Q56,0 9,-7 L6,4 Q25,7 55,12 L55,75 L29,75 L29,64 L16,64 M120,-1 L176,-1 L176,175 L120,175 L120,187 L244,187 L244,175 L189,175 L189,-1 L248,-1 L248,-14 L120,-14 M93,151 L68,151 L68,87 L93,87 M29,151 L29,87 L55,87 L55,151"/> 
            <glyph glyph-name="行" unicode="&#x884C;" horiz-adv-x="250" d=" M97,115 L250,115 L250,102 L200,102 L200,7 Q202,-24 167,-24 Q153,-25 134,-25 Q133,-21 132,-15 Q131,-12 131,-10 Q145,-10 164,-10 Q188,-11 186,8 L186,102 L97,102 M6,60 Q43,91 75,146 L88,139 Q73,115 61,99 L61,-29 L47,-29 L47,81 Q26,58 13,47 Q13,48 12,50 Q10,54 6,60 M112,191 L236,191 L236,178 L112,178 M20,130 Q17,137 12,143 Q47,170 74,210 L87,202 Q60,164 20,130"/> 
            <glyph glyph-name="衡" unicode="&#x8861;" horiz-adv-x="249" d=" M71,141 Q70,142 66,145 Q63,148 61,149 Q92,175 109,210 L121,206 Q120,204 118,200 Q116,196 110,187 L161,187 L161,175 L143,152 L172,152 L172,65 L77,65 L77,146 Q74,144 71,141 M167,-16 Q158,-9 139,2 Q127,9 122,13 Q112,-7 67,-24 Q66,-21 62,-17 Q60,-14 59,-13 Q112,3 115,31 L66,31 L66,42 L117,42 Q118,49 118,56 L131,56 Q130,49 130,42 L184,42 L184,31 L128,31 Q128,29 127,25 Q128,27 126,23 Q141,15 170,-2 Q174,-4 176,-5 M184,119 L249,119 L249,106 L226,106 L226,0 Q227,-25 200,-26 Q189,-26 183,-26 Q183,-24 182,-20 Q181,-15 180,-13 Q191,-13 197,-13 Q214,-14 213,1 L213,106 L184,106 M11,53 Q8,60 4,65 Q35,98 51,141 L63,136 Q55,117 46,100 L46,-30 L33,-30 L33,80 Q23,65 11,53 M15,133 Q14,135 10,141 Q8,144 8,145 Q39,175 52,208 L64,202 Q46,163 15,133 M147,176 L102,176 Q94,164 82,152 L129,152 M89,103 L89,76 L119,76 L119,103 M131,103 L131,76 L160,76 L160,103 M160,142 L131,142 L131,114 L160,114 M89,142 L89,114 L119,114 L119,142 M190,192 L242,192 L242,180 L190,180"/> 
            <glyph glyph-name="要" unicode="&#x8981;" horiz-adv-x="249" d=" M15,197 L241,197 L241,185 L165,185 L165,156 L228,156 L228,95 L28,95 L28,156 L90,156 L90,185 L15,185 M229,-27 Q221,-25 206,-20 Q183,-12 138,1 Q93,-21 18,-29 Q16,-23 13,-16 Q78,-9 120,6 Q86,18 52,28 Q65,42 75,55 L7,55 L7,66 L84,66 Q88,72 97,84 Q99,89 101,91 L115,85 Q113,82 109,76 Q103,69 101,66 L249,66 L249,55 L194,55 Q179,27 153,9 Q165,5 190,-1 Q220,-10 236,-15 M135,14 Q162,29 178,55 L92,55 Q86,48 77,37 Q75,34 74,33 Q81,31 96,26 Q122,18 135,14 M215,144 L165,144 L165,107 L215,107 M41,144 L41,107 L90,107 L90,144 M103,144 L103,107 L152,107 L152,144 M103,185 L103,156 L152,156 L152,185"/> 
            <glyph glyph-name="见" unicode="&#x89C1;" horiz-adv-x="248" d=" M42,196 L214,196 L214,49 L200,49 L200,183 L56,183 L56,48 L42,48 M121,162 L135,162 L135,139 Q136,67 111,33 Q87,-1 17,-29 Q15,-25 8,-17 Q78,9 99,40 Q122,70 121,139 M136,79 L150,79 L150,13 Q148,-9 169,-7 L204,-7 Q228,-8 231,12 Q232,16 233,31 Q234,39 234,43 Q236,43 241,41 Q246,40 248,39 Q248,37 247,34 Q246,17 244,10 Q241,-21 205,-20 L167,-20 Q135,-21 136,9"/> 
            <glyph glyph-name="让" unicode="&#x8BA9;" horiz-adv-x="249" d=" M152,207 L166,207 L166,133 L237,133 L237,120 L166,120 L166,0 L249,0 L249,-14 L88,-14 L88,0 L152,0 M56,10 Q79,28 98,43 Q99,36 102,28 Q83,15 57,-4 Q51,-9 45,-16 L33,-4 Q43,2 42,18 L42,110 L7,110 L7,123 L56,123 M72,152 Q68,156 61,163 Q41,184 31,192 L42,201 Q57,189 83,162"/> 
            <glyph glyph-name="试" unicode="&#x8BD5;" horiz-adv-x="250" d=" M171,208 L185,208 Q185,181 185,159 L246,159 L246,147 L185,147 Q185,46 201,7 Q209,-14 220,-14 Q229,-15 232,0 Q236,18 238,33 Q243,30 250,28 Q248,5 244,-6 Q239,-27 220,-27 Q199,-28 188,2 Q172,42 171,147 L79,147 L79,159 L171,159 Q171,181 171,208 M79,-13 L75,0 Q92,0 114,5 L114,88 L79,88 L79,100 L159,100 L159,88 L128,88 L128,7 L168,14 Q167,9 167,0 Q151,0 89,-11 Q82,-12 79,-13 M49,16 Q67,33 76,45 L81,29 Q76,25 65,14 Q53,3 48,-1 Q46,-4 41,-9 Q38,-12 37,-14 L27,-3 Q35,4 35,20 L35,114 L7,114 L7,127 L49,127 M52,155 Q32,179 17,194 L27,202 Q33,196 47,182 Q58,170 63,165 M195,191 L204,200 Q222,188 234,177 L225,167 Q208,181 195,191"/> 
            <glyph glyph-name="走" unicode="&#x8D70;" horiz-adv-x="249" d=" M18,-28 Q14,-24 7,-19 Q51,14 59,80 L73,78 Q72,75 71,69 Q67,50 64,41 Q86,1 124,-2 L124,88 L138,88 L138,55 L221,55 L221,43 L138,43 L138,-3 Q141,-4 146,-4 Q199,-6 249,-4 Q246,-10 245,-18 Q175,-18 146,-17 Q85,-17 59,26 Q48,0 18,-28 M122,210 L136,210 L136,170 L221,170 L221,158 L136,158 L136,112 L246,112 L246,99 L10,99 L10,112 L122,112 L122,158 L36,158 L36,170 L122,170"/> 
            <glyph glyph-name="超" unicode="&#x8D85;" horiz-adv-x="248" d=" M8,119 L58,119 L58,161 L17,161 L17,173 L58,173 L58,209 L71,209 L71,173 L108,173 L108,161 L71,161 L71,119 L114,119 L114,107 L79,107 L79,62 L112,62 L112,50 L79,50 L79,0 Q97,-8 135,-8 Q193,-8 248,-8 Q247,-9 246,-12 Q245,-15 243,-21 Q235,-21 213,-21 Q149,-22 130,-21 Q58,-21 36,25 Q31,-3 15,-28 Q11,-24 5,-20 Q18,2 23,24 Q27,45 27,88 L40,88 Q40,63 38,45 Q52,17 66,7 L66,107 L8,107 M130,94 L232,94 L232,17 L130,17 M143,82 L143,28 L220,28 L220,82 M122,186 L122,198 L236,198 Q236,179 233,149 Q233,116 202,117 Q187,116 176,116 L174,130 Q180,129 199,129 Q220,128 220,150 Q220,156 221,165 Q222,180 222,186 L169,186 Q171,133 128,110 Q124,116 120,120 Q158,139 156,186"/> 
            <glyph glyph-name="越" unicode="&#x8D8A;" horiz-adv-x="248" d=" M8,119 L58,119 L58,161 L17,161 L17,173 L58,173 L58,209 L71,209 L71,173 L108,173 L108,161 L71,161 L71,119 L114,119 L114,107 L79,107 L79,62 L109,62 L109,50 L79,50 L79,0 Q97,-8 135,-8 Q193,-8 248,-8 Q247,-9 246,-12 Q245,-15 243,-21 Q235,-21 213,-21 Q149,-22 130,-21 Q58,-21 36,25 Q31,-3 15,-28 Q11,-24 5,-20 Q18,2 23,24 Q27,45 27,88 L40,88 Q40,63 38,45 Q52,17 66,7 L66,107 L8,107 M137,63 Q138,64 141,67 Q158,83 162,88 Q165,79 167,76 Q145,54 138,46 Q131,39 127,33 L118,45 Q124,52 124,65 L124,162 L171,162 Q170,177 170,210 L183,210 Q182,201 183,178 Q183,167 183,162 L244,162 L244,150 L184,150 Q187,101 194,76 Q207,99 219,127 L231,123 Q214,85 199,60 Q204,46 211,34 Q215,27 221,27 Q227,27 229,38 Q229,41 230,48 Q232,65 233,73 Q240,70 246,69 Q245,63 243,51 Q242,41 241,36 Q238,13 222,13 Q207,13 198,30 Q197,32 196,34 Q193,39 190,47 Q174,25 150,3 Q147,5 140,12 Q167,37 185,61 Q175,91 171,150 L137,150 M198,198 L207,204 Q224,187 231,178 L221,170 Q218,174 209,185 Q201,194 198,198"/> 
            <glyph glyph-name="路" unicode="&#x8DEF;" horiz-adv-x="249" d=" M22,195 L97,195 L97,123 L73,123 L73,76 L101,76 L101,65 L73,65 L73,7 Q87,8 106,13 Q106,6 106,0 Q90,-2 58,-7 Q26,-13 10,-15 L7,-1 Q10,-1 15,0 Q20,0 22,0 L22,93 L35,93 L35,1 Q39,1 46,3 Q56,4 61,5 L61,123 L22,123 M124,62 L228,62 L228,-29 L215,-29 L215,-13 L137,-13 L137,-29 L124,-29 M115,127 Q111,132 106,136 Q130,167 150,211 L164,206 Q158,194 152,183 L232,183 L232,169 Q215,135 189,112 Q213,93 249,83 Q248,81 246,78 Q244,73 242,70 Q203,85 178,104 Q153,85 113,68 Q112,70 109,74 Q107,78 105,80 Q144,95 169,112 Q149,130 136,157 Q127,141 115,127 M137,50 L137,-1 L215,-1 L215,50 M35,183 L35,134 L85,134 L85,183 M218,171 L145,171 Q145,171 144,170 Q144,169 143,168 Q158,140 179,120 Q202,139 218,171"/> 
            <glyph glyph-name="身" unicode="&#x8EAB;" horiz-adv-x="249" d=" M8,64 L43,64 L43,183 L102,183 Q106,194 111,211 L124,208 Q124,207 123,203 Q122,197 116,183 L206,183 L206,80 Q223,92 239,106 L249,97 Q227,79 206,64 L206,8 Q207,-25 173,-24 Q159,-25 129,-25 Q129,-18 126,-11 Q144,-11 167,-11 Q195,-12 193,10 L193,52 L189,52 Q116,2 18,-28 Q15,-22 10,-15 Q104,11 166,52 L8,52 M185,64 Q188,67 193,70 L193,92 L57,92 L57,64 M57,132 L57,104 L193,104 L193,132 M57,171 L57,144 L193,144 L193,171"/> 
            <glyph glyph-name="车" unicode="&#x8F66;" horiz-adv-x="247" d=" M54,94 L128,94 L128,143 L142,143 L142,94 L223,94 L223,82 L142,82 L142,34 L247,34 L247,21 L142,21 L142,-30 L128,-30 L128,21 L9,21 L9,34 L128,34 L128,82 L39,82 L39,97 Q61,127 79,158 L19,158 L19,170 L87,170 Q91,177 98,191 Q105,204 108,211 L122,206 Q119,200 113,188 Q106,176 103,170 L241,170 L241,158 L95,158 Q75,125 54,94"/> 
            <glyph glyph-name="轮" unicode="&#x8F6E;" horiz-adv-x="250" d=" M7,16 L6,29 Q15,30 37,32 Q53,34 61,35 L61,76 L12,76 L12,88 Q22,115 36,160 L9,160 L9,172 L40,172 Q46,193 50,210 L63,207 Q62,205 61,200 Q59,190 53,172 L109,172 L109,160 L49,160 Q35,113 24,88 L61,88 L61,142 L74,142 L74,88 L105,88 L105,76 L74,76 L74,36 Q84,38 105,40 Q107,40 108,40 Q107,33 107,28 Q101,27 89,26 Q79,24 74,24 L74,-30 L61,-30 L61,23 Q46,21 19,17 Q11,16 7,16 M129,113 L142,113 L142,57 Q185,79 214,107 L223,98 Q191,68 142,42 L142,10 Q141,-10 166,-9 L194,-9 Q218,-9 220,9 Q222,18 223,37 Q224,42 224,44 Q228,42 236,41 Q237,40 238,40 Q235,19 232,3 Q226,-22 196,-22 L162,-22 Q128,-22 129,8 M241,115 Q196,145 176,187 Q151,146 107,112 Q103,118 98,123 Q151,161 174,210 L187,208 Q187,207 185,204 Q184,201 183,199 Q207,151 250,126 Q246,122 241,115"/> 
            <glyph glyph-name="轻" unicode="&#x8F7B;" horiz-adv-x="249" d=" M8,23 L7,36 Q16,37 36,39 Q50,40 58,41 L58,83 L11,83 L11,97 Q22,126 35,162 L9,162 L9,174 L38,174 Q44,193 50,211 L64,208 Q63,204 60,196 Q55,182 52,174 L104,174 L104,162 L48,162 Q38,132 24,95 L58,95 L58,141 L71,141 L71,95 L98,95 L98,83 L71,83 L71,43 Q89,44 106,47 Q105,45 105,34 Q99,33 87,32 Q76,30 71,30 L71,-29 L58,-29 L58,29 Q32,26 8,23 M115,73 L236,73 L236,61 L183,61 L183,-5 L249,-5 L249,-17 L99,-17 L99,-5 L169,-5 L169,61 L115,61 M241,87 Q240,88 237,90 Q204,113 182,127 Q159,106 113,85 Q113,85 112,87 Q108,93 104,97 Q174,123 209,180 L116,180 L116,193 L223,193 L223,179 Q208,154 190,136 Q223,117 249,99"/> 
            <glyph glyph-name="辆" unicode="&#x8F86;" horiz-adv-x="246" d=" M216,37 Q203,55 192,70 Q185,40 164,12 Q159,15 154,20 Q187,59 188,128 L154,128 Q153,111 151,96 Q152,95 153,94 Q166,78 175,70 L167,61 Q157,73 148,83 Q141,50 122,19 Q117,25 112,28 Q139,65 142,128 L111,128 L111,-29 L99,-29 L99,140 L143,140 Q143,156 143,180 L93,180 L93,192 L246,192 L246,180 L201,180 Q201,157 200,140 L240,140 L240,0 Q240,-24 216,-26 Q201,-26 187,-26 Q186,-20 184,-13 Q198,-14 212,-14 Q228,-14 228,0 L228,128 L200,128 Q199,104 195,84 Q202,75 215,58 Q222,49 225,45 M9,17 L7,29 Q28,32 51,35 L51,76 L10,76 L10,88 Q22,124 31,160 L8,160 L8,172 L34,172 Q39,191 42,209 L55,207 Q54,201 51,190 Q48,178 46,172 L89,172 L89,160 L43,160 Q37,136 24,95 Q23,90 22,87 L51,87 L51,132 L63,132 L63,87 L87,87 L87,76 L63,76 L63,37 Q77,38 90,41 Q90,39 89,34 Q89,30 89,29 Q84,28 74,27 Q67,25 63,25 L63,-29 L51,-29 L51,23 Q41,22 23,19 Q14,18 9,17 M155,180 Q155,158 154,140 L189,140 Q189,158 189,180"/> 
            <glyph glyph-name="进" unicode="&#x8FDB;" horiz-adv-x="248" d=" M73,93 L116,93 Q116,100 116,109 L116,152 L85,152 L85,164 L116,164 L116,209 L130,209 L130,164 L186,164 L186,209 L199,209 L199,164 L237,164 L237,152 L199,152 L199,93 L247,93 L247,81 L199,81 L199,5 L186,5 L186,81 L129,81 Q127,36 89,6 Q84,11 78,16 Q114,41 115,81 L73,81 M105,-6 Q146,-7 248,-5 Q248,-8 246,-13 Q245,-18 244,-20 Q128,-20 103,-19 Q59,-19 43,9 Q29,-6 15,-26 L7,-15 Q24,7 38,20 L38,108 L8,108 L8,121 L51,121 L51,19 Q65,-6 105,-6 M130,110 Q130,101 130,93 L186,93 L186,152 L130,152 M54,154 Q50,160 42,171 Q30,189 23,197 L33,204 Q52,180 65,161"/> 
            <glyph glyph-name="适" unicode="&#x9002;" horiz-adv-x="249" d=" M78,144 L156,144 L156,181 Q146,180 124,180 Q102,179 91,179 L89,192 Q175,194 231,198 L234,185 Q203,184 169,182 L169,144 L248,144 L248,132 L169,132 L169,94 L227,94 L227,17 L99,17 L99,94 L156,94 L156,132 L78,132 M112,82 L112,29 L214,29 L214,82 M119,-8 Q172,-10 249,-8 Q244,-18 243,-22 Q154,-22 115,-21 Q72,-22 48,6 Q33,-7 16,-27 L6,-16 Q19,-2 42,18 L42,108 L8,108 L8,121 L55,121 L55,17 Q76,-9 119,-8 M54,152 Q33,182 22,197 L33,204 Q39,196 54,176 Q63,164 66,160"/> 
            <glyph glyph-name="通" unicode="&#x901A;" horiz-adv-x="249" d=" M105,170 L114,179 Q123,174 142,163 Q151,158 156,155 L211,185 L82,185 L82,196 L229,196 L229,182 L168,148 Q170,146 173,145 Q175,144 175,144 L231,144 L231,35 Q232,9 204,8 Q193,7 182,7 Q182,15 180,21 Q189,20 200,20 Q220,18 218,40 L218,50 L166,50 L166,12 L153,12 L153,50 L101,50 L101,8 L88,8 L88,144 L153,144 Q125,160 105,170 M115,-7 Q185,-7 249,-7 Q248,-10 246,-14 Q245,-19 244,-21 Q165,-21 109,-19 Q69,-19 46,10 Q37,1 19,-18 Q16,-21 15,-22 L6,-11 Q16,0 40,21 L40,109 L9,109 L9,121 L53,121 L53,22 Q74,-7 115,-7 M166,91 L166,61 L218,61 L218,91 M101,91 L101,61 L153,61 L153,91 M101,132 L101,103 L153,103 L153,132 M218,132 L166,132 L166,103 L218,103 M61,153 Q56,158 42,173 Q29,187 23,193 L33,201 Q52,184 72,162"/> 
            <glyph glyph-name="速" unicode="&#x901F;" horiz-adv-x="249" d=" M89,141 L153,141 L153,170 L78,170 L78,182 L153,182 L153,210 L166,210 L166,182 L244,182 L244,170 L166,170 L166,141 L231,141 L231,80 L166,80 L166,62 L173,71 Q192,59 233,32 Q239,28 242,26 L234,15 Q216,29 166,61 L166,3 L153,3 L153,68 Q127,33 82,12 Q81,13 79,16 Q74,21 72,23 Q120,42 150,80 L89,80 M115,-7 Q185,-7 249,-7 Q248,-10 246,-14 Q245,-19 244,-21 Q165,-21 109,-19 Q69,-19 46,10 Q37,1 19,-18 Q16,-21 15,-22 L6,-11 Q16,0 40,21 L40,109 L9,109 L9,121 L53,121 L53,22 Q74,-7 115,-7 M218,129 L166,129 L166,91 L218,91 M102,129 L102,91 L153,91 L153,129 M55,157 Q50,163 52,161 Q32,183 22,193 L32,201 Q57,176 66,166"/> 
            <glyph glyph-name="遥" unicode="&#x9065;" horiz-adv-x="249" d=" M87,88 Q82,93 77,96 Q100,116 112,142 L125,138 Q121,130 116,124 L230,124 L230,112 L165,112 L165,82 L244,82 L244,70 L165,70 L165,26 L214,26 L214,53 L227,53 L227,15 L90,15 L90,56 L103,56 L103,26 L152,26 L152,70 L71,70 L71,82 L152,82 L152,112 L108,112 Q99,100 87,88 M107,-10 Q194,-10 249,-9 Q248,-12 247,-16 Q245,-21 244,-23 Q187,-23 158,-23 Q125,-23 104,-22 Q62,-23 44,7 Q26,-8 14,-25 L7,-12 Q24,6 38,18 L38,108 L8,108 L8,120 L51,120 L51,18 Q67,-11 107,-10 M234,189 Q169,184 84,181 Q84,187 81,194 Q174,196 231,201 M49,153 Q37,170 20,195 L32,201 Q40,190 56,168 Q59,163 61,160 M201,134 L190,141 Q205,159 214,179 L226,173 Q214,154 201,134 M142,172 L153,176 Q162,163 169,147 L157,142 Q154,149 147,162 Q144,169 142,172 M89,168 L100,174 Q109,162 117,149 L106,143 Q103,149 96,159 Q91,165 89,168"/> 
            <glyph glyph-name="都" unicode="&#x90FD;" horiz-adv-x="248" d=" M63,209 L76,209 L76,175 L111,175 L111,163 L76,163 L76,129 L94,129 Q118,155 134,183 L146,176 Q130,150 111,129 L148,129 L148,117 L100,117 Q84,100 63,85 L130,85 L130,-25 L117,-25 L117,-10 L49,-10 L49,-26 L36,-26 L36,67 Q24,60 12,52 Q12,53 11,54 Q7,60 4,63 Q49,87 81,117 L8,117 L8,129 L63,129 L63,163 L20,163 L20,175 L63,175 M247,43 Q248,4 213,2 Q201,2 189,2 Q188,10 186,17 Q197,16 210,16 Q234,16 233,43 Q234,73 197,105 L229,183 L176,183 L176,-29 L162,-29 L162,195 L243,195 L243,182 L213,108 Q248,78 247,43 M49,31 L49,0 L117,0 L117,31 M49,73 L49,42 L117,42 L117,73"/> 
            <glyph glyph-name="酷" unicode="&#x9177;" horiz-adv-x="249" d=" M11,194 L122,194 L122,183 L87,183 L87,145 L117,145 L117,-27 L105,-27 L105,-11 L28,-11 L28,-27 L16,-27 L16,145 L46,145 L46,183 L11,183 M144,66 L236,66 L236,-29 L224,-29 L224,-11 L157,-11 L157,-29 L144,-29 M188,209 L201,209 L201,167 L240,167 L240,156 L201,156 L201,106 L249,106 L249,95 L129,95 L129,106 L188,106 L188,156 L155,156 Q153,148 147,132 Q144,124 143,120 Q137,123 131,125 Q147,162 153,197 L166,195 Q162,180 159,167 L188,167 M28,134 L28,46 L105,46 L105,73 L94,73 Q75,73 75,94 L75,134 L58,134 L58,124 Q60,82 39,60 Q38,61 33,65 Q30,67 30,67 Q48,83 46,123 L46,134 M157,55 L157,0 L224,0 L224,55 M28,35 L28,0 L105,0 L105,35 M105,134 L87,134 L87,97 Q86,83 98,84 L105,84 M58,183 L58,145 L75,145 L75,183"/> 
            <glyph glyph-name="里" unicode="&#x91CC;" horiz-adv-x="249" d=" M22,44 L121,44 L121,78 L31,78 L31,196 L225,196 L225,78 L134,78 L134,44 L234,44 L234,31 L134,31 L134,-3 L249,-3 L249,-16 L7,-16 L7,-3 L121,-3 L121,31 L22,31 M134,131 L134,90 L211,90 L211,131 M45,131 L45,90 L121,90 L121,131 M211,184 L134,184 L134,143 L211,143 M45,184 L45,143 L121,143 L121,184"/> 
            <glyph glyph-name="重" unicode="&#x91CD;" horiz-adv-x="248" d=" M228,191 Q207,189 135,187 L135,163 L248,163 L248,151 L135,151 L135,128 L220,128 L220,45 L135,45 L135,24 L229,24 L229,13 L135,13 L135,-7 L248,-7 L248,-19 L8,-19 L8,-7 L121,-7 L121,13 L27,13 L27,24 L121,24 L121,45 L35,45 L35,128 L121,128 L121,151 L9,151 L9,163 L121,163 L121,186 Q55,184 27,184 L25,196 Q148,198 225,202 M49,81 L49,57 L121,57 L121,81 M135,81 L135,57 L207,57 L207,81 M49,116 L49,92 L121,92 L121,116 M207,116 L135,116 L135,92 L207,92"/> 
            <glyph glyph-name="金" unicode="&#x91D1;" horiz-adv-x="248" d=" M49,128 L203,128 L203,115 L135,115 L135,74 L225,74 L225,62 L135,62 L135,-6 L241,-6 L241,-19 L15,-19 L15,-6 L121,-6 L121,62 L31,62 L31,74 L121,74 L121,115 L49,115 M241,120 Q170,146 129,194 Q85,147 16,116 Q13,122 7,128 Q90,164 127,212 L142,209 Q141,208 140,206 Q138,204 137,203 Q182,154 248,132 Q245,127 241,120 M175,5 L165,14 Q183,30 200,49 L211,41 Q195,23 175,5 M44,41 L55,49 Q66,38 86,17 Q84,18 88,14 L77,5 Q65,20 44,41"/> 
            <glyph glyph-name="钟" unicode="&#x949F;" horiz-adv-x="237" d=" M167,209 L180,209 L180,161 L237,161 L237,46 L224,46 L224,57 L180,57 L180,-29 L167,-29 L167,57 L123,57 L123,46 L110,46 L110,161 L167,161 M8,77 L42,77 L42,116 L25,116 L25,129 L87,129 L87,116 L56,116 L56,77 L94,77 L94,65 L56,65 L56,0 Q74,9 94,22 Q94,14 97,8 Q94,6 88,3 Q69,-5 56,-14 Q50,-17 46,-22 L36,-11 Q42,-5 42,3 L42,65 L8,65 M123,148 L123,70 L167,70 L167,148 M224,148 L180,148 L180,70 L224,70 M14,122 Q9,127 4,132 Q31,170 43,210 L56,206 Q50,188 42,172 L95,172 L95,160 L36,160 Q27,141 14,122"/> 
            <glyph glyph-name="钥" unicode="&#x94A5;" horiz-adv-x="235" d=" M200,-12 Q223,-14 221,4 L221,54 L131,54 Q128,10 94,-29 Q93,-28 90,-26 Q84,-21 82,-20 Q106,5 113,31 Q120,55 120,112 L120,196 L234,196 L234,3 Q235,-25 202,-26 Q182,-26 170,-26 Q170,-24 169,-21 Q168,-15 167,-11 Q177,-12 200,-12 M133,112 Q133,85 132,66 L221,66 L221,119 L133,119 M133,183 L133,132 L221,132 L221,183 M8,83 L45,83 L45,118 L27,118 L27,130 L89,130 L89,118 L58,118 L58,83 L99,83 L99,72 L58,72 L58,12 Q60,14 71,25 Q85,38 89,42 Q91,36 94,29 Q90,25 73,10 Q61,0 57,-4 Q52,-9 49,-14 L38,-2 Q45,3 45,15 L45,72 L8,72 M13,124 Q11,128 8,133 Q6,135 6,136 Q31,164 47,210 L60,206 Q57,197 50,181 Q48,177 47,175 L98,175 L98,163 L40,163 Q30,144 13,124"/> 
            <glyph glyph-name="铝" unicode="&#x94DD;" horiz-adv-x="238" d=" M109,78 L238,78 L238,-28 L224,-28 L224,-11 L123,-11 L123,-28 L109,-28 M117,196 L229,196 L229,112 L117,112 M123,66 L123,0 L224,0 L224,66 M131,184 L131,124 L216,124 L216,184 M24,125 L84,125 L84,113 L54,113 L54,77 L92,77 L92,65 L54,65 L54,-1 Q69,7 90,22 Q90,14 92,8 Q88,5 79,0 Q63,-10 55,-16 Q53,-18 50,-21 Q46,-24 44,-25 L35,-15 Q41,-9 41,0 L41,65 L7,65 L7,77 L41,77 L41,113 L24,113 M13,121 Q12,123 9,126 Q6,130 5,131 Q28,163 43,210 L56,207 Q55,204 52,197 Q49,187 42,172 L91,172 L91,159 L37,159 Q25,136 13,121"/> 
            <glyph glyph-name="镁" unicode="&#x9541;" horiz-adv-x="248" d=" M95,173 L177,173 Q197,195 208,210 L220,203 Q214,196 199,178 Q196,175 194,173 L241,173 L241,161 L174,161 L174,133 L233,133 L233,121 L174,121 L174,91 L244,91 L244,80 L93,80 L93,91 L161,91 L161,121 L104,121 L104,133 L161,133 L161,161 L95,161 M159,69 L173,69 Q173,58 172,49 L243,49 L243,37 L176,37 Q193,-1 248,-14 Q248,-15 245,-18 Q241,-25 240,-27 Q181,-9 166,32 Q158,-8 87,-29 Q86,-28 83,-23 Q79,-19 78,-17 Q148,1 156,37 L95,37 L95,49 L158,49 Q159,58 159,69 M7,77 L40,77 L40,114 L23,114 L23,125 L76,125 L76,114 L53,114 L53,77 L83,77 L83,65 L53,65 L53,2 Q64,13 80,29 Q82,23 84,15 Q56,-9 43,-25 L33,-14 Q40,-6 40,7 L40,65 L7,65 M15,114 Q14,115 12,118 Q7,125 6,126 Q29,159 42,209 L56,206 Q50,188 44,171 L82,171 L82,159 L39,159 Q30,137 15,114 M116,203 L126,210 Q130,206 140,196 Q149,186 152,183 L141,174 Q137,179 123,195 Q118,201 116,203"/> 
            <glyph glyph-name="长" unicode="&#x957F;" horiz-adv-x="247" d=" M9,105 L54,105 L54,210 L68,210 L68,105 L245,105 L245,91 L134,91 Q165,20 247,-5 Q246,-6 245,-7 Q242,-11 237,-19 Q150,15 120,91 L68,91 L68,-6 Q78,-2 99,7 Q119,17 129,21 Q129,11 130,6 Q95,-7 74,-18 Q64,-22 57,-28 L47,-16 Q54,-9 54,1 L54,91 L9,91 M97,126 Q94,133 90,139 Q160,164 215,198 L223,186 Q172,155 97,126"/> 
            <glyph glyph-name="防" unicode="&#x9632;" horiz-adv-x="249" d=" M93,166 L249,166 L249,154 L142,154 L140,109 L231,109 Q230,56 227,19 Q227,-24 187,-22 Q173,-23 158,-23 Q156,-12 154,-8 Q172,-8 186,-8 Q212,-10 214,20 Q216,53 217,97 L140,97 Q138,14 85,-29 Q84,-28 80,-25 Q75,-21 73,-19 Q129,22 126,108 L128,154 L93,154 M90,48 Q90,16 67,13 Q58,12 45,12 Q44,18 42,26 Q51,25 60,25 Q77,26 77,48 Q77,77 50,110 L74,185 L32,185 L32,-29 L19,-29 L19,197 L88,197 L88,183 L65,112 Q91,79 90,48 M156,206 L169,210 Q171,206 175,195 Q182,178 185,171 L171,167 Q165,186 156,206"/> 
            <glyph glyph-name="阻" unicode="&#x963B;" horiz-adv-x="249" d=" M79,-7 L111,-7 L111,194 L225,194 L225,-7 L249,-7 L249,-19 L79,-19 M89,50 Q89,14 64,13 Q61,13 55,13 Q47,12 43,12 Q42,20 40,26 Q47,26 59,26 Q77,25 76,50 Q77,80 51,110 L73,183 L32,183 L32,-29 L19,-29 L19,195 L86,195 L86,182 L65,112 Q89,82 89,50 M124,115 L124,59 L211,59 L211,115 M124,182 L124,126 L211,126 L211,182 M124,47 L124,-7 L211,-7 L211,47"/> 
            <glyph glyph-name="陡" unicode="&#x9661;" horiz-adv-x="249" d=" M88,49 Q88,15 63,14 Q55,13 41,13 Q41,19 39,27 Q46,26 58,26 Q74,26 74,49 Q76,79 49,111 L74,185 L31,185 L31,-29 L17,-29 L17,198 L88,198 L88,184 L63,113 Q89,81 88,49 M167,88 L181,88 L181,58 L243,58 L243,46 L181,46 L181,-4 Q200,-5 249,-5 Q248,-8 247,-13 Q245,-16 245,-18 Q196,-18 179,-16 Q137,-15 119,22 Q112,-1 89,-28 Q88,-27 85,-24 Q80,-20 78,-18 Q114,13 114,77 L127,76 Q126,55 123,40 Q140,0 167,-2 M105,171 L166,171 L166,208 L179,208 L179,171 L240,171 L240,158 L179,158 L179,114 L249,114 L249,102 L95,102 L95,114 L166,114 L166,158 L105,158"/> 
            <glyph glyph-name="障" unicode="&#x969C;" horiz-adv-x="250" d=" M82,14 L159,14 L159,37 L103,37 L103,112 L229,112 L229,37 L173,37 L173,14 L250,14 L250,3 L173,3 L173,-30 L159,-30 L159,3 L82,3 M83,53 Q84,23 60,20 Q52,19 43,19 Q43,20 42,22 Q40,28 39,31 Q43,31 52,32 Q54,32 54,32 Q71,32 70,53 Q71,83 48,112 L69,184 L32,184 L32,-30 L19,-30 L19,196 L82,196 L82,183 L61,114 Q83,86 83,53 M85,142 L136,142 Q132,148 124,158 Q120,163 118,166 L128,173 Q140,159 148,149 L138,142 L183,142 Q187,147 194,158 Q201,168 204,173 L216,167 Q207,155 197,142 L249,142 L249,131 L85,131 M116,70 L116,48 L217,48 L217,70 M116,101 L116,80 L217,80 L217,101 M155,209 L167,212 Q172,201 176,189 L164,186 L239,186 L239,174 L95,174 L95,186 L163,186 Q160,198 155,209"/> 
            <glyph glyph-name="面" unicode="&#x9762;" horiz-adv-x="245" d=" M10,195 L245,195 L245,182 L131,182 L116,144 L231,144 L231,-29 L218,-29 L218,-14 L37,-14 L37,-29 L23,-29 L23,144 L102,144 L115,182 L10,182 M218,131 L171,131 L171,-2 L218,-2 M37,131 L37,-2 L83,-2 L83,131 M96,82 L96,45 L158,45 L158,82 M96,131 L96,94 L158,94 L158,131 M96,33 L96,-2 L158,-2 L158,33"/> 
            <glyph glyph-name="项" unicode="&#x9879;" horiz-adv-x="248" d=" M108,147 L153,147 L162,184 L100,184 L100,196 L246,196 L246,184 L176,184 L167,147 L233,147 L233,24 L220,24 L220,134 L121,134 L121,22 L108,22 M9,10 L5,24 Q10,25 20,27 Q36,31 44,33 L44,171 L10,171 L10,184 L90,184 L90,171 L58,171 L58,36 Q76,41 93,45 Q93,40 94,32 Q88,30 69,26 Q25,15 9,10 M164,113 L178,113 L178,98 Q178,69 173,44 Q197,26 240,-9 Q245,-13 248,-15 L238,-26 Q215,-5 169,31 Q157,-5 90,-30 Q89,-29 86,-24 Q82,-20 81,-18 Q134,1 148,23 Q165,44 164,97"/> 
            <glyph glyph-name="领" unicode="&#x9886;" horiz-adv-x="249" d=" M111,198 L249,198 L249,186 L187,186 L177,146 L237,146 L237,33 L224,33 L224,135 L136,135 L136,31 L123,31 L123,146 L164,146 L173,186 L111,186 M237,-27 Q220,-9 192,16 Q183,25 178,29 Q166,-2 111,-31 Q110,-28 105,-23 Q103,-20 102,-19 Q146,1 159,22 Q174,42 174,83 L174,119 L187,119 L187,83 Q187,60 182,42 Q194,32 215,12 Q237,-7 248,-17 M19,39 L28,47 Q33,42 43,31 Q53,21 58,15 L91,78 L15,78 L15,90 L105,90 L105,76 L68,5 Q79,-3 88,-15 L78,-24 Q62,-5 26,32 Q21,37 19,39 M101,135 Q96,141 88,153 Q71,177 62,188 Q42,144 15,108 Q14,110 10,114 Q7,117 6,119 Q41,163 57,210 L71,208 Q70,206 68,202 Q67,201 67,200 Q91,171 112,144 M49,139 L60,144 Q70,128 79,110 L68,104 Q59,122 49,139"/> 
            <glyph glyph-name="驱" unicode="&#x9A71;" horiz-adv-x="247" d=" M38,160 L32,89 L68,89 L75,182 L12,182 L12,194 L89,194 L81,89 L98,89 Q98,52 95,10 Q94,-24 57,-24 Q41,-24 31,-24 Q30,-19 28,-11 Q39,-11 57,-11 Q80,-12 82,11 Q83,25 84,55 Q85,70 85,77 L18,77 L25,160 M120,195 L244,195 L244,182 L133,182 L133,-7 L247,-7 L247,-19 L120,-19 M144,152 L155,159 Q160,151 170,134 Q184,111 191,99 Q205,127 218,161 L230,157 Q214,115 199,85 Q209,67 228,34 Q233,26 235,22 L223,15 Q219,23 209,39 Q197,61 191,72 Q178,47 154,13 L142,22 Q164,47 184,85 Q164,120 144,152 M9,27 L7,40 Q31,44 69,50 Q69,47 69,37 Q66,36 55,35 Q22,29 9,27"/> 
            <glyph glyph-name="驶" unicode="&#x9A76;" horiz-adv-x="247" d=" M128,67 Q142,38 158,23 Q169,42 169,82 L117,82 L117,171 L169,171 L169,209 L182,209 L182,171 L236,171 L236,70 L223,70 L223,82 L182,82 Q182,38 169,14 Q193,-2 247,-12 Q243,-18 240,-25 Q190,-14 161,3 Q145,-13 109,-29 Q108,-28 105,-25 Q102,-20 100,-18 Q140,0 151,12 Q131,27 116,62 M38,160 L32,89 L68,89 L75,182 L12,182 L12,194 L89,194 L81,89 L98,89 Q98,52 94,10 Q94,-24 57,-24 Q41,-24 31,-24 Q30,-19 28,-11 Q39,-11 57,-11 Q80,-12 82,11 Q83,25 84,55 Q85,70 85,77 L18,77 L25,160 M223,159 L182,159 L182,94 L223,94 M129,159 L129,94 L169,94 L169,159 M9,27 L7,40 Q31,44 69,50 Q69,47 69,37 Q66,36 55,35 Q22,29 9,27"/> 
            <glyph glyph-name="驾" unicode="&#x9A7E;" horiz-adv-x="233" d=" M68,81 L63,56 L179,56 L184,92 L35,92 L35,104 L199,104 L193,56 L233,56 Q232,44 231,24 Q230,12 230,6 Q230,-26 192,-25 Q187,-25 171,-26 Q154,-26 149,-26 Q149,-24 148,-19 Q147,-14 146,-12 Q152,-12 166,-12 Q183,-13 190,-13 Q216,-14 217,8 Q217,9 217,12 Q219,36 219,44 L47,44 L54,81 M145,191 L232,191 L232,127 L145,127 M50,210 L63,210 Q63,206 62,198 Q62,189 61,185 L119,185 Q119,179 118,166 Q118,154 118,149 Q117,121 89,121 Q80,121 69,121 Q69,122 68,125 Q67,131 66,133 Q77,133 86,133 Q104,132 105,148 Q105,152 106,161 Q106,170 106,173 L60,173 Q55,132 17,112 Q16,113 15,114 Q14,116 7,122 Q42,140 47,173 L14,173 L14,185 L48,185 Q50,197 50,210 M158,180 L158,138 L219,138 L219,180 M13,21 L188,21 L188,9 L13,9"/> 
            <glyph glyph-name="骑" unicode="&#x9A91;" horiz-adv-x="249" d=" M36,162 L28,91 L61,91 L69,185 L11,185 L11,196 L82,196 L73,91 L91,91 Q90,75 89,36 Q88,13 88,2 Q87,-24 55,-24 Q46,-25 28,-25 Q28,-22 26,-16 Q25,-13 25,-12 Q42,-12 54,-12 Q75,-12 75,4 Q76,21 78,72 Q78,68 78,79 L15,79 L23,162 M114,76 L182,76 L182,13 L114,13 M100,109 L249,109 L249,97 L227,97 L227,0 Q227,-26 200,-27 Q186,-27 170,-27 Q170,-25 169,-21 Q168,-16 167,-14 Q171,-14 181,-14 Q191,-15 196,-15 Q216,-16 215,1 L215,97 L100,97 M170,209 L183,209 Q183,191 182,182 L240,182 L240,170 L179,170 Q179,167 177,163 Q176,161 176,160 Q205,147 235,129 L227,119 Q214,127 192,138 Q178,146 170,150 Q157,131 117,116 Q115,119 112,125 Q110,126 110,127 Q160,144 167,170 L107,170 L107,182 L169,182 Q170,187 170,209 M127,64 L127,24 L169,24 L169,64 M8,24 L6,37 Q32,41 65,50 Q65,43 65,38 Q57,36 40,32 Q19,27 8,24"/> 
            <glyph glyph-name="骨" unicode="&#x9AA8;" horiz-adv-x="239" d=" M47,198 L209,198 L209,126 L239,126 L239,90 L226,90 L226,115 L30,115 L30,90 L17,90 L17,126 L47,126 M64,-29 L51,-29 L51,92 L206,92 L206,1 Q206,-24 179,-25 Q168,-26 145,-26 Q145,-24 144,-20 Q143,-13 142,-12 Q157,-12 175,-12 Q193,-13 192,2 L192,10 L64,10 M60,186 L60,163 L155,163 L155,126 L195,126 L195,186 M64,45 L64,22 L192,22 L192,45 M64,80 L64,57 L192,57 L192,80 M142,152 L60,152 L60,126 L142,126"/> 
            <glyph glyph-name="高" unicode="&#x9AD8;" horiz-adv-x="248" d=" M49,152 L206,152 L206,104 L49,104 M35,-28 L22,-28 L22,83 L234,83 L234,1 Q235,-26 207,-26 Q195,-26 176,-26 Q176,-19 174,-13 Q187,-13 202,-13 Q222,-14 221,1 L221,71 L35,71 M74,51 L182,51 L182,0 L74,0 M62,140 L62,116 L193,116 L193,140 M118,207 L131,210 Q135,198 138,185 L248,185 L248,173 L8,173 L8,185 L124,185 Q123,189 121,196 Q119,204 118,207 M87,39 L87,12 L169,12 L169,39"/> 
            <glyph glyph-name="鼻" unicode="&#x9F3B;" horiz-adv-x="248" d=" M45,192 L104,192 Q106,196 108,204 Q109,209 110,211 L123,209 Q120,201 117,192 L210,192 L210,111 L45,111 M34,96 L222,96 L222,38 L34,38 M22,-20 Q72,-11 76,12 L8,12 L8,22 L248,22 L248,12 L188,12 L188,-29 L175,-29 L175,12 L89,12 Q86,-19 29,-31 Q26,-26 22,-20 M58,135 L58,121 L198,121 L198,135 M58,182 L58,168 L198,168 L198,182 M58,158 L58,145 L198,145 L198,158 M47,86 L47,72 L122,72 L122,86 M47,62 L47,48 L122,48 L122,62 M209,86 L134,86 L134,72 L209,72 M134,62 L134,48 L209,48 L209,62"/> 
            <glyph glyph-name="！" unicode="&#xFF01;" horiz-adv-x="72" d=" M72,185 L53,185 L56,38 L68,38 M72,-14 L72,6 L54,6 L54,-14"/> 
            <glyph glyph-name="，" unicode="&#xFF0C;" horiz-adv-x="80" d=" M79,39 L79,17 Q80,-17 55,-33 L48,-27 Q70,-11 69,13 L55,13 L55,39"/> 
        </font>
</defs>
</svg>
