<?xml version="1.0" standalone="no"?>
<!DOCTYPE svg PUBLIC "-//W3C//DTD SVG 1.1//EN" "http://www.w3.org/Graphics/SVG/1.1/DTD/svg11.dtd" >
<svg xmlns="http://www.w3.org/2000/svg">
    <defs>
        <font id="">
            <font-face font-family=""
                       units-per-em="256"
                       ascent="229"
                       descent="-64"
                       bbox="-14 -64 269 229"
                    />
            <missing-glyph horiz-adv-x="0" />
            
            <glyph glyph-name="%" unicode="&#x25;" horiz-adv-x="232" d=" M59,-15 L79,-15 L190,195 L170,195 M59,106 Q83,108 84,143 Q83,178 59,179 Q35,178 34,142 Q35,108 59,106 M59,196 Q100,195 101,142 Q100,92 58,90 Q18,93 16,142 Q18,194 59,196 M189,0 Q214,1 215,37 Q214,72 190,73 Q166,73 165,36 Q166,3 189,0 M190,89 Q231,87 232,36 Q231,-14 188,-15 Q149,-12 147,36 Q148,87 190,89"/> 
            <glyph glyph-name="," unicode="&#x2C;" horiz-adv-x="53" d=" M28,-56 L19,-48 Q37,-35 38,-8 L22,-8 L22,21 L53,21 Q53,13 53,-4 Q53,-38 28,-56"/> 
            <glyph glyph-name="-" unicode="&#x2D;" horiz-adv-x="154" d=" M154,80 L154,100 L15,100 L15,80"/> 
            <glyph glyph-name="." unicode="&#x2E;" horiz-adv-x="57" d=" M57,-8 L57,21 L26,21 L26,-8"/> 
            <glyph glyph-name="/" unicode="&#x2F;" horiz-adv-x="77" d=" M0,-12 L19,-12 L77,194 L58,194"/> 
            <glyph glyph-name="0" unicode="&#x30;" horiz-adv-x="144" d=" M77,176 Q36,173 35,90 Q35,4 78,5 Q121,4 121,90 Q121,177 77,176 M79,-12 Q12,-11 12,90 Q13,191 78,194 Q143,192 144,90 Q143,-10 79,-12"/> 
            <glyph glyph-name="1" unicode="&#x31;" horiz-adv-x="105" d=" M84,-9 L105,-9 L105,194 L90,194 Q77,162 31,141 L31,120 Q62,132 84,152"/> 
            <glyph glyph-name="2" unicode="&#x32;" horiz-adv-x="142" d=" M140,-7 L140,10 L35,10 Q48,36 89,66 Q142,102 139,141 Q135,192 79,194 Q30,195 13,146 L33,136 Q44,173 75,175 Q115,174 116,138 Q117,111 72,78 Q28,46 9,6 L9,-7"/> 
            <glyph glyph-name="3" unicode="&#x33;" horiz-adv-x="143" d=" M101,97 Q134,109 135,142 Q133,192 76,194 Q26,193 14,144 L36,137 Q43,174 77,175 Q109,174 111,142 Q109,105 66,104 Q60,104 56,104 L56,86 Q60,86 74,86 Q117,84 120,48 Q120,6 75,6 Q38,6 32,47 L9,41 Q21,-12 77,-12 Q140,-9 143,46 Q141,85 101,97"/> 
            <glyph glyph-name="4" unicode="&#x34;" horiz-adv-x="144" d=" M28,58 L96,58 L96,161 Q96,160 94,157 Q93,154 92,152 Q76,131 28,58 M144,40 L116,40 L116,-9 L96,-9 L96,40 L4,40 L4,52 L100,194 L116,194 L116,58 L144,58"/> 
            <glyph glyph-name="5" unicode="&#x35;" horiz-adv-x="144" d=" M42,109 L48,170 L134,170 L134,190 L31,190 L19,85 L34,82 Q47,103 78,104 Q120,102 122,56 Q120,7 77,5 Q39,6 33,48 L11,42 Q22,-12 79,-12 Q142,-10 144,58 Q140,121 82,124 Q60,124 42,109"/> 
            <glyph glyph-name="6" unicode="&#x36;" horiz-adv-x="144" d=" M33,67 Q34,6 81,4 Q119,6 121,54 Q120,102 81,103 Q42,101 33,67 M140,149 L120,142 Q112,177 82,176 Q32,175 32,93 Q48,120 84,121 Q140,118 144,56 Q140,-7 81,-12 Q10,-12 10,85 Q11,194 83,194 Q127,192 140,149"/> 
            <glyph glyph-name="7" unicode="&#x37;" horiz-adv-x="143" d=" M143,176 L143,190 L13,190 L13,170 L116,170 Q56,82 41,-9 L65,-9 Q78,86 143,176"/> 
            <glyph glyph-name="8" unicode="&#x38;" horiz-adv-x="147" d=" M78,87 Q38,85 34,43 Q38,7 79,4 Q120,7 124,41 Q121,85 78,87 M79,176 Q46,174 43,142 Q44,105 79,103 Q112,104 114,140 Q111,173 79,176 M51,95 Q21,109 19,140 Q23,191 79,194 Q133,190 138,140 Q136,108 108,95 Q145,81 147,41 Q144,-10 79,-12 Q13,-10 11,43 Q14,82 51,95"/> 
            <glyph glyph-name="9" unicode="&#x39;" horiz-adv-x="146" d=" M122,113 Q122,176 74,175 Q36,172 33,126 Q35,80 74,77 Q113,77 122,113 M16,31 L37,38 Q44,3 74,4 Q121,6 122,87 Q107,58 72,58 Q16,63 11,124 Q15,189 76,194 Q146,195 145,95 Q145,-11 72,-12 Q28,-10 16,31"/> 
            <glyph glyph-name="=" unicode="&#x3D;" horiz-adv-x="148" d=" M148,50 L148,69 L15,69 L15,50 M148,111 L148,130 L15,130 L15,111"/> 
            <glyph glyph-name="&gt;" unicode="&#x3E;" horiz-adv-x="152" d=" M15,156 L133,90 L15,24 L15,0 L152,80 L152,100 L15,180"/> 
            <glyph glyph-name="E" unicode="&#x45;" horiz-adv-x="172" d=" M45,9 L172,9 L172,-9 L22,-9 L22,191 L166,191 L166,172 L45,172 L45,104 L159,104 L159,84 L45,84"/> 
            <glyph glyph-name="G" unicode="&#x47;" horiz-adv-x="200" d=" M114,94 L200,94 L200,21 Q175,-12 114,-12 Q20,-7 15,88 Q19,190 110,194 Q177,193 199,135 L174,129 Q158,173 109,174 Q45,168 39,89 Q44,12 113,6 Q158,6 178,30 L178,75 L114,75"/> 
            <glyph glyph-name="L" unicode="&#x4C;" horiz-adv-x="146" d=" M146,-9 L146,9 L43,9 L43,191 L20,191 L20,-9"/> 
            <glyph glyph-name="O" unicode="&#x4F;" horiz-adv-x="207" d=" M110,174 Q44,168 37,89 Q41,12 108,6 Q178,10 182,89 Q176,168 110,174 M109,-12 Q18,-7 14,87 Q18,189 112,194 Q201,188 207,89 Q203,-8 109,-12"/> 
            <glyph glyph-name="P" unicode="&#x50;" horiz-adv-x="175" d=" M102,171 L44,171 L44,92 L102,92 Q150,93 151,133 Q149,170 102,171 M106,72 L44,72 L44,-9 L22,-9 L22,191 L108,191 Q169,188 175,132 Q174,73 106,72"/> 
            <glyph glyph-name="R" unicode="&#x52;" horiz-adv-x="198" d=" M45,171 L45,101 L110,101 Q159,102 159,138 Q158,170 110,171 M198,-9 L167,-9 L98,81 L45,81 L45,-9 L22,-9 L22,191 L115,191 Q179,188 183,137 Q183,85 123,81"/> 
            <glyph glyph-name="×" unicode="&#xD7;" horiz-adv-x="189" d=" M189,42 L176,29 L128,77 L80,29 L67,42 L115,90 L67,138 L80,151 L128,103 L176,151 L189,138 L141,90"/> 
            <glyph glyph-name="÷" unicode="&#xF7;" horiz-adv-x="201" d=" M201,80 L201,100 L55,100 L55,80 M142,127 L142,155 L114,155 L114,127 M142,25 L142,52 L114,52 L114,25"/> 
            <glyph glyph-name="、" unicode="&#x3001;" horiz-adv-x="104" d=" M37,36 L52,48 L104,-9 L88,-23"/> 
            <glyph glyph-name="。" unicode="&#x3002;" horiz-adv-x="109" d=" M51,14 Q53,-3 72,-5 Q92,-3 94,14 Q92,34 72,36 Q53,34 51,14 M36,14 Q39,48 72,51 Q106,48 109,14 Q106,-18 72,-21 Q40,-18 36,14"/> 
            <glyph glyph-name="一" unicode="&#x4E00;" horiz-adv-x="248" d=" M8,107 L248,107 L248,86 L8,86"/> 
            <glyph glyph-name="三" unicode="&#x4E09;" horiz-adv-x="245" d=" M11,8 L245,8 L245,-10 L11,-10 M26,184 L229,184 L229,163 L26,163 M37,101 L218,101 L218,80 L37,80"/> 
            <glyph glyph-name="上" unicode="&#x4E0A;" horiz-adv-x="246" d=" M106,204 L127,204 L127,131 L227,131 L227,112 L127,112 L127,3 L246,3 L246,-14 L10,-14 L10,3 L106,3"/> 
            <glyph glyph-name="不" unicode="&#x4E0D;" horiz-adv-x="249" d=" M13,188 L243,188 L243,169 L155,169 Q141,148 126,127 L137,127 L137,-29 L117,-29 L117,114 Q71,60 19,27 Q11,39 6,44 Q86,94 131,169 L13,169 M162,114 Q172,107 198,90 Q235,67 249,57 L236,39 Q181,79 150,98"/> 
            <glyph glyph-name="与" unicode="&#x4E0E;" horiz-adv-x="247" d=" M47,94 L59,208 L79,208 L75,170 L247,170 L247,152 L73,152 L70,113 L230,113 Q229,99 226,57 Q224,29 223,18 Q221,-26 168,-23 Q146,-24 116,-24 Q114,-7 112,-3 Q127,-4 167,-4 Q200,-5 202,19 Q204,27 207,79 Q208,91 208,94 M8,57 L187,57 L187,38 L8,38"/> 
            <glyph glyph-name="且" unicode="&#x4E14;" horiz-adv-x="248" d=" M8,1 L41,1 L41,194 L215,194 L215,1 L248,1 L248,-15 L8,-15 M60,48 L60,1 L195,1 L195,48 M60,112 L60,65 L195,65 L195,112 M60,176 L60,129 L195,129 L195,176"/> 
            <glyph glyph-name="业" unicode="&#x4E1A;" horiz-adv-x="248" d=" M149,204 L169,204 L169,4 L248,4 L248,-13 L9,-13 L9,4 L87,4 L87,204 L107,204 L107,4 L149,4 M37,156 Q58,106 75,57 L56,49 Q39,100 19,150 M178,57 Q197,94 219,156 L238,148 Q211,78 195,49"/> 
            <glyph glyph-name="严" unicode="&#x4E25;" horiz-adv-x="245" d=" M51,83 Q53,13 21,-28 Q14,-20 6,-14 Q33,17 31,82 L31,110 L93,110 L93,177 L13,177 L13,195 L245,195 L245,177 L168,177 L168,110 L245,110 L245,93 L51,93 M112,177 L112,110 L149,110 L149,177 M182,131 Q200,151 214,170 L230,158 Q215,140 195,119 M32,160 L47,170 Q65,148 76,132 L60,121 Q54,131 38,152 Q34,158 32,160"/> 
            <glyph glyph-name="个" unicode="&#x4E2A;" horiz-adv-x="249" d=" M147,204 Q144,199 141,196 Q179,134 249,105 Q248,105 236,84 Q166,120 129,178 Q87,120 20,80 Q16,88 10,96 Q8,99 7,100 Q80,137 122,207 M117,120 L138,120 L138,-28 L117,-28"/> 
            <glyph glyph-name="中" unicode="&#x4E2D;" horiz-adv-x="232" d=" M24,156 L118,156 L118,209 L138,209 L138,156 L232,156 L232,46 L213,46 L213,59 L138,59 L138,-30 L118,-30 L118,59 L43,59 L43,46 L24,46 M213,138 L138,138 L138,77 L213,77 M43,138 L43,77 L118,77 L118,138"/> 
            <glyph glyph-name="为" unicode="&#x4E3A;" horiz-adv-x="232" d=" M113,210 L133,210 Q133,175 129,145 L232,145 Q232,118 230,56 Q229,35 229,26 Q228,-25 180,-22 Q159,-23 136,-23 Q135,-16 133,-4 Q132,-2 132,-1 Q133,-1 142,-1 Q167,-2 178,-2 Q209,-5 209,27 Q209,32 210,43 Q212,95 212,126 L127,126 Q110,20 27,-31 Q25,-29 20,-23 Q15,-17 13,-14 Q89,30 106,126 L18,126 L18,145 L109,145 Q113,175 113,210 M133,82 L146,94 Q175,67 188,52 L173,38 Q155,61 133,82 M36,191 L49,204 Q58,196 75,181 Q83,173 87,169 L72,155 Q50,179 36,191"/> 
            <glyph glyph-name="么" unicode="&#x4E48;" horiz-adv-x="247" d=" M179,80 Q215,34 247,-9 L229,-23 Q226,-19 221,-11 Q217,-6 216,-4 Q166,-6 70,-13 Q51,-15 40,-18 L30,2 Q45,8 58,21 Q125,90 169,163 L189,152 Q133,67 68,5 Q77,5 95,6 Q162,8 204,12 Q185,39 163,68 M7,80 Q73,130 119,208 L138,199 Q86,114 21,65 Q15,72 7,80"/> 
            <glyph glyph-name="之" unicode="&#x4E4B;" horiz-adv-x="249" d=" M25,162 L223,162 L223,144 Q159,77 70,22 Q91,0 137,-1 Q181,-4 249,-1 Q249,-2 248,-5 Q244,-16 243,-21 Q165,-21 136,-20 Q84,-18 52,13 Q50,16 47,13 Q45,11 42,8 Q26,-6 17,-18 L5,0 Q11,4 21,14 Q33,25 37,29 Q45,35 53,33 Q143,88 196,144 L25,144 M107,200 L125,209 Q127,206 131,200 Q136,192 147,174 L128,164 Q118,182 107,200"/> 
            <glyph glyph-name="乎" unicode="&#x4E4E;" horiz-adv-x="248" d=" M22,169 Q20,177 18,188 Q104,190 227,198 L231,179 Q209,178 158,175 Q145,174 139,174 L139,90 L248,90 L248,71 L139,71 L139,10 Q140,-25 102,-25 Q85,-25 67,-25 Q65,-9 64,-4 Q82,-5 99,-5 Q120,-6 119,12 L119,71 L8,71 L8,90 L119,90 L119,173 Q103,173 72,171 Q39,170 22,169 M167,113 Q188,136 203,161 L220,150 Q209,133 183,101 M36,148 L51,158 Q65,142 84,116 Q86,113 87,112 L70,100 Q68,103 64,109 Q48,133 36,148"/> 
            <glyph glyph-name="也" unicode="&#x4E5F;" horiz-adv-x="249" d=" M8,113 L43,122 L43,180 L62,180 L62,127 L119,141 L119,207 L138,207 L138,146 L223,167 Q223,161 223,150 Q222,111 219,88 Q217,47 179,47 Q166,47 155,47 Q154,57 151,67 Q154,67 163,67 Q173,66 178,66 Q199,65 201,89 Q203,123 203,144 L138,127 L138,23 L119,23 L119,122 L62,108 L62,19 Q61,-1 84,0 L193,0 Q222,-2 223,15 Q226,33 228,52 Q229,52 232,51 Q242,47 249,46 Q246,27 242,8 Q238,-20 198,-19 L80,-19 Q41,-20 43,15 L43,103 L10,95"/> 
            <glyph glyph-name="了" unicode="&#x4E86;" horiz-adv-x="232" d=" M122,118 L202,170 L17,170 L17,190 L232,190 L232,166 L143,108 L143,19 Q146,-24 101,-23 Q77,-23 62,-23 Q62,-20 60,-12 Q59,-4 58,0 Q75,-1 99,-1 Q123,-3 122,20"/> 
            <glyph glyph-name="二" unicode="&#x4E8C;" horiz-adv-x="244" d=" M11,18 L244,18 L244,0 L11,0 M29,177 L227,177 L227,156 L29,156"/> 
            <glyph glyph-name="于" unicode="&#x4E8E;" horiz-adv-x="247" d=" M28,190 L229,190 L229,171 L142,171 L142,109 L247,109 L247,90 L142,90 L142,10 Q143,-24 106,-24 Q103,-24 90,-24 Q75,-25 70,-25 Q69,-18 66,-3 Q69,-3 80,-3 Q95,-4 101,-4 Q123,-5 122,15 L122,90 L9,90 L9,109 L122,109 L122,171 L28,171"/> 
            <glyph glyph-name="产" unicode="&#x4EA7;" horiz-adv-x="247" d=" M33,111 L147,111 Q162,130 177,159 L195,147 Q179,125 168,111 L240,111 L240,94 L52,94 L52,77 Q54,8 20,-29 Q14,-22 7,-13 Q35,12 33,77 M114,203 L133,209 Q134,207 136,201 Q141,187 143,180 L247,180 L247,163 L13,163 L13,180 L123,180 Q119,191 114,203 M63,149 L80,160 Q82,157 86,151 Q102,131 106,124 L89,112 Q75,135 63,149"/> 
            <glyph glyph-name="什" unicode="&#x4EC0;" horiz-adv-x="248" d=" M82,119 L155,119 L155,206 L176,206 L176,119 L248,119 L248,100 L176,100 L176,-27 L155,-27 L155,100 L82,100 M5,85 Q45,139 64,206 L85,200 Q76,173 64,147 L64,-28 L44,-28 L44,108 Q31,84 16,66 Q12,76 5,85"/> 
            <glyph glyph-name="仅" unicode="&#x4EC5;" horiz-adv-x="249" d=" M87,173 L87,190 L233,190 L233,174 Q221,92 176,39 Q206,9 249,-7 Q240,-19 234,-27 Q188,-3 162,24 Q130,-6 85,-28 Q80,-21 70,-11 Q118,10 148,40 Q108,90 99,173 M211,173 L118,173 Q125,102 162,55 Q204,106 211,173 M6,94 Q44,147 63,208 L83,202 Q73,174 58,142 L58,-28 L39,-28 L39,108 Q27,88 14,73 Q10,83 6,94"/> 
            <glyph glyph-name="仑" unicode="&#x4ED1;" horiz-adv-x="248" d=" M56,114 L75,114 L75,63 Q145,84 190,113 L204,97 Q145,65 75,43 L75,17 Q75,-1 99,-1 L174,-1 Q196,-2 198,17 Q201,33 201,49 Q211,47 221,44 Q220,39 219,29 Q217,16 216,11 Q211,-22 176,-20 L95,-20 Q56,-20 56,15 M146,206 Q143,202 139,196 Q180,146 248,120 Q246,117 242,111 Q238,104 236,101 Q165,135 128,182 Q89,134 19,98 Q11,112 8,116 Q87,153 125,210"/> 
            <glyph glyph-name="以" unicode="&#x4EE5;" horiz-adv-x="250" d=" M191,202 L210,202 Q210,169 209,138 Q206,81 193,52 Q206,39 231,12 Q244,0 250,-7 L233,-22 Q223,-10 205,11 Q190,27 184,35 Q162,0 100,-30 Q94,-23 87,-13 Q193,28 189,138 Q191,176 191,202 M116,68 Q116,53 118,45 Q111,41 90,28 Q51,3 45,0 Q38,-5 30,-11 L16,6 Q27,17 27,31 L27,199 L47,199 L47,26 Q96,56 116,68 M105,208 Q125,175 141,146 L123,136 Q99,182 89,199"/> 
            <glyph glyph-name="们" unicode="&#x4EEC;" horiz-adv-x="238" d=" M236,8 Q238,-26 201,-26 Q179,-26 164,-26 Q164,-25 164,-23 Q163,-17 160,-6 Q169,-7 197,-7 Q218,-8 217,10 L217,167 L153,167 L153,186 L236,186 M7,90 Q44,145 61,206 L80,198 Q70,170 59,145 L59,-28 L40,-28 L40,107 Q29,88 15,68 Q12,77 7,90 M94,-25 L94,151 L113,151 L113,-25 M97,195 L111,206 Q115,201 122,192 Q134,177 140,169 L124,158 Q122,161 117,168 Q105,185 97,195"/> 
            <glyph glyph-name="优" unicode="&#x4F18;" horiz-adv-x="247" d=" M131,206 L150,206 Q150,166 148,140 L244,140 L244,123 L177,123 L177,13 Q176,-2 192,-1 L206,-1 Q223,-2 225,13 Q227,26 228,51 Q237,47 247,44 Q246,18 243,6 Q240,-22 208,-20 L189,-20 Q156,-22 158,10 L158,123 L147,123 Q147,118 147,115 Q142,31 80,-28 Q68,-14 65,-12 Q123,41 127,118 Q127,120 127,123 L75,123 L75,140 L129,140 Q131,186 131,206 M8,93 Q46,146 64,207 L84,200 Q73,168 58,138 L58,-28 L39,-28 L39,105 Q27,86 15,71 Q11,81 8,93 M181,199 Q209,179 223,167 Q219,161 210,152 Q194,168 170,186"/> 
            <glyph glyph-name="会" unicode="&#x4F1A;" horiz-adv-x="250" d=" M164,41 Q197,10 225,-16 L209,-30 Q206,-27 200,-20 Q194,-14 191,-10 Q110,-14 68,-19 Q57,-21 48,-24 L36,-4 Q47,0 56,7 Q73,21 98,54 L17,54 L17,72 L239,72 L239,54 L122,54 Q93,17 74,0 Q136,2 176,4 Q164,16 151,29 M124,211 L144,207 Q143,206 142,205 Q140,200 138,199 Q185,142 250,118 Q249,116 244,108 Q239,102 237,98 Q169,130 128,186 Q81,131 19,95 Q13,103 6,113 Q80,151 124,211 M61,122 L194,122 L194,104 L61,104"/> 
            <glyph glyph-name="传" unicode="&#x4F20;" horiz-adv-x="248" d=" M98,29 L108,43 Q139,27 161,13 L208,59 L105,59 L105,76 Q110,91 114,106 L77,106 L77,123 L119,123 Q124,140 128,155 L88,155 L88,172 L133,172 Q135,181 138,197 Q139,203 140,206 L161,206 Q160,201 157,189 Q155,178 153,172 L238,172 L238,155 L148,155 Q146,146 142,129 Q141,125 140,123 L248,123 L248,106 L135,106 Q131,91 125,76 L233,76 L233,58 L178,3 Q195,-5 207,-14 L194,-30 Q170,-14 112,20 Q102,26 98,29 M8,89 Q42,141 61,207 L81,201 Q80,199 79,194 Q73,175 61,149 L61,-28 L42,-28 L42,109 Q30,85 16,68 Q12,78 8,89"/> 
            <glyph glyph-name="但" unicode="&#x4F46;" horiz-adv-x="249" d=" M98,191 L228,191 L228,41 L98,41 M7,93 Q45,144 64,207 L84,200 Q73,168 58,139 L58,-28 L39,-28 L39,105 Q27,85 15,71 Q12,81 7,93 M116,109 L116,58 L209,58 L209,109 M116,174 L116,125 L209,125 L209,174 M76,4 L249,4 L249,-12 L76,-12"/> 
            <glyph glyph-name="体" unicode="&#x4F53;" horiz-adv-x="250" d=" M58,26 Q108,70 131,140 L75,140 L75,158 L145,158 L145,207 L164,207 L164,158 L239,158 L239,140 L178,140 Q202,65 250,32 Q245,28 236,14 Q183,64 164,140 L164,38 L202,38 L202,21 L164,21 L164,-28 L145,-28 L145,21 L107,21 L107,38 L145,38 L145,140 Q129,69 72,10 Q63,22 58,26 M6,91 Q42,139 62,208 L80,202 Q70,169 56,140 L56,-28 L38,-28 L38,105 Q36,101 31,94 Q27,87 15,71 Q14,72 12,78 Q7,90 6,91"/> 
            <glyph glyph-name="余" unicode="&#x4F59;" horiz-adv-x="248" d=" M146,206 Q143,202 139,197 Q181,147 248,122 Q246,119 242,113 Q238,106 236,103 Q213,114 195,125 L195,112 L140,112 L140,78 L239,78 L239,60 L140,60 L140,2 Q141,-27 108,-27 Q92,-27 77,-27 Q76,-19 73,-7 Q82,-8 103,-8 Q122,-9 120,5 L120,60 L17,60 L17,78 L120,78 L120,112 L61,112 L61,124 Q36,108 19,100 Q18,101 16,105 Q11,114 8,118 Q87,156 125,210 M128,183 Q101,151 68,129 L189,129 Q150,155 128,183 M178,51 Q205,29 242,-1 L228,-16 Q204,6 164,38 M72,51 L88,39 Q67,15 29,-19 Q26,-16 19,-9 Q16,-6 14,-4 Q46,19 72,51"/> 
            <glyph glyph-name="你" unicode="&#x4F60;" horiz-adv-x="248" d=" M7,88 Q46,141 66,209 L86,203 Q73,169 62,146 L62,-28 L44,-28 L44,109 Q30,85 16,67 Q12,78 7,88 M209,113 L225,152 L123,152 Q111,130 98,109 Q95,112 88,117 Q85,120 83,121 Q111,160 126,208 L146,202 Q139,184 131,169 L244,169 L244,150 L226,106 M155,133 L174,133 L174,7 Q177,-25 140,-25 Q118,-25 113,-25 Q113,-24 113,-22 Q112,-16 109,-5 Q128,-6 138,-6 Q156,-7 155,9 M133,91 Q112,41 97,8 L79,16 Q99,55 115,97 M212,98 Q232,58 248,19 L230,11 Q223,30 205,70 Q198,84 195,91"/> 
            <glyph glyph-name="佳" unicode="&#x4F73;" horiz-adv-x="245" d=" M152,90 L171,90 L171,58 L237,58 L237,40 L171,40 L171,0 L245,0 L245,-17 L76,-17 L76,0 L152,0 L152,40 L88,40 L88,58 L152,58 M152,206 L171,206 L171,169 L234,169 L234,152 L171,152 L171,114 L243,114 L243,97 L80,97 L80,114 L152,114 L152,152 L89,152 L89,169 L152,169 M8,92 Q43,144 62,209 L82,203 Q73,174 60,147 L60,-28 L41,-28 L41,110 Q29,87 16,70 Q14,75 11,83 Q9,89 8,92"/> 
            <glyph glyph-name="使" unicode="&#x4F7F;" horiz-adv-x="249" d=" M75,174 L151,174 L151,207 L169,207 L169,174 L247,174 L247,158 L169,158 L169,134 L234,134 L234,57 L216,57 L216,67 L167,67 Q164,36 151,17 Q182,-2 249,-8 Q242,-17 236,-28 Q172,-18 138,2 Q121,-13 77,-30 Q73,-22 64,-12 Q109,0 123,14 Q106,29 92,50 L108,59 Q120,41 135,28 Q145,43 148,67 L85,67 L85,134 L151,134 L151,158 L75,158 M8,92 Q45,147 59,208 L78,202 Q68,169 55,141 L55,-29 L37,-29 L37,105 Q36,103 33,99 Q23,80 16,71 Q12,82 8,92 M150,83 Q150,87 150,95 Q151,104 151,109 L151,118 L103,118 L103,83 M169,109 Q169,95 168,83 L216,83 L216,118 L169,118"/> 
            <glyph glyph-name="供" unicode="&#x4F9B;" horiz-adv-x="248" d=" M82,152 L113,152 L113,206 L132,206 L132,152 L185,152 L185,206 L205,206 L205,152 L239,152 L239,134 L205,134 L205,68 L248,68 L248,50 L72,50 L72,68 L113,68 L113,134 L82,134 M5,92 Q46,147 65,208 L84,201 Q73,170 58,142 L58,-29 L39,-29 L39,107 Q27,87 13,70 Q8,86 5,92 M132,134 L132,68 L185,68 L185,134 M170,31 L184,43 Q204,26 238,-6 Q244,-11 247,-14 L231,-28 Q207,-3 170,31 M147,31 Q123,3 86,-29 Q84,-28 78,-22 Q72,-16 70,-15 Q105,12 130,43"/> 
            <glyph glyph-name="保" unicode="&#x4FDD;" horiz-adv-x="249" d=" M92,197 L227,197 L227,114 L92,114 M63,0 Q110,25 134,66 L70,66 L70,82 L150,82 L150,108 L168,108 L168,82 L248,82 L248,66 L182,66 Q207,25 249,5 Q243,-1 238,-9 Q190,16 168,64 L168,-28 L150,-28 L150,64 Q122,14 76,-14 Q70,-7 63,0 M7,90 Q41,141 57,207 L75,202 Q66,172 54,143 L54,-28 L36,-28 L36,105 Q26,85 14,70 Q10,80 7,90 M110,180 L110,131 L208,131 L208,180"/> 
            <glyph glyph-name="倍" unicode="&#x500D;" horiz-adv-x="248" d=" M95,68 L227,68 L227,-28 L208,-28 L208,-12 L113,-12 L113,-28 L95,-28 M6,90 Q40,138 58,207 L77,202 Q76,199 73,192 Q62,158 55,142 L55,-28 L37,-28 L37,105 Q36,103 33,99 Q26,85 14,70 Q10,80 6,90 M113,52 L113,3 L208,3 L208,52 M178,117 Q193,136 202,155 L220,146 Q210,128 195,109 L248,109 L248,92 L73,92 L73,109 L192,109 M141,201 L157,210 Q164,202 176,184 Q177,182 178,181 L163,173 L240,173 L240,156 L82,156 L82,173 L160,173 Q156,180 147,193 Q143,198 141,201 M102,146 L117,155 Q130,138 142,120 L125,109 Q116,128 102,146"/> 
            <glyph glyph-name="做" unicode="&#x505A;" horiz-adv-x="250" d=" M182,208 L199,205 Q195,182 189,162 L247,162 L247,145 L234,145 Q228,76 208,36 Q225,8 250,-9 Q244,-17 238,-26 Q212,-2 198,18 Q185,-2 153,-30 Q150,-25 141,-16 Q174,12 188,37 Q173,67 169,110 Q163,98 157,88 Q152,95 146,103 Q172,149 182,208 M102,206 L120,206 L120,159 L159,159 L159,143 L120,143 L120,94 L148,94 L148,6 L91,6 L91,-10 L73,-10 L73,94 L102,94 L102,143 L64,143 L64,159 L102,159 M6,93 Q37,144 52,208 L70,203 Q62,176 53,150 L53,-28 L37,-28 L37,112 Q36,110 34,106 Q21,84 13,73 Q9,82 6,93 M91,78 L91,22 L131,22 L131,78 M199,56 Q213,91 217,145 L184,145 Q182,142 182,140 Q186,86 199,56"/> 
            <glyph glyph-name="健" unicode="&#x5065;" horiz-adv-x="249" d=" M123,42 L167,42 L167,63 L129,63 L129,77 L167,77 L167,98 L132,98 L132,111 L167,111 L167,132 L120,132 L120,146 L167,146 L167,167 L132,167 L132,181 L167,181 L167,206 L183,206 L183,181 L226,181 L226,146 L247,146 L247,132 L226,132 L226,98 L183,98 L183,77 L231,77 L231,63 L183,63 L183,42 L234,42 L234,29 L183,29 L183,2 L167,2 L167,29 L123,29 M77,80 Q83,55 94,38 Q103,62 104,95 L67,95 L67,110 L102,167 L70,167 L70,183 L120,183 L120,167 L85,110 L120,110 L120,94 Q117,51 105,23 Q129,-2 179,-3 Q211,-4 249,-1 Q248,-4 245,-11 Q242,-17 241,-20 Q235,-20 222,-20 Q195,-21 176,-20 Q127,-19 97,7 Q87,-8 69,-29 Q67,-25 59,-18 Q58,-17 57,-16 Q79,6 86,20 Q71,43 62,74 M6,91 Q38,141 52,208 L70,204 Q61,171 51,144 L51,-27 L35,-27 L35,108 Q26,90 14,71 Q11,80 6,91 M211,167 L183,167 L183,146 L211,146 M183,111 L211,111 L211,132 L183,132"/> 
            <glyph glyph-name="先" unicode="&#x5148;" horiz-adv-x="249" d=" M124,208 L144,208 L144,161 L228,161 L228,143 L144,143 L144,97 L245,97 L245,79 L167,79 L167,10 Q167,-4 184,-4 L209,-4 Q226,-4 227,6 Q229,21 229,42 Q238,38 249,36 Q248,11 245,0 Q240,-21 212,-22 L180,-22 Q148,-22 148,8 L148,79 L100,79 Q101,-2 18,-29 Q13,-22 6,-12 Q82,8 81,79 L13,79 L13,97 L124,97 L124,143 L62,143 Q52,124 39,106 Q35,110 27,115 Q24,117 22,118 Q51,154 67,202 L87,196 Q80,177 72,161 L124,161"/> 
            <glyph glyph-name="免" unicode="&#x514D;" horiz-adv-x="248" d=" M9,-13 Q83,11 105,60 L37,60 L37,124 Q35,122 31,119 Q28,117 20,110 Q19,111 16,115 Q10,123 7,126 Q52,156 87,209 L105,202 Q103,199 99,193 Q94,186 92,183 L187,183 L187,166 L160,140 L218,140 L218,60 L146,60 L146,12 Q144,-6 166,-5 L205,-5 Q223,-6 225,9 Q228,21 229,44 Q239,41 248,38 Q247,20 243,4 Q239,-23 209,-22 L161,-22 Q124,-25 128,11 L128,60 L126,60 Q105,2 22,-31 Q15,-21 9,-13 M199,123 L137,123 Q136,98 131,77 L199,77 M55,123 L55,77 L112,77 Q118,98 119,123 M162,167 L79,167 Q79,166 78,166 Q66,152 53,140 L135,140"/> 
            <glyph glyph-name="入" unicode="&#x5165;" horiz-adv-x="249" d=" M75,194 L91,205 Q117,189 151,119 Q195,21 249,0 L232,-21 Q177,10 134,110 Q133,113 130,118 Q128,123 126,125 Q100,31 22,-23 Q16,-13 8,-5 Q85,43 113,150 Q96,180 75,194"/> 
            <glyph glyph-name="全" unicode="&#x5168;" horiz-adv-x="249" d=" M125,211 L145,206 Q144,205 143,202 Q141,200 140,198 Q187,143 249,120 Q242,109 236,100 Q223,106 208,115 L208,98 L138,98 L138,61 L217,61 L217,43 L138,43 L138,0 L238,0 L238,-16 L18,-16 L18,0 L118,0 L118,43 L40,43 L40,61 L118,61 L118,98 L49,98 L49,114 Q47,113 43,110 Q28,101 19,97 Q14,105 7,115 Q85,154 125,211 M129,184 Q99,147 51,115 L208,115 Q160,146 129,184"/> 
            <glyph glyph-name="兰" unicode="&#x5170;" horiz-adv-x="246" d=" M18,155 L145,155 Q162,176 182,208 L200,197 Q197,193 191,185 Q184,175 169,155 L238,155 L238,136 L18,136 M10,7 L246,7 L246,-10 L10,-10 M35,83 L219,83 L219,64 L35,64 M55,197 L70,208 Q76,202 87,190 Q99,177 104,171 L87,158 Q72,178 55,197"/> 
            <glyph glyph-name="共" unicode="&#x5171;" horiz-adv-x="247" d=" M165,206 L184,206 L184,159 L237,159 L237,140 L184,140 L184,73 L247,73 L247,55 L9,55 L9,73 L71,73 L71,140 L19,140 L19,159 L71,159 L71,205 L91,205 L91,159 L165,159 M91,140 L91,73 L165,73 L165,140 M93,43 L108,27 Q89,14 45,-13 Q30,-22 23,-26 Q21,-24 15,-16 Q10,-10 9,-9 Q51,11 93,43 M146,27 L160,42 Q183,28 229,0 Q237,-5 241,-8 L227,-25 Q177,9 146,27"/> 
            <glyph glyph-name="关" unicode="&#x5173;" horiz-adv-x="247" d=" M9,-11 Q101,19 114,76 L14,76 L14,94 L117,94 Q117,96 118,99 Q118,103 118,104 L118,140 L28,140 L28,158 L84,158 Q68,180 53,198 L68,209 Q86,190 102,169 L88,158 L146,158 Q152,167 163,183 Q174,200 179,208 L198,198 Q183,179 167,158 L229,158 L229,140 L137,140 L137,104 Q137,100 136,94 L243,94 L243,76 L141,76 Q165,14 247,-7 Q245,-10 241,-17 Q236,-24 234,-27 Q152,3 128,62 Q110,4 22,-29 Q15,-19 9,-11"/> 
            <glyph glyph-name="其" unicode="&#x5176;" horiz-adv-x="248" d=" M14,176 L51,176 L51,207 L69,207 L69,176 L187,176 L187,207 L205,207 L205,176 L242,176 L242,159 L205,159 L205,47 L248,47 L248,30 L9,30 L9,47 L51,47 L51,159 L14,159 M69,73 L69,47 L187,47 L187,73 M69,116 L69,90 L187,90 L187,116 M69,159 L69,133 L187,133 L187,159 M151,9 L162,26 Q169,23 185,16 Q232,-2 248,-10 L238,-29 Q204,-10 151,9 M92,25 L103,9 Q64,-12 18,-30 Q17,-27 13,-21 Q9,-14 8,-12 Q57,5 92,25"/> 
            <glyph glyph-name="内" unicode="&#x5185;" horiz-adv-x="229" d=" M119,207 L139,207 Q139,200 138,184 Q138,171 138,165 L227,165 L227,7 Q229,-23 195,-23 Q169,-24 157,-24 Q155,-13 153,-3 Q158,-3 170,-3 Q184,-4 191,-4 Q208,-5 207,9 L207,147 L138,147 Q137,115 128,94 L138,103 Q170,77 201,47 L186,31 Q167,52 126,89 Q113,59 64,28 Q62,32 55,41 Q51,45 51,46 Q120,78 118,147 L48,147 L48,-26 L29,-26 L29,165 L118,165 Q119,179 119,207"/> 
            <glyph glyph-name="决" unicode="&#x51B3;" horiz-adv-x="248" d=" M138,207 L157,207 Q157,188 157,163 L219,163 L219,87 L248,87 L248,69 L160,69 Q181,16 244,-6 Q243,-7 242,-9 Q233,-20 230,-25 Q163,9 147,57 Q135,6 65,-29 Q55,-15 51,-11 Q122,21 132,69 L70,69 L70,87 L135,87 Q138,99 137,117 Q137,121 137,129 Q138,140 138,146 L83,146 L83,163 L138,163 Q138,187 138,207 M200,146 L157,146 Q157,139 156,127 Q156,119 156,116 Q156,99 155,87 L200,87 M43,101 Q44,101 45,100 Q56,94 62,91 Q39,24 28,-9 L8,0 Q28,44 43,101 M28,192 Q33,187 41,178 Q60,159 70,147 L54,134 Q53,135 51,138 Q27,166 14,180"/> 
            <glyph glyph-name="净" unicode="&#x51C0;" horiz-adv-x="247" d=" M65,134 Q103,171 122,209 L141,205 Q136,196 130,187 L203,187 L203,171 L175,137 L225,137 L225,94 L247,94 L247,78 L225,78 L225,22 L207,22 L207,35 L161,35 L161,6 Q164,-27 126,-26 Q111,-26 101,-26 Q101,-24 99,-17 Q98,-10 97,-7 Q100,-7 107,-7 Q118,-8 123,-8 Q144,-9 143,9 L143,35 L82,35 L82,51 L143,51 L143,78 L70,78 L70,94 L143,94 L143,121 L87,121 L87,131 Q83,125 78,121 Q77,122 74,125 Q68,132 65,134 M180,171 L119,171 Q107,153 92,137 L153,137 M40,93 Q49,88 58,84 Q47,49 31,-6 L12,0 Q27,39 40,93 M30,192 Q31,191 32,188 Q54,148 62,132 L44,123 Q29,157 14,184 M161,78 L161,51 L207,51 L207,78 M207,121 L161,121 L161,94 L207,94"/> 
            <glyph glyph-name="准" unicode="&#x51C6;" horiz-adv-x="247" d=" M59,110 Q93,151 115,208 L133,202 Q127,187 116,167 L244,167 L244,150 L185,150 L185,113 L237,113 L237,97 L185,97 L185,59 L238,59 L238,43 L185,43 L185,6 L247,6 L247,-9 L111,-9 L111,-29 L92,-29 L92,125 Q81,107 72,95 Q66,104 59,110 M47,96 Q56,91 66,87 Q50,45 31,-11 L10,-1 Q26,34 47,96 M111,43 L111,6 L167,6 L167,43 M111,97 L111,59 L167,59 L167,97 M111,150 L111,113 L167,113 L167,150 M24,195 Q45,172 65,145 L49,132 Q32,157 9,184 M156,200 L171,210 Q181,199 194,180 L178,169 Q176,172 172,178 Q168,185 156,200"/> 
            <glyph glyph-name="几" unicode="&#x51E0;" horiz-adv-x="249" d=" M61,194 L180,194 L180,16 Q179,-1 196,0 L206,0 Q223,-1 224,13 Q226,22 227,45 Q228,50 228,52 Q237,47 249,44 Q247,22 243,6 Q240,-20 208,-19 L193,-19 Q159,-21 161,15 L161,176 L81,176 L81,115 Q81,58 69,31 Q58,3 22,-25 Q16,-18 7,-8 Q40,15 50,39 Q61,62 61,111"/> 
            <glyph glyph-name="出" unicode="&#x51FA;" horiz-adv-x="229" d=" M33,96 L33,183 L52,183 L52,114 L118,114 L118,205 L137,205 L137,114 L203,114 L203,183 L222,183 L222,96 L137,96 L137,1 L210,1 L210,70 L229,70 L229,-24 L210,-24 L210,-16 L27,-16 L27,70 L46,70 L46,1 L118,1 L118,96"/> 
            <glyph glyph-name="击" unicode="&#x51FB;" horiz-adv-x="247" d=" M27,164 L118,164 L118,208 L138,208 L138,164 L230,164 L230,146 L138,146 L138,102 L247,102 L247,84 L138,84 L138,0 L204,0 L204,63 L223,63 L223,-28 L204,-28 L204,-18 L33,-18 L33,63 L52,63 L52,0 L118,0 L118,84 L9,84 L9,102 L118,102 L118,146 L27,146"/> 
            <glyph glyph-name="分" unicode="&#x5206;" horiz-adv-x="250" d=" M39,101 L200,101 Q199,78 198,41 Q197,29 197,23 Q195,-23 151,-22 Q126,-22 112,-22 Q112,-14 109,-2 Q113,-2 125,-2 Q141,-3 149,-3 Q176,-5 177,25 Q179,63 179,83 L105,83 Q103,0 26,-31 Q23,-26 15,-17 Q14,-15 13,-14 Q84,9 85,83 L39,83 M144,201 L162,209 Q189,144 250,112 Q240,101 234,94 Q171,134 144,201 M6,109 Q62,146 95,206 L112,196 Q77,133 20,93 Q14,100 6,109"/> 
            <glyph glyph-name="利" unicode="&#x5229;" horiz-adv-x="236" d=" M8,132 L67,132 L67,173 Q29,169 17,169 Q15,177 12,186 Q75,191 131,198 L135,181 Q132,181 118,179 Q97,177 84,175 L84,132 L139,132 L139,115 L84,115 L84,-28 L67,-28 L67,93 Q46,45 17,10 Q15,14 12,21 Q9,27 7,32 Q39,66 60,115 L8,115 M215,204 L234,204 L234,4 Q236,-27 202,-26 Q179,-26 171,-26 Q168,-7 167,-4 Q186,-6 196,-6 Q216,-7 215,11 M156,180 L174,180 L174,27 L156,27 M86,82 L99,94 Q117,79 141,55 L126,40 Q115,54 86,82"/> 
            <glyph glyph-name="到" unicode="&#x5230;" horiz-adv-x="239" d=" M113,164 Q134,132 151,102 Q142,98 133,93 Q132,96 129,102 Q126,107 124,110 Q107,109 69,106 Q56,105 50,104 Q46,104 38,102 Q29,101 25,100 L16,120 Q23,124 31,132 Q48,152 60,176 L12,176 L12,193 L152,193 L152,176 L82,176 Q64,146 45,121 Q64,122 108,125 Q77,123 115,126 Q112,132 105,143 Q100,150 98,154 M72,99 L91,99 L91,69 L147,69 L147,52 L91,52 L91,8 Q121,13 150,16 Q150,6 151,-1 Q108,-6 13,-20 L8,0 Q37,2 72,6 L72,52 L15,52 L15,69 L72,69 M218,208 L237,208 L237,5 Q239,-27 206,-25 Q182,-25 173,-25 Q172,-15 170,-3 Q190,-5 200,-5 Q220,-7 218,13 M166,182 L184,182 L184,28 L166,28"/> 
            <glyph glyph-name="力" unicode="&#x529B;" horiz-adv-x="230" d=" M102,208 L124,208 Q123,180 122,154 L230,154 Q227,73 226,34 Q226,-25 175,-21 Q145,-21 132,-21 Q132,-20 132,-19 Q130,-4 128,0 Q150,0 174,0 Q206,-3 205,38 Q207,74 209,134 L122,134 Q121,19 24,-27 Q17,-19 9,-10 Q104,36 100,134 L20,134 L20,154 L101,154 Q101,169 102,196 Q102,206 102,208"/> 
            <glyph glyph-name="加" unicode="&#x52A0;" horiz-adv-x="238" d=" M146,176 L238,176 L238,-22 L219,-22 L219,1 L165,1 L165,-22 L146,-22 M48,207 L67,207 Q67,199 66,184 Q66,170 66,164 L122,164 Q122,101 119,15 Q118,-23 83,-22 Q72,-22 58,-22 Q58,-13 55,-1 Q70,-2 81,-2 Q100,-3 100,16 Q103,76 103,145 L66,145 Q67,25 20,-29 Q19,-27 11,-21 Q7,-17 5,-15 Q30,18 37,48 Q45,76 46,145 L13,145 L13,164 L47,164 Q47,170 47,184 Q48,199 48,207 M165,158 L165,18 L219,18 L219,158"/> 
            <glyph glyph-name="化" unicode="&#x5316;" horiz-adv-x="249" d=" M76,59 Q106,73 135,93 L135,203 L155,203 L155,107 Q194,139 221,177 L239,165 Q205,120 155,82 L155,17 Q154,-3 175,-1 L201,-1 Q221,-2 223,12 Q227,34 227,57 Q238,53 249,50 Q246,25 243,6 Q239,-21 203,-20 L172,-20 Q134,-21 135,15 L135,69 Q118,56 87,41 Q80,54 76,59 M6,88 Q48,141 70,207 L91,201 Q81,174 67,146 L67,-27 L46,-27 L46,110 Q31,85 17,67 Q14,73 9,82 Q7,86 6,88"/> 
            <glyph glyph-name="升" unicode="&#x5347;" horiz-adv-x="247" d=" M170,207 L189,207 L189,104 L247,104 L247,86 L189,86 L189,-27 L170,-27 L170,86 L92,86 Q97,4 25,-30 Q23,-27 18,-22 Q14,-16 11,-13 Q77,15 73,86 L9,86 L9,104 L73,104 L73,169 Q63,168 43,166 Q27,165 18,164 Q17,172 15,183 Q90,188 146,197 L151,179 Q139,177 114,174 Q100,172 92,171 L92,104 L170,104"/> 
            <glyph glyph-name="单" unicode="&#x5355;" horiz-adv-x="247" d=" M9,37 L119,37 L119,63 L33,63 L33,171 L84,171 Q80,176 70,186 Q62,195 57,200 L72,210 Q89,194 102,179 L89,171 L151,171 Q166,189 180,209 L198,200 Q194,195 186,186 Q178,176 174,171 L223,171 L223,63 L137,63 L137,37 L247,37 L247,20 L137,20 L137,-29 L119,-29 L119,20 L9,20 M137,109 L137,80 L205,80 L205,109 M51,109 L51,80 L119,80 L119,109 M205,154 L137,154 L137,125 L205,125 M51,154 L51,125 L119,125 L119,154"/> 
            <glyph glyph-name="卡" unicode="&#x5361;" horiz-adv-x="246" d=" M109,208 L128,208 L128,172 L230,172 L230,154 L128,154 L128,116 L246,116 L246,97 L12,97 L12,116 L109,116 M136,74 Q190,49 231,27 L220,9 Q158,43 128,58 L128,-28 L108,-28 L108,89 L128,89 L128,61"/> 
            <glyph glyph-name="即" unicode="&#x5373;" horiz-adv-x="234" d=" M89,67 Q124,27 139,5 L123,-5 Q117,4 105,19 Q101,17 94,14 Q72,4 44,-8 Q37,-12 29,-18 L16,-3 Q24,2 24,14 L24,193 L121,193 L121,74 L42,74 L42,8 Q60,17 94,33 Q88,41 76,55 Q75,57 75,57 M148,190 L233,190 L233,45 Q234,12 203,13 Q190,12 176,12 Q175,23 172,33 Q188,32 198,32 Q216,31 215,47 L215,172 L167,172 L167,-28 L148,-28 M42,176 L42,142 L103,142 L103,176 M42,91 L103,91 L103,125 L42,125"/> 
            <glyph glyph-name="厂" unicode="&#x5382;" horiz-adv-x="245" d=" M44,190 L245,190 L245,171 L65,171 L65,114 Q65,61 57,32 Q49,3 25,-26 Q20,-20 8,-11 Q30,15 37,39 Q44,63 44,109"/> 
            <glyph glyph-name="原" unicode="&#x539F;" horiz-adv-x="249" d=" M51,109 Q51,55 45,29 Q39,1 19,-30 Q11,-21 6,-16 Q22,6 27,32 Q33,56 33,105 L33,193 L245,193 L245,176 L154,176 Q152,172 148,163 Q144,154 142,150 L226,150 L226,54 L163,54 L163,4 Q164,-26 135,-25 Q123,-26 104,-26 Q103,-17 101,-5 Q112,-6 132,-6 Q147,-7 146,7 L146,54 L78,54 L78,150 L123,150 Q123,151 125,154 Q130,169 132,176 L51,176 M95,94 L95,70 L208,70 L208,94 M95,134 L95,110 L208,110 L208,134 M195,44 Q202,38 214,27 Q236,8 249,-4 L234,-17 Q221,-3 193,23 Q186,30 182,33 M102,44 L116,34 Q93,6 63,-17 Q57,-11 50,-5 Q78,17 102,44"/> 
            <glyph glyph-name="去" unicode="&#x53BB;" horiz-adv-x="247" d=" M118,209 L138,209 L138,167 L228,167 L228,149 L138,149 L138,94 L247,94 L247,76 L130,76 Q104,41 68,2 Q86,2 120,3 Q165,4 190,5 Q172,26 153,46 L169,58 Q185,41 211,14 Q228,-3 238,-13 L220,-28 Q217,-24 211,-16 Q208,-13 206,-11 Q195,-11 174,-12 Q109,-12 65,-15 Q59,-15 45,-17 Q40,-18 38,-18 L29,0 Q44,6 52,15 Q85,48 104,76 L10,76 L10,94 L118,94 L118,149 L30,149 L30,167 L118,167"/> 
            <glyph glyph-name="及" unicode="&#x53CA;" horiz-adv-x="248" d=" M7,-12 Q71,44 69,173 L22,173 L22,191 L197,191 L197,173 L174,125 L219,125 L219,109 Q196,57 166,28 Q199,4 248,-5 Q247,-7 244,-12 Q239,-20 236,-26 Q184,-10 151,14 Q123,-8 69,-30 Q67,-25 59,-15 Q58,-12 57,-11 Q106,6 136,28 Q106,59 84,113 Q77,30 22,-26 Q15,-18 7,-12 M150,123 L175,173 L89,173 Q89,168 88,160 Q88,152 88,148 Q114,76 151,40 Q179,67 196,108 L150,108"/> 
            <glyph glyph-name="反" unicode="&#x53CD;" horiz-adv-x="249" d=" M38,191 Q125,192 226,201 L233,184 Q149,177 57,174 L57,132 L222,132 L222,115 Q200,59 162,24 Q193,4 249,-7 Q242,-16 234,-28 Q180,-11 145,11 Q111,-12 59,-30 Q47,-14 45,-12 Q97,2 130,24 Q97,53 76,115 L57,115 Q57,61 49,31 Q42,1 20,-29 Q18,-28 13,-23 Q7,-17 5,-16 Q25,9 31,36 Q38,62 38,114 M200,115 L96,115 Q114,63 145,36 Q182,67 200,115"/> 
            <glyph glyph-name="取" unicode="&#x53D6;" horiz-adv-x="249" d=" M8,27 Q12,28 22,29 Q27,30 29,30 L29,179 L13,179 L13,196 L125,196 L125,179 L112,179 L112,42 Q125,45 137,46 Q137,43 137,30 Q126,27 112,26 L112,-28 L94,-28 L94,23 Q41,15 10,9 M129,171 L129,188 L236,188 L236,173 Q223,87 194,40 Q215,10 249,-8 Q247,-10 242,-16 Q237,-22 234,-25 Q202,-1 183,24 Q162,-4 127,-28 Q125,-26 118,-17 Q116,-13 115,-12 Q148,8 173,40 Q144,85 137,171 M217,171 L154,171 Q160,99 184,58 Q208,103 217,171 M47,32 Q70,36 94,39 L94,74 L47,74 M47,179 L47,142 L94,142 L94,179 M47,127 L47,90 L94,90 L94,127"/> 
            <glyph glyph-name="受" unicode="&#x53D7;" horiz-adv-x="248" d=" M46,67 L46,84 L199,84 L199,67 Q178,36 145,13 Q172,-1 248,-8 Q242,-18 237,-27 Q157,-15 126,2 Q90,-16 19,-31 Q12,-17 8,-13 Q75,-1 109,14 Q82,34 62,67 M17,127 L165,127 Q184,156 196,177 L215,168 Q206,154 185,127 L239,127 L239,78 L220,78 L220,111 L36,111 L36,78 L17,78 M28,176 Q28,178 27,182 Q26,191 25,194 Q132,194 224,201 L229,184 Q140,179 28,176 M177,67 L82,67 Q101,40 127,23 Q155,39 177,67 M110,168 L126,175 Q138,150 143,138 L125,131 Q119,148 110,168 M40,163 L56,172 Q62,164 72,148 Q76,142 78,139 L61,130 Q51,147 40,163"/> 
            <glyph glyph-name="口" unicode="&#x53E3;" horiz-adv-x="224" d=" M31,184 L224,184 L224,-19 L204,-19 L204,3 L51,3 L51,-19 L31,-19 M51,165 L51,21 L204,21 L204,165"/> 
            <glyph glyph-name="只" unicode="&#x53EA;" horiz-adv-x="248" d=" M40,192 L218,192 L218,69 L40,69 M59,174 L59,87 L198,87 L198,174 M162,61 Q208,23 248,-12 L231,-28 Q198,4 147,47 M90,60 L108,48 Q76,12 24,-29 L7,-14 Q50,15 90,60"/> 
            <glyph glyph-name="可" unicode="&#x53EF;" horiz-adv-x="248" d=" M36,135 L142,135 L142,39 L54,39 L54,22 L36,22 M9,189 L248,189 L248,171 L207,171 L207,7 Q208,-25 174,-24 Q163,-25 132,-25 Q131,-15 128,-3 Q154,-5 168,-5 Q189,-6 188,12 L188,171 L9,171 M54,118 L54,57 L123,57 L123,118"/> 
            <glyph glyph-name="合" unicode="&#x5408;" horiz-adv-x="249" d=" M44,77 L212,77 L212,-29 L194,-29 L194,-13 L63,-13 L63,-29 L44,-29 M124,210 L144,207 Q142,203 139,200 Q185,144 249,120 Q242,109 236,100 Q219,108 199,121 L199,108 L57,108 L57,120 Q48,113 26,101 Q21,98 19,97 Q14,105 7,115 Q88,154 124,210 M63,60 L63,3 L194,3 L194,60 M128,184 Q103,152 64,125 L194,125 Q153,154 128,184"/> 
            <glyph glyph-name="同" unicode="&#x540C;" horiz-adv-x="233" d=" M43,-25 L25,-25 L25,195 L231,195 L231,6 Q233,-24 199,-24 Q177,-24 163,-24 Q162,-20 160,-9 Q159,-6 159,-4 Q167,-5 195,-5 Q213,-6 212,8 L212,177 L43,177 M76,102 L179,102 L179,23 L76,23 M94,85 L94,41 L161,41 L161,85 M57,148 L199,148 L199,130 L57,130"/> 
            <glyph glyph-name="后" unicode="&#x540E;" horiz-adv-x="247" d=" M77,79 L225,79 L225,-27 L205,-27 L205,-12 L97,-12 L97,-27 L77,-27 M55,169 L55,136 L247,136 L247,118 L55,118 Q55,59 48,29 Q42,0 21,-29 Q12,-18 6,-13 Q24,10 29,36 Q35,60 35,118 L35,187 Q133,189 227,201 L234,182 Q114,170 55,169 M97,61 L97,4 L205,4 L205,61"/> 
            <glyph glyph-name="吸" unicode="&#x5438;" horiz-adv-x="249" d=" M62,-13 Q95,21 104,59 Q115,96 114,176 L93,176 L93,193 L214,193 L214,175 L190,126 L230,126 L230,109 Q217,63 193,30 Q215,8 249,-8 Q247,-11 242,-17 Q238,-23 235,-26 Q199,-3 180,15 Q156,-8 121,-29 Q119,-27 116,-22 Q110,-16 108,-14 Q147,8 167,30 Q145,57 130,102 Q126,24 78,-27 Q70,-19 62,-13 M19,185 L84,185 L84,36 L37,36 L37,20 L19,20 M170,127 L193,176 L133,176 Q133,158 132,143 Q151,80 179,45 Q199,69 210,109 L170,109 M37,169 L37,53 L66,53 L66,169"/> 
            <glyph glyph-name="味" unicode="&#x5473;" horiz-adv-x="251" d=" M71,3 Q119,39 141,93 L91,93 L91,110 L154,110 L154,153 L100,153 L100,169 L154,169 L154,208 L172,208 L172,169 L227,169 L227,153 L172,153 L172,110 L241,110 L241,93 L184,93 Q205,39 251,8 Q239,-3 236,-7 Q192,28 172,86 L172,-28 L154,-28 L154,86 Q130,26 85,-11 Q79,-4 71,3 M22,181 L86,181 L86,34 L39,34 L39,14 L22,14 M39,164 L39,51 L68,51 L68,164"/> 
            <glyph glyph-name="命" unicode="&#x547D;" horiz-adv-x="248" d=" M32,97 L110,97 L110,-5 L92,-5 L92,9 L50,9 L50,-7 L32,-7 M137,99 L225,99 L225,31 Q226,0 198,0 Q180,0 169,0 Q169,6 166,18 Q168,18 176,18 Q188,17 192,17 Q207,17 207,35 L207,82 L155,82 L155,-29 L137,-29 M142,208 Q141,205 138,202 Q190,153 248,135 Q241,124 237,116 Q173,144 128,190 Q89,145 18,113 Q13,122 8,130 Q83,162 123,212 M50,80 L50,26 L92,26 L92,80 M71,139 L186,139 L186,122 L71,122"/> 
            <glyph glyph-name="品" unicode="&#x54C1;" horiz-adv-x="235" d=" M45,197 L211,197 L211,109 L45,109 M21,82 L113,82 L113,-28 L94,-28 L94,-12 L39,-12 L39,-28 L21,-28 M143,82 L235,82 L235,-28 L217,-28 L217,-12 L162,-12 L162,-28 L143,-28 M64,180 L64,126 L192,126 L192,180 M162,65 L162,2 L217,2 L217,65 M39,65 L39,3 L94,3 L94,65"/> 
            <glyph glyph-name="商" unicode="&#x5546;" horiz-adv-x="247" d=" M68,153 L82,164 Q86,160 94,152 Q101,144 105,140 L93,130 L145,130 Q151,137 161,152 Q166,159 169,163 L186,153 Q183,150 178,143 Q171,134 167,130 L227,130 L227,2 Q229,-26 199,-26 Q183,-26 166,-26 Q166,-25 165,-22 Q164,-11 162,-6 Q174,-7 194,-7 Q210,-8 209,4 L209,114 L45,114 L45,-28 L27,-28 L27,130 L89,130 Q88,131 87,132 Q76,146 68,153 M176,7 L80,7 L80,72 L176,72 M113,204 L131,209 Q137,196 142,182 L247,182 L247,165 L9,165 L9,182 L121,182 Q120,187 115,197 Q114,202 113,204 M97,56 L97,22 L159,22 L159,56 M141,98 L152,111 Q174,97 206,76 L195,61 Q194,62 191,64 Q162,85 141,98 M98,111 L111,99 Q82,75 58,58 Q53,64 47,72 Q80,92 98,111"/> 
            <glyph glyph-name="善" unicode="&#x5584;" horiz-adv-x="247" d=" M67,200 L81,210 Q85,205 95,194 Q100,189 102,186 L92,179 L151,179 Q158,187 169,205 Q171,208 172,210 L190,201 Q181,189 172,179 L236,179 L236,164 L137,164 L137,147 L225,147 L225,132 L137,132 L137,116 L242,116 L242,101 L191,101 L206,93 Q203,90 198,84 Q192,77 189,74 L247,74 L247,59 L9,59 L9,74 L67,74 Q61,83 52,92 L63,101 L13,101 L13,116 L119,116 L119,132 L31,132 L31,147 L119,147 L119,164 L21,164 L21,179 L83,179 Q81,183 75,190 Q70,197 67,200 M40,41 L216,41 L216,-28 L198,-28 L198,-17 L58,-17 L58,-28 L40,-28 M58,26 L58,-2 L198,-2 L198,26 M86,81 L76,74 L119,74 L119,101 L68,101 Q76,91 86,81 M168,74 Q178,88 187,101 L137,101 L137,74"/> 
            <glyph glyph-name="喝" unicode="&#x559D;" horiz-adv-x="236" d=" M18,184 L80,184 L80,63 Q106,86 123,114 L102,114 L102,198 L224,198 L224,114 L123,114 L138,108 Q134,100 129,94 L236,94 Q236,45 233,9 Q232,-25 199,-25 Q182,-25 169,-25 Q169,-17 167,-6 Q175,-7 198,-7 Q215,-9 215,11 Q218,45 218,78 L117,78 Q107,64 89,48 Q84,58 80,62 L80,11 L63,11 L63,31 L36,31 L36,9 L18,9 M36,167 L36,48 L63,48 L63,167 M102,60 L119,60 L119,16 L200,16 L200,1 L102,1 M119,149 L119,129 L207,129 L207,149 M119,183 L119,164 L207,164 L207,183 M160,76 L177,72 Q174,66 171,60 Q174,58 181,53 Q188,48 205,35 L194,22 Q177,37 163,47 Q151,31 134,20 Q132,23 126,28 Q123,31 122,32 Q152,48 160,76"/> 
            <glyph glyph-name="器" unicode="&#x5668;" horiz-adv-x="248" d=" M140,50 L218,50 Q151,59 129,95 L127,95 Q115,63 41,50 L114,50 L114,-25 L97,-25 L97,-12 L46,-12 L46,-26 L29,-26 L29,48 Q23,46 16,46 Q15,48 12,53 Q7,61 6,63 Q95,72 108,95 L16,95 L16,111 L115,111 Q117,119 118,129 L136,129 Q135,119 133,111 L174,111 Q173,113 169,118 Q167,122 166,124 L182,130 Q183,127 188,119 Q192,114 193,111 L242,111 L242,95 L149,95 Q177,67 248,66 Q248,65 247,64 Q241,53 238,47 Q236,47 232,48 Q228,48 226,49 L226,-26 L209,-26 L209,-12 L157,-12 L157,-25 L140,-25 M140,194 L225,194 L225,132 L140,132 M29,194 L114,194 L114,132 L29,132 M157,35 L157,1 L209,1 L209,35 M46,35 L46,1 L97,1 L97,35 M157,179 L157,147 L209,147 L209,179 M46,179 L46,147 L97,147 L97,179"/> 
            <glyph glyph-name="因" unicode="&#x56E0;" horiz-adv-x="231" d=" M24,194 L231,194 L231,-28 L212,-28 L212,-12 L44,-12 L44,-28 L24,-28 M44,176 L44,4 L212,4 L212,176 M119,168 L137,168 L137,127 L198,127 L198,110 L137,110 Q136,100 133,90 Q162,68 203,33 L188,18 Q152,51 127,72 Q109,34 61,13 Q59,15 56,20 Q51,27 48,30 Q114,54 118,110 L58,110 L58,127 L119,127"/> 
            <glyph glyph-name="围" unicode="&#x56F4;" horiz-adv-x="234" d=" M22,195 L234,195 L234,-28 L216,-28 L216,-17 L40,-17 L40,-29 L22,-29 M40,178 L40,0 L216,0 L216,178 M55,152 L112,152 L112,173 L130,173 L130,152 L196,152 L196,136 L130,136 L130,116 L188,116 L188,101 L130,101 L130,80 L195,80 Q195,75 194,63 Q194,51 193,46 Q192,21 167,21 Q155,21 142,21 Q142,23 141,27 Q140,36 139,39 Q154,38 163,38 Q176,37 176,48 Q176,57 177,64 L130,64 L130,5 L112,5 L112,64 L51,64 L51,80 L112,80 L112,101 L61,101 L61,116 L112,116 L112,136 L55,136"/> 
            <glyph glyph-name="国" unicode="&#x56FD;" horiz-adv-x="234" d=" M22,195 L234,195 L234,-28 L216,-28 L216,-17 L41,-17 L41,-29 L22,-29 M41,178 L41,0 L216,0 L216,178 M61,105 L119,105 L119,138 L56,138 L56,154 L200,154 L200,138 L137,138 L137,105 L195,105 L195,89 L137,89 L137,41 L204,41 L204,25 L52,25 L52,41 L119,41 L119,89 L61,89 M149,73 L163,84 Q171,76 186,58 L171,47 Q159,63 149,73"/> 
            <glyph glyph-name="在" unicode="&#x5728;" horiz-adv-x="247" d=" M100,208 L121,205 Q120,201 116,192 Q113,183 111,178 L247,178 L247,161 L103,161 Q86,126 65,96 L65,-27 L47,-27 L47,72 Q33,56 19,42 Q15,51 7,60 Q53,100 82,161 L19,161 L19,178 L90,178 Q97,193 100,208 M150,145 L169,145 L169,96 L233,96 L233,79 L169,79 L169,6 L247,6 L247,-9 L74,-9 L74,6 L150,6 L150,79 L87,79 L87,96 L150,96"/> 
            <glyph glyph-name="地" unicode="&#x5730;" horiz-adv-x="251" d=" M81,104 L102,112 L102,179 L121,179 L121,120 L158,133 L158,207 L177,207 L177,141 L236,163 Q236,155 235,138 Q234,107 233,88 Q233,49 203,52 Q197,51 185,51 Q184,60 181,71 Q183,71 190,71 Q198,70 201,70 Q214,69 215,89 Q216,107 216,139 L177,123 L177,22 L158,22 L158,116 L121,101 L121,18 Q121,-4 144,-2 L197,-2 Q224,-3 226,15 Q230,35 231,51 Q240,48 251,45 Q248,21 244,5 Q240,-21 202,-20 L140,-20 Q101,-21 102,14 L102,93 L84,86 M6,14 Q14,16 31,22 Q37,24 40,25 L40,122 L9,122 L9,139 L40,139 L40,206 L58,206 L58,139 L87,139 L87,122 L58,122 L58,31 Q64,33 76,37 Q85,40 90,42 Q90,31 91,24 Q49,8 13,-3"/> 
            <glyph glyph-name="场" unicode="&#x573A;" horiz-adv-x="239" d=" M190,176 L95,176 L95,194 L225,194 L225,176 L129,115 L239,115 Q238,102 237,70 Q235,36 234,24 Q235,-25 195,-23 Q180,-23 166,-23 Q165,-12 163,-3 Q180,-5 193,-5 Q216,-7 216,22 Q217,42 219,87 Q220,95 220,98 L194,98 Q183,17 119,-29 Q112,-22 105,-15 Q166,25 176,98 L145,98 Q132,38 77,0 Q71,6 63,12 Q115,47 127,98 L98,98 L98,116 M8,29 Q23,37 43,44 L43,128 L10,128 L10,145 L43,145 L43,206 L61,206 L61,145 L91,145 L91,128 L61,128 L61,52 Q70,56 88,65 Q88,63 89,59 Q89,51 91,47 Q73,39 29,18 Q19,13 15,11"/> 
            <glyph glyph-name="型" unicode="&#x578B;" horiz-adv-x="247" d=" M20,194 L146,194 L146,178 L120,178 L120,138 L154,138 L154,122 L120,122 L120,70 L102,70 L102,122 L63,122 Q61,87 29,62 Q17,75 16,75 Q45,98 45,122 L10,122 L10,138 L47,138 Q47,146 47,156 L47,178 L20,178 M119,66 L138,66 L138,47 L225,47 L225,31 L138,31 L138,-1 L247,-1 L247,-17 L9,-17 L9,-1 L119,-1 L119,31 L31,31 L31,47 L119,47 M231,204 L231,98 Q232,67 204,67 Q189,66 172,66 Q171,70 169,78 Q168,83 168,85 Q170,85 177,85 Q192,84 197,84 Q214,83 213,100 L213,204 M65,156 Q65,152 64,146 Q64,140 64,138 L102,138 L102,178 L65,178 M164,190 L182,190 L182,106 L164,106"/> 
            <glyph glyph-name="垢" unicode="&#x57A2;" horiz-adv-x="247" d=" M124,83 L231,83 L231,-27 L213,-27 L213,-7 L142,-7 L142,-27 L124,-27 M100,188 Q159,190 232,199 L238,180 Q182,175 118,171 L118,136 L247,136 L247,119 L118,119 Q118,61 110,33 Q103,2 81,-28 Q75,-22 65,-16 Q87,13 93,39 Q100,65 100,117 M7,29 Q12,31 24,36 Q36,40 42,42 L42,128 L11,128 L11,145 L42,145 L42,207 L60,207 L60,145 L87,145 L87,128 L60,128 L60,50 Q64,52 72,55 Q82,59 87,61 Q87,48 88,41 Q64,33 13,9 M142,66 L142,8 L213,8 L213,66"/> 
            <glyph glyph-name="增" unicode="&#x589E;" horiz-adv-x="238" d=" M89,174 L133,174 Q123,186 111,199 L124,209 Q137,196 148,185 L135,174 L176,174 Q180,180 190,195 Q196,205 200,210 L217,200 Q207,186 196,174 L238,174 L238,91 L89,91 M99,74 L228,74 L228,-29 L211,-29 L211,-17 L115,-17 L115,-29 L99,-29 M7,19 Q22,24 39,28 L39,128 L12,128 L12,145 L39,145 L39,206 L56,206 L56,145 L82,145 L82,128 L56,128 L56,33 Q59,34 65,35 Q73,38 86,41 Q86,32 87,23 Q82,21 71,18 Q51,13 13,1 M221,159 L171,159 L171,106 L221,106 M106,159 L106,106 L155,106 L155,159 M115,20 L115,-2 L211,-2 L211,20 M115,59 L115,35 L211,35 L211,59 M211,141 Q200,123 192,113 L179,121 Q188,132 197,150 M115,141 L127,148 Q139,134 146,122 L133,114 Q128,121 115,141"/> 
            <glyph glyph-name="壳" unicode="&#x58F3;" horiz-adv-x="247" d=" M31,143 L118,143 L118,166 L14,166 L14,182 L118,182 L118,209 L138,209 L138,182 L244,182 L244,166 L138,166 L138,143 L225,143 L225,126 L31,126 M173,68 L173,12 Q171,-5 192,-4 L202,-4 Q221,-5 224,8 Q227,25 228,41 Q239,35 247,33 Q245,16 242,2 Q236,-23 206,-22 L187,-22 Q152,-23 154,10 L154,52 L92,52 L92,46 Q97,-10 19,-30 Q18,-27 14,-20 Q11,-16 9,-13 Q79,0 72,48 L72,68 M18,106 L240,106 L240,61 L221,61 L221,89 L37,89 L37,61 L18,61"/> 
            <glyph glyph-name="处" unicode="&#x5904;" horiz-adv-x="249" d=" M70,204 Q65,180 59,159 L123,159 L123,141 Q114,73 89,34 Q111,9 141,2 Q175,-3 249,0 Q243,-14 242,-20 Q177,-22 139,-15 Q102,-8 78,18 Q63,-1 25,-30 Q14,-19 9,-15 Q45,8 65,35 Q48,61 37,100 Q33,91 25,74 Q22,68 20,65 Q15,72 7,82 Q36,134 51,207 M156,207 L175,207 L175,125 L185,137 Q207,122 246,92 L233,75 Q209,97 175,121 L175,9 L156,9 M103,141 L53,141 Q50,134 48,126 Q58,81 76,51 Q99,87 103,141"/> 
            <glyph glyph-name="备" unicode="&#x5907;" horiz-adv-x="249" d=" M42,85 L214,85 L214,-28 L196,-28 L196,-17 L60,-17 L60,-28 L42,-28 M77,211 L94,204 Q88,193 83,186 L215,186 L215,171 Q185,141 154,124 Q196,110 249,107 Q246,102 243,95 Q240,90 239,87 Q171,97 132,113 Q89,96 15,81 Q13,85 9,92 Q6,96 5,99 Q60,106 110,124 Q83,140 65,164 Q49,145 24,124 Q22,126 18,131 Q14,135 12,137 Q54,170 77,211 M189,171 L79,171 Q100,148 132,133 Q167,149 189,171 M60,26 L60,-2 L119,-2 L119,26 M60,70 L60,40 L119,40 L119,70 M137,26 L137,-2 L196,-2 L196,26 M196,70 L137,70 L137,40 L196,40"/> 
            <glyph glyph-name="外" unicode="&#x5916;" horiz-adv-x="250" d=" M6,83 Q45,143 63,209 L83,203 Q77,184 70,165 L135,165 L135,149 Q121,28 26,-27 Q20,-19 14,-10 Q104,41 115,147 L63,147 Q56,130 47,115 Q59,107 80,90 Q87,85 90,82 L77,66 Q54,88 39,99 Q38,96 35,91 Q24,72 17,63 Q11,75 6,83 M159,207 L178,207 L178,-28 L159,-28 M178,118 L191,132 Q229,103 250,86 L237,68 Q218,85 181,115 Q179,117 178,118"/> 
            <glyph glyph-name="多" unicode="&#x591A;" horiz-adv-x="237" d=" M164,114 L182,109 Q171,99 159,91 L237,91 L237,74 Q161,-9 27,-30 Q25,-24 17,-14 Q144,5 212,74 L135,74 Q125,68 113,61 Q116,58 122,52 Q133,42 137,37 L122,24 Q116,31 99,51 Q98,52 97,53 Q72,40 42,28 Q37,35 32,43 Q122,78 164,114 M126,211 L147,208 Q134,195 121,184 L228,184 L228,168 Q144,103 23,68 Q22,71 15,80 Q13,83 12,84 Q128,116 199,167 L99,167 Q98,167 96,165 Q93,164 92,163 Q99,157 111,146 Q118,140 121,137 L106,124 Q92,140 78,154 Q59,142 36,132 Q34,135 30,139 Q27,142 24,146 Q86,172 126,211"/> 
            <glyph glyph-name="大" unicode="&#x5927;" horiz-adv-x="249" d=" M8,-10 Q109,34 115,122 L12,122 L12,141 L116,141 Q116,177 116,207 L138,207 Q138,197 137,171 Q137,149 137,141 L244,141 L244,122 L137,122 Q152,26 249,-4 Q247,-6 244,-11 Q237,-19 234,-25 Q150,8 128,89 Q112,15 23,-28 Q20,-25 15,-19 Q10,-12 8,-10"/> 
            <glyph glyph-name="天" unicode="&#x5929;" horiz-adv-x="248" d=" M7,-10 Q99,28 113,96 L10,96 L10,114 L116,114 Q116,117 116,120 Q116,141 116,174 L24,174 L24,192 L233,192 L233,174 L138,174 Q138,164 137,143 Q137,123 137,114 L246,114 L246,96 L140,96 Q165,17 248,-5 Q242,-15 235,-26 Q150,7 128,78 Q109,12 21,-29 Q15,-20 7,-10"/> 
            <glyph glyph-name="太" unicode="&#x592A;" horiz-adv-x="248" d=" M12,148 L115,148 L116,207 L137,207 L137,148 L244,148 L244,129 L137,129 Q165,29 248,-4 Q237,-16 231,-23 Q156,15 128,103 Q119,64 93,31 L108,41 Q113,36 127,20 Q144,2 150,-3 L133,-17 Q126,-8 106,14 Q96,26 92,30 Q65,-5 22,-28 Q17,-21 7,-10 Q101,37 114,129 L12,129"/> 
            <glyph glyph-name="好" unicode="&#x597D;" horiz-adv-x="248" d=" M110,15 L95,0 Q89,5 77,16 Q71,21 68,24 Q55,1 20,-25 Q15,-18 9,-9 Q37,10 55,36 Q35,53 18,67 Q29,107 34,139 L8,139 L8,157 L37,157 Q39,166 41,183 Q44,200 45,208 L64,206 Q63,199 60,184 Q58,165 56,157 L102,157 L102,141 Q96,75 78,40 Q87,33 105,19 Q108,16 110,15 M168,137 Q181,148 207,169 Q191,156 212,174 L110,174 L110,191 L239,191 L239,172 Q228,162 200,139 Q191,132 187,128 L187,99 L248,99 L248,82 L187,82 L187,6 Q188,-24 155,-24 Q151,-24 144,-24 Q132,-25 124,-24 Q124,-20 122,-9 Q121,-6 121,-4 Q130,-5 153,-5 Q168,-6 168,8 L168,82 L101,82 L101,99 L168,99 M83,139 L53,139 Q46,100 38,72 Q51,63 63,52 Q79,84 83,139"/> 
            <glyph glyph-name="如" unicode="&#x5982;" horiz-adv-x="233" d=" M138,179 L233,179 L233,-18 L214,-18 L214,0 L156,0 L156,-20 L138,-20 M127,5 L112,-9 Q106,-3 93,7 Q82,17 76,22 Q55,-6 19,-28 Q14,-21 7,-11 Q42,8 61,35 Q40,54 20,69 Q32,110 38,139 L8,139 L8,157 L42,157 Q42,159 43,163 Q48,191 50,208 L71,205 Q67,183 62,157 L115,157 L115,140 Q108,75 87,38 Q96,30 114,16 Q123,8 127,5 M156,161 L156,17 L214,17 L214,161 M96,139 L58,139 Q50,102 41,75 Q55,64 72,50 Q92,80 96,139"/> 
            <glyph glyph-name="始" unicode="&#x59CB;" horiz-adv-x="248" d=" M114,79 L230,79 L230,-28 L212,-28 L212,-12 L132,-12 L132,-28 L114,-28 M105,10 L91,-4 Q79,7 65,21 Q48,-4 19,-27 Q16,-23 9,-13 Q8,-12 7,-11 Q35,8 52,34 Q36,49 18,65 Q29,110 33,137 L10,137 L10,155 L36,155 Q41,183 44,207 L63,204 Q58,178 55,155 L100,155 L100,138 Q93,71 75,38 Q76,37 78,35 Q92,23 105,10 M206,175 Q229,137 248,100 L230,90 Q228,95 224,103 Q221,109 220,112 Q180,112 129,109 Q120,108 111,105 L103,122 Q113,128 117,135 Q143,173 159,211 L179,204 Q155,159 132,126 Q161,127 151,127 Q189,128 211,129 Q202,148 190,167 M132,62 L132,3 L212,3 L212,62 M82,137 L51,137 Q45,100 37,71 Q42,67 53,57 Q58,52 61,50 Q78,84 82,137"/> 
            <glyph glyph-name="威" unicode="&#x5A01;" horiz-adv-x="249" d=" M132,-12 Q157,9 175,34 Q165,67 157,154 L50,154 L50,109 Q50,54 44,27 Q39,0 21,-28 Q14,-20 8,-14 Q23,9 27,33 Q32,57 32,105 L32,171 L156,171 Q155,183 155,207 L173,207 Q173,202 173,190 Q174,177 174,171 L214,171 Q211,174 207,181 Q200,191 196,196 L210,206 Q214,201 221,193 Q227,186 230,182 L215,171 L245,171 L245,154 L175,154 Q180,93 188,56 Q206,87 219,131 L236,125 Q221,74 195,32 Q196,25 201,12 Q203,7 204,4 Q209,-4 215,-4 Q221,-3 223,5 Q229,25 231,45 Q242,40 249,38 Q244,13 239,-5 Q232,-27 213,-26 Q195,-26 181,12 Q165,-7 145,-25 Q139,-19 132,-12 M65,40 Q71,55 77,72 L58,72 L58,89 L83,89 Q86,100 89,110 L106,106 Q103,97 100,89 L152,89 Q148,50 127,25 Q135,21 144,16 L133,0 Q124,5 114,12 Q101,0 65,-20 Q63,-18 59,-12 Q55,-7 53,-4 Q82,9 98,21 Q82,31 65,40 M58,132 L149,132 L149,115 L58,115 M131,72 L94,72 Q90,59 85,48 Q97,42 111,34 Q123,46 131,72"/> 
            <glyph glyph-name="孔" unicode="&#x5B54;" horiz-adv-x="248" d=" M8,78 Q16,80 36,84 Q57,90 68,92 L68,132 L106,175 L20,175 L20,193 L132,193 L132,174 L87,125 L87,97 Q94,99 107,103 Q127,108 136,111 Q136,108 136,90 Q127,88 107,83 Q94,80 87,78 L87,7 Q88,-22 56,-22 Q53,-22 42,-22 Q30,-23 25,-23 Q24,-19 22,-8 Q21,-5 21,-3 Q28,-4 51,-4 Q69,-5 68,12 L68,72 Q51,68 23,60 Q16,58 13,57 M154,205 L173,205 L173,17 Q171,-2 193,0 L203,0 Q223,-1 225,16 Q226,25 228,50 Q229,58 229,61 Q233,59 241,57 Q246,55 248,54 Q246,27 243,10 Q239,-19 206,-18 L188,-18 Q152,-20 154,15"/> 
            <glyph glyph-name="学" unicode="&#x5B66;" horiz-adv-x="247" d=" M123,68 L169,94 L55,94 L55,112 L197,112 L197,92 L142,60 L142,55 L247,55 L247,37 L142,37 L142,3 Q144,-27 111,-27 Q93,-27 77,-27 Q77,-24 75,-19 Q74,-10 73,-6 Q88,-7 108,-7 Q124,-8 123,6 L123,37 L9,37 L9,55 L123,55 M18,155 L239,155 L239,104 L219,104 L219,137 L37,137 L37,104 L18,104 M170,168 Q189,187 202,205 L218,194 Q203,174 186,156 M102,200 L118,209 Q130,194 145,170 L128,160 Q119,177 102,200 M37,193 L51,203 Q60,193 77,172 Q79,169 80,168 L64,156 Q51,175 37,193"/> 
            <glyph glyph-name="它" unicode="&#x5B83;" horiz-adv-x="239" d=" M54,131 L73,131 L73,68 Q147,89 209,125 L220,108 Q149,70 73,48 L73,16 Q72,-4 93,-2 L193,-2 Q211,-3 214,13 Q216,26 217,47 Q228,44 237,41 Q235,22 232,6 Q228,-21 196,-20 L90,-20 Q52,-21 54,13 M113,202 L130,211 Q141,196 148,181 L135,175 L239,175 L239,130 L219,130 L219,156 L37,156 L37,130 L18,130 L18,175 L129,175 Q122,189 113,202"/> 
            <glyph glyph-name="安" unicode="&#x5B89;" horiz-adv-x="248" d=" M50,51 Q57,61 73,87 L8,87 L8,105 L84,105 Q96,126 107,149 L126,141 Q121,134 112,117 Q107,109 105,105 L248,105 L248,87 L196,87 Q183,48 154,24 Q162,21 177,14 Q195,6 231,-9 L221,-27 Q211,-23 194,-14 Q157,3 137,11 Q99,-13 27,-29 Q26,-27 24,-23 Q22,-20 17,-9 Q82,0 118,20 Q102,27 68,43 Q56,48 50,51 M110,201 L127,211 Q129,207 134,200 Q144,186 148,178 L138,172 L237,172 L237,126 L218,126 L218,155 L39,155 L39,126 L20,126 L20,172 L128,172 Q118,192 110,201 M76,57 Q84,53 103,46 Q124,37 135,32 Q165,55 176,87 L94,87 Q85,72 76,57"/> 
            <glyph glyph-name="完" unicode="&#x5B8C;" horiz-adv-x="248" d=" M15,78 L242,78 L242,61 L164,61 L164,11 Q163,-6 184,-5 L205,-5 Q223,-5 225,7 Q227,21 227,36 Q244,30 248,29 Q248,28 248,27 Q246,8 244,1 Q241,-24 206,-23 L180,-23 Q143,-24 144,8 L144,61 L101,61 Q103,-3 21,-28 Q16,-21 9,-11 Q84,6 82,61 L15,61 M111,204 L129,211 Q130,207 134,199 Q139,188 141,182 L128,178 L239,178 L239,133 L220,133 L220,161 L36,161 L36,133 L17,133 L17,178 L122,178 Q120,182 117,191 Q113,199 111,204 M45,128 L215,128 L215,111 L45,111"/> 
            <glyph glyph-name="害" unicode="&#x5BB3;" horiz-adv-x="239" d=" M45,44 L211,44 L211,-29 L193,-29 L193,-17 L63,-17 L63,-29 L45,-29 M37,146 L119,146 L119,161 L137,161 L137,146 L219,146 L219,130 L137,130 L137,112 L214,112 L214,97 L137,97 L137,78 L237,78 L237,63 L137,63 L137,49 L119,49 L119,63 L19,63 L19,78 L119,78 L119,97 L42,97 L42,112 L119,112 L119,130 L37,130 M115,207 L133,210 Q135,204 138,193 Q139,187 140,184 L239,184 L239,147 L221,147 L221,168 L35,168 L35,147 L16,147 L16,184 L121,184 Q120,188 117,198 Q116,204 115,207 M63,29 L63,-2 L193,-2 L193,29"/> 
            <glyph glyph-name="家" unicode="&#x5BB6;" horiz-adv-x="248" d=" M12,36 Q73,52 110,86 Q109,88 106,92 Q103,95 101,97 Q65,73 21,60 Q16,67 10,77 Q63,89 108,121 L42,121 L42,137 L215,137 L215,121 L133,121 Q124,114 115,106 Q129,92 137,74 Q178,94 210,113 L222,97 Q199,85 175,73 Q193,25 248,7 Q240,0 233,-10 Q179,12 159,66 Q157,65 152,62 Q147,60 144,58 Q150,41 150,22 Q152,-26 105,-25 Q91,-26 81,-26 Q79,-16 77,-6 Q83,-7 105,-7 Q133,-9 132,22 Q132,31 130,40 Q92,2 20,-22 Q17,-15 10,-4 Q82,15 125,58 Q122,66 118,72 Q80,38 22,20 Q18,27 12,36 M113,204 L131,210 Q133,206 137,197 Q142,186 144,180 L133,177 L239,177 L239,136 L221,136 L221,160 L35,160 L35,136 L17,136 L17,177 L125,177 Q119,194 113,204"/> 
            <glyph glyph-name="宾" unicode="&#x5BBE;" horiz-adv-x="248" d=" M8,43 L54,43 L54,141 Q123,141 201,150 L208,132 Q135,125 72,124 L72,99 L232,99 L232,82 L175,82 L175,43 L248,43 L248,25 L8,25 M116,205 L135,208 Q138,193 141,181 L239,181 L239,136 L220,136 L220,164 L37,164 L37,136 L19,136 L19,181 L122,181 Q119,192 116,205 M72,82 L72,43 L156,43 L156,82 M150,5 L160,21 Q171,16 193,8 Q228,-5 243,-12 L232,-28 Q193,-10 150,5 M92,21 L103,5 Q99,3 91,0 Q51,-19 22,-30 Q15,-16 12,-13 Q54,1 92,21"/> 
            <glyph glyph-name="对" unicode="&#x5BF9;" horiz-adv-x="249" d=" M31,145 Q37,136 52,114 Q65,95 71,86 Q86,122 90,163 L14,163 L14,181 L110,181 L110,163 Q100,103 84,67 Q99,45 122,10 L104,0 Q100,6 92,19 Q80,37 74,47 Q55,13 19,-21 Q15,-14 5,-4 Q43,28 62,66 Q59,71 53,80 Q27,120 16,135 M119,155 L200,155 L200,207 L219,207 L219,155 L249,155 L249,136 L219,136 L219,13 Q221,-24 184,-24 Q163,-24 149,-24 Q148,-14 145,-3 Q147,-3 156,-3 Q172,-4 180,-4 Q202,-6 200,16 L200,136 L119,136 M124,106 L140,115 Q149,102 169,68 Q172,63 174,60 L156,49 Q153,54 146,67 Q132,93 124,106"/> 
            <glyph glyph-name="寿" unicode="&#x5BFF;" horiz-adv-x="246" d=" M33,145 L101,145 Q104,156 106,166 L18,166 L18,183 L109,183 Q110,188 111,201 Q112,207 112,210 L131,208 Q130,195 128,183 L239,183 L239,166 L125,166 Q124,154 121,145 L225,145 L225,129 L116,129 Q113,117 108,106 L246,106 L246,89 L101,89 Q94,76 85,62 L183,62 L183,83 L202,83 L202,62 L246,62 L246,45 L202,45 L202,5 Q203,-25 170,-25 Q156,-25 134,-25 Q133,-14 130,-5 Q151,-6 168,-6 Q184,-7 183,8 L183,45 L73,45 Q50,14 20,-8 Q14,0 6,5 Q55,43 79,89 L10,89 L10,106 L88,106 Q93,117 97,129 L33,129 M82,25 L92,39 Q95,37 101,34 Q115,26 134,13 L123,0 Q117,2 106,10 Q90,20 82,25"/> 
            <glyph glyph-name="将" unicode="&#x5C06;" horiz-adv-x="249" d=" M77,147 Q115,171 144,210 L161,201 Q160,200 158,198 Q151,189 142,180 L237,180 L237,163 Q204,114 90,84 Q86,92 82,101 Q172,120 214,164 L125,164 Q122,161 119,158 Q127,152 139,142 Q145,137 148,135 L135,122 Q122,135 107,147 Q104,145 97,139 Q91,135 88,133 Q87,135 84,138 Q83,141 77,147 M194,108 L213,108 L213,77 L249,77 L249,60 L213,60 L213,5 Q215,-25 184,-25 Q166,-25 150,-25 Q150,-16 146,-5 Q160,-6 178,-6 Q195,-7 194,7 L194,60 L81,60 L81,77 L194,77 M52,207 L71,207 L71,-29 L52,-29 L52,66 Q46,59 34,45 Q23,33 17,26 L5,44 Q33,70 52,93 M7,163 L23,170 Q29,159 40,136 Q45,126 48,121 L31,112 Q23,132 7,163 M108,45 L121,56 Q138,40 154,20 L139,8 Q135,13 127,22 Q115,37 108,45"/> 
            <glyph glyph-name="小" unicode="&#x5C0F;" horiz-adv-x="249" d=" M121,205 L141,205 L141,7 Q142,-26 108,-25 Q103,-25 90,-26 Q77,-26 72,-26 Q72,-25 72,-23 Q71,-15 68,-3 Q80,-4 102,-4 Q122,-5 121,12 M61,153 L83,146 Q58,79 28,21 Q17,27 8,32 Q38,85 61,153 M170,143 L189,152 Q213,107 249,34 L227,24 Q196,93 170,143"/> 
            <glyph glyph-name="层" unicode="&#x5C42;" horiz-adv-x="248" d=" M235,127 L55,127 L55,116 Q55,63 48,34 Q41,3 20,-29 Q10,-17 6,-13 Q38,31 36,115 L36,196 L235,196 M170,24 L184,35 Q216,7 240,-17 L225,-30 Q219,-22 210,-14 Q124,-14 90,-18 Q83,-18 73,-21 L65,-3 Q79,1 87,8 Q106,27 118,43 L57,43 L57,60 L248,60 L248,43 L142,43 Q119,14 103,0 Q150,0 195,0 Q182,14 170,24 M55,179 L55,144 L217,144 L217,179 M74,104 L226,104 L226,87 L74,87"/> 
            <glyph glyph-name="展" unicode="&#x5C55;" horiz-adv-x="248" d=" M144,10 Q144,5 144,-7 Q141,-8 135,-10 Q108,-19 101,-22 Q95,-24 83,-29 L72,-15 Q79,-12 78,3 L78,56 L50,56 Q48,7 21,-29 Q20,-28 18,-25 Q11,-17 7,-14 Q23,5 28,29 Q33,51 33,100 L33,197 L231,197 L231,141 L51,141 L51,109 Q51,88 51,71 L101,71 L101,98 L61,98 L61,114 L101,114 L101,135 L118,135 L118,114 L168,114 L168,135 L186,135 L186,114 L232,114 L232,98 L186,98 L186,71 L243,71 L243,56 L141,56 Q152,37 167,24 Q183,32 210,46 Q215,49 217,50 L227,35 Q219,31 182,14 Q204,1 248,-6 Q243,-11 235,-23 Q152,-5 122,56 L96,56 L96,-4 Q98,-3 107,-1 Q127,4 144,10 M51,181 L51,157 L213,157 L213,181 M118,98 L118,71 L168,71 L168,98"/> 
            <glyph glyph-name="属" unicode="&#x5C5E;" horiz-adv-x="241" d=" M90,11 Q98,12 116,12 Q133,13 142,13 L142,35 L81,35 L81,-28 L65,-28 L65,48 L142,48 L142,64 L77,64 L77,108 L142,108 L142,123 Q129,123 103,122 Q76,122 65,121 Q65,123 63,129 Q62,134 61,136 Q130,136 231,140 L234,126 Q215,125 157,123 L157,108 L223,108 L223,64 L157,64 L157,48 L239,48 L239,0 Q241,-27 212,-27 Q200,-27 184,-27 Q184,-21 180,-11 Q183,-11 190,-11 Q201,-12 209,-12 Q223,-13 222,0 L222,35 L157,35 L157,14 Q162,14 172,15 Q181,15 185,15 Q182,21 179,27 L193,32 Q196,27 201,17 Q208,4 210,0 L196,-6 Q195,-5 194,-2 Q192,1 191,2 Q180,1 156,0 Q111,-1 93,-3 M36,198 L234,198 L234,151 L53,151 L53,110 Q53,56 47,27 Q41,0 22,-29 Q14,-23 8,-18 Q25,7 31,32 Q36,56 36,108 M53,184 L53,165 L219,165 L219,184 M208,95 L157,95 L157,77 L208,77 M92,95 L92,77 L142,77 L142,95"/> 
            <glyph glyph-name="工" unicode="&#x5DE5;" horiz-adv-x="245" d=" M11,6 L117,6 L117,167 L25,167 L25,186 L231,186 L231,167 L138,167 L138,6 L245,6 L245,-12 L11,-12"/> 
            <glyph glyph-name="帮" unicode="&#x5E2E;" horiz-adv-x="238" d=" M23,148 L67,148 Q68,155 68,162 L68,167 L16,167 L16,183 L68,183 L68,208 L84,208 L84,183 L135,183 L135,167 L84,167 L84,162 Q84,154 84,148 L128,148 L128,133 L83,133 Q82,123 79,114 L137,114 L137,98 L73,98 Q61,73 27,48 Q21,55 15,63 Q42,81 53,98 L13,98 L13,114 L61,114 Q64,123 66,133 L23,133 M121,83 L139,83 L139,62 L215,62 L215,15 Q218,-14 189,-14 Q181,-14 168,-13 Q160,-13 158,-13 Q156,-1 154,3 Q155,3 159,3 Q176,1 183,2 Q198,1 197,19 L197,47 L139,47 L139,-30 L121,-30 L121,47 L65,47 L65,-13 L47,-13 L47,62 L121,62 M232,178 Q225,165 212,147 Q236,131 238,110 Q237,83 206,83 Q202,83 193,84 Q184,84 181,84 Q180,90 177,97 Q176,101 176,102 Q194,100 206,100 Q220,100 220,110 Q217,131 190,143 Q204,162 212,178 L167,178 L167,72 L150,72 L150,194 L232,194"/> 
            <glyph glyph-name="常" unicode="&#x5E38;" horiz-adv-x="239" d=" M53,132 L204,132 L204,77 L138,77 L138,57 L227,57 L227,15 Q228,-10 198,-11 Q174,-11 169,-11 Q168,-2 166,6 Q180,5 193,5 Q209,4 208,18 L208,41 L138,41 L138,-29 L119,-29 L119,41 L51,41 L51,-11 L32,-11 L32,57 L119,57 L119,77 L53,77 M168,177 Q189,191 206,205 L220,191 Q200,176 183,165 L239,165 L239,123 L220,123 L220,149 L37,149 L37,123 L18,123 L18,165 L75,165 Q59,180 41,192 L52,205 Q67,195 89,179 L76,165 L119,165 L119,208 L138,208 L138,165 L178,165 M71,116 L71,92 L186,92 L186,116"/> 
            <glyph glyph-name="干" unicode="&#x5E72;" horiz-adv-x="248" d=" M27,190 L228,190 L228,172 L138,172 L138,102 L248,102 L248,83 L138,83 L138,-29 L117,-29 L117,83 L8,83 L8,102 L117,102 L117,172 L27,172"/> 
            <glyph glyph-name="并" unicode="&#x5E76;" horiz-adv-x="247" d=" M60,198 L74,209 Q92,191 105,175 L90,164 L150,164 Q158,174 175,198 Q181,206 183,209 L200,200 Q180,174 172,164 L237,164 L237,145 L185,145 L185,86 L247,86 L247,67 L185,67 L185,-28 L165,-28 L165,67 L92,67 Q94,5 33,-30 Q22,-17 18,-14 Q75,15 73,67 L9,67 L9,86 L73,86 L73,145 L19,145 L19,164 L88,164 Q76,181 60,198 M93,145 L93,86 L165,86 L165,145"/> 
            <glyph glyph-name="应" unicode="&#x5E94;" horiz-adv-x="246" d=" M124,204 L141,210 Q148,196 154,178 L145,174 L243,174 L243,156 L54,156 L54,109 Q57,12 19,-29 Q13,-22 5,-13 Q37,22 35,105 L35,174 L135,174 Q132,187 124,204 M206,134 L226,128 Q201,40 185,1 L246,1 L246,-15 L53,-15 L53,1 L165,1 Q182,42 206,134 M67,121 L84,126 Q101,76 113,28 L93,22 Q86,56 67,121 M125,133 L143,138 Q156,88 165,40 L145,35 Q137,85 125,133"/> 
            <glyph glyph-name="底" unicode="&#x5E95;" horiz-adv-x="249" d=" M79,138 Q164,140 230,147 L237,129 Q227,128 198,126 Q179,125 169,124 Q169,100 171,80 L243,80 L243,63 L174,63 Q182,14 213,-4 Q222,-11 226,0 Q230,16 231,36 Q242,32 249,29 Q246,4 243,-7 Q238,-25 221,-26 Q206,-27 186,-6 Q162,18 155,63 L98,63 L98,7 Q103,10 114,15 Q137,27 147,33 Q148,21 151,14 Q114,-3 97,-14 Q91,-17 83,-25 L70,-8 Q80,-1 79,11 M121,206 L140,211 Q146,198 152,181 L245,181 L245,164 L51,164 L51,109 Q51,53 45,24 Q39,-6 22,-31 Q15,-23 7,-17 Q34,17 32,105 L32,181 L132,181 Q131,184 128,189 Q126,194 121,206 M153,80 Q150,99 150,123 Q138,123 116,122 Q103,122 98,122 L98,80 M130,-7 L142,2 Q160,-10 170,-20 L157,-33 Q149,-24 133,-9 Q134,-10 130,-7"/> 
            <glyph glyph-name="度" unicode="&#x5EA6;" horiz-adv-x="247" d=" M64,51 L64,68 L216,68 L216,51 Q188,23 165,9 Q191,0 247,-8 Q241,-17 237,-27 Q181,-18 144,0 Q105,-19 52,-30 Q47,-17 42,-12 Q99,-1 124,9 Q100,27 81,51 M127,206 L146,210 Q147,204 150,194 Q152,186 153,182 L245,182 L245,165 L51,165 L51,109 Q51,51 45,25 Q40,-2 22,-30 Q20,-28 15,-24 Q9,-18 7,-16 Q24,10 28,33 Q33,55 33,105 L33,182 L133,182 Q130,194 127,206 M179,158 L197,158 L197,139 L242,139 L242,123 L197,123 L197,85 L92,85 L92,123 L57,123 L57,139 L92,139 L92,158 L111,158 L111,139 L179,139 M189,51 L104,51 Q122,31 144,19 Q169,32 189,51 M111,123 L111,101 L179,101 L179,123"/> 
            <glyph glyph-name="康" unicode="&#x5EB7;" horiz-adv-x="247" d=" M123,205 L141,210 Q145,196 149,184 L244,184 L244,168 L51,168 L51,114 L132,114 L132,132 L66,132 L66,147 L132,147 L132,162 L150,162 L150,147 L219,147 L219,114 L247,114 L247,99 L219,99 L219,66 L150,66 L150,61 Q162,46 174,34 Q200,48 220,61 L232,46 Q225,42 201,30 Q192,26 187,24 Q213,6 245,-3 Q238,-13 232,-20 Q174,5 150,37 L150,4 Q152,-25 120,-25 Q112,-26 94,-26 Q94,-17 91,-7 Q99,-8 116,-8 Q133,-9 132,5 L132,18 Q121,15 86,2 Q60,-6 51,-9 L47,7 Q83,16 132,35 L132,66 L65,66 L65,81 L132,81 L132,99 L51,99 Q52,18 21,-28 Q15,-21 8,-12 Q23,10 28,35 Q33,57 33,104 L33,184 L130,184 Q129,186 128,190 Q125,200 123,205 M150,81 L202,81 L202,99 L150,99 M202,132 L150,132 L150,114 L202,114 M63,48 L73,60 Q81,56 99,44 Q105,40 107,39 L95,25 Q82,36 63,48"/> 
            <glyph glyph-name="延" unicode="&#x5EF6;" horiz-adv-x="249" d=" M29,82 Q38,53 52,35 Q67,61 70,95 L13,95 L13,113 L67,169 L13,169 L13,187 L90,187 L90,169 L37,113 L89,113 L89,97 Q82,51 66,21 Q93,-2 140,-1 Q207,-1 249,0 Q244,-9 241,-20 Q195,-20 138,-20 Q87,-19 55,5 Q42,-11 20,-29 Q18,-27 14,-23 Q10,-18 7,-15 Q31,3 42,19 Q25,40 13,75 M113,140 L132,140 L132,46 L165,46 L165,173 Q159,173 147,172 Q119,170 105,170 Q103,181 101,188 Q172,190 234,198 L238,179 Q230,178 209,176 Q193,175 184,174 L184,123 L236,123 L236,105 L184,105 L184,46 L240,46 L240,28 L113,28"/> 
            <glyph glyph-name="开" unicode="&#x5F00;" horiz-adv-x="247" d=" M20,190 L237,190 L237,171 L187,171 L187,101 L247,101 L247,82 L187,82 L187,-27 L167,-27 L167,82 L92,82 Q96,3 25,-30 Q13,-15 11,-13 Q48,4 59,23 Q72,41 72,82 L9,82 L9,101 L72,101 L72,171 L20,171 M92,171 L92,101 L167,101 L167,171"/> 
            <glyph glyph-name="异" unicode="&#x5F02;" horiz-adv-x="246" d=" M211,130 L55,130 L55,119 Q54,100 73,101 L201,101 Q219,100 222,114 Q223,117 224,122 Q225,129 227,140 Q230,139 237,137 Q244,134 246,133 Q244,122 239,106 Q234,83 204,84 L69,84 Q35,83 36,117 L36,196 L211,196 M9,48 L69,48 Q70,60 70,77 L89,77 Q89,60 88,48 L169,48 L169,77 L188,77 L188,48 L246,48 L246,31 L188,31 L188,-29 L169,-29 L169,31 L87,31 Q85,-8 30,-30 Q24,-23 16,-13 Q66,3 67,31 L9,31 M55,179 L55,146 L192,146 L192,179"/> 
            <glyph glyph-name="式" unicode="&#x5F0F;" horiz-adv-x="248" d=" M141,209 L162,209 Q161,187 162,162 L246,162 L246,144 L163,144 Q164,112 167,86 Q173,26 197,1 Q207,-7 214,-7 Q220,-8 223,3 Q228,23 229,39 Q239,34 248,32 Q246,8 240,-5 Q235,-28 216,-28 Q200,-28 184,-13 Q155,16 148,83 Q145,112 143,144 L8,144 L8,162 L142,162 Q142,170 142,186 Q141,202 141,209 M9,8 Q18,9 47,13 Q59,14 65,15 L65,83 L18,83 L18,101 L132,101 L132,83 L85,83 L85,18 Q96,19 119,23 Q136,25 143,26 Q142,16 142,7 Q133,6 86,0 Q31,-7 14,-10 M180,195 L192,207 Q203,199 219,186 Q224,181 227,179 L213,164 Q198,180 180,195"/> 
            <glyph glyph-name="强" unicode="&#x5F3A;" horiz-adv-x="250" d=" M99,104 L158,104 L158,125 L175,125 L175,104 L235,104 L235,34 L175,34 L175,1 Q196,1 213,3 Q210,7 205,15 Q201,20 200,22 L215,31 Q226,17 250,-18 L233,-29 Q232,-26 228,-20 Q225,-14 223,-11 Q143,-17 87,-21 L84,-1 Q130,0 158,0 L158,34 L99,34 M108,195 L226,195 L226,131 L108,131 M14,194 L86,194 L86,119 L37,119 L32,78 L83,78 Q82,60 81,28 Q81,34 80,16 Q78,-24 42,-24 Q27,-24 20,-24 Q20,-23 19,-20 Q18,-9 16,-4 Q25,-5 39,-5 Q61,-7 62,16 Q65,38 65,62 L13,62 L20,135 L69,135 L69,178 L14,178 M125,179 L125,147 L208,147 L208,179 M218,88 L175,88 L175,50 L218,50 M116,88 L116,50 L158,50 L158,88"/> 
            <glyph glyph-name="当" unicode="&#x5F53;" horiz-adv-x="229" d=" M32,59 L209,59 L209,100 L24,100 L24,117 L118,117 L118,207 L138,207 L138,117 L229,117 L229,-29 L209,-29 L209,-15 L17,-15 L17,0 L209,0 L209,42 L32,42 M226,182 Q191,144 174,130 L160,143 Q188,168 209,196 M32,183 L46,195 Q72,172 94,144 L78,131 Q57,158 32,183"/> 
            <glyph glyph-name="彻" unicode="&#x5F7B;" horiz-adv-x="238" d=" M146,188 L238,188 Q238,166 236,100 Q235,33 234,11 Q235,-22 198,-22 Q196,-22 187,-22 Q176,-23 173,-23 Q172,-18 170,-9 Q169,-6 169,-4 Q182,-4 195,-4 Q217,-5 216,12 Q219,124 219,171 L187,171 Q187,128 186,104 Q185,14 130,-29 Q120,-19 116,-16 Q170,24 168,107 Q169,137 169,171 L146,171 M149,60 Q149,57 150,50 Q150,44 150,40 Q146,38 137,32 Q123,25 117,21 Q115,19 111,17 Q106,13 104,11 L90,29 Q98,36 98,46 L98,113 L78,110 L76,127 L98,130 L98,205 L115,205 L115,132 L156,137 L157,121 L115,115 L115,42 Q127,48 149,60 M7,65 Q35,92 63,145 L80,137 Q77,132 72,124 Q63,108 58,101 L58,-28 L41,-28 L41,76 Q30,61 15,46 Q11,55 7,65 M10,141 Q40,167 63,209 L80,199 Q53,157 20,124 Q15,132 10,141"/> 
            <glyph glyph-name="律" unicode="&#x5F8B;" horiz-adv-x="248" d=" M88,67 L147,67 L147,90 L93,90 L93,105 L147,105 L147,128 L84,128 L84,144 L147,144 L147,166 L94,166 L94,182 L147,182 L147,207 L164,207 L164,182 L224,182 L224,144 L248,144 L248,128 L224,128 L224,90 L164,90 L164,67 L232,67 L232,51 L164,51 L164,27 L244,27 L244,12 L164,12 L164,-28 L147,-28 L147,12 L74,12 L74,27 L147,27 L147,51 L88,51 M7,65 Q40,99 64,145 L81,136 Q70,115 58,99 L58,-28 L41,-28 L41,75 Q29,61 16,46 Q15,49 12,56 Q9,62 7,65 M11,142 Q43,168 65,209 L82,199 Q57,158 21,125 Q19,129 14,138 Q12,141 11,142 M164,128 L164,105 L207,105 L207,128 M207,166 L164,166 L164,144 L207,144"/> 
            <glyph glyph-name="微" unicode="&#x5FAE;" horiz-adv-x="251" d=" M190,207 L207,204 Q203,183 195,162 L249,162 L249,145 L235,145 Q229,75 212,38 Q224,14 251,-10 Q245,-20 241,-28 Q220,-7 203,20 Q193,1 164,-30 Q159,-24 151,-16 Q184,16 195,38 Q181,70 176,110 Q173,101 168,93 Q163,100 156,105 Q178,150 190,207 M129,49 L94,49 L94,43 Q96,0 70,-23 Q67,-16 59,-8 Q80,5 78,48 L78,65 L145,65 L145,23 Q159,34 168,44 Q169,40 171,32 Q172,27 172,25 Q157,13 144,0 Q141,-1 134,-8 L122,6 Q130,12 129,27 M108,204 L123,204 L123,142 L143,142 L143,186 L159,186 L159,126 L73,126 L73,186 L88,186 L88,142 L108,142 M7,64 Q32,95 53,141 L68,133 Q60,117 51,100 L51,-28 L35,-28 L35,74 Q32,70 25,60 Q18,51 14,46 Q12,53 9,60 Q7,63 7,64 M204,58 Q215,92 219,145 L190,145 Q190,145 189,144 Q189,143 188,142 Q191,91 204,58 M11,141 Q38,172 54,206 L70,197 Q49,159 18,124 Q15,133 11,141 M76,104 L155,104 L155,88 L76,88"/> 
            <glyph glyph-name="德" unicode="&#x5FB7;" horiz-adv-x="249" d=" M87,151 L151,151 L151,171 L81,171 L81,186 L151,186 L151,208 L167,208 L167,186 L242,186 L242,171 L167,171 L167,151 L232,151 L232,89 L87,89 M7,64 Q36,91 64,143 L80,135 Q76,127 66,112 Q61,103 58,98 L58,-28 L41,-28 L41,74 Q30,60 15,45 Q11,54 7,64 M112,43 L129,43 L129,9 Q128,-7 146,-6 L173,-6 Q188,-7 190,4 Q191,10 193,21 Q194,28 194,30 Q201,27 211,23 Q208,8 206,-1 Q201,-23 177,-22 L142,-22 Q110,-24 112,6 M75,72 L246,72 L246,57 L75,57 M10,142 Q40,167 63,208 L79,198 Q53,157 19,125 Q14,133 10,142 M87,42 L103,37 Q95,11 80,-12 Q74,-9 65,-4 Q78,16 87,42 M103,136 L103,104 L131,104 L131,136 M216,136 L188,136 L188,104 L216,104 M146,136 L146,104 L173,104 L173,136 M210,38 L225,46 Q240,21 249,5 L233,-2 Q224,17 210,38 M140,46 L152,55 Q161,45 174,29 Q173,31 177,25 L163,15 Q148,34 140,46"/> 
            <glyph glyph-name="心" unicode="&#x5FC3;" horiz-adv-x="249" d=" M71,162 L90,162 L90,20 Q89,-2 112,-1 L159,-1 Q184,-3 186,16 Q186,20 187,27 Q189,42 190,52 Q202,48 210,45 Q207,23 204,7 Q199,-21 161,-20 L108,-20 Q70,-21 71,16 M207,143 Q209,139 213,132 Q237,83 249,55 L229,45 Q211,93 188,135 M35,135 L54,130 Q42,73 27,30 L8,38 Q26,91 35,135 M123,210 Q137,189 159,149 Q162,144 163,141 L143,131 Q127,168 106,201"/> 
            <glyph glyph-name="性" unicode="&#x6027;" horiz-adv-x="249" d=" M159,208 L178,208 L178,154 L241,154 L241,137 L178,137 L178,79 L237,79 L237,62 L178,62 L178,-1 L249,-1 L249,-18 L80,-18 L80,-1 L159,-1 L159,62 L96,62 L96,79 L159,79 L159,137 L119,137 Q110,114 99,93 Q91,99 82,103 Q105,141 116,192 L135,188 Q131,170 125,154 L159,154 M42,208 L61,208 L61,161 L73,167 Q74,165 77,160 Q88,140 93,129 L78,121 Q76,126 71,136 Q65,149 61,156 L61,-29 L42,-29 M20,153 L36,150 Q34,137 29,113 Q26,96 24,88 Q21,89 16,90 Q10,92 7,92 Q16,122 20,153"/> 
            <glyph glyph-name="感" unicode="&#x611F;" horiz-adv-x="250" d=" M190,202 L203,211 Q213,199 222,187 L210,178 L244,178 L244,163 L173,163 Q177,120 187,100 Q201,118 213,148 L229,141 Q212,104 195,84 Q199,77 205,71 Q217,58 224,72 Q228,86 232,103 Q241,99 250,96 Q245,78 238,60 Q222,31 194,55 Q188,63 183,69 Q181,67 176,63 Q170,57 154,44 Q151,49 142,58 Q161,72 174,84 Q161,110 157,163 L51,163 L51,138 Q54,76 22,36 Q21,38 19,41 Q15,46 10,51 Q35,80 34,138 L34,178 L155,178 Q154,183 154,192 Q153,202 153,207 L170,207 Q170,202 171,192 Q171,183 172,178 L207,178 Q195,196 190,202 M68,114 L142,114 L142,60 L68,60 M70,41 L89,41 L89,10 Q87,-7 108,-6 L149,-6 Q167,-7 169,6 Q172,18 174,32 Q182,29 193,25 Q191,19 189,8 Q187,1 186,-1 Q180,-24 153,-23 L103,-23 Q69,-24 70,8 M60,145 L148,145 L148,131 L60,131 M37,42 L54,35 Q40,0 27,-17 Q20,-13 11,-8 Q28,17 37,42 M84,100 L84,75 L125,75 L125,100 M202,27 L216,37 Q226,25 247,-2 L231,-14 Q218,6 202,27 M109,44 L122,54 Q127,48 137,38 Q146,27 151,21 L135,9 Q122,29 109,44"/> 
            <glyph glyph-name="慢" unicode="&#x6162;" horiz-adv-x="247" d=" M95,199 L226,199 L226,129 L95,129 M83,115 L239,115 L239,64 L83,64 M90,36 L90,50 L223,50 L223,35 Q204,16 179,2 Q204,-4 247,-10 Q241,-18 237,-27 Q190,-18 160,-5 Q127,-19 78,-29 Q77,-26 73,-19 Q70,-14 69,-12 Q114,-6 143,3 Q123,15 105,36 M41,206 L58,206 L58,153 L69,161 Q72,157 82,143 Q89,135 91,132 L77,121 Q69,135 58,150 L58,-28 L41,-28 M113,185 L113,170 L209,170 L209,185 M113,157 L113,142 L209,142 L209,157 M201,36 L125,36 Q141,20 161,10 Q182,21 201,36 M18,151 L34,149 Q28,111 23,87 Q22,87 19,88 Q11,90 7,91 Q14,120 18,151 M99,101 L99,78 L130,78 L130,101 M145,101 L145,78 L177,78 L177,101 M223,101 L192,101 L192,78 L223,78"/> 
            <glyph glyph-name="成" unicode="&#x6210;" horiz-adv-x="248" d=" M142,207 L161,207 Q161,183 162,165 L246,165 L246,148 L163,148 Q163,139 164,129 Q166,75 175,50 Q196,77 214,122 L232,114 Q214,70 182,29 Q191,7 207,-2 Q220,-12 224,2 Q229,20 230,40 Q235,37 248,33 Q246,11 242,-4 Q236,-28 219,-27 Q205,-28 193,-16 Q177,-3 169,14 Q145,-10 124,-24 Q123,-23 118,-17 Q113,-12 111,-10 Q140,9 161,33 Q161,34 161,35 Q160,36 160,36 Q148,70 145,127 Q144,138 144,148 L52,148 L52,111 L122,111 Q122,103 121,89 Q121,57 119,37 Q118,0 84,1 Q76,0 60,0 Q57,14 56,20 Q63,19 82,19 Q100,18 100,37 Q101,50 102,74 Q103,87 103,93 L52,93 Q54,10 22,-30 Q20,-29 14,-23 Q8,-18 6,-17 Q24,7 28,30 Q33,51 33,105 L33,165 L143,165 Q142,194 142,207 M179,193 L189,205 Q198,200 215,189 Q223,184 227,181 L215,167 Q213,169 208,172 Q191,186 179,193"/> 
            <glyph glyph-name="我" unicode="&#x6211;" horiz-adv-x="249" d=" M7,65 Q14,66 32,69 Q50,72 60,73 L60,118 L7,118 L7,135 L60,135 L60,173 Q40,169 18,167 Q16,176 13,186 Q69,191 115,200 L121,182 Q120,182 118,181 Q93,177 79,175 L79,135 L141,135 Q139,174 138,207 L157,207 Q157,180 160,135 L249,135 L249,118 L161,118 Q165,78 171,52 Q203,79 218,105 L235,94 Q212,62 177,33 Q189,5 202,-3 Q219,-15 223,0 Q227,14 230,39 Q241,35 249,32 Q246,15 241,-3 Q235,-27 215,-28 Q194,-28 176,-3 Q168,5 162,20 Q135,0 105,-14 Q99,-4 93,2 Q128,18 156,39 Q145,72 142,118 L79,118 L79,77 Q106,82 129,86 Q129,76 130,68 Q119,65 79,58 L79,5 Q80,-24 46,-26 Q31,-26 20,-26 Q19,-15 16,-6 Q19,-6 27,-6 Q39,-7 45,-7 Q61,-8 60,6 L60,54 Q45,51 20,47 Q14,45 12,45 M177,186 L190,198 Q216,178 233,162 L219,148 Q209,158 177,186"/> 
            <glyph glyph-name="截" unicode="&#x622A;" horiz-adv-x="249" d=" M144,9 Q160,21 174,35 Q164,69 161,130 L10,130 L10,145 L76,145 L76,168 L25,168 L25,184 L76,184 L76,207 L93,207 L93,184 L140,184 L140,168 L93,168 L93,145 L160,145 Q158,185 158,207 L176,207 Q176,168 177,145 L245,145 L245,130 L178,130 Q181,79 188,51 Q206,76 219,109 L236,102 Q219,61 194,31 Q199,15 207,2 Q212,-6 219,-6 Q224,-7 226,1 Q229,13 232,36 Q241,31 249,29 Q249,27 248,23 Q245,5 241,-6 Q236,-26 221,-27 Q203,-28 190,-4 Q184,4 180,16 Q170,4 156,-4 Q152,3 144,9 M87,122 L103,125 Q105,120 109,109 Q110,104 111,102 L150,102 L150,87 L105,87 L105,67 L146,67 L146,53 L105,53 L105,34 L147,34 L147,19 L105,19 L105,0 L150,0 L150,-13 L50,-13 L50,-27 L33,-27 L33,67 Q26,56 17,47 Q16,48 12,53 Q8,58 6,60 Q34,91 49,125 L65,120 Q61,110 56,102 L94,102 Q91,112 87,122 M188,186 L198,198 Q211,189 230,174 Q234,171 236,170 L223,157 Q219,160 211,167 Q196,180 188,186 M50,19 L50,0 L88,0 L88,19 M50,53 L50,34 L88,34 L88,53 M50,87 L50,67 L88,67 L88,87"/> 
            <glyph glyph-name="才" unicode="&#x624D;" horiz-adv-x="246" d=" M8,13 Q109,67 148,140 L16,140 L16,158 L163,158 L163,207 L183,207 L183,158 L246,158 L246,140 L183,140 L183,17 Q185,-22 144,-22 Q129,-22 105,-22 Q102,-7 100,-1 Q119,-2 140,-2 Q165,-4 163,19 L163,129 Q120,49 23,-3 Q17,3 8,13"/> 
            <glyph glyph-name="技" unicode="&#x6280;" horiz-adv-x="249" d=" M97,98 L97,114 L159,114 L159,151 L96,151 L96,168 L159,168 L159,207 L178,207 L178,168 L244,168 L244,151 L178,151 L178,114 L230,114 L230,99 Q210,49 183,21 Q203,4 249,-9 Q248,-10 245,-13 Q237,-23 235,-27 Q197,-12 168,8 Q138,-14 92,-31 Q87,-24 79,-14 Q130,3 155,22 Q130,47 113,98 M7,80 Q21,84 42,91 L42,142 L10,142 L10,159 L42,159 L42,206 L61,206 L61,159 L89,159 L89,142 L61,142 L61,96 Q75,101 88,105 Q88,93 89,86 Q87,85 81,84 Q68,80 61,77 L61,3 Q63,-25 34,-25 Q26,-26 14,-26 Q14,-24 12,-16 Q10,-8 9,-5 Q15,-6 31,-6 Q43,-7 42,5 L42,71 Q23,65 9,60 M209,98 L132,98 Q147,55 169,33 Q195,58 209,98"/> 
            <glyph glyph-name="抗" unicode="&#x6297;" horiz-adv-x="250" d=" M130,101 L130,86 Q130,38 121,16 Q112,-7 82,-30 Q76,-22 68,-16 Q96,4 103,23 Q111,41 111,86 L111,119 L202,119 L202,1 Q202,-7 211,-7 L218,-7 Q228,-7 229,2 Q230,10 231,26 Q232,34 232,38 Q243,33 250,30 Q250,27 249,20 Q248,4 247,-1 Q244,-25 220,-24 L205,-24 Q183,-25 183,-1 L183,101 M42,206 L61,206 L61,158 L87,158 L87,142 L61,142 L61,94 Q69,97 83,102 Q88,103 90,104 Q90,93 91,86 Q82,83 61,76 L61,3 Q62,-25 34,-25 Q32,-25 24,-25 Q16,-26 13,-26 Q13,-16 10,-6 Q20,-6 31,-6 Q42,-7 42,4 L42,70 Q23,64 9,59 L7,79 Q11,80 21,83 Q35,87 42,89 L42,142 L11,142 L11,158 L42,158 M92,169 L156,169 Q144,193 140,203 L157,210 Q162,199 174,175 L158,169 L237,169 L237,151 L92,151"/> 
            <glyph glyph-name="护" unicode="&#x62A4;" horiz-adv-x="236" d=" M148,199 L165,209 Q176,195 185,180 L170,171 L236,171 L236,62 L217,62 L217,74 L123,74 Q122,14 89,-29 Q88,-28 86,-27 Q80,-22 73,-15 Q94,12 100,36 Q106,60 106,109 L106,171 L167,171 Q165,174 162,179 Q158,185 148,199 M7,79 Q11,80 22,83 Q36,87 43,89 L43,145 L12,145 L12,162 L43,162 L43,207 L62,207 L62,162 L93,162 L93,145 L62,145 L62,94 Q77,99 92,103 Q93,91 93,84 Q78,81 62,75 L62,2 Q64,-25 35,-24 Q28,-25 14,-25 Q14,-21 12,-12 Q11,-7 11,-5 Q17,-5 33,-5 Q44,-6 43,4 L43,70 Q25,64 9,59 M124,153 L124,108 Q124,99 124,92 L217,92 L217,153"/> 
            <glyph glyph-name="拥" unicode="&#x62E5;" horiz-adv-x="236" d=" M202,-7 Q216,-8 216,6 L216,49 L170,49 L170,-17 L152,-17 L152,49 L107,49 Q105,6 82,-28 Q76,-20 67,-15 Q82,6 86,30 Q91,53 91,104 L91,195 L234,195 L234,4 Q236,-27 204,-25 Q192,-26 182,-26 Q182,-25 182,-23 Q181,-17 178,-6 Q185,-7 202,-7 M7,80 Q13,81 27,85 Q35,88 39,89 L39,141 L10,141 L10,158 L39,158 L39,206 L57,206 L57,158 L84,158 L84,141 L57,141 L57,94 Q62,96 71,99 Q78,101 82,102 Q82,99 82,83 Q73,80 57,75 L57,4 Q58,-25 28,-25 Q20,-25 11,-25 Q11,-21 8,-8 Q8,-7 8,-6 Q11,-6 16,-6 Q22,-7 26,-7 Q39,-7 39,5 L39,69 Q37,68 31,67 Q16,62 10,60 M170,114 L170,66 L216,66 L216,114 M216,177 L170,177 L170,131 L216,131 M109,109 Q109,84 108,66 L152,66 L152,114 L109,114 M109,177 L109,131 L152,131 L152,177"/> 
            <glyph glyph-name="拦" unicode="&#x62E6;" horiz-adv-x="249" d=" M7,77 Q24,82 44,86 L44,141 L12,141 L12,158 L44,158 L44,206 L63,206 L63,158 L92,158 L92,141 L63,141 L63,91 Q69,93 79,96 Q90,99 95,100 Q95,91 95,81 Q90,80 79,77 Q69,74 63,72 L63,2 Q66,-27 36,-26 Q22,-26 13,-26 Q12,-15 9,-6 Q16,-7 33,-7 Q45,-8 44,3 L44,67 L9,57 M101,154 L178,154 Q195,179 211,209 L229,200 Q224,193 214,177 Q204,162 199,154 L244,154 L244,137 L101,137 M87,3 L249,3 L249,-13 L87,-13 M109,83 L235,83 L235,66 L109,66 M113,198 L127,208 Q139,195 156,172 L140,161 Q127,180 113,198"/> 
            <glyph glyph-name="按" unicode="&#x6309;" horiz-adv-x="247" d=" M100,47 Q102,51 106,59 Q116,76 120,86 L89,86 L89,103 L127,103 Q137,125 144,145 L163,139 Q161,135 156,124 Q151,111 147,103 L247,103 L247,86 L214,86 Q204,44 183,23 Q205,11 243,-8 Q245,-9 246,-10 L234,-27 Q204,-8 170,9 Q141,-12 82,-28 Q78,-19 72,-11 Q129,2 152,19 Q128,32 100,47 M7,78 Q24,83 40,89 L40,143 L11,143 L11,161 L40,161 L40,206 L59,206 L59,161 L84,161 L84,143 L59,143 L59,95 Q63,97 72,100 Q78,102 81,103 Q81,101 81,95 Q82,88 82,84 Q79,83 73,81 Q64,78 59,76 L59,1 Q61,-26 33,-26 Q24,-26 12,-26 Q11,-15 9,-6 Q13,-6 21,-7 Q27,-7 29,-7 Q41,-7 40,2 L40,69 Q35,67 25,63 Q14,59 9,57 M146,200 L163,209 Q173,194 180,179 L166,172 L241,172 L241,131 L222,131 L222,155 L112,155 L112,131 L93,131 L93,172 L161,172 Q155,185 146,200 M123,54 Q144,43 167,31 Q186,50 196,86 L139,86 Q132,69 123,54"/> 
            <glyph glyph-name="提" unicode="&#x63D0;" horiz-adv-x="250" d=" M103,197 L224,197 L224,108 L103,108 M67,-18 Q102,9 104,62 L122,60 Q121,47 118,36 Q134,1 157,-2 L157,72 L82,72 L82,88 L246,88 L246,72 L175,72 L175,45 L236,45 L236,29 L175,29 L175,-4 Q179,-4 183,-4 Q199,-5 228,-4 Q243,-4 250,-4 Q247,-12 244,-21 Q208,-21 176,-21 Q130,-21 112,15 Q103,-8 82,-29 Q75,-23 67,-18 M7,79 Q22,85 39,93 L39,145 L9,145 L9,162 L39,162 L39,207 L57,207 L57,162 L88,162 L88,145 L57,145 L57,101 Q71,109 85,115 Q85,110 87,97 Q84,95 77,92 Q64,86 57,82 L57,0 Q59,-26 31,-26 Q21,-26 10,-26 Q10,-20 8,-6 Q15,-7 28,-7 Q40,-8 39,2 L39,73 Q23,66 9,58 M121,182 L121,160 L207,160 L207,182 M121,145 L121,123 L207,123 L207,145"/> 
            <glyph glyph-name="改" unicode="&#x6539;" horiz-adv-x="249" d=" M101,107 Q121,143 143,209 L162,203 Q159,194 152,177 Q149,170 148,166 L246,166 L246,148 L217,148 Q211,70 182,32 Q206,6 249,-6 Q248,-7 245,-10 Q238,-18 234,-25 Q192,-6 169,17 Q148,-5 95,-29 Q89,-21 81,-12 Q129,5 157,33 Q134,64 126,116 Q120,104 113,92 Q110,98 101,107 M17,188 L101,188 L101,89 L40,89 L40,14 Q51,18 94,41 Q99,44 101,45 Q102,33 105,26 Q79,13 40,-7 Q28,-16 26,-18 L13,-2 Q23,6 22,18 L22,106 L82,106 L82,171 L17,171 M140,148 Q140,147 139,145 Q146,83 169,48 Q193,82 198,148"/> 
            <glyph glyph-name="放" unicode="&#x653E;" horiz-adv-x="249" d=" M157,210 L177,206 Q171,183 163,162 L247,162 L247,144 L227,144 Q220,72 194,31 Q212,7 249,-10 Q243,-18 237,-28 Q199,-5 182,16 Q163,-5 122,-31 Q113,-20 108,-15 Q148,8 170,31 Q149,63 142,119 Q135,105 126,94 Q121,101 114,109 Q148,156 157,210 M10,164 L127,164 L127,146 L58,146 Q58,125 58,107 L112,107 Q112,55 109,14 Q110,-21 74,-20 Q67,-21 53,-21 Q52,-15 49,0 Q65,-1 71,-1 Q90,-2 90,14 Q93,54 93,89 L57,89 Q56,7 20,-29 Q12,-21 6,-15 Q28,10 33,39 Q39,67 39,146 L10,146 M182,48 Q202,79 208,144 L156,144 Q162,82 182,48 M55,205 L73,209 Q75,204 78,194 Q84,179 86,171 L67,166 Q66,170 63,179 Q58,197 55,205"/> 
            <glyph glyph-name="效" unicode="&#x6548;" horiz-adv-x="251" d=" M163,209 L182,206 Q176,181 169,162 L247,162 L247,145 L230,145 Q224,79 198,37 Q218,7 251,-11 Q245,-20 239,-28 Q206,-6 186,21 Q167,-3 127,-31 Q117,-17 115,-15 Q158,13 175,37 Q156,73 150,120 Q148,117 144,110 Q139,104 137,100 Q131,109 125,115 Q152,154 163,209 M31,76 L45,88 Q60,72 77,55 Q88,73 95,93 L113,86 Q103,62 89,42 Q94,37 103,27 Q116,13 123,7 L108,-5 Q93,11 78,26 Q57,0 18,-28 Q17,-27 16,-26 Q9,-16 6,-12 Q42,7 66,40 Q60,46 49,58 Q37,70 31,76 M187,55 Q207,88 211,145 L164,145 Q167,93 187,55 M11,168 L133,168 L133,152 L11,152 M49,142 L64,131 Q44,106 20,79 Q11,88 6,91 Q28,113 49,142 M94,142 Q114,122 130,102 L116,90 Q115,92 112,95 Q99,113 81,132 M55,201 L71,210 Q81,194 90,178 L72,169 Q64,186 55,201"/> 
            <glyph glyph-name="数" unicode="&#x6570;" horiz-adv-x="251" d=" M168,208 L186,206 Q182,183 174,162 L247,162 L247,145 L232,145 Q225,73 199,32 Q216,9 251,-10 Q242,-19 238,-27 Q207,-7 188,16 Q172,-4 135,-31 Q130,-25 132,-27 Q123,-16 122,-15 Q160,9 177,33 Q160,60 152,110 Q147,101 141,92 Q140,94 133,103 Q130,107 129,108 Q157,148 168,208 M10,69 L47,69 Q50,73 54,80 Q56,84 57,86 L75,82 L67,69 L128,69 Q125,30 99,11 Q102,10 108,7 Q120,1 126,0 L115,-15 Q110,-13 99,-7 Q89,-2 83,0 Q55,-18 15,-28 Q14,-25 9,-18 Q7,-14 6,-12 Q40,-4 66,8 Q54,14 27,26 Q46,18 22,28 Q30,39 38,53 L10,53 M70,206 L87,206 L87,152 L137,152 L137,136 L87,136 L87,114 L96,124 Q111,115 132,99 L121,86 Q118,88 113,92 Q98,105 87,113 L87,88 L70,88 L70,123 Q52,101 18,81 Q15,87 8,95 Q42,112 64,136 L13,136 L13,152 L70,152 M188,50 Q207,81 213,145 L168,145 Q167,142 165,137 Q172,81 188,50 M45,34 Q63,27 82,18 Q105,35 108,53 L57,53 Q55,49 51,44 Q47,37 45,34 M126,197 L138,185 Q126,173 108,158 L96,170 Q111,182 126,197 M18,187 L30,197 Q43,185 58,170 L44,159 Q36,169 18,187"/> 
            <glyph glyph-name="整" unicode="&#x6574;" horiz-adv-x="248" d=" M25,64 L230,64 L230,49 L139,49 L139,30 L219,30 L219,15 L139,15 L139,-4 L248,-4 L248,-20 L9,-20 L9,-4 L53,-4 L53,38 L70,38 L70,-4 L121,-4 L121,49 L25,49 M24,162 L68,162 L68,177 L14,177 L14,191 L68,191 L68,208 L84,208 L84,191 L137,191 L137,177 L84,177 L84,162 L128,162 L128,115 L84,115 L84,100 L91,110 Q110,102 132,90 L123,76 Q115,81 97,90 Q88,95 84,97 L84,70 L68,70 L68,105 Q48,85 15,67 Q11,75 6,81 Q36,94 60,115 L24,115 M134,86 Q159,94 179,109 Q164,125 157,147 Q155,144 151,137 Q147,131 145,127 Q144,128 143,129 Q139,132 131,137 Q153,168 165,209 L181,205 Q177,192 172,180 L244,180 L244,165 L230,165 Q221,128 202,110 Q220,96 248,88 Q244,79 239,72 Q209,84 190,98 Q172,83 144,70 Q143,73 139,78 Q136,84 134,86 M191,120 Q207,139 213,165 L167,165 Q175,138 191,120 M39,148 L39,129 L68,129 L68,148 M113,129 L113,148 L84,148 L84,129"/> 
            <glyph glyph-name="料" unicode="&#x6599;" horiz-adv-x="249" d=" M8,24 Q34,56 47,98 L10,98 L10,115 L51,115 L51,208 L68,208 L68,115 L108,115 L108,98 L68,98 L68,-28 L51,-28 L51,69 Q37,30 15,4 Q12,14 8,24 M192,208 L210,208 L210,67 L247,72 L249,54 L210,50 L210,-28 L192,-28 L192,47 L117,38 L114,55 L192,65 M120,111 L130,124 Q145,114 173,93 L161,78 Q155,83 141,95 Q126,106 120,111 M74,133 Q86,160 93,183 L110,178 Q101,154 89,126 M125,172 L136,185 Q159,168 177,153 L165,138 Q149,154 125,172 M9,178 L24,184 Q33,163 44,135 L27,128 Q16,160 9,178 M69,73 L81,83 Q93,70 109,50 L95,39 Q94,40 86,51 Q74,66 69,73"/> 
            <glyph glyph-name="斯" unicode="&#x65AF;" horiz-adv-x="247" d=" M96,206 L113,206 L113,177 L132,177 L132,161 L113,161 L113,49 L132,49 L132,33 L9,33 L9,49 L28,49 L28,161 L11,161 L11,177 L28,177 L28,206 L46,206 L46,177 L96,177 M145,186 Q191,190 235,200 L243,183 Q217,178 169,172 Q165,171 163,171 L163,119 L247,119 L247,102 L219,102 L219,-28 L202,-28 L202,102 L163,102 Q163,54 157,29 Q152,4 135,-27 Q133,-24 125,-17 Q122,-14 121,-13 Q136,13 141,36 Q145,58 145,108 M46,76 L46,49 L96,49 L96,76 M46,161 L46,134 L96,134 L96,161 M46,119 L46,92 L96,92 L96,119 M47,27 L61,16 Q42,-7 20,-28 Q15,-22 7,-15 Q35,9 47,27 M79,17 L92,28 Q107,14 121,0 L107,-11 Q96,2 79,17"/> 
            <glyph glyph-name="新" unicode="&#x65B0;" horiz-adv-x="249" d=" M143,188 Q190,188 236,198 L242,179 Q208,174 161,171 L161,114 L249,114 L249,98 L214,98 L214,-27 L196,-27 L196,98 L161,98 L161,90 Q163,14 125,-28 Q119,-21 112,-13 Q144,20 143,92 M64,102 L81,102 L81,79 L129,79 L129,63 L81,63 L81,1 Q82,-24 52,-24 Q40,-24 33,-24 Q32,-16 30,-6 Q35,-7 52,-7 Q64,-7 64,5 L64,63 L14,63 L14,79 L64,79 M8,123 L78,123 Q94,146 102,162 L120,152 Q108,137 97,123 L135,123 L135,108 L8,108 M57,202 L72,209 Q82,193 87,183 L80,180 L129,180 L129,164 L15,164 L15,180 L69,180 Q67,185 60,197 Q58,200 57,202 M33,53 L49,45 Q47,41 43,33 Q30,7 24,-3 Q10,3 8,4 Q21,26 33,53 M102,52 Q113,39 126,18 L111,7 Q100,26 88,42 M28,153 L41,162 Q44,158 51,148 Q58,139 62,134 L47,124 Q45,127 42,131 Q37,141 28,153"/> 
            <glyph glyph-name="方" unicode="&#x65B9;" horiz-adv-x="245" d=" M12,166 L125,166 Q120,181 111,202 L130,209 Q140,187 146,173 L128,166 L245,166 L245,148 L98,148 Q98,142 97,129 Q97,117 96,110 L213,110 Q212,96 211,70 Q209,42 208,27 Q207,-24 158,-21 Q140,-22 115,-22 Q115,-11 112,0 Q136,-2 157,-2 Q186,-5 188,30 Q189,44 190,72 Q191,85 191,92 L95,92 Q91,16 22,-30 Q16,-23 7,-13 Q73,27 75,98 Q76,110 77,132 Q78,142 78,148 L12,148"/> 
            <glyph glyph-name="无" unicode="&#x65E0;" horiz-adv-x="247" d=" M30,189 L227,189 L227,172 L136,172 Q135,139 130,114 L245,114 L245,96 L151,96 L151,18 Q150,-3 170,-2 L204,-2 Q224,-3 225,13 Q225,17 226,24 Q227,37 228,46 Q231,45 238,43 Q244,40 247,39 Q246,19 243,6 Q241,-22 205,-20 L166,-20 Q131,-21 132,15 L132,96 L126,96 Q109,17 22,-31 Q17,-22 8,-13 Q89,26 106,96 L12,96 L12,114 L110,114 Q116,139 116,172 L30,172"/> 
            <glyph glyph-name="时" unicode="&#x65F6;" horiz-adv-x="248" d=" M17,185 L101,185 L101,-11 L82,-11 L82,8 L37,8 L37,-13 L17,-13 M195,209 L214,209 L214,155 L248,155 L248,137 L214,137 L214,9 Q216,-25 180,-24 Q175,-24 160,-25 Q146,-25 142,-25 Q141,-19 138,-6 Q137,-4 137,-3 Q144,-4 176,-4 Q197,-6 195,13 L195,137 L109,137 L109,155 L195,155 M37,89 L37,26 L82,26 L82,89 M37,167 L37,106 L82,106 L82,167 M136,114 Q145,97 165,57 Q156,54 146,47 Q130,83 119,105"/> 
            <glyph glyph-name="是" unicode="&#x662F;" horiz-adv-x="250" d=" M46,199 L211,199 L211,106 L46,106 M58,61 L77,56 Q73,42 68,33 Q87,-1 123,-2 L123,70 L12,70 L12,87 L245,87 L245,70 L142,70 L142,46 L228,46 L228,29 L142,29 L142,-3 Q191,-5 250,-2 Q246,-11 243,-21 Q177,-21 133,-21 Q81,-20 60,16 Q47,-8 18,-30 Q12,-23 6,-15 Q45,9 58,61 M64,182 L64,161 L193,161 L193,182 M64,145 L64,123 L193,123 L193,145"/> 
            <glyph glyph-name="更" unicode="&#x66F4;" horiz-adv-x="249" d=" M8,-13 Q62,-2 80,7 Q64,18 44,40 L59,51 Q75,30 95,19 Q110,35 114,55 L37,55 L37,157 L120,157 L120,179 L17,179 L17,196 L239,196 L239,179 L138,179 Q138,170 138,157 L221,157 L221,43 L203,43 L203,55 L133,55 Q128,28 112,10 Q153,-4 249,-5 Q247,-8 243,-18 Q241,-23 240,-24 Q134,-20 98,-1 Q76,-16 19,-30 Q14,-21 8,-13 M137,98 Q137,83 135,72 L203,72 L203,98 M203,140 L138,140 Q138,126 138,114 L203,114 M55,140 L55,114 L120,114 Q120,126 120,140 M117,72 Q119,83 119,98 L55,98 L55,72"/> 
            <glyph glyph-name="有" unicode="&#x6709;" horiz-adv-x="247" d=" M76,-28 L57,-28 L57,94 Q39,74 18,56 Q13,64 7,74 Q57,116 84,161 L13,161 L13,178 L94,178 Q102,193 108,209 L128,205 Q126,199 121,189 Q117,182 115,178 L247,178 L247,161 L105,161 Q101,152 90,136 Q88,133 87,132 L217,132 L217,3 Q218,-24 188,-25 Q176,-26 149,-25 Q148,-17 145,-5 Q169,-7 182,-7 Q199,-7 198,7 L198,25 L76,25 M76,116 L76,86 L198,86 L198,116 M76,70 L76,41 L198,41 L198,70"/> 
            <glyph glyph-name="术" unicode="&#x672F;" horiz-adv-x="250" d=" M6,12 Q71,55 105,132 L13,132 L13,149 L119,149 L119,208 L138,208 L138,149 L244,149 L244,132 L151,132 Q186,57 250,19 Q249,18 246,15 Q239,6 235,0 Q169,47 138,128 L138,-29 L119,-29 L119,128 Q90,47 20,-3 Q18,-1 14,2 Q9,9 6,12 M164,195 L178,206 Q196,189 214,168 L198,156 Q195,159 190,165 Q174,186 164,195"/> 
            <glyph glyph-name="机" unicode="&#x673A;" horiz-adv-x="251" d=" M135,174 L135,108 Q135,53 126,25 Q118,-4 92,-31 Q89,-28 82,-21 Q79,-18 77,-16 Q100,7 108,32 Q116,58 116,108 L116,192 L205,192 L205,14 Q204,-2 215,-1 L218,-1 Q228,-2 229,11 Q231,20 232,45 Q233,50 233,52 Q241,48 251,46 Q250,35 248,15 Q247,8 247,5 Q243,-21 219,-20 L214,-20 Q185,-22 186,11 L186,174 M6,54 Q34,95 46,143 L9,143 L9,160 L47,160 L47,207 L65,207 L65,160 L99,160 L99,143 L65,143 L65,103 L75,113 Q92,98 104,85 L91,72 Q90,73 88,75 Q77,89 65,99 L65,-27 L47,-27 L47,101 Q35,62 15,35 Q14,38 10,45 Q7,51 6,54"/> 
            <glyph glyph-name="杂" unicode="&#x6742;" horiz-adv-x="248" d=" M187,182 L187,129 Q186,110 201,111 L208,111 Q224,110 226,123 Q229,136 230,153 Q232,152 236,151 Q246,146 248,145 Q246,129 243,117 Q240,92 209,93 L199,93 Q167,92 168,127 L168,165 L106,165 Q101,112 22,87 Q21,89 19,92 Q14,100 10,104 Q81,124 87,165 L22,165 L22,182 L89,182 Q89,185 89,193 Q90,203 90,208 L109,208 Q109,190 108,182 M137,109 L137,78 L238,78 L238,61 L137,61 L137,5 Q138,-25 105,-25 Q89,-25 78,-25 Q78,-18 74,-6 Q78,-6 86,-6 Q97,-7 102,-7 Q119,-8 118,9 L118,61 L10,61 L10,78 L118,78 L118,109 M163,34 L175,48 Q208,26 242,1 L229,-14 Q189,16 163,34 M70,50 L85,37 Q54,9 20,-16 Q14,-7 7,0 Q35,17 70,50"/> 
            <glyph glyph-name="权" unicode="&#x6743;" horiz-adv-x="250" d=" M94,174 L94,192 L232,192 L232,174 Q221,89 180,39 Q206,12 250,-4 Q240,-15 233,-24 Q188,0 167,23 Q143,-2 90,-29 Q84,-21 77,-11 Q131,13 155,38 Q118,85 109,174 M7,55 Q32,94 44,140 L9,140 L9,156 L47,156 L47,208 L65,208 L65,156 L99,156 L99,140 L65,140 L65,105 L76,115 Q94,98 110,80 L95,67 Q87,77 67,98 Q66,100 65,101 L65,-28 L47,-28 L47,101 Q33,62 15,34 Q11,44 7,55 M211,174 L129,174 Q136,94 168,54 Q202,99 211,174"/> 
            <glyph glyph-name="材" unicode="&#x6750;" horiz-adv-x="248" d=" M115,157 L195,157 L195,207 L214,207 L214,157 L248,157 L248,140 L214,140 L214,11 Q216,-23 178,-23 Q164,-23 144,-23 Q142,-12 140,-2 Q145,-3 175,-3 Q197,-5 195,13 L195,120 Q167,55 104,5 Q98,12 90,22 Q151,67 186,140 L115,140 M8,54 Q37,91 51,141 L11,141 L11,158 L51,158 L51,207 L70,207 L70,158 L105,158 L105,141 L70,141 L70,103 L81,113 Q103,95 118,80 L103,67 Q87,85 70,100 L70,-28 L51,-28 L51,94 Q37,59 17,32 Q12,42 8,54"/> 
            <glyph glyph-name="条" unicode="&#x6761;" horiz-adv-x="248" d=" M19,132 Q58,163 86,208 L106,205 Q103,200 96,190 Q94,186 93,185 L211,185 L211,168 Q185,142 151,121 Q185,106 248,99 Q248,98 247,97 Q240,85 238,81 Q167,92 131,111 Q85,89 16,75 Q12,84 7,93 Q73,104 112,121 Q90,134 70,156 Q54,136 33,119 Q31,121 25,126 Q20,131 19,132 M121,94 L140,94 L140,70 L224,70 L224,53 L140,53 L140,6 Q142,-26 110,-24 Q103,-25 80,-25 Q79,-17 77,-9 Q76,-7 76,-5 Q80,-5 88,-5 Q98,-6 104,-6 Q122,-7 121,9 L121,53 L31,53 L31,70 L121,70 M186,169 L81,169 Q106,142 131,130 Q164,148 186,169 M163,27 L174,40 Q215,17 244,0 L232,-16 Q200,6 163,27 M81,40 L94,27 Q61,3 26,-18 Q17,-6 14,-3 Q52,17 81,40"/> 
            <glyph glyph-name="来" unicode="&#x6765;" horiz-adv-x="249" d=" M7,3 Q65,32 105,76 L11,76 L11,93 L119,93 L119,157 L25,157 L25,174 L119,174 L119,209 L137,209 L137,174 L232,174 L232,157 L137,157 L137,93 L245,93 L245,76 L149,76 Q187,30 249,7 Q241,-2 236,-10 Q174,15 137,69 L137,-29 L119,-29 L119,70 Q82,20 20,-13 Q15,-6 7,3 M162,110 Q163,111 166,115 Q186,136 196,151 L212,138 Q192,113 175,98 M46,138 L60,151 Q77,133 94,112 L78,99 Q63,120 46,138"/> 
            <glyph glyph-name="松" unicode="&#x677E;" horiz-adv-x="251" d=" M7,56 Q35,94 47,142 L10,142 L10,158 L47,158 L47,207 L65,207 L65,158 L97,158 L97,142 L65,142 L65,99 L75,109 Q84,100 106,78 L93,65 Q74,86 65,95 L65,-28 L47,-28 L47,96 Q36,64 16,35 Q12,46 7,56 M196,61 Q220,21 242,-18 L223,-28 Q219,-18 214,-9 Q166,-10 127,-14 Q119,-14 103,-18 L95,-1 Q104,2 109,11 Q134,50 156,114 L177,107 Q151,43 125,2 Q144,3 138,3 Q180,4 206,5 Q202,13 193,29 Q185,45 180,53 M175,200 L192,206 Q211,142 251,102 Q241,95 234,88 Q194,133 175,200 M138,201 L156,195 Q137,134 109,93 Q102,99 93,104 Q123,144 138,201"/> 
            <glyph glyph-name="构" unicode="&#x6784;" horiz-adv-x="240" d=" M87,121 Q113,157 130,208 L149,202 Q143,187 135,171 L240,171 Q236,48 235,18 Q235,-27 187,-25 Q178,-25 161,-24 Q150,-24 147,-24 Q146,-11 143,-2 Q143,-2 146,-2 Q173,-5 187,-5 Q218,-7 217,21 Q218,54 221,154 L127,154 Q115,128 102,111 Q96,116 87,121 M7,55 Q32,94 42,138 L42,141 L9,141 L9,157 L42,157 L42,206 L60,206 L60,157 L91,157 L91,141 L60,141 L60,104 L69,112 Q72,109 79,103 Q96,88 100,84 L87,70 Q72,87 60,98 L60,-28 L42,-28 L42,93 Q33,61 15,34 Q12,44 7,55 M156,90 L171,98 Q190,65 207,31 L190,22 Q189,24 187,29 Q185,33 184,35 Q155,32 122,31 Q115,30 101,27 L93,45 Q100,50 106,58 Q126,90 145,134 L163,127 Q149,95 120,48 Q154,49 177,50 Q167,71 156,90"/> 
            <glyph glyph-name="果" unicode="&#x679C;" horiz-adv-x="248" d=" M7,-4 Q66,16 102,51 L12,51 L12,68 L119,68 L119,94 L36,94 L36,196 L220,196 L220,94 L137,94 L137,68 L244,68 L244,51 L153,51 Q191,12 248,0 Q241,-8 237,-17 Q175,0 137,48 L137,-29 L119,-29 L119,48 Q86,9 18,-21 Q18,-20 17,-19 Q11,-8 7,-4 M202,179 L137,179 L137,153 L202,153 M54,179 L54,153 L119,153 L119,179 M54,137 L54,110 L119,110 L119,137 M137,137 L137,110 L202,110 L202,137"/> 
            <glyph glyph-name="染" unicode="&#x67D3;" horiz-adv-x="249" d=" M8,-5 Q65,15 97,48 L12,48 L12,65 L118,65 L118,92 L137,92 L137,65 L246,65 L246,48 L155,48 Q187,12 249,0 Q247,-2 242,-9 Q236,-16 234,-18 Q167,4 137,48 L137,-30 L118,-30 L118,48 Q83,7 22,-21 Q13,-9 8,-5 M93,177 L131,177 Q132,191 132,208 L151,208 Q151,195 149,177 L202,177 L202,116 Q202,103 212,104 L218,104 Q228,104 229,117 Q231,130 232,143 Q241,139 249,136 Q248,121 246,111 Q244,86 218,88 L210,88 Q183,86 184,117 L184,161 L147,161 Q141,106 89,78 Q87,80 82,86 Q78,91 76,93 Q125,117 130,161 L93,161 M82,136 Q83,135 85,129 Q88,122 89,118 Q59,101 27,81 L15,97 Q56,120 82,136 M47,208 Q56,204 78,191 Q86,187 90,185 L78,169 Q76,170 72,173 Q49,187 37,193 M23,171 Q30,168 50,157 Q60,152 65,150 L54,133 Q31,147 14,155"/> 
            <glyph glyph-name="标" unicode="&#x6807;" horiz-adv-x="251" d=" M45,207 L63,207 L63,159 L95,159 L95,143 L63,143 L63,101 L73,111 Q82,103 100,86 L87,72 Q81,79 63,99 L63,-28 L45,-28 L45,102 Q35,68 15,36 Q14,39 9,48 Q7,52 6,54 Q33,94 44,143 L10,143 L10,159 L45,159 M95,122 L246,122 L246,105 L180,105 L180,4 Q181,-26 150,-25 Q134,-25 120,-25 Q120,-23 119,-20 Q117,-10 116,-5 Q125,-6 146,-6 Q162,-7 161,6 L161,105 L95,105 M106,193 L234,193 L234,176 L106,176 M196,73 L212,82 Q225,58 248,9 Q247,12 251,4 L232,-2 Q230,1 226,10 Q208,50 196,73 M120,81 L138,74 Q119,34 98,-3 Q89,1 80,5 Q102,39 120,81"/> 
            <glyph glyph-name="样" unicode="&#x6837;" horiz-adv-x="247" d=" M100,161 L173,161 Q191,184 206,209 L223,198 Q218,192 210,181 Q201,168 195,161 L239,161 L239,144 L177,144 L177,106 L232,106 L232,89 L177,89 L177,49 L247,49 L247,32 L177,32 L177,-29 L158,-29 L158,32 L87,32 L87,49 L158,49 L158,89 L105,89 L105,106 L158,106 L158,144 L100,144 M7,56 Q32,97 44,142 L10,142 L10,158 L46,158 L46,207 L64,207 L64,158 L92,158 L92,142 L64,142 L64,103 L74,112 Q83,103 104,81 L90,69 Q72,90 64,99 L64,-29 L46,-29 L46,102 Q35,66 16,35 Q12,46 7,56 M114,198 L129,209 Q136,201 148,186 Q155,178 157,175 L140,163 Q126,183 114,198"/> 
            </font>
</defs>
</svg>
