<?xml version="1.0" standalone="no"?>
<!DOCTYPE svg PUBLIC "-//W3C//DTD SVG 1.1//EN" "http://www.w3.org/Graphics/SVG/1.1/DTD/svg11.dtd" >
<svg xmlns="http://www.w3.org/2000/svg">
    <defs>
        <font id="">
            <font-face font-family=""
                       units-per-em="256"
                       ascent="229"
                       descent="-64"
                       bbox="-14 -64 269 229"
                    />
            <missing-glyph horiz-adv-x="0" />
            
            <glyph glyph-name="/" unicode="&#x2F;" horiz-adv-x="77" d=" M0,-12 L19,-12 L77,194 L58,194"/> 
            <glyph glyph-name="0" unicode="&#x30;" horiz-adv-x="144" d=" M77,176 Q36,173 35,90 Q35,4 78,5 Q121,4 121,90 Q121,177 77,176 M79,-12 Q12,-11 12,90 Q13,191 78,194 Q143,192 144,90 Q143,-10 79,-12"/> 
            <glyph glyph-name="4" unicode="&#x34;" horiz-adv-x="144" d=" M28,58 L96,58 L96,161 Q96,160 94,157 Q93,154 92,152 Q76,131 28,58 M144,40 L116,40 L116,-9 L96,-9 L96,40 L4,40 L4,52 L100,194 L116,194 L116,58 L144,58"/> 
            <glyph glyph-name="5" unicode="&#x35;" horiz-adv-x="144" d=" M42,109 L48,170 L134,170 L134,190 L31,190 L19,85 L34,82 Q47,103 78,104 Q120,102 122,56 Q120,7 77,5 Q39,6 33,48 L11,42 Q22,-12 79,-12 Q142,-10 144,58 Q140,121 82,124 Q60,124 42,109"/> 
            <glyph glyph-name="8" unicode="&#x38;" horiz-adv-x="147" d=" M78,87 Q38,85 34,43 Q38,7 79,4 Q120,7 124,41 Q121,85 78,87 M79,176 Q46,174 43,142 Q44,105 79,103 Q112,104 114,140 Q111,173 79,176 M51,95 Q21,109 19,140 Q23,191 79,194 Q133,190 138,140 Q136,108 108,95 Q145,81 147,41 Q144,-10 79,-12 Q13,-10 11,43 Q14,82 51,95"/> 
            <glyph glyph-name="A" unicode="&#x41;" horiz-adv-x="188" d=" M56,71 L131,71 L98,156 Q97,161 94,170 Q91,161 89,156 M164,-9 L139,52 L48,52 L24,-9 L0,-9 L81,191 L105,191 L188,-9"/> 
            <glyph glyph-name="D" unicode="&#x44;" horiz-adv-x="190" d=" M91,171 L44,171 L44,8 L90,8 Q166,9 165,90 Q162,168 91,171 M90,-9 L22,-9 L22,191 L92,191 Q185,188 188,91 Q190,-11 90,-9"/> 
            <glyph glyph-name="E" unicode="&#x45;" horiz-adv-x="172" d=" M45,9 L172,9 L172,-9 L22,-9 L22,191 L166,191 L166,172 L45,172 L45,104 L159,104 L159,84 L45,84"/> 
            <glyph glyph-name="F" unicode="&#x46;" horiz-adv-x="158" d=" M158,171 L45,171 L45,104 L143,104 L144,84 L45,84 L45,-9 L23,-9 L23,191 L158,191"/> 
            <glyph glyph-name="G" unicode="&#x47;" horiz-adv-x="200" d=" M114,94 L200,94 L200,21 Q175,-12 114,-12 Q20,-7 15,88 Q19,190 110,194 Q177,193 199,135 L174,129 Q158,173 109,174 Q45,168 39,89 Q44,12 113,6 Q158,6 178,30 L178,75 L114,75"/> 
            <glyph glyph-name="N" unicode="&#x4E;" horiz-adv-x="179" d=" M179,-9 L179,191 L157,191 L157,45 Q157,29 159,14 L158,14 Q156,20 150,30 L47,191 L21,191 L21,-9 L43,-9 L43,138 Q43,159 40,171 L41,171 Q45,159 50,151 L154,-9"/> 
            <glyph glyph-name="O" unicode="&#x4F;" horiz-adv-x="207" d=" M110,174 Q44,168 37,89 Q41,12 108,6 Q178,10 182,89 Q176,168 110,174 M109,-12 Q18,-7 14,87 Q18,189 112,194 Q201,188 207,89 Q203,-8 109,-12"/> 
            <glyph glyph-name="R" unicode="&#x52;" horiz-adv-x="198" d=" M45,171 L45,101 L110,101 Q159,102 159,138 Q158,170 110,171 M198,-9 L167,-9 L98,81 L45,81 L45,-9 L22,-9 L22,191 L115,191 Q179,188 183,137 Q183,85 123,81"/> 
            <glyph glyph-name="S" unicode="&#x53;" horiz-adv-x="176" d=" M143,133 L167,140 Q155,195 90,195 Q24,192 20,141 Q16,99 92,84 Q153,72 148,44 Q146,7 97,6 Q42,4 35,56 L12,48 Q24,-14 98,-12 Q167,-9 172,43 Q176,90 94,105 Q42,116 43,141 Q45,174 92,175 Q132,175 143,133"/> 
            <glyph glyph-name="T" unicode="&#x54;" horiz-adv-x="166" d=" M166,191 L166,172 L98,172 L98,-9 L75,-9 L75,172 L7,172 L7,191"/> 
            <glyph glyph-name="、" unicode="&#x3001;" horiz-adv-x="104" d=" M37,36 L52,48 L104,-9 L88,-23"/> 
            <glyph glyph-name="一" unicode="&#x4E00;" horiz-adv-x="248" d=" M8,107 L248,107 L248,86 L8,86"/> 
            <glyph glyph-name="上" unicode="&#x4E0A;" horiz-adv-x="246" d=" M106,204 L127,204 L127,131 L227,131 L227,112 L127,112 L127,3 L246,3 L246,-14 L10,-14 L10,3 L106,3"/> 
            <glyph glyph-name="下" unicode="&#x4E0B;" horiz-adv-x="246" d=" M135,125 Q190,96 232,73 L219,54 Q165,87 127,107 L127,-26 L107,-26 L107,170 L10,170 L10,189 L246,189 L246,170 L127,170 L127,112"/> 
            <glyph glyph-name="业" unicode="&#x4E1A;" horiz-adv-x="248" d=" M149,204 L169,204 L169,4 L248,4 L248,-13 L9,-13 L9,4 L87,4 L87,204 L107,204 L107,4 L149,4 M37,156 Q58,106 75,57 L56,49 Q39,100 19,150 M178,57 Q197,94 219,156 L238,148 Q211,78 195,49"/> 
            <glyph glyph-name="中" unicode="&#x4E2D;" horiz-adv-x="232" d=" M24,156 L118,156 L118,209 L138,209 L138,156 L232,156 L232,46 L213,46 L213,59 L138,59 L138,-30 L118,-30 L118,59 L43,59 L43,46 L24,46 M213,138 L138,138 L138,77 L213,77 M43,138 L43,77 L118,77 L118,138"/> 
            <glyph glyph-name="之" unicode="&#x4E4B;" horiz-adv-x="249" d=" M25,162 L223,162 L223,144 Q159,77 70,22 Q91,0 137,-1 Q181,-4 249,-1 Q249,-2 248,-5 Q244,-16 243,-21 Q165,-21 136,-20 Q84,-18 52,13 Q50,16 47,13 Q45,11 42,8 Q26,-6 17,-18 L5,0 Q11,4 21,14 Q33,25 37,29 Q45,35 53,33 Q143,88 196,144 L25,144 M107,200 L125,209 Q127,206 131,200 Q136,192 147,174 L128,164 Q118,182 107,200"/> 
            <glyph glyph-name="也" unicode="&#x4E5F;" horiz-adv-x="249" d=" M8,113 L43,122 L43,180 L62,180 L62,127 L119,141 L119,207 L138,207 L138,146 L223,167 Q223,161 223,150 Q222,111 219,88 Q217,47 179,47 Q166,47 155,47 Q154,57 151,67 Q154,67 163,67 Q173,66 178,66 Q199,65 201,89 Q203,123 203,144 L138,127 L138,23 L119,23 L119,122 L62,108 L62,19 Q61,-1 84,0 L193,0 Q222,-2 223,15 Q226,33 228,52 Q229,52 232,51 Q242,47 249,46 Q246,27 242,8 Q238,-20 198,-19 L80,-19 Q41,-20 43,15 L43,103 L10,95"/> 
            <glyph glyph-name="了" unicode="&#x4E86;" horiz-adv-x="232" d=" M122,118 L202,170 L17,170 L17,190 L232,190 L232,166 L143,108 L143,19 Q146,-24 101,-23 Q77,-23 62,-23 Q62,-20 60,-12 Q59,-4 58,0 Q75,-1 99,-1 Q123,-3 122,20"/> 
            <glyph glyph-name="仅" unicode="&#x4EC5;" horiz-adv-x="249" d=" M87,173 L87,190 L233,190 L233,174 Q221,92 176,39 Q206,9 249,-7 Q240,-19 234,-27 Q188,-3 162,24 Q130,-6 85,-28 Q80,-21 70,-11 Q118,10 148,40 Q108,90 99,173 M211,173 L118,173 Q125,102 162,55 Q204,106 211,173 M6,94 Q44,147 63,208 L83,202 Q73,174 58,142 L58,-28 L39,-28 L39,108 Q27,88 14,73 Q10,83 6,94"/> 
            <glyph glyph-name="仑" unicode="&#x4ED1;" horiz-adv-x="248" d=" M56,114 L75,114 L75,63 Q145,84 190,113 L204,97 Q145,65 75,43 L75,17 Q75,-1 99,-1 L174,-1 Q196,-2 198,17 Q201,33 201,49 Q211,47 221,44 Q220,39 219,29 Q217,16 216,11 Q211,-22 176,-20 L95,-20 Q56,-20 56,15 M146,206 Q143,202 139,196 Q180,146 248,120 Q246,117 242,111 Q238,104 236,101 Q165,135 128,182 Q89,134 19,98 Q11,112 8,116 Q87,153 125,210"/> 
            <glyph glyph-name="以" unicode="&#x4EE5;" horiz-adv-x="250" d=" M191,202 L210,202 Q210,169 209,138 Q206,81 193,52 Q206,39 231,12 Q244,0 250,-7 L233,-22 Q223,-10 205,11 Q190,27 184,35 Q162,0 100,-30 Q94,-23 87,-13 Q193,28 189,138 Q191,176 191,202 M116,68 Q116,53 118,45 Q111,41 90,28 Q51,3 45,0 Q38,-5 30,-11 L16,6 Q27,17 27,31 L27,199 L47,199 L47,26 Q96,56 116,68 M105,208 Q125,175 141,146 L123,136 Q99,182 89,199"/> 
            <glyph glyph-name="体" unicode="&#x4F53;" horiz-adv-x="250" d=" M58,26 Q108,70 131,140 L75,140 L75,158 L145,158 L145,207 L164,207 L164,158 L239,158 L239,140 L178,140 Q202,65 250,32 Q245,28 236,14 Q183,64 164,140 L164,38 L202,38 L202,21 L164,21 L164,-28 L145,-28 L145,21 L107,21 L107,38 L145,38 L145,140 Q129,69 72,10 Q63,22 58,26 M6,91 Q42,139 62,208 L80,202 Q70,169 56,140 L56,-28 L38,-28 L38,105 Q36,101 31,94 Q27,87 15,71 Q14,72 12,78 Q7,90 6,91"/> 
            <glyph glyph-name="你" unicode="&#x4F60;" horiz-adv-x="248" d=" M7,88 Q46,141 66,209 L86,203 Q73,169 62,146 L62,-28 L44,-28 L44,109 Q30,85 16,67 Q12,78 7,88 M209,113 L225,152 L123,152 Q111,130 98,109 Q95,112 88,117 Q85,120 83,121 Q111,160 126,208 L146,202 Q139,184 131,169 L244,169 L244,150 L226,106 M155,133 L174,133 L174,7 Q177,-25 140,-25 Q118,-25 113,-25 Q113,-24 113,-22 Q112,-16 109,-5 Q128,-6 138,-6 Q156,-7 155,9 M133,91 Q112,41 97,8 L79,16 Q99,55 115,97 M212,98 Q232,58 248,19 L230,11 Q223,30 205,70 Q198,84 195,91"/> 
            <glyph glyph-name="使" unicode="&#x4F7F;" horiz-adv-x="249" d=" M75,174 L151,174 L151,207 L169,207 L169,174 L247,174 L247,158 L169,158 L169,134 L234,134 L234,57 L216,57 L216,67 L167,67 Q164,36 151,17 Q182,-2 249,-8 Q242,-17 236,-28 Q172,-18 138,2 Q121,-13 77,-30 Q73,-22 64,-12 Q109,0 123,14 Q106,29 92,50 L108,59 Q120,41 135,28 Q145,43 148,67 L85,67 L85,134 L151,134 L151,158 L75,158 M8,92 Q45,147 59,208 L78,202 Q68,169 55,141 L55,-29 L37,-29 L37,105 Q36,103 33,99 Q23,80 16,71 Q12,82 8,92 M150,83 Q150,87 150,95 Q151,104 151,109 L151,118 L103,118 L103,83 M169,109 Q169,95 168,83 L216,83 L216,118 L169,118"/> 
            <glyph glyph-name="倍" unicode="&#x500D;" horiz-adv-x="248" d=" M95,68 L227,68 L227,-28 L208,-28 L208,-12 L113,-12 L113,-28 L95,-28 M6,90 Q40,138 58,207 L77,202 Q76,199 73,192 Q62,158 55,142 L55,-28 L37,-28 L37,105 Q36,103 33,99 Q26,85 14,70 Q10,80 6,90 M113,52 L113,3 L208,3 L208,52 M178,117 Q193,136 202,155 L220,146 Q210,128 195,109 L248,109 L248,92 L73,92 L73,109 L192,109 M141,201 L157,210 Q164,202 176,184 Q177,182 178,181 L163,173 L240,173 L240,156 L82,156 L82,173 L160,173 Q156,180 147,193 Q143,198 141,201 M102,146 L117,155 Q130,138 142,120 L125,109 Q116,128 102,146"/> 
            <glyph glyph-name="健" unicode="&#x5065;" horiz-adv-x="249" d=" M123,42 L167,42 L167,63 L129,63 L129,77 L167,77 L167,98 L132,98 L132,111 L167,111 L167,132 L120,132 L120,146 L167,146 L167,167 L132,167 L132,181 L167,181 L167,206 L183,206 L183,181 L226,181 L226,146 L247,146 L247,132 L226,132 L226,98 L183,98 L183,77 L231,77 L231,63 L183,63 L183,42 L234,42 L234,29 L183,29 L183,2 L167,2 L167,29 L123,29 M77,80 Q83,55 94,38 Q103,62 104,95 L67,95 L67,110 L102,167 L70,167 L70,183 L120,183 L120,167 L85,110 L120,110 L120,94 Q117,51 105,23 Q129,-2 179,-3 Q211,-4 249,-1 Q248,-4 245,-11 Q242,-17 241,-20 Q235,-20 222,-20 Q195,-21 176,-20 Q127,-19 97,7 Q87,-8 69,-29 Q67,-25 59,-18 Q58,-17 57,-16 Q79,6 86,20 Q71,43 62,74 M6,91 Q38,141 52,208 L70,204 Q61,171 51,144 L51,-27 L35,-27 L35,108 Q26,90 14,71 Q11,80 6,91 M211,167 L183,167 L183,146 L211,146 M183,111 L211,111 L211,132 L183,132"/> 
            <glyph glyph-name="入" unicode="&#x5165;" horiz-adv-x="249" d=" M75,194 L91,205 Q117,189 151,119 Q195,21 249,0 L232,-21 Q177,10 134,110 Q133,113 130,118 Q128,123 126,125 Q100,31 22,-23 Q16,-13 8,-5 Q85,43 113,150 Q96,180 75,194"/> 
            <glyph glyph-name="内" unicode="&#x5185;" horiz-adv-x="229" d=" M119,207 L139,207 Q139,200 138,184 Q138,171 138,165 L227,165 L227,7 Q229,-23 195,-23 Q169,-24 157,-24 Q155,-13 153,-3 Q158,-3 170,-3 Q184,-4 191,-4 Q208,-5 207,9 L207,147 L138,147 Q137,115 128,94 L138,103 Q170,77 201,47 L186,31 Q167,52 126,89 Q113,59 64,28 Q62,32 55,41 Q51,45 51,46 Q120,78 118,147 L48,147 L48,-26 L29,-26 L29,165 L118,165 Q119,179 119,207"/> 
            <glyph glyph-name="净" unicode="&#x51C0;" horiz-adv-x="247" d=" M65,134 Q103,171 122,209 L141,205 Q136,196 130,187 L203,187 L203,171 L175,137 L225,137 L225,94 L247,94 L247,78 L225,78 L225,22 L207,22 L207,35 L161,35 L161,6 Q164,-27 126,-26 Q111,-26 101,-26 Q101,-24 99,-17 Q98,-10 97,-7 Q100,-7 107,-7 Q118,-8 123,-8 Q144,-9 143,9 L143,35 L82,35 L82,51 L143,51 L143,78 L70,78 L70,94 L143,94 L143,121 L87,121 L87,131 Q83,125 78,121 Q77,122 74,125 Q68,132 65,134 M180,171 L119,171 Q107,153 92,137 L153,137 M40,93 Q49,88 58,84 Q47,49 31,-6 L12,0 Q27,39 40,93 M30,192 Q31,191 32,188 Q54,148 62,132 L44,123 Q29,157 14,184 M161,78 L161,51 L207,51 L207,78 M207,121 L161,121 L161,94 L207,94"/> 
            <glyph glyph-name="准" unicode="&#x51C6;" horiz-adv-x="247" d=" M59,110 Q93,151 115,208 L133,202 Q127,187 116,167 L244,167 L244,150 L185,150 L185,113 L237,113 L237,97 L185,97 L185,59 L238,59 L238,43 L185,43 L185,6 L247,6 L247,-9 L111,-9 L111,-29 L92,-29 L92,125 Q81,107 72,95 Q66,104 59,110 M47,96 Q56,91 66,87 Q50,45 31,-11 L10,-1 Q26,34 47,96 M111,43 L111,6 L167,6 L167,43 M111,97 L111,59 L167,59 L167,97 M111,150 L111,113 L167,113 L167,150 M24,195 Q45,172 65,145 L49,132 Q32,157 9,184 M156,200 L171,210 Q181,199 194,180 L178,169 Q176,172 172,178 Q168,185 156,200"/> 
            <glyph glyph-name="出" unicode="&#x51FA;" horiz-adv-x="229" d=" M33,96 L33,183 L52,183 L52,114 L118,114 L118,205 L137,205 L137,114 L203,114 L203,183 L222,183 L222,96 L137,96 L137,1 L210,1 L210,70 L229,70 L229,-24 L210,-24 L210,-16 L27,-16 L27,70 L46,70 L46,1 L118,1 L118,96"/> 
            <glyph glyph-name="分" unicode="&#x5206;" horiz-adv-x="250" d=" M39,101 L200,101 Q199,78 198,41 Q197,29 197,23 Q195,-23 151,-22 Q126,-22 112,-22 Q112,-14 109,-2 Q113,-2 125,-2 Q141,-3 149,-3 Q176,-5 177,25 Q179,63 179,83 L105,83 Q103,0 26,-31 Q23,-26 15,-17 Q14,-15 13,-14 Q84,9 85,83 L39,83 M144,201 L162,209 Q189,144 250,112 Q240,101 234,94 Q171,134 144,201 M6,109 Q62,146 95,206 L112,196 Q77,133 20,93 Q14,100 6,109"/> 
            <glyph glyph-name="加" unicode="&#x52A0;" horiz-adv-x="238" d=" M146,176 L238,176 L238,-22 L219,-22 L219,1 L165,1 L165,-22 L146,-22 M48,207 L67,207 Q67,199 66,184 Q66,170 66,164 L122,164 Q122,101 119,15 Q118,-23 83,-22 Q72,-22 58,-22 Q58,-13 55,-1 Q70,-2 81,-2 Q100,-3 100,16 Q103,76 103,145 L66,145 Q67,25 20,-29 Q19,-27 11,-21 Q7,-17 5,-15 Q30,18 37,48 Q45,76 46,145 L13,145 L13,164 L47,164 Q47,170 47,184 Q48,199 48,207 M165,158 L165,18 L219,18 L219,158"/> 
            <glyph glyph-name="助" unicode="&#x52A9;" horiz-adv-x="235" d=" M8,13 Q17,15 28,15 L28,191 L113,191 L113,26 Q122,28 129,29 Q129,27 129,21 Q128,15 128,12 Q114,10 70,4 Q26,-2 11,-4 M157,206 L176,206 Q176,204 176,197 Q175,171 175,155 L235,155 Q233,69 230,16 Q231,-25 195,-24 Q180,-24 164,-24 Q164,-19 162,-11 Q161,-4 161,-2 Q179,-4 191,-4 Q212,-5 212,19 Q216,81 216,138 L174,138 Q174,127 173,118 Q174,14 120,-29 Q115,-24 105,-16 Q155,19 155,118 Q155,121 155,127 Q156,134 156,138 L126,138 L126,155 L156,155 Q157,177 157,206 M46,18 Q54,19 71,21 Q88,23 96,24 L96,63 L46,63 M46,175 L46,135 L96,135 L96,175 M46,119 L46,79 L96,79 L96,119"/> 
            <glyph glyph-name="化" unicode="&#x5316;" horiz-adv-x="249" d=" M76,59 Q106,73 135,93 L135,203 L155,203 L155,107 Q194,139 221,177 L239,165 Q205,120 155,82 L155,17 Q154,-3 175,-1 L201,-1 Q221,-2 223,12 Q227,34 227,57 Q238,53 249,50 Q246,25 243,6 Q239,-21 203,-20 L172,-20 Q134,-21 135,15 L135,69 Q118,56 87,41 Q80,54 76,59 M6,88 Q48,141 70,207 L91,201 Q81,174 67,146 L67,-27 L46,-27 L46,110 Q31,85 17,67 Q14,73 9,82 Q7,86 6,88"/> 
            <glyph glyph-name="即" unicode="&#x5373;" horiz-adv-x="234" d=" M89,67 Q124,27 139,5 L123,-5 Q117,4 105,19 Q101,17 94,14 Q72,4 44,-8 Q37,-12 29,-18 L16,-3 Q24,2 24,14 L24,193 L121,193 L121,74 L42,74 L42,8 Q60,17 94,33 Q88,41 76,55 Q75,57 75,57 M148,190 L233,190 L233,45 Q234,12 203,13 Q190,12 176,12 Q175,23 172,33 Q188,32 198,32 Q216,31 215,47 L215,172 L167,172 L167,-28 L148,-28 M42,176 L42,142 L103,142 L103,176 M42,91 L103,91 L103,125 L42,125"/> 
            <glyph glyph-name="压" unicode="&#x538B;" horiz-adv-x="246" d=" M57,2 L141,2 L141,88 L74,88 L74,106 L141,106 L141,160 L162,160 L162,106 L236,106 L236,88 L162,88 L162,2 L246,2 L246,-14 L57,-14 M57,109 Q57,55 50,28 Q43,0 23,-28 Q17,-21 7,-11 Q26,15 31,37 Q37,59 37,105 L37,190 L245,190 L245,172 L57,172 M182,61 L195,72 Q201,66 215,51 Q227,38 232,33 L217,19 Q209,29 188,54 Q184,59 182,61"/> 
            <glyph glyph-name="厨" unicode="&#x53A8;" horiz-adv-x="246" d=" M45,100 Q45,49 40,24 Q36,0 20,-28 Q14,-20 6,-14 Q19,7 23,30 Q27,52 27,104 L27,193 L245,193 L245,176 L45,176 M208,167 L226,167 L226,126 L246,126 L246,110 L226,110 L226,3 Q227,-27 193,-27 Q179,-27 163,-27 Q163,-18 159,-7 Q164,-7 175,-8 Q186,-8 190,-8 Q209,-9 208,5 L208,110 L157,110 L157,126 L208,126 M65,121 L145,121 L145,56 L65,56 M47,0 Q49,0 54,0 Q86,2 107,5 Q117,23 128,50 L145,44 Q136,25 125,6 Q142,7 158,10 Q156,0 154,-7 Q83,-13 49,-17 M57,156 L155,156 L155,140 L57,140 M82,104 L82,72 L129,72 L129,104 M157,86 L173,91 Q184,66 194,36 L177,30 Q169,58 157,86 M65,41 L81,49 Q86,39 98,17 L82,9 Q75,25 65,41"/> 
            <glyph glyph-name="去" unicode="&#x53BB;" horiz-adv-x="247" d=" M118,209 L138,209 L138,167 L228,167 L228,149 L138,149 L138,94 L247,94 L247,76 L130,76 Q104,41 68,2 Q86,2 120,3 Q165,4 190,5 Q172,26 153,46 L169,58 Q185,41 211,14 Q228,-3 238,-13 L220,-28 Q217,-24 211,-16 Q208,-13 206,-11 Q195,-11 174,-12 Q109,-12 65,-15 Q59,-15 45,-17 Q40,-18 38,-18 L29,0 Q44,6 52,15 Q85,48 104,76 L10,76 L10,94 L118,94 L118,149 L30,149 L30,167 L118,167"/> 
            <glyph glyph-name="反" unicode="&#x53CD;" horiz-adv-x="249" d=" M38,191 Q125,192 226,201 L233,184 Q149,177 57,174 L57,132 L222,132 L222,115 Q200,59 162,24 Q193,4 249,-7 Q242,-16 234,-28 Q180,-11 145,11 Q111,-12 59,-30 Q47,-14 45,-12 Q97,2 130,24 Q97,53 76,115 L57,115 Q57,61 49,31 Q42,1 20,-29 Q18,-28 13,-23 Q7,-17 5,-16 Q25,9 31,36 Q38,62 38,114 M200,115 L96,115 Q114,63 145,36 Q182,67 200,115"/> 
            <glyph glyph-name="可" unicode="&#x53EF;" horiz-adv-x="248" d=" M36,135 L142,135 L142,39 L54,39 L54,22 L36,22 M9,189 L248,189 L248,171 L207,171 L207,7 Q208,-25 174,-24 Q163,-25 132,-25 Q131,-15 128,-3 Q154,-5 168,-5 Q189,-6 188,12 L188,171 L9,171 M54,118 L54,57 L123,57 L123,118"/> 
            <glyph glyph-name="台" unicode="&#x53F0;" horiz-adv-x="250" d=" M215,80 L215,-28 L195,-28 L195,-12 L61,-12 L61,-28 L41,-28 L41,80 M61,62 L61,3 L195,3 L195,62 M178,176 Q225,131 250,104 L233,90 Q230,94 224,101 Q217,109 214,112 Q123,109 48,105 Q33,104 23,102 L14,121 Q26,125 34,133 Q76,167 110,211 L128,200 Q95,161 52,124 Q131,128 198,130 Q194,134 187,141 Q182,147 164,164"/> 
            <glyph glyph-name="吗" unicode="&#x5417;" horiz-adv-x="240" d=" M20,184 L87,184 L87,10 L69,10 L69,30 L38,30 L38,7 L20,7 M138,166 L132,98 L192,98 L199,181 L101,181 L101,198 L219,198 L210,98 L240,98 Q238,65 237,25 Q237,32 236,12 Q233,-25 194,-25 Q172,-25 155,-25 Q154,-16 152,-4 Q155,-4 165,-4 Q182,-5 193,-5 Q214,-5 217,15 Q219,43 220,80 L111,80 L119,166 M38,167 L38,47 L69,47 L69,167 M95,48 L207,48 L207,30 L95,30"/> 
            <glyph glyph-name="否" unicode="&#x5426;" horiz-adv-x="248" d=" M40,79 L216,79 L216,-27 L196,-27 L196,-11 L60,-11 L60,-28 L40,-28 M18,195 L238,195 L238,178 L146,178 Q143,174 138,169 L138,87 L120,87 L120,151 Q74,111 20,87 Q12,99 8,103 Q79,134 121,178 L18,178 M60,62 L60,5 L196,5 L196,62 M144,145 L156,159 Q192,138 248,105 L236,89 Q189,120 144,145"/> 
            <glyph glyph-name="含" unicode="&#x542B;" horiz-adv-x="248" d=" M42,64 L214,64 L214,-27 L196,-27 L196,-14 L60,-14 L60,-28 L42,-28 M60,47 L60,1 L196,1 L196,47 M146,207 Q143,203 139,198 Q180,151 248,129 Q245,124 240,115 Q239,111 238,110 Q166,140 128,185 Q90,141 18,106 Q16,110 11,118 Q8,122 7,124 Q89,159 125,211 M50,104 L50,121 L196,121 L196,104 Q178,84 158,66 Q155,69 148,74 Q145,77 143,78 Q153,85 173,104 M111,149 L124,159 Q127,156 132,150 Q136,146 147,133 L133,123 Q123,137 111,149"/> 
            <glyph glyph-name="喝" unicode="&#x559D;" horiz-adv-x="236" d=" M18,184 L80,184 L80,63 Q106,86 123,114 L102,114 L102,198 L224,198 L224,114 L123,114 L138,108 Q134,100 129,94 L236,94 Q236,45 233,9 Q232,-25 199,-25 Q182,-25 169,-25 Q169,-17 167,-6 Q175,-7 198,-7 Q215,-9 215,11 Q218,45 218,78 L117,78 Q107,64 89,48 Q84,58 80,62 L80,11 L63,11 L63,31 L36,31 L36,9 L18,9 M36,167 L36,48 L63,48 L63,167 M102,60 L119,60 L119,16 L200,16 L200,1 L102,1 M119,149 L119,129 L207,129 L207,149 M119,183 L119,164 L207,164 L207,183 M160,76 L177,72 Q174,66 171,60 Q174,58 181,53 Q188,48 205,35 L194,22 Q177,37 163,47 Q151,31 134,20 Q132,23 126,28 Q123,31 122,32 Q152,48 160,76"/> 
            <glyph glyph-name="器" unicode="&#x5668;" horiz-adv-x="248" d=" M140,50 L218,50 Q151,59 129,95 L127,95 Q115,63 41,50 L114,50 L114,-25 L97,-25 L97,-12 L46,-12 L46,-26 L29,-26 L29,48 Q23,46 16,46 Q15,48 12,53 Q7,61 6,63 Q95,72 108,95 L16,95 L16,111 L115,111 Q117,119 118,129 L136,129 Q135,119 133,111 L174,111 Q173,113 169,118 Q167,122 166,124 L182,130 Q183,127 188,119 Q192,114 193,111 L242,111 L242,95 L149,95 Q177,67 248,66 Q248,65 247,64 Q241,53 238,47 Q236,47 232,48 Q228,48 226,49 L226,-26 L209,-26 L209,-12 L157,-12 L157,-25 L140,-25 M140,194 L225,194 L225,132 L140,132 M29,194 L114,194 L114,132 L29,132 M157,35 L157,1 L209,1 L209,35 M46,35 L46,1 L97,1 L97,35 M157,179 L157,147 L209,147 L209,179 M46,179 L46,147 L97,147 L97,179"/> 
            <glyph glyph-name="国" unicode="&#x56FD;" horiz-adv-x="234" d=" M22,195 L234,195 L234,-28 L216,-28 L216,-17 L41,-17 L41,-29 L22,-29 M41,178 L41,0 L216,0 L216,178 M61,105 L119,105 L119,138 L56,138 L56,154 L200,154 L200,138 L137,138 L137,105 L195,105 L195,89 L137,89 L137,41 L204,41 L204,25 L52,25 L52,41 L119,41 L119,89 L61,89 M149,73 L163,84 Q171,76 186,58 L171,47 Q159,63 149,73"/> 
            <glyph glyph-name="垢" unicode="&#x57A2;" horiz-adv-x="247" d=" M124,83 L231,83 L231,-27 L213,-27 L213,-7 L142,-7 L142,-27 L124,-27 M100,188 Q159,190 232,199 L238,180 Q182,175 118,171 L118,136 L247,136 L247,119 L118,119 Q118,61 110,33 Q103,2 81,-28 Q75,-22 65,-16 Q87,13 93,39 Q100,65 100,117 M7,29 Q12,31 24,36 Q36,40 42,42 L42,128 L11,128 L11,145 L42,145 L42,207 L60,207 L60,145 L87,145 L87,128 L60,128 L60,50 Q64,52 72,55 Q82,59 87,61 Q87,48 88,41 Q64,33 13,9 M142,66 L142,8 L213,8 L213,66"/> 
            <glyph glyph-name="增" unicode="&#x589E;" horiz-adv-x="238" d=" M89,174 L133,174 Q123,186 111,199 L124,209 Q137,196 148,185 L135,174 L176,174 Q180,180 190,195 Q196,205 200,210 L217,200 Q207,186 196,174 L238,174 L238,91 L89,91 M99,74 L228,74 L228,-29 L211,-29 L211,-17 L115,-17 L115,-29 L99,-29 M7,19 Q22,24 39,28 L39,128 L12,128 L12,145 L39,145 L39,206 L56,206 L56,145 L82,145 L82,128 L56,128 L56,33 Q59,34 65,35 Q73,38 86,41 Q86,32 87,23 Q82,21 71,18 Q51,13 13,1 M221,159 L171,159 L171,106 L221,106 M106,159 L106,106 L155,106 L155,159 M115,20 L115,-2 L211,-2 L211,20 M115,59 L115,35 L211,35 L211,59 M211,141 Q200,123 192,113 L179,121 Q188,132 197,150 M115,141 L127,148 Q139,134 146,122 L133,114 Q128,121 115,141"/> 
            <glyph glyph-name="备" unicode="&#x5907;" horiz-adv-x="249" d=" M42,85 L214,85 L214,-28 L196,-28 L196,-17 L60,-17 L60,-28 L42,-28 M77,211 L94,204 Q88,193 83,186 L215,186 L215,171 Q185,141 154,124 Q196,110 249,107 Q246,102 243,95 Q240,90 239,87 Q171,97 132,113 Q89,96 15,81 Q13,85 9,92 Q6,96 5,99 Q60,106 110,124 Q83,140 65,164 Q49,145 24,124 Q22,126 18,131 Q14,135 12,137 Q54,170 77,211 M189,171 L79,171 Q100,148 132,133 Q167,149 189,171 M60,26 L60,-2 L119,-2 L119,26 M60,70 L60,40 L119,40 L119,70 M137,26 L137,-2 L196,-2 L196,26 M196,70 L137,70 L137,40 L196,40"/> 
            <glyph glyph-name="多" unicode="&#x591A;" horiz-adv-x="237" d=" M164,114 L182,109 Q171,99 159,91 L237,91 L237,74 Q161,-9 27,-30 Q25,-24 17,-14 Q144,5 212,74 L135,74 Q125,68 113,61 Q116,58 122,52 Q133,42 137,37 L122,24 Q116,31 99,51 Q98,52 97,53 Q72,40 42,28 Q37,35 32,43 Q122,78 164,114 M126,211 L147,208 Q134,195 121,184 L228,184 L228,168 Q144,103 23,68 Q22,71 15,80 Q13,83 12,84 Q128,116 199,167 L99,167 Q98,167 96,165 Q93,164 92,163 Q99,157 111,146 Q118,140 121,137 L106,124 Q92,140 78,154 Q59,142 36,132 Q34,135 30,139 Q27,142 24,146 Q86,172 126,211"/> 
            <glyph glyph-name="大" unicode="&#x5927;" horiz-adv-x="249" d=" M8,-10 Q109,34 115,122 L12,122 L12,141 L116,141 Q116,177 116,207 L138,207 Q138,197 137,171 Q137,149 137,141 L244,141 L244,122 L137,122 Q152,26 249,-4 Q247,-6 244,-11 Q237,-19 234,-25 Q150,8 128,89 Q112,15 23,-28 Q20,-25 15,-19 Q10,-12 8,-10"/> 
            <glyph glyph-name="学" unicode="&#x5B66;" horiz-adv-x="247" d=" M123,68 L169,94 L55,94 L55,112 L197,112 L197,92 L142,60 L142,55 L247,55 L247,37 L142,37 L142,3 Q144,-27 111,-27 Q93,-27 77,-27 Q77,-24 75,-19 Q74,-10 73,-6 Q88,-7 108,-7 Q124,-8 123,6 L123,37 L9,37 L9,55 L123,55 M18,155 L239,155 L239,104 L219,104 L219,137 L37,137 L37,104 L18,104 M170,168 Q189,187 202,205 L218,194 Q203,174 186,156 M102,200 L118,209 Q130,194 145,170 L128,160 Q119,177 102,200 M37,193 L51,203 Q60,193 77,172 Q79,169 80,168 L64,156 Q51,175 37,193"/> 
            <glyph glyph-name="安" unicode="&#x5B89;" horiz-adv-x="248" d=" M50,51 Q57,61 73,87 L8,87 L8,105 L84,105 Q96,126 107,149 L126,141 Q121,134 112,117 Q107,109 105,105 L248,105 L248,87 L196,87 Q183,48 154,24 Q162,21 177,14 Q195,6 231,-9 L221,-27 Q211,-23 194,-14 Q157,3 137,11 Q99,-13 27,-29 Q26,-27 24,-23 Q22,-20 17,-9 Q82,0 118,20 Q102,27 68,43 Q56,48 50,51 M110,201 L127,211 Q129,207 134,200 Q144,186 148,178 L138,172 L237,172 L237,126 L218,126 L218,155 L39,155 L39,126 L20,126 L20,172 L128,172 Q118,192 110,201 M76,57 Q84,53 103,46 Q124,37 135,32 Q165,55 176,87 L94,87 Q85,72 76,57"/> 
            <glyph glyph-name="实" unicode="&#x5B9E;" horiz-adv-x="245" d=" M8,-11 Q103,5 124,41 L12,41 L12,59 L132,59 Q141,85 141,146 L160,146 Q160,85 152,59 L245,59 L245,41 L145,41 Q144,38 142,35 Q150,32 171,22 Q226,-1 242,-8 L231,-26 Q219,-20 169,3 Q142,15 132,20 Q103,-10 20,-30 Q14,-20 8,-11 M115,204 L134,210 Q136,206 141,195 Q146,184 148,179 L133,174 L239,174 L239,131 L219,131 L219,156 L36,156 L36,131 L17,131 L17,174 L127,174 Q127,175 126,177 Q120,194 115,204 M48,109 Q50,108 54,106 Q89,89 100,82 L89,66 Q49,89 38,93 M70,144 Q92,134 121,117 L110,101 Q101,107 68,126 Q63,129 61,130"/> 
            <glyph glyph-name="家" unicode="&#x5BB6;" horiz-adv-x="248" d=" M12,36 Q73,52 110,86 Q109,88 106,92 Q103,95 101,97 Q65,73 21,60 Q16,67 10,77 Q63,89 108,121 L42,121 L42,137 L215,137 L215,121 L133,121 Q124,114 115,106 Q129,92 137,74 Q178,94 210,113 L222,97 Q199,85 175,73 Q193,25 248,7 Q240,0 233,-10 Q179,12 159,66 Q157,65 152,62 Q147,60 144,58 Q150,41 150,22 Q152,-26 105,-25 Q91,-26 81,-26 Q79,-16 77,-6 Q83,-7 105,-7 Q133,-9 132,22 Q132,31 130,40 Q92,2 20,-22 Q17,-15 10,-4 Q82,15 125,58 Q122,66 118,72 Q80,38 22,20 Q18,27 12,36 M113,204 L131,210 Q133,206 137,197 Q142,186 144,180 L133,177 L239,177 L239,136 L221,136 L221,160 L35,160 L35,136 L17,136 L17,177 L125,177 Q119,194 113,204"/> 
            <glyph glyph-name="将" unicode="&#x5C06;" horiz-adv-x="249" d=" M77,147 Q115,171 144,210 L161,201 Q160,200 158,198 Q151,189 142,180 L237,180 L237,163 Q204,114 90,84 Q86,92 82,101 Q172,120 214,164 L125,164 Q122,161 119,158 Q127,152 139,142 Q145,137 148,135 L135,122 Q122,135 107,147 Q104,145 97,139 Q91,135 88,133 Q87,135 84,138 Q83,141 77,147 M194,108 L213,108 L213,77 L249,77 L249,60 L213,60 L213,5 Q215,-25 184,-25 Q166,-25 150,-25 Q150,-16 146,-5 Q160,-6 178,-6 Q195,-7 194,7 L194,60 L81,60 L81,77 L194,77 M52,207 L71,207 L71,-29 L52,-29 L52,66 Q46,59 34,45 Q23,33 17,26 L5,44 Q33,70 52,93 M7,163 L23,170 Q29,159 40,136 Q45,126 48,121 L31,112 Q23,132 7,163 M108,45 L121,56 Q138,40 154,20 L139,8 Q135,13 127,22 Q115,37 108,45"/> 
            <glyph glyph-name="小" unicode="&#x5C0F;" horiz-adv-x="249" d=" M121,205 L141,205 L141,7 Q142,-26 108,-25 Q103,-25 90,-26 Q77,-26 72,-26 Q72,-25 72,-23 Q71,-15 68,-3 Q80,-4 102,-4 Q122,-5 121,12 M61,153 L83,146 Q58,79 28,21 Q17,27 8,32 Q38,85 61,153 M170,143 L189,152 Q213,107 249,34 L227,24 Q196,93 170,143"/> 
            <glyph glyph-name="属" unicode="&#x5C5E;" horiz-adv-x="241" d=" M90,11 Q98,12 116,12 Q133,13 142,13 L142,35 L81,35 L81,-28 L65,-28 L65,48 L142,48 L142,64 L77,64 L77,108 L142,108 L142,123 Q129,123 103,122 Q76,122 65,121 Q65,123 63,129 Q62,134 61,136 Q130,136 231,140 L234,126 Q215,125 157,123 L157,108 L223,108 L223,64 L157,64 L157,48 L239,48 L239,0 Q241,-27 212,-27 Q200,-27 184,-27 Q184,-21 180,-11 Q183,-11 190,-11 Q201,-12 209,-12 Q223,-13 222,0 L222,35 L157,35 L157,14 Q162,14 172,15 Q181,15 185,15 Q182,21 179,27 L193,32 Q196,27 201,17 Q208,4 210,0 L196,-6 Q195,-5 194,-2 Q192,1 191,2 Q180,1 156,0 Q111,-1 93,-3 M36,198 L234,198 L234,151 L53,151 L53,110 Q53,56 47,27 Q41,0 22,-29 Q14,-23 8,-18 Q25,7 31,32 Q36,56 36,108 M53,184 L53,165 L219,165 L219,184 M208,95 L157,95 L157,77 L208,77 M92,95 L92,77 L142,77 L142,95"/> 
            <glyph glyph-name="已" unicode="&#x5DF2;" horiz-adv-x="247" d=" M33,145 L54,145 L54,106 L198,106 L198,174 L27,174 L27,192 L218,192 L218,88 L54,88 L54,24 Q52,0 79,1 L190,1 Q218,0 221,23 Q224,40 226,55 Q237,52 247,48 Q246,45 245,38 Q242,24 241,18 Q235,-19 194,-18 L76,-18 Q32,-19 33,20"/> 
            <glyph glyph-name="干" unicode="&#x5E72;" horiz-adv-x="248" d=" M27,190 L228,190 L228,172 L138,172 L138,102 L248,102 L248,83 L138,83 L138,-29 L117,-29 L117,83 L8,83 L8,102 L117,102 L117,172 L27,172"/> 
            <glyph glyph-name="度" unicode="&#x5EA6;" horiz-adv-x="247" d=" M64,51 L64,68 L216,68 L216,51 Q188,23 165,9 Q191,0 247,-8 Q241,-17 237,-27 Q181,-18 144,0 Q105,-19 52,-30 Q47,-17 42,-12 Q99,-1 124,9 Q100,27 81,51 M127,206 L146,210 Q147,204 150,194 Q152,186 153,182 L245,182 L245,165 L51,165 L51,109 Q51,51 45,25 Q40,-2 22,-30 Q20,-28 15,-24 Q9,-18 7,-16 Q24,10 28,33 Q33,55 33,105 L33,182 L133,182 Q130,194 127,206 M179,158 L197,158 L197,139 L242,139 L242,123 L197,123 L197,85 L92,85 L92,123 L57,123 L57,139 L92,139 L92,158 L111,158 L111,139 L179,139 M189,51 L104,51 Q122,31 144,19 Q169,32 189,51 M111,123 L111,101 L179,101 L179,123"/> 
            <glyph glyph-name="庭" unicode="&#x5EAD;" horiz-adv-x="249" d=" M73,60 Q80,42 89,30 Q98,50 101,72 L60,72 L60,86 L98,128 L61,128 L61,145 L120,145 L120,128 L84,88 L118,88 L118,72 Q112,34 100,16 Q121,-2 164,-3 Q189,-3 208,-3 Q229,-3 249,-2 Q248,-9 243,-20 Q204,-20 163,-20 Q118,-20 91,2 Q79,-12 57,-29 Q54,-25 45,-16 Q46,-15 49,-12 Q71,5 79,15 Q67,30 59,53 M126,206 L144,210 Q145,206 148,197 Q152,186 154,180 L244,180 L244,164 L46,164 L46,105 Q46,50 41,24 Q37,-1 22,-28 Q15,-20 7,-14 Q20,8 24,31 Q28,55 28,106 L28,180 L135,180 Q131,192 126,206 M127,36 L174,36 L174,75 L133,75 L133,91 L174,91 L174,125 Q154,124 133,124 Q133,132 131,140 Q191,142 230,145 L233,129 Q226,129 213,128 Q199,127 192,126 L192,91 L234,91 L234,75 L192,75 L192,36 L239,36 L239,20 L127,20"/> 
            <glyph glyph-name="康" unicode="&#x5EB7;" horiz-adv-x="247" d=" M123,205 L141,210 Q145,196 149,184 L244,184 L244,168 L51,168 L51,114 L132,114 L132,132 L66,132 L66,147 L132,147 L132,162 L150,162 L150,147 L219,147 L219,114 L247,114 L247,99 L219,99 L219,66 L150,66 L150,61 Q162,46 174,34 Q200,48 220,61 L232,46 Q225,42 201,30 Q192,26 187,24 Q213,6 245,-3 Q238,-13 232,-20 Q174,5 150,37 L150,4 Q152,-25 120,-25 Q112,-26 94,-26 Q94,-17 91,-7 Q99,-8 116,-8 Q133,-9 132,5 L132,18 Q121,15 86,2 Q60,-6 51,-9 L47,7 Q83,16 132,35 L132,66 L65,66 L65,81 L132,81 L132,99 L51,99 Q52,18 21,-28 Q15,-21 8,-12 Q23,10 28,35 Q33,57 33,104 L33,184 L130,184 Q129,186 128,190 Q125,200 123,205 M150,81 L202,81 L202,99 L150,99 M202,132 L150,132 L150,114 L202,114 M63,48 L73,60 Q81,56 99,44 Q105,40 107,39 L95,25 Q82,36 63,48"/> 
            <glyph glyph-name="开" unicode="&#x5F00;" horiz-adv-x="247" d=" M20,190 L237,190 L237,171 L187,171 L187,101 L247,101 L247,82 L187,82 L187,-27 L167,-27 L167,82 L92,82 Q96,3 25,-30 Q13,-15 11,-13 Q48,4 59,23 Q72,41 72,82 L9,82 L9,101 L72,101 L72,171 L20,171 M92,171 L92,101 L167,101 L167,171"/> 
            <glyph glyph-name="式" unicode="&#x5F0F;" horiz-adv-x="248" d=" M141,209 L162,209 Q161,187 162,162 L246,162 L246,144 L163,144 Q164,112 167,86 Q173,26 197,1 Q207,-7 214,-7 Q220,-8 223,3 Q228,23 229,39 Q239,34 248,32 Q246,8 240,-5 Q235,-28 216,-28 Q200,-28 184,-13 Q155,16 148,83 Q145,112 143,144 L8,144 L8,162 L142,162 Q142,170 142,186 Q141,202 141,209 M9,8 Q18,9 47,13 Q59,14 65,15 L65,83 L18,83 L18,101 L132,101 L132,83 L85,83 L85,18 Q96,19 119,23 Q136,25 143,26 Q142,16 142,7 Q133,6 86,0 Q31,-7 14,-10 M180,195 L192,207 Q203,199 219,186 Q224,181 227,179 L213,164 Q198,180 180,195"/> 
            <glyph glyph-name="微" unicode="&#x5FAE;" horiz-adv-x="251" d=" M190,207 L207,204 Q203,183 195,162 L249,162 L249,145 L235,145 Q229,75 212,38 Q224,14 251,-10 Q245,-20 241,-28 Q220,-7 203,20 Q193,1 164,-30 Q159,-24 151,-16 Q184,16 195,38 Q181,70 176,110 Q173,101 168,93 Q163,100 156,105 Q178,150 190,207 M129,49 L94,49 L94,43 Q96,0 70,-23 Q67,-16 59,-8 Q80,5 78,48 L78,65 L145,65 L145,23 Q159,34 168,44 Q169,40 171,32 Q172,27 172,25 Q157,13 144,0 Q141,-1 134,-8 L122,6 Q130,12 129,27 M108,204 L123,204 L123,142 L143,142 L143,186 L159,186 L159,126 L73,126 L73,186 L88,186 L88,142 L108,142 M7,64 Q32,95 53,141 L68,133 Q60,117 51,100 L51,-28 L35,-28 L35,74 Q32,70 25,60 Q18,51 14,46 Q12,53 9,60 Q7,63 7,64 M204,58 Q215,92 219,145 L190,145 Q190,145 189,144 Q189,143 188,142 Q191,91 204,58 M11,141 Q38,172 54,206 L70,197 Q49,159 18,124 Q15,133 11,141 M76,104 L155,104 L155,88 L76,88"/> 
            <glyph glyph-name="德" unicode="&#x5FB7;" horiz-adv-x="249" d=" M87,151 L151,151 L151,171 L81,171 L81,186 L151,186 L151,208 L167,208 L167,186 L242,186 L242,171 L167,171 L167,151 L232,151 L232,89 L87,89 M7,64 Q36,91 64,143 L80,135 Q76,127 66,112 Q61,103 58,98 L58,-28 L41,-28 L41,74 Q30,60 15,45 Q11,54 7,64 M112,43 L129,43 L129,9 Q128,-7 146,-6 L173,-6 Q188,-7 190,4 Q191,10 193,21 Q194,28 194,30 Q201,27 211,23 Q208,8 206,-1 Q201,-23 177,-22 L142,-22 Q110,-24 112,6 M75,72 L246,72 L246,57 L75,57 M10,142 Q40,167 63,208 L79,198 Q53,157 19,125 Q14,133 10,142 M87,42 L103,37 Q95,11 80,-12 Q74,-9 65,-4 Q78,16 87,42 M103,136 L103,104 L131,104 L131,136 M216,136 L188,136 L188,104 L216,104 M146,136 L146,104 L173,104 L173,136 M210,38 L225,46 Q240,21 249,5 L233,-2 Q224,17 210,38 M140,46 L152,55 Q161,45 174,29 Q173,31 177,25 L163,15 Q148,34 140,46"/> 
            <glyph glyph-name="心" unicode="&#x5FC3;" horiz-adv-x="249" d=" M71,162 L90,162 L90,20 Q89,-2 112,-1 L159,-1 Q184,-3 186,16 Q186,20 187,27 Q189,42 190,52 Q202,48 210,45 Q207,23 204,7 Q199,-21 161,-20 L108,-20 Q70,-21 71,16 M207,143 Q209,139 213,132 Q237,83 249,55 L229,45 Q211,93 188,135 M35,135 L54,130 Q42,73 27,30 L8,38 Q26,91 35,135 M123,210 Q137,189 159,149 Q162,144 163,141 L143,131 Q127,168 106,201"/> 
            <glyph glyph-name="必" unicode="&#x5FC5;" horiz-adv-x="247" d=" M72,167 L91,167 L91,57 Q155,109 200,189 L218,180 Q163,86 91,32 L91,22 Q90,0 112,0 L161,0 Q184,-1 186,18 Q189,30 190,48 Q199,45 210,42 Q209,33 206,20 Q205,13 204,9 Q200,-17 163,-16 L108,-16 Q71,-17 72,18 Q61,10 35,-4 Q27,-9 23,-11 Q18,-4 9,4 Q33,16 72,42 M36,140 L55,134 Q40,75 28,48 Q20,52 9,56 Q24,92 36,140 M194,116 L211,124 Q224,102 247,55 L228,44 Q208,91 194,116 M99,196 L112,208 Q135,187 155,166 L140,153 Q119,177 99,196"/> 
            <glyph glyph-name="快" unicode="&#x5FEB;" horiz-adv-x="246" d=" M144,207 L163,207 Q163,183 163,164 L222,164 L222,88 L246,88 L246,70 L167,70 Q186,16 243,-9 Q237,-17 229,-27 Q170,7 153,62 Q144,10 84,-29 Q83,-28 80,-24 Q72,-14 70,-13 Q130,24 138,70 L83,70 L83,88 L141,88 Q144,108 144,147 L98,147 L98,164 L144,164 M44,207 L62,207 L62,155 L75,163 Q78,159 84,149 Q97,131 101,125 L85,115 Q81,124 64,149 Q63,152 62,153 L62,-28 L44,-28 M203,147 L163,147 Q163,140 162,128 Q162,98 160,88 L203,88 M18,151 L35,149 Q28,106 24,87 Q12,90 7,91 Q14,120 18,151"/> 
            <glyph glyph-name="想" unicode="&#x60F3;" horiz-adv-x="248" d=" M229,63 L115,63 L115,197 L229,197 M7,86 Q35,116 50,154 L13,154 L13,169 L52,169 L52,207 L70,207 L70,169 L105,169 L105,154 L70,154 L70,128 L79,137 Q95,124 108,111 L95,99 Q83,112 70,125 L70,58 L52,58 L52,124 Q41,99 16,68 Q12,77 7,86 M71,50 L89,50 L89,8 Q88,-7 105,-6 L152,-6 Q170,-7 172,4 Q175,16 177,32 Q186,28 196,25 Q193,7 189,-1 Q184,-24 155,-23 L101,-23 Q70,-24 71,6 M132,103 L132,78 L212,78 L212,103 M132,142 L132,118 L212,118 L212,142 M132,181 L132,157 L212,157 L212,181 M32,47 L50,40 Q36,3 26,-13 Q19,-9 9,-4 Q22,16 32,47 M201,38 L216,48 Q234,26 248,5 L232,-5 Q218,15 201,38 M109,46 L121,57 Q140,41 153,27 L140,14 Q139,15 138,16 Q122,34 109,46"/> 
            <glyph glyph-name="成" unicode="&#x6210;" horiz-adv-x="248" d=" M142,207 L161,207 Q161,183 162,165 L246,165 L246,148 L163,148 Q163,139 164,129 Q166,75 175,50 Q196,77 214,122 L232,114 Q214,70 182,29 Q191,7 207,-2 Q220,-12 224,2 Q229,20 230,40 Q235,37 248,33 Q246,11 242,-4 Q236,-28 219,-27 Q205,-28 193,-16 Q177,-3 169,14 Q145,-10 124,-24 Q123,-23 118,-17 Q113,-12 111,-10 Q140,9 161,33 Q161,34 161,35 Q160,36 160,36 Q148,70 145,127 Q144,138 144,148 L52,148 L52,111 L122,111 Q122,103 121,89 Q121,57 119,37 Q118,0 84,1 Q76,0 60,0 Q57,14 56,20 Q63,19 82,19 Q100,18 100,37 Q101,50 102,74 Q103,87 103,93 L52,93 Q54,10 22,-30 Q20,-29 14,-23 Q8,-18 6,-17 Q24,7 28,30 Q33,51 33,105 L33,165 L143,165 Q142,194 142,207 M179,193 L189,205 Q198,200 215,189 Q223,184 227,181 L215,167 Q213,169 208,172 Q191,186 179,193"/> 
            <glyph glyph-name="房" unicode="&#x623F;" horiz-adv-x="246" d=" M120,204 L136,211 Q137,208 141,202 Q148,188 149,185 L137,180 L231,180 L231,122 L53,122 L53,93 Q53,46 46,21 Q40,-3 20,-28 Q14,-24 5,-15 Q23,7 28,28 Q34,49 34,93 L34,180 L131,180 Q130,183 126,192 Q122,201 120,204 M136,118 L154,121 Q154,119 155,116 Q157,110 161,98 L246,98 L246,81 L123,81 Q123,76 122,68 Q122,60 122,57 L221,57 Q221,45 218,12 Q216,-24 178,-23 Q158,-23 143,-23 Q140,-8 138,-3 Q144,-4 175,-4 Q199,-6 199,15 Q201,29 201,41 L120,41 Q115,0 66,-30 Q63,-24 54,-14 Q86,4 94,22 Q104,39 104,81 L61,81 L61,98 L142,98 Q139,107 136,118 M53,164 L53,138 L212,138 L212,164"/> 
            <glyph glyph-name="手" unicode="&#x624B;" horiz-adv-x="248" d=" M25,171 Q25,180 23,190 Q135,192 223,199 L226,179 Q184,176 138,175 L138,130 L227,130 L227,111 L138,111 L138,68 L248,68 L248,48 L138,48 L138,6 Q140,-25 108,-24 Q96,-25 67,-25 Q65,-14 62,-3 Q79,-4 101,-4 Q121,-5 119,10 L119,48 L9,48 L9,68 L119,68 L119,111 L26,111 L26,130 L119,130 L119,174 Q54,172 25,171"/> 
            <glyph glyph-name="技" unicode="&#x6280;" horiz-adv-x="249" d=" M97,98 L97,114 L159,114 L159,151 L96,151 L96,168 L159,168 L159,207 L178,207 L178,168 L244,168 L244,151 L178,151 L178,114 L230,114 L230,99 Q210,49 183,21 Q203,4 249,-9 Q248,-10 245,-13 Q237,-23 235,-27 Q197,-12 168,8 Q138,-14 92,-31 Q87,-24 79,-14 Q130,3 155,22 Q130,47 113,98 M7,80 Q21,84 42,91 L42,142 L10,142 L10,159 L42,159 L42,206 L61,206 L61,159 L89,159 L89,142 L61,142 L61,96 Q75,101 88,105 Q88,93 89,86 Q87,85 81,84 Q68,80 61,77 L61,3 Q63,-25 34,-25 Q26,-26 14,-26 Q14,-24 12,-16 Q10,-8 9,-5 Q15,-6 31,-6 Q43,-7 42,5 L42,71 Q23,65 9,60 M209,98 L132,98 Q147,55 169,33 Q195,58 209,98"/> 
            <glyph glyph-name="拥" unicode="&#x62E5;" horiz-adv-x="236" d=" M202,-7 Q216,-8 216,6 L216,49 L170,49 L170,-17 L152,-17 L152,49 L107,49 Q105,6 82,-28 Q76,-20 67,-15 Q82,6 86,30 Q91,53 91,104 L91,195 L234,195 L234,4 Q236,-27 204,-25 Q192,-26 182,-26 Q182,-25 182,-23 Q181,-17 178,-6 Q185,-7 202,-7 M7,80 Q13,81 27,85 Q35,88 39,89 L39,141 L10,141 L10,158 L39,158 L39,206 L57,206 L57,158 L84,158 L84,141 L57,141 L57,94 Q62,96 71,99 Q78,101 82,102 Q82,99 82,83 Q73,80 57,75 L57,4 Q58,-25 28,-25 Q20,-25 11,-25 Q11,-21 8,-8 Q8,-7 8,-6 Q11,-6 16,-6 Q22,-7 26,-7 Q39,-7 39,5 L39,69 Q37,68 31,67 Q16,62 10,60 M170,114 L170,66 L216,66 L216,114 M216,177 L170,177 L170,131 L216,131 M109,109 Q109,84 108,66 L152,66 L152,114 L109,114 M109,177 L109,131 L152,131 L152,177"/> 
            <glyph glyph-name="授" unicode="&#x6388;" horiz-adv-x="249" d=" M97,67 L97,83 L223,83 L223,66 Q202,30 180,12 Q203,0 249,-8 Q245,-13 239,-23 Q238,-26 237,-27 Q192,-17 164,1 Q132,-17 81,-30 Q78,-24 72,-17 Q70,-14 70,-13 Q122,-1 148,13 Q125,34 111,67 M7,75 Q22,81 39,89 L39,144 L11,144 L11,161 L39,161 L39,208 L57,208 L57,161 L83,161 L83,144 L57,144 L57,98 Q63,100 74,106 Q78,108 80,109 Q81,97 82,90 Q78,89 65,82 Q60,79 57,78 L57,1 Q58,-27 31,-26 Q21,-27 14,-27 Q13,-13 11,-8 Q13,-8 18,-8 Q26,-9 29,-9 Q39,-10 39,1 L39,70 Q27,64 9,54 M88,128 L193,128 Q196,134 203,147 Q214,166 218,174 L234,166 Q223,148 211,128 L243,128 L243,91 L225,91 L225,111 L106,111 L106,91 L88,91 M92,173 Q92,175 91,179 Q90,188 89,191 Q144,191 236,199 L241,182 Q159,176 92,173 M202,67 L131,67 Q144,38 164,23 Q188,41 202,67 M151,168 L167,173 Q175,157 181,138 L164,133 Q160,149 151,168 M98,163 L113,170 Q114,169 116,166 Q127,149 132,138 L116,131 Q113,135 109,145 Q102,157 98,163"/> 
            <glyph glyph-name="控" unicode="&#x63A7;" horiz-adv-x="247" d=" M8,78 Q12,79 23,82 Q36,85 42,87 L42,144 L9,144 L9,161 L42,161 L42,208 L60,208 L60,161 L86,161 L86,144 L60,144 L60,92 Q66,93 79,97 Q83,98 85,99 Q86,88 87,80 Q82,79 69,76 Q63,74 60,73 L60,4 Q61,-26 31,-26 Q20,-26 13,-26 Q12,-17 9,-7 Q12,-7 20,-8 Q27,-8 30,-8 Q42,-8 42,6 L42,68 Q30,65 10,58 M98,75 L236,75 L236,58 L176,58 L176,-1 L247,-1 L247,-18 L82,-18 L82,-1 L157,-1 L157,58 L98,58 M95,171 L165,171 Q157,187 146,201 L162,210 Q176,191 183,178 L170,171 L240,171 L240,128 L222,128 L222,154 L112,154 L112,128 L95,128 M179,125 L191,137 Q224,114 246,93 L233,79 Q208,103 179,125 M155,125 Q132,103 102,79 L89,93 Q110,107 143,137"/> 
            <glyph glyph-name="摆" unicode="&#x6446;" horiz-adv-x="247" d=" M89,196 L234,196 L234,124 L89,124 M176,22 L189,32 Q210,15 247,-16 L234,-30 Q230,-25 221,-17 Q218,-14 216,-12 Q154,-14 108,-17 Q96,-18 86,-21 L79,-4 Q94,0 103,7 Q121,22 136,39 L78,39 L78,55 L152,55 L152,83 L95,83 L95,99 L152,99 L152,118 L169,118 L169,99 L228,99 L228,83 L169,83 L169,55 L246,55 L246,39 L160,39 Q147,25 123,4 Q120,0 118,0 Q130,0 164,1 Q188,2 198,2 Q192,8 179,20 Q188,12 176,22 M8,78 Q13,79 25,83 Q34,86 39,87 L39,143 L10,143 L10,159 L39,159 L39,206 L57,206 L57,159 L81,159 L81,143 L57,143 L57,92 Q71,97 82,101 Q82,89 83,82 Q74,79 57,73 L57,4 Q59,-26 27,-26 Q19,-26 13,-26 Q13,-24 12,-21 Q10,-10 9,-6 Q12,-7 27,-7 Q40,-8 39,5 L39,67 Q33,65 21,61 Q14,58 10,57 M148,181 L148,139 L175,139 L175,181 M217,181 L190,181 L190,139 L217,139 M105,181 L105,139 L132,139 L132,181"/> 
            <glyph glyph-name="放" unicode="&#x653E;" horiz-adv-x="249" d=" M157,210 L177,206 Q171,183 163,162 L247,162 L247,144 L227,144 Q220,72 194,31 Q212,7 249,-10 Q243,-18 237,-28 Q199,-5 182,16 Q163,-5 122,-31 Q113,-20 108,-15 Q148,8 170,31 Q149,63 142,119 Q135,105 126,94 Q121,101 114,109 Q148,156 157,210 M10,164 L127,164 L127,146 L58,146 Q58,125 58,107 L112,107 Q112,55 109,14 Q110,-21 74,-20 Q67,-21 53,-21 Q52,-15 49,0 Q65,-1 71,-1 Q90,-2 90,14 Q93,54 93,89 L57,89 Q56,7 20,-29 Q12,-21 6,-15 Q28,10 33,39 Q39,67 39,146 L10,146 M182,48 Q202,79 208,144 L156,144 Q162,82 182,48 M55,205 L73,209 Q75,204 78,194 Q84,179 86,171 L67,166 Q66,170 63,179 Q58,197 55,205"/> 
            <glyph glyph-name="效" unicode="&#x6548;" horiz-adv-x="251" d=" M163,209 L182,206 Q176,181 169,162 L247,162 L247,145 L230,145 Q224,79 198,37 Q218,7 251,-11 Q245,-20 239,-28 Q206,-6 186,21 Q167,-3 127,-31 Q117,-17 115,-15 Q158,13 175,37 Q156,73 150,120 Q148,117 144,110 Q139,104 137,100 Q131,109 125,115 Q152,154 163,209 M31,76 L45,88 Q60,72 77,55 Q88,73 95,93 L113,86 Q103,62 89,42 Q94,37 103,27 Q116,13 123,7 L108,-5 Q93,11 78,26 Q57,0 18,-28 Q17,-27 16,-26 Q9,-16 6,-12 Q42,7 66,40 Q60,46 49,58 Q37,70 31,76 M187,55 Q207,88 211,145 L164,145 Q167,93 187,55 M11,168 L133,168 L133,152 L11,152 M49,142 L64,131 Q44,106 20,79 Q11,88 6,91 Q28,113 49,142 M94,142 Q114,122 130,102 L116,90 Q115,92 112,95 Q99,113 81,132 M55,201 L71,210 Q81,194 90,178 L72,169 Q64,186 55,201"/> 
            <glyph glyph-name="料" unicode="&#x6599;" horiz-adv-x="249" d=" M8,24 Q34,56 47,98 L10,98 L10,115 L51,115 L51,208 L68,208 L68,115 L108,115 L108,98 L68,98 L68,-28 L51,-28 L51,69 Q37,30 15,4 Q12,14 8,24 M192,208 L210,208 L210,67 L247,72 L249,54 L210,50 L210,-28 L192,-28 L192,47 L117,38 L114,55 L192,65 M120,111 L130,124 Q145,114 173,93 L161,78 Q155,83 141,95 Q126,106 120,111 M74,133 Q86,160 93,183 L110,178 Q101,154 89,126 M125,172 L136,185 Q159,168 177,153 L165,138 Q149,154 125,172 M9,178 L24,184 Q33,163 44,135 L27,128 Q16,160 9,178 M69,73 L81,83 Q93,70 109,50 L95,39 Q94,40 86,51 Q74,66 69,73"/> 
            <glyph glyph-name="无" unicode="&#x65E0;" horiz-adv-x="247" d=" M30,189 L227,189 L227,172 L136,172 Q135,139 130,114 L245,114 L245,96 L151,96 L151,18 Q150,-3 170,-2 L204,-2 Q224,-3 225,13 Q225,17 226,24 Q227,37 228,46 Q231,45 238,43 Q244,40 247,39 Q246,19 243,6 Q241,-22 205,-20 L166,-20 Q131,-21 132,15 L132,96 L126,96 Q109,17 22,-31 Q17,-22 8,-13 Q89,26 106,96 L12,96 L12,114 L110,114 Q116,139 116,172 L30,172"/> 
            <glyph glyph-name="时" unicode="&#x65F6;" horiz-adv-x="248" d=" M17,185 L101,185 L101,-11 L82,-11 L82,8 L37,8 L37,-13 L17,-13 M195,209 L214,209 L214,155 L248,155 L248,137 L214,137 L214,9 Q216,-25 180,-24 Q175,-24 160,-25 Q146,-25 142,-25 Q141,-19 138,-6 Q137,-4 137,-3 Q144,-4 176,-4 Q197,-6 195,13 L195,137 L109,137 L109,155 L195,155 M37,89 L37,26 L82,26 L82,89 M37,167 L37,106 L82,106 L82,167 M136,114 Q145,97 165,57 Q156,54 146,47 Q130,83 119,105"/> 
            <glyph glyph-name="是" unicode="&#x662F;" horiz-adv-x="250" d=" M46,199 L211,199 L211,106 L46,106 M58,61 L77,56 Q73,42 68,33 Q87,-1 123,-2 L123,70 L12,70 L12,87 L245,87 L245,70 L142,70 L142,46 L228,46 L228,29 L142,29 L142,-3 Q191,-5 250,-2 Q246,-11 243,-21 Q177,-21 133,-21 Q81,-20 60,16 Q47,-8 18,-30 Q12,-23 6,-15 Q45,9 58,61 M64,182 L64,161 L193,161 L193,182 M64,145 L64,123 L193,123 L193,145"/> 
            <glyph glyph-name="更" unicode="&#x66F4;" horiz-adv-x="249" d=" M8,-13 Q62,-2 80,7 Q64,18 44,40 L59,51 Q75,30 95,19 Q110,35 114,55 L37,55 L37,157 L120,157 L120,179 L17,179 L17,196 L239,196 L239,179 L138,179 Q138,170 138,157 L221,157 L221,43 L203,43 L203,55 L133,55 Q128,28 112,10 Q153,-4 249,-5 Q247,-8 243,-18 Q241,-23 240,-24 Q134,-20 98,-1 Q76,-16 19,-30 Q14,-21 8,-13 M137,98 Q137,83 135,72 L203,72 L203,98 M203,140 L138,140 Q138,126 138,114 L203,114 M55,140 L55,114 L120,114 Q120,126 120,140 M117,72 Q119,83 119,98 L55,98 L55,72"/> 
            <glyph glyph-name="有" unicode="&#x6709;" horiz-adv-x="247" d=" M76,-28 L57,-28 L57,94 Q39,74 18,56 Q13,64 7,74 Q57,116 84,161 L13,161 L13,178 L94,178 Q102,193 108,209 L128,205 Q126,199 121,189 Q117,182 115,178 L247,178 L247,161 L105,161 Q101,152 90,136 Q88,133 87,132 L217,132 L217,3 Q218,-24 188,-25 Q176,-26 149,-25 Q148,-17 145,-5 Q169,-7 182,-7 Q199,-7 198,7 L198,25 L76,25 M76,116 L76,86 L198,86 L198,116 M76,70 L76,41 L198,41 L198,70"/> 
            <glyph glyph-name="术" unicode="&#x672F;" horiz-adv-x="250" d=" M6,12 Q71,55 105,132 L13,132 L13,149 L119,149 L119,208 L138,208 L138,149 L244,149 L244,132 L151,132 Q186,57 250,19 Q249,18 246,15 Q239,6 235,0 Q169,47 138,128 L138,-29 L119,-29 L119,128 Q90,47 20,-3 Q18,-1 14,2 Q9,9 6,12 M164,195 L178,206 Q196,189 214,168 L198,156 Q195,159 190,165 Q174,186 164,195"/> 
            <glyph glyph-name="机" unicode="&#x673A;" horiz-adv-x="251" d=" M135,174 L135,108 Q135,53 126,25 Q118,-4 92,-31 Q89,-28 82,-21 Q79,-18 77,-16 Q100,7 108,32 Q116,58 116,108 L116,192 L205,192 L205,14 Q204,-2 215,-1 L218,-1 Q228,-2 229,11 Q231,20 232,45 Q233,50 233,52 Q241,48 251,46 Q250,35 248,15 Q247,8 247,5 Q243,-21 219,-20 L214,-20 Q185,-22 186,11 L186,174 M6,54 Q34,95 46,143 L9,143 L9,160 L47,160 L47,207 L65,207 L65,160 L99,160 L99,143 L65,143 L65,103 L75,113 Q92,98 104,85 L91,72 Q90,73 88,75 Q77,89 65,99 L65,-27 L47,-27 L47,101 Q35,62 15,35 Q14,38 10,45 Q7,51 6,54"/> 
            <glyph glyph-name="权" unicode="&#x6743;" horiz-adv-x="250" d=" M94,174 L94,192 L232,192 L232,174 Q221,89 180,39 Q206,12 250,-4 Q240,-15 233,-24 Q188,0 167,23 Q143,-2 90,-29 Q84,-21 77,-11 Q131,13 155,38 Q118,85 109,174 M7,55 Q32,94 44,140 L9,140 L9,156 L47,156 L47,208 L65,208 L65,156 L99,156 L99,140 L65,140 L65,105 L76,115 Q94,98 110,80 L95,67 Q87,77 67,98 Q66,100 65,101 L65,-28 L47,-28 L47,101 Q33,62 15,34 Q11,44 7,55 M211,174 L129,174 Q136,94 168,54 Q202,99 211,174"/> 
            <glyph glyph-name="材" unicode="&#x6750;" horiz-adv-x="248" d=" M115,157 L195,157 L195,207 L214,207 L214,157 L248,157 L248,140 L214,140 L214,11 Q216,-23 178,-23 Q164,-23 144,-23 Q142,-12 140,-2 Q145,-3 175,-3 Q197,-5 195,13 L195,120 Q167,55 104,5 Q98,12 90,22 Q151,67 186,140 L115,140 M8,54 Q37,91 51,141 L11,141 L11,158 L51,158 L51,207 L70,207 L70,158 L105,158 L105,141 L70,141 L70,103 L81,113 Q103,95 118,80 L103,67 Q87,85 70,100 L70,-28 L51,-28 L51,94 Q37,59 17,32 Q12,42 8,54"/> 
            <glyph glyph-name="来" unicode="&#x6765;" horiz-adv-x="249" d=" M7,3 Q65,32 105,76 L11,76 L11,93 L119,93 L119,157 L25,157 L25,174 L119,174 L119,209 L137,209 L137,174 L232,174 L232,157 L137,157 L137,93 L245,93 L245,76 L149,76 Q187,30 249,7 Q241,-2 236,-10 Q174,15 137,69 L137,-29 L119,-29 L119,70 Q82,20 20,-13 Q15,-6 7,3 M162,110 Q163,111 166,115 Q186,136 196,151 L212,138 Q192,113 175,98 M46,138 L60,151 Q77,133 94,112 L78,99 Q63,120 46,138"/> 
            <glyph glyph-name="构" unicode="&#x6784;" horiz-adv-x="240" d=" M87,121 Q113,157 130,208 L149,202 Q143,187 135,171 L240,171 Q236,48 235,18 Q235,-27 187,-25 Q178,-25 161,-24 Q150,-24 147,-24 Q146,-11 143,-2 Q143,-2 146,-2 Q173,-5 187,-5 Q218,-7 217,21 Q218,54 221,154 L127,154 Q115,128 102,111 Q96,116 87,121 M7,55 Q32,94 42,138 L42,141 L9,141 L9,157 L42,157 L42,206 L60,206 L60,157 L91,157 L91,141 L60,141 L60,104 L69,112 Q72,109 79,103 Q96,88 100,84 L87,70 Q72,87 60,98 L60,-28 L42,-28 L42,93 Q33,61 15,34 Q12,44 7,55 M156,90 L171,98 Q190,65 207,31 L190,22 Q189,24 187,29 Q185,33 184,35 Q155,32 122,31 Q115,30 101,27 L93,45 Q100,50 106,58 Q126,90 145,134 L163,127 Q149,95 120,48 Q154,49 177,50 Q167,71 156,90"/> 
            <glyph glyph-name="查" unicode="&#x67E5;" horiz-adv-x="248" d=" M119,208 L136,208 L136,182 L241,182 L241,166 L151,166 Q189,137 248,122 Q247,121 245,118 Q243,114 238,105 Q172,127 136,161 L136,121 L119,121 L119,161 Q88,132 46,114 L212,114 L212,17 L45,17 L45,113 Q40,111 30,107 Q22,104 18,102 Q13,111 7,118 Q69,136 105,166 L16,166 L16,182 L119,182 M10,-3 L246,-3 L246,-19 L10,-19 M63,97 L63,74 L194,74 L194,97 M63,57 L63,34 L194,34 L194,57"/> 
            <glyph glyph-name="标" unicode="&#x6807;" horiz-adv-x="251" d=" M45,207 L63,207 L63,159 L95,159 L95,143 L63,143 L63,101 L73,111 Q82,103 100,86 L87,72 Q81,79 63,99 L63,-28 L45,-28 L45,102 Q35,68 15,36 Q14,39 9,48 Q7,52 6,54 Q33,94 44,143 L10,143 L10,159 L45,159 M95,122 L246,122 L246,105 L180,105 L180,4 Q181,-26 150,-25 Q134,-25 120,-25 Q120,-23 119,-20 Q117,-10 116,-5 Q125,-6 146,-6 Q162,-7 161,6 L161,105 L95,105 M106,193 L234,193 L234,176 L106,176 M196,73 L212,82 Q225,58 248,9 Q247,12 251,4 L232,-2 Q230,1 226,10 Q208,50 196,73 M120,81 L138,74 Q119,34 98,-3 Q89,1 80,5 Q102,39 120,81"/> 
            <glyph glyph-name="检" unicode="&#x68C0;" horiz-adv-x="249" d=" M5,53 Q31,92 43,142 L9,142 L9,158 L44,158 L44,207 L62,207 L62,158 L93,158 L93,142 L62,142 L62,105 L71,112 Q81,102 97,84 L83,72 Q81,75 76,81 Q67,94 62,99 L62,-28 L44,-28 L44,100 Q33,64 15,35 Q11,43 5,53 M90,-1 L180,-1 Q192,30 207,88 L227,83 Q214,40 198,-1 L242,-1 L242,-18 L90,-18 M182,206 Q179,200 176,196 Q207,146 249,127 Q242,119 237,110 Q194,136 166,180 Q143,143 98,106 Q92,116 85,122 Q136,155 162,210 M116,119 L216,119 L216,102 L116,102 M146,88 L163,92 Q164,88 166,81 Q176,44 178,25 L160,21 Q154,58 146,88 M100,78 L116,83 Q125,58 135,17 L117,12 Q112,39 100,78"/> 
            <glyph glyph-name="氏" unicode="&#x6C0F;" horiz-adv-x="246" d=" M34,185 Q141,187 224,196 L231,176 Q218,175 193,174 Q167,172 154,171 Q155,132 158,104 L246,104 L246,86 L160,86 Q166,32 191,4 Q201,-6 212,-6 Q218,-6 221,0 Q224,13 227,42 Q230,41 236,40 Q242,38 245,37 Q243,20 239,-2 Q238,-4 238,-5 Q232,-28 213,-28 Q192,-28 172,-3 Q149,24 140,86 L54,86 L54,0 Q62,3 80,10 Q114,22 128,28 Q130,16 131,8 Q91,-5 55,-19 Q47,-23 38,-29 L25,-12 Q34,-3 34,6 M54,166 L54,104 L138,104 Q135,134 135,170 Q105,168 54,166"/> 
            <glyph glyph-name="水" unicode="&#x6C34;" horiz-adv-x="249" d=" M118,207 L137,207 L137,168 Q151,132 161,115 Q187,138 214,168 L230,154 Q202,126 170,99 Q200,51 249,17 Q247,15 241,8 Q235,2 232,0 Q164,56 137,123 L137,10 Q139,-26 102,-25 Q86,-25 71,-25 Q71,-23 70,-17 Q68,-7 67,-4 Q74,-5 99,-5 Q119,-6 118,11 M14,130 L14,148 L98,148 L98,130 Q77,51 23,-4 Q17,0 8,9 Q63,66 78,130"/> 
            <glyph glyph-name="沙" unicode="&#x6C99;" horiz-adv-x="249" d=" M62,-11 Q166,12 217,90 L235,77 Q178,-3 72,-30 Q67,-21 62,-11 M147,209 L167,209 L167,47 L147,47 M47,71 Q57,66 67,62 Q47,7 37,-26 L16,-16 Q30,14 47,71 M70,84 Q97,129 112,166 L131,158 Q106,106 87,74 Q79,80 70,84 M186,158 L201,169 Q227,139 249,108 L232,95 Q210,128 186,158 M31,206 Q54,191 77,172 Q76,170 72,166 Q66,159 63,155 Q43,173 19,192 M18,142 Q39,129 65,109 Q58,100 52,93 Q25,115 6,127"/> 
            <glyph glyph-name="法" unicode="&#x6CD5;" horiz-adv-x="248" d=" M74,95 L150,95 L150,146 L86,146 L86,163 L150,163 L150,208 L169,208 L169,163 L236,163 L236,146 L169,146 L169,95 L248,95 L248,78 L164,78 Q136,36 109,2 Q128,2 174,4 Q194,5 203,5 Q181,35 173,45 L188,57 Q214,25 246,-15 L228,-28 Q227,-26 223,-21 Q218,-13 215,-9 Q197,-10 165,-11 Q131,-13 112,-14 Q105,-14 94,-16 Q88,-17 85,-17 L77,2 Q89,7 102,23 Q122,47 139,78 L74,78 M43,73 Q52,69 62,65 Q61,61 58,53 Q39,-3 32,-27 L12,-20 Q29,26 43,73 M29,205 Q49,190 71,169 L56,155 Q39,173 16,191 M20,142 Q22,141 27,137 Q56,114 62,109 L48,94 Q35,107 7,128"/> 
            <glyph glyph-name="泥" unicode="&#x6CE5;" horiz-adv-x="246" d=" M108,108 Q109,19 70,-28 Q69,-27 66,-23 Q58,-15 55,-13 Q90,27 89,108 L89,195 L232,195 L232,115 L108,115 M224,98 L237,82 Q200,57 148,30 L148,12 Q148,-5 166,-4 L204,-4 Q222,-4 225,10 Q228,26 228,41 Q239,37 246,35 Q245,30 244,20 Q242,9 241,4 Q236,-21 205,-21 L162,-21 Q130,-21 130,9 L130,103 L148,103 L148,50 Q192,73 224,98 M108,178 L108,132 L214,132 L214,178 M44,73 Q47,72 64,63 Q46,8 36,-26 L15,-17 Q31,21 44,73 M17,142 Q35,131 63,111 Q56,101 50,93 Q32,109 6,126 M29,205 Q56,186 72,172 Q70,170 62,160 Q64,162 59,156 Q58,157 57,158 Q30,181 17,190"/> 
            <glyph glyph-name="泵" unicode="&#x6CF5;" horiz-adv-x="249" d=" M221,76 L233,61 Q206,45 183,34 Q209,14 249,1 Q241,-5 236,-14 Q168,11 141,56 L141,2 Q142,-24 113,-24 Q96,-26 82,-24 Q82,-22 81,-16 Q80,-8 79,-5 Q93,-7 107,-7 Q123,-8 122,9 L122,89 L55,89 L55,128 Q45,120 24,107 Q21,105 19,104 Q10,116 7,119 Q53,143 86,179 L14,179 L14,196 L242,196 L242,179 L107,179 Q97,166 86,155 L215,155 L215,89 L141,89 L141,82 Q154,61 170,45 Q201,62 221,76 M72,139 L72,105 L197,105 L197,139 M20,49 L20,66 L102,66 L102,49 Q77,8 18,-18 Q14,-10 7,-2 Q58,17 81,49"/> 
            <glyph glyph-name="流" unicode="&#x6D41;" horiz-adv-x="250" d=" M74,177 L149,177 Q145,187 134,204 L152,212 Q167,188 168,183 L156,177 L240,177 L240,160 L136,160 L148,153 Q128,130 107,112 Q122,113 155,114 Q182,115 195,115 Q183,130 173,139 L188,150 Q218,119 240,94 Q232,89 223,82 Q221,85 216,91 Q212,96 209,99 Q206,99 199,99 Q130,97 102,94 Q96,94 87,92 Q84,91 82,91 L74,109 Q83,114 91,120 Q116,141 130,160 L74,160 M186,83 L203,83 L203,3 Q203,-6 214,-6 L219,-6 Q229,-6 230,2 Q232,20 232,36 Q240,32 250,29 Q249,11 246,-1 Q242,-23 221,-23 L212,-23 Q186,-23 186,0 M95,83 L113,83 Q113,31 105,10 Q97,-11 69,-30 Q63,-22 57,-14 Q81,0 87,18 Q95,35 95,83 M140,83 L158,83 L158,-24 L140,-24 M15,-21 Q28,19 40,72 Q50,68 59,64 Q47,18 35,-27 M7,127 L19,142 Q42,126 61,110 Q52,101 47,94 Q18,120 7,127 M17,191 L29,204 Q39,196 57,181 Q65,174 69,170 Q61,162 54,156 Q28,182 17,191"/> 
            <glyph glyph-name="测" unicode="&#x6D4B;" horiz-adv-x="239" d=" M70,194 L161,194 L161,41 L144,41 L144,177 L87,177 L87,41 L70,41 M107,156 L124,156 L124,104 Q125,49 114,26 L123,35 Q131,29 149,15 Q167,0 174,-5 L161,-20 Q151,-10 126,10 Q116,18 112,22 Q102,-3 61,-29 Q55,-19 49,-14 Q88,8 97,29 Q108,49 107,104 M220,207 L238,207 L238,5 Q239,-24 211,-24 Q196,-25 183,-25 Q183,-16 180,-6 Q183,-6 191,-6 Q200,-7 205,-7 Q221,-8 220,8 M198,27 L182,27 L182,188 L198,188 M39,71 Q48,65 56,62 Q54,55 50,39 Q37,-11 33,-26 L14,-17 Q28,23 39,71 M29,203 Q36,198 53,181 Q62,173 66,169 L51,155 Q33,175 16,191 M18,140 Q45,119 56,108 L42,93 Q14,122 6,127"/> 
            <glyph glyph-name="海" unicode="&#x6D77;" horiz-adv-x="249" d=" M225,147 Q225,136 224,114 Q224,95 224,86 L249,86 L249,70 L223,70 Q223,61 222,45 Q222,31 222,25 L241,25 L241,9 L221,9 Q219,-26 180,-26 Q164,-26 147,-26 Q147,-22 145,-13 Q144,-8 144,-6 Q157,-7 177,-7 Q200,-8 202,9 L77,9 L85,70 L61,70 L61,86 L87,86 L95,147 M203,25 Q204,32 204,47 Q205,62 205,70 L103,70 L98,25 M111,131 L105,86 L205,86 Q206,109 206,131 M59,140 Q92,170 109,210 L127,207 Q122,195 116,185 L244,185 L244,168 L106,168 Q87,141 71,125 Q69,128 63,135 Q60,138 59,140 M14,-22 Q22,2 38,60 Q39,66 40,69 Q50,65 58,62 Q46,19 35,-28 M20,142 Q41,125 61,110 L47,95 Q29,112 8,128 M29,205 Q47,192 69,171 L56,157 Q33,179 17,192 M135,116 L146,128 Q161,116 176,104 L164,91 Q150,104 135,116 M133,53 L143,64 Q159,52 174,40 L162,27 Q159,30 152,36 Q148,41 133,53"/> 
            <glyph glyph-name="深" unicode="&#x6DF1;" horiz-adv-x="249" d=" M60,3 Q113,28 138,73 L77,73 L77,90 L149,90 L149,121 L167,121 L167,90 L243,90 L243,73 L177,73 Q200,31 249,7 Q242,0 236,-9 Q190,19 167,66 L167,-28 L149,-28 L149,66 Q123,14 73,-12 Q67,-1 60,3 M84,192 L238,192 L238,147 L220,147 L220,176 L101,176 L101,147 L84,147 M42,73 Q51,69 61,65 Q41,0 32,-27 L13,-18 Q29,21 42,73 M136,158 L148,146 Q122,121 91,101 Q86,109 80,116 Q113,137 136,158 M168,146 L180,158 Q217,133 238,116 L225,101 Q193,130 168,146 M29,204 Q32,202 40,196 Q70,174 77,168 L64,153 Q54,161 36,175 Q23,186 18,190 M19,143 Q22,141 29,136 Q56,119 67,110 L54,94 Q30,115 8,129"/> 
            <glyph glyph-name="渗" unicode="&#x6E17;" horiz-adv-x="248" d=" M61,68 Q100,89 119,108 L71,108 L71,125 L132,125 Q139,134 145,145 L164,140 Q158,133 154,125 L240,125 L240,108 L188,108 Q207,85 248,70 Q240,62 236,55 Q190,74 168,108 L142,108 Q119,80 73,54 Q67,60 61,68 M182,191 Q185,189 193,182 Q228,156 237,147 L224,135 Q222,137 214,144 Q219,140 210,147 Q189,147 154,146 Q122,146 106,146 Q96,144 87,144 L81,160 Q93,165 104,173 Q120,182 152,210 L169,201 Q167,200 163,196 Q130,172 114,161 Q165,161 193,162 Q175,176 170,180 M235,33 Q175,-5 81,-31 Q80,-27 74,-19 Q72,-17 71,-15 Q155,4 221,45 M192,67 L205,56 Q151,23 90,5 Q87,11 79,21 Q148,38 192,67 M37,74 Q49,68 55,67 Q48,39 33,-26 L13,-20 Q25,21 37,74 M87,56 Q136,72 165,91 L178,79 Q145,59 98,42 Q96,45 93,49 Q89,54 87,56 M19,141 Q47,120 61,109 L48,94 Q34,108 8,128 M29,204 Q49,189 71,169 L57,155 Q34,177 18,191"/> 
            <glyph glyph-name="滤" unicode="&#x6EE4;" horiz-adv-x="248" d=" M94,143 L94,97 Q97,14 61,-27 Q54,-20 46,-15 Q65,8 71,31 Q77,53 77,96 L77,158 L142,158 L142,207 L159,207 L159,189 L236,189 L236,175 L159,175 L159,158 L245,158 L236,119 Q234,119 230,120 Q222,122 219,122 L225,143 M141,137 L158,137 L158,118 L206,121 L207,107 L158,103 L158,100 Q157,83 173,84 L199,84 Q213,83 215,97 Q215,99 216,107 Q217,111 217,114 Q227,110 233,107 Q232,105 232,100 Q231,94 231,92 Q227,68 201,69 L170,69 Q139,68 141,97 L141,101 L107,99 L105,113 L141,116 M135,48 L152,48 L152,8 Q151,-6 167,-5 L179,-5 Q194,-5 195,6 Q197,15 197,26 Q198,26 201,24 Q211,21 214,19 Q214,10 212,0 Q207,-23 181,-22 L164,-22 Q134,-23 135,4 M14,-21 Q29,29 37,72 Q39,71 55,64 Q46,33 33,-27 M108,43 L125,39 Q117,8 109,-14 Q105,-13 98,-10 Q93,-8 92,-8 Q101,13 108,43 M17,191 L29,204 Q59,180 70,169 L57,156 Q29,181 17,191 M7,127 L19,141 Q25,137 44,122 Q57,112 60,110 L47,94 Q24,116 7,127 M215,43 L231,48 Q235,37 244,11 Q247,2 248,-1 L231,-6 Q229,0 225,13 Q219,33 215,43 M155,55 L168,64 Q181,50 193,35 L178,24 Q169,40 155,55"/> 
            <glyph glyph-name="烧" unicode="&#x70E7;" horiz-adv-x="247" d=" M87,105 Q122,111 151,123 Q142,136 134,155 L98,149 L95,166 L129,171 Q124,187 121,205 L138,209 Q143,189 147,174 L233,186 L236,169 L153,157 Q160,142 169,130 Q198,143 217,158 L229,146 Q205,127 181,117 Q188,110 197,105 Q218,93 225,111 Q226,116 230,140 Q238,136 247,133 Q245,119 241,104 Q235,84 215,83 Q195,83 180,94 Q179,95 178,96 Q168,103 163,109 Q134,97 96,88 Q95,90 92,95 Q89,102 87,105 M90,74 L241,74 L241,57 L194,57 L194,5 Q193,-7 207,-6 L212,-6 Q225,-7 226,5 Q228,11 228,26 Q229,31 229,34 Q241,28 247,27 Q247,24 246,18 Q245,7 244,0 Q240,-24 216,-23 L204,-23 Q175,-24 176,3 L176,57 L142,57 Q142,46 141,42 Q142,-7 81,-29 Q79,-25 73,-19 Q70,-16 69,-14 Q126,4 123,44 Q123,45 123,49 Q124,54 124,57 L90,57 M42,207 L60,207 Q60,195 59,156 Q59,124 59,116 Q58,93 56,75 Q64,65 79,44 Q90,29 94,23 L78,11 Q67,30 53,51 Q47,13 20,-26 Q12,-18 6,-12 Q27,15 33,41 Q40,66 41,116 Q42,136 42,207 M7,155 L22,159 Q23,157 24,152 Q33,116 36,102 L20,98 Q12,137 7,155 M93,156 Q88,134 77,99 L62,104 Q73,137 78,160"/> 
            <glyph glyph-name="物" unicode="&#x7269;" horiz-adv-x="239" d=" M87,113 Q112,153 131,209 L148,203 Q142,185 134,167 L239,167 Q233,50 232,22 Q230,-23 189,-21 Q177,-21 161,-21 Q160,-17 159,-8 Q158,-2 157,0 Q175,-2 189,-2 Q212,-5 213,25 Q216,55 220,150 L201,150 Q195,23 115,-24 Q109,-17 103,-10 Q180,37 184,150 L162,150 Q154,65 99,19 Q97,21 94,24 Q92,27 85,33 Q139,75 144,150 L127,150 Q114,121 102,104 Q96,108 87,113 M54,207 L72,207 L72,152 L96,152 L96,136 L72,136 L72,85 Q84,90 96,94 Q98,83 99,76 Q97,75 92,73 Q87,71 72,66 L72,-29 L54,-29 L54,59 Q44,55 24,47 Q15,44 11,42 L8,63 Q14,65 26,69 Q44,75 54,79 L54,136 L32,136 Q28,114 20,94 Q13,100 5,104 Q18,140 22,184 L39,181 Q38,166 35,152 L54,152"/> 
            <glyph glyph-name="瓶" unicode="&#x74F6;" horiz-adv-x="249" d=" M13,162 L68,162 Q79,177 95,208 L113,199 Q108,190 97,176 Q91,167 88,162 L121,162 L121,145 L100,145 L100,92 L125,92 L125,76 L100,76 L100,-28 L82,-28 L82,76 L54,76 Q54,34 47,13 Q41,-6 19,-30 Q13,-20 7,-14 Q39,12 37,76 L8,76 L8,92 L37,92 L37,145 L13,145 M190,15 Q190,5 190,-2 Q165,-11 138,-21 Q135,-22 130,-25 L120,-8 Q130,-2 130,2 L143,173 L121,173 L121,191 L238,191 L238,173 L160,173 L157,135 L218,135 L215,1 Q214,-6 221,-5 Q227,-6 229,5 Q231,26 232,43 Q239,40 249,37 Q249,35 248,31 Q247,8 245,0 Q242,-23 221,-22 L219,-22 Q196,-23 197,1 L200,118 L156,118 L147,0 Q166,5 190,15 M54,145 L54,92 L82,92 L82,145 M165,91 Q174,84 190,70 Q195,66 198,63 L186,50 Q176,60 157,78 Q158,77 154,80 M25,198 L40,207 Q52,193 62,175 L47,165 Q44,169 39,177 Q35,183 25,198"/> 
            <glyph glyph-name="疾" unicode="&#x75BE;" horiz-adv-x="248" d=" M58,-12 Q132,8 141,51 L71,51 L71,68 L144,68 Q144,74 145,80 Q145,96 145,111 L106,111 Q99,96 89,81 Q81,88 73,91 Q95,121 108,159 L125,154 Q123,148 119,137 Q116,131 115,128 L227,128 L227,111 L164,111 Q164,105 163,93 Q163,84 163,80 Q163,78 163,74 Q162,70 162,68 L240,68 L240,51 L166,51 Q191,3 248,-8 Q245,-13 240,-22 Q239,-26 238,-27 Q178,-7 155,37 Q141,-5 69,-29 Q68,-27 64,-21 Q60,-15 58,-12 M127,206 L146,210 Q146,209 147,207 Q153,191 155,182 L244,182 L244,164 L64,164 L64,94 Q66,19 24,-30 Q20,-24 9,-16 Q41,19 44,66 Q30,57 12,47 L8,67 Q27,76 45,87 L45,94 L45,182 L136,182 Q135,185 133,190 Q130,200 127,206 M7,150 L23,155 Q33,132 43,102 L26,96 Q14,134 7,150"/> 
            <glyph glyph-name="的" unicode="&#x7684;" horiz-adv-x="239" d=" M18,168 L42,168 Q52,191 57,208 L78,202 Q75,196 69,183 Q64,173 62,168 L111,168 L111,-23 L93,-23 L93,-4 L37,-4 L37,-25 L18,-25 M115,119 Q137,156 153,208 L174,203 Q173,200 171,194 Q168,186 161,168 L239,168 Q236,45 235,18 Q234,-26 186,-24 Q176,-24 161,-25 Q152,-25 149,-25 Q147,-13 145,-4 Q148,-4 156,-4 Q175,-5 187,-5 Q215,-7 216,22 Q218,52 219,150 L154,150 Q152,147 149,140 Q138,117 132,108 Q125,113 115,119 M37,73 L37,12 L93,12 L93,73 M37,150 L37,91 L93,91 L93,150 M136,102 L151,113 Q179,79 194,58 L176,45 Q158,72 136,102"/> 
            <glyph glyph-name="直" unicode="&#x76F4;" horiz-adv-x="248" d=" M8,-2 L41,-2 L41,148 L118,148 L118,170 L14,170 L14,187 L118,187 L118,209 L136,209 L136,187 L243,187 L243,170 L136,170 L136,148 L213,148 L213,-2 L248,-2 L248,-18 L8,-18 M60,19 L60,-2 L195,-2 L195,19 M60,132 L60,110 L195,110 L195,132 M60,57 L60,34 L195,34 L195,57 M60,94 L60,72 L195,72 L195,94"/> 
            <glyph glyph-name="省" unicode="&#x7701;" horiz-adv-x="249" d=" M7,104 Q116,128 191,159 L201,144 Q145,122 99,109 L220,109 L220,-27 L202,-27 L202,-16 L67,-16 L67,-28 L49,-28 L49,95 Q43,94 32,91 Q20,88 14,86 Q12,91 7,104 M67,19 L67,0 L202,0 L202,19 M67,92 L67,72 L202,72 L202,92 M67,56 L67,36 L202,36 L202,56 M82,193 L96,179 Q69,157 26,127 Q20,137 14,143 Q48,163 82,193 M167,179 L178,193 Q227,165 249,151 L237,135 Q188,167 167,179 M119,207 L137,207 L137,143 L119,143"/> 
            <glyph glyph-name="看" unicode="&#x770B;" horiz-adv-x="247" d=" M27,161 L104,161 Q105,163 107,169 Q110,176 111,180 Q69,178 26,178 Q25,185 23,194 Q130,196 227,201 L229,185 Q212,184 176,182 Q147,181 131,180 Q131,179 130,176 Q128,171 124,161 L229,161 L229,145 L118,145 Q112,135 108,125 L247,125 L247,110 L98,110 Q92,100 86,92 L217,92 L217,-28 L199,-28 L199,-18 L79,-18 L79,-28 L61,-28 L61,62 Q42,42 18,24 Q15,28 8,38 Q7,39 6,40 Q49,70 76,110 L11,110 L11,125 L86,125 Q87,127 89,131 Q92,135 97,145 L27,145 M79,76 L79,59 L199,59 L199,76 M79,12 L79,-3 L199,-3 L199,12 M79,44 L79,27 L199,27 L199,44"/> 
            <glyph glyph-name="知" unicode="&#x77E5;" horiz-adv-x="238" d=" M135,183 L238,183 L238,-17 L219,-17 L219,5 L154,5 L154,-17 L135,-17 M8,129 Q28,169 37,210 L56,205 Q50,189 46,174 L120,174 L120,157 L81,157 Q81,132 79,101 L125,101 L125,83 L78,83 Q77,68 72,52 L83,61 Q93,51 112,28 Q123,15 128,9 L112,-2 Q109,1 103,9 Q90,26 71,48 Q59,7 19,-28 Q13,-20 5,-12 Q54,26 59,83 L9,83 L9,101 L61,101 Q61,108 61,125 Q62,145 62,157 L40,157 Q37,148 30,130 Q26,123 25,120 Q24,120 22,122 Q13,127 8,129 M154,165 L154,23 L219,23 L219,165"/> 
            <glyph glyph-name="积" unicode="&#x79EF;" horiz-adv-x="249" d=" M113,188 L235,188 L235,73 L113,73 M9,134 L48,134 L48,173 Q43,173 31,172 Q20,171 14,170 Q14,173 12,179 Q11,186 10,188 Q57,190 97,196 L101,177 Q86,176 66,174 L66,134 L102,134 L102,117 L66,117 L66,82 L76,91 Q86,82 110,58 L96,45 Q81,62 66,77 L66,-28 L48,-28 L48,80 Q34,42 16,15 Q14,20 10,32 Q8,35 8,36 Q31,68 46,117 L9,117 M131,171 L131,90 L217,90 L217,171 M142,50 L157,39 Q141,18 104,-25 L89,-12 Q119,19 142,50 M188,40 L203,51 Q233,14 249,-9 L233,-22 Q215,5 188,40"/> 
            <glyph glyph-name="空" unicode="&#x7A7A;" horiz-adv-x="246" d=" M42,82 L214,82 L214,63 L138,63 L138,0 L239,0 L239,-16 L17,-16 L17,0 L118,0 L118,63 L42,63 M113,205 L131,210 Q132,207 134,203 Q141,187 143,180 L133,177 L238,177 L238,127 L219,127 L219,159 L37,159 L37,127 L18,127 L18,177 L124,177 Q122,185 114,203 Q113,204 113,205 M97,147 L111,133 Q67,99 22,73 Q15,82 9,89 Q56,112 97,147 M158,146 Q204,119 246,89 L233,73 Q193,103 147,132"/> 
            <glyph glyph-name="笔" unicode="&#x7B14;" horiz-adv-x="245" d=" M27,62 L25,79 L106,83 L106,107 Q84,105 45,104 Q35,103 30,103 Q29,108 27,117 Q26,119 26,120 Q140,124 219,131 L222,114 Q198,112 145,109 Q132,108 125,108 L125,84 L218,89 L219,72 L125,67 L125,43 L243,50 L245,33 L125,26 L125,12 Q124,-7 146,-6 L195,-6 Q213,-6 215,5 Q215,8 216,13 Q217,23 218,29 Q228,26 237,23 Q236,19 235,13 Q233,3 232,0 Q228,-24 196,-23 L142,-23 Q105,-23 106,10 L106,25 L13,20 L10,37 L106,42 L106,66 M158,208 L176,205 Q174,200 169,190 Q167,184 166,182 L243,182 L243,166 L157,166 Q149,151 133,130 Q130,133 123,138 Q120,141 118,142 Q141,167 158,208 M54,209 L72,205 Q70,202 67,195 Q63,186 61,182 L132,182 L132,166 L51,166 Q37,145 20,126 Q18,129 14,133 Q9,138 7,140 Q39,170 54,209 M86,128 Q82,134 72,146 Q67,152 65,155 L78,164 Q91,152 100,139 M194,131 Q190,135 183,143 Q176,151 172,155 L185,165 Q188,162 193,157 Q197,154 208,142"/> 
            <glyph glyph-name="米" unicode="&#x7C73;" horiz-adv-x="249" d=" M7,2 Q76,40 103,93 L10,93 L10,111 L119,111 L119,205 L138,205 L138,111 L246,111 L246,93 L155,93 Q188,37 249,8 Q243,0 237,-8 Q168,29 138,90 L138,-28 L119,-28 L119,90 Q93,29 19,-13 Q19,-13 18,-12 Q12,-1 7,2 M31,180 L45,191 Q79,153 93,136 L77,123 Q60,145 31,180 M164,135 Q185,156 210,190 L226,179 Q224,177 221,173 Q203,149 179,122"/> 
            <glyph glyph-name="精" unicode="&#x7CBE;" horiz-adv-x="248" d=" M129,-27 L112,-27 L112,94 L233,94 L233,2 Q234,-26 203,-25 Q180,-25 169,-25 Q169,-16 166,-7 Q170,-7 180,-7 Q193,-8 201,-8 Q217,-9 216,3 L216,15 L129,15 M111,155 L163,155 L163,172 L104,172 L104,187 L163,187 L163,209 L180,209 L180,187 L244,187 L244,172 L180,172 L180,155 L237,155 L237,141 L180,141 L180,124 L248,124 L248,109 L101,109 L101,124 L163,124 L163,141 L111,141 M6,25 Q33,60 45,104 L9,104 L9,120 L48,120 L48,208 L64,208 L64,120 L93,120 L93,104 L64,104 L64,71 L73,80 Q89,64 104,48 L92,36 Q79,51 64,68 L64,-28 L48,-28 L48,71 Q35,35 14,6 Q13,9 11,14 Q10,16 6,25 M129,47 L129,29 L216,29 L216,47 M129,79 L129,61 L216,61 L216,79 M66,142 Q78,166 86,190 L101,184 Q99,179 95,170 Q85,146 80,135 M10,185 L25,190 Q26,186 29,177 Q33,168 41,141 L26,135 Q25,138 23,145 Q15,173 10,185"/> 
            <glyph glyph-name="纯" unicode="&#x7EAF;" horiz-adv-x="249" d=" M155,208 L174,208 L174,175 L242,175 L242,157 L174,157 L174,70 L211,70 L211,138 L229,138 L229,53 L174,53 L174,13 Q174,-4 189,-3 L211,-3 Q225,-3 227,8 Q227,10 228,16 Q230,31 231,40 Q239,36 249,32 Q247,18 244,1 Q240,-22 216,-21 L184,-21 Q155,-21 155,10 L155,53 L102,53 L102,138 L120,138 L120,70 L155,70 L155,157 L93,157 L93,175 L155,175 M39,62 Q49,64 72,67 Q87,69 92,70 Q92,67 91,61 Q91,55 90,52 Q86,51 76,50 Q35,44 16,41 L13,59 Q26,70 51,110 Q47,110 39,109 Q19,108 13,107 L8,123 Q31,151 57,210 L75,202 Q45,149 30,125 Q39,125 61,126 Q66,133 74,148 Q77,153 78,156 L96,148 Q70,104 39,62 M7,7 Q58,14 97,21 Q95,12 95,3 Q65,0 11,-10"/> 
            <glyph glyph-name="纸" unicode="&#x7EB8;" horiz-adv-x="249" d=" M103,188 Q154,187 238,199 L244,180 Q231,178 192,175 Q195,175 185,174 Q185,136 187,109 L245,109 L245,92 L188,92 Q191,61 194,43 Q201,10 213,-2 Q217,-7 221,-6 Q225,-5 227,0 Q230,15 231,36 Q242,32 249,30 Q245,2 243,-7 Q238,-30 218,-27 Q192,-22 178,30 Q175,45 171,79 Q170,88 169,92 L121,92 L121,0 Q133,3 170,19 Q170,16 170,0 Q152,-5 123,-18 Q117,-20 115,-21 Q112,-22 107,-25 L96,-7 Q103,-1 103,10 M39,68 Q75,71 88,73 Q88,66 86,56 Q33,51 15,48 L11,66 Q23,70 50,116 Q25,115 11,113 L7,129 Q24,149 48,207 L68,199 Q66,195 61,187 Q42,152 28,130 Q48,130 58,131 Q67,146 76,164 L95,156 Q69,113 39,68 M121,171 L121,109 L168,109 Q166,138 166,173 Q164,173 161,173 Q130,171 121,171 M7,10 Q57,18 91,25 Q91,20 91,7 Q84,6 72,4 Q39,-1 12,-7"/> 
            <glyph glyph-name="细" unicode="&#x7EC6;" horiz-adv-x="237" d=" M99,187 L237,187 L237,-26 L218,-26 L218,-5 L117,-5 L117,-26 L99,-26 M38,62 Q48,64 71,67 Q84,69 89,70 Q89,67 88,61 Q88,55 87,52 Q44,46 16,41 L12,58 Q24,68 52,110 Q49,110 42,109 Q20,108 13,107 L8,123 Q35,159 56,210 L74,202 Q46,149 30,125 Q35,125 46,126 Q57,126 62,126 Q65,132 72,144 Q77,152 79,156 L95,147 Q64,98 38,62 M177,83 L177,11 L218,11 L218,83 M117,83 L117,11 L159,11 L159,83 M218,169 L177,169 L177,100 L218,100 M117,169 L117,100 L159,100 L159,169 M7,5 Q33,9 90,22 Q90,18 89,12 Q89,6 89,3 Q56,-1 13,-12"/> 
            <glyph glyph-name="美" unicode="&#x7F8E;" horiz-adv-x="248" d=" M30,134 L119,134 L119,156 L15,156 L15,173 L94,173 Q88,178 75,187 Q66,194 61,198 L72,211 Q90,199 108,186 L94,173 L159,173 L150,185 Q168,195 184,210 L198,196 Q179,181 165,173 L242,173 L242,156 L138,156 L138,134 L229,134 L229,118 L138,118 L138,95 L247,95 L247,78 L10,78 L10,95 L119,95 L119,118 L30,118 M248,-8 Q247,-10 243,-15 Q238,-23 234,-28 Q152,-12 128,34 Q108,-13 20,-30 Q15,-22 8,-12 Q93,0 109,37 L13,37 L13,54 L116,54 Q119,63 120,73 L139,73 Q138,69 137,62 Q135,57 135,54 L244,54 L244,37 L145,37 Q173,-1 248,-8"/> 
            <glyph glyph-name="能" unicode="&#x80FD;" horiz-adv-x="246" d=" M40,-26 L23,-26 L23,115 L120,115 L120,5 Q120,-23 92,-24 Q79,-24 69,-24 Q67,-14 65,-6 Q69,-6 76,-7 Q83,-7 86,-7 Q103,-8 102,7 L102,24 L40,24 M144,89 L162,89 L162,49 Q199,62 234,83 L246,66 Q206,45 162,29 L162,12 Q161,-6 178,-5 L206,-5 Q223,-6 225,6 Q227,17 227,35 Q239,30 246,28 Q246,27 246,26 Q244,7 242,1 Q240,-23 205,-22 L176,-22 Q143,-23 144,8 M145,207 L162,207 L162,163 Q198,176 229,195 L240,179 Q210,163 162,144 L162,135 Q161,114 179,116 L206,116 Q223,115 224,129 Q225,135 227,158 Q234,154 246,152 Q245,145 243,133 Q242,126 242,124 Q239,97 205,99 L176,99 Q143,98 145,131 M96,185 Q116,164 141,135 Q137,132 130,126 Q127,123 125,122 Q123,125 119,131 Q114,137 112,140 Q98,139 103,139 Q53,136 34,134 Q30,134 24,133 Q17,133 14,132 L8,150 Q17,153 25,162 Q48,186 64,211 L83,203 Q74,192 53,169 Q41,156 36,150 Q52,151 91,154 Q87,154 99,155 Q96,158 91,165 Q85,171 82,174 M40,62 L40,39 L102,39 L102,62 M40,100 L40,77 L102,77 L102,100"/> 
            <glyph glyph-name="自" unicode="&#x81EA;" horiz-adv-x="222" d=" M34,175 L100,175 Q101,180 103,193 Q104,203 105,208 L125,205 Q122,187 119,175 L222,175 L222,-28 L202,-28 L202,-13 L54,-13 L54,-28 L34,-28 M54,42 L54,2 L202,2 L202,42 M54,100 L54,60 L202,60 L202,100 M54,157 L54,117 L202,117 L202,157"/> 
            <glyph glyph-name="芯" unicode="&#x82AF;" horiz-adv-x="247" d=" M166,208 L185,208 L185,173 L247,173 L247,156 L185,156 L185,122 L166,122 L166,156 L94,156 L94,122 L76,122 L76,156 L10,156 L10,173 L76,173 L76,208 L94,208 L94,173 L166,173 M69,98 L88,98 L88,13 Q87,-5 106,-4 L153,-4 Q176,-5 179,15 Q179,19 181,28 Q182,44 183,53 Q192,50 203,47 Q199,19 197,10 Q192,-23 156,-21 L102,-21 Q68,-22 69,10 M37,95 L55,90 Q42,44 28,10 Q21,13 10,17 Q24,49 37,95 M197,91 L214,97 Q231,59 245,22 L226,14 Q217,44 197,91 M111,121 L127,128 Q142,102 156,69 L138,60 Q130,84 111,121"/> 
            <glyph glyph-name="菌" unicode="&#x83CC;" horiz-adv-x="246" d=" M29,147 L228,147 L228,-28 L210,-28 L210,-16 L46,-16 L46,-28 L29,-28 M46,130 L46,0 L210,0 L210,130 M69,98 Q69,101 67,106 Q66,111 65,113 Q130,116 182,121 L186,105 Q159,104 136,102 L136,81 L201,81 L201,66 L136,66 L136,48 L143,58 Q149,55 162,48 Q187,35 198,29 L188,15 Q182,19 170,25 Q148,39 136,45 L136,4 L119,4 L119,56 Q94,26 63,7 Q58,14 51,22 Q86,38 111,66 L56,66 L56,81 L119,81 L119,101 Q111,101 94,100 Q78,99 69,98 M10,185 L79,185 L79,206 L96,206 L96,185 L163,185 L163,206 L180,206 L180,185 L246,185 L246,168 L180,168 L180,153 L163,153 L163,168 L96,168 L96,153 L79,153 L79,168 L10,168"/> 
            <glyph glyph-name="藏" unicode="&#x85CF;" horiz-adv-x="249" d=" M208,161 L218,168 Q226,162 235,153 L227,146 L246,146 L246,132 L195,132 Q197,85 201,52 Q215,78 224,114 L239,109 Q226,62 205,31 Q209,8 218,-4 Q222,-10 225,-9 Q229,-8 230,0 Q232,15 234,37 Q243,33 249,30 Q248,13 244,-5 Q241,-27 225,-27 Q214,-27 206,-14 Q198,-4 193,16 Q184,6 175,-1 Q171,3 166,10 Q179,22 188,34 Q183,74 180,132 L70,132 L70,71 Q72,0 50,-29 Q43,-23 36,-18 Q55,5 54,55 L37,55 Q39,6 17,-18 Q14,-13 7,-5 Q24,10 22,55 L8,55 L8,70 L55,70 L55,74 L55,91 L19,91 L19,158 L34,158 L34,105 L55,105 L55,146 L180,146 Q179,155 179,165 L195,165 Q195,155 195,146 L222,146 Q218,151 208,161 M85,116 L172,116 L172,103 L144,103 L144,74 L166,74 L166,23 L144,23 L144,-5 L174,-5 L174,-19 L85,-19 M150,206 L166,206 L166,187 L248,187 L248,172 L166,172 L166,155 L150,155 L150,172 L104,172 L104,155 L88,155 L88,172 L9,172 L9,187 L88,187 L88,206 L104,206 L104,187 L150,187 M152,61 L100,61 L100,36 L152,36 M100,23 L100,-5 L130,-5 L130,23 M100,103 L100,74 L130,74 L130,103"/> 
            <glyph glyph-name="行" unicode="&#x884C;" horiz-adv-x="249" d=" M95,117 L249,117 L249,99 L202,99 L202,9 Q202,-23 166,-23 Q158,-24 130,-24 Q129,-18 127,-10 Q126,-5 126,-3 Q136,-4 163,-4 Q183,-6 181,13 L181,99 L95,99 M7,62 Q45,94 76,147 L94,137 Q92,134 87,127 Q74,107 67,98 L67,-28 L47,-28 L47,73 Q37,62 16,43 Q14,48 7,62 M110,190 L235,190 L235,172 L110,172 M13,142 Q49,170 76,209 L93,198 Q64,157 23,124 Q18,133 13,142"/> 
            <glyph glyph-name="装" unicode="&#x88C5;" horiz-adv-x="248" d=" M112,100 L128,109 Q136,97 143,87 L135,82 L247,82 L247,65 L137,65 Q148,44 163,31 Q183,40 217,59 L227,41 Q197,28 178,20 Q205,3 248,-2 Q243,-9 237,-21 Q152,-3 123,56 Q110,43 92,29 L92,-4 Q122,3 147,11 Q147,8 147,-6 Q114,-16 96,-22 Q90,-25 79,-30 L68,-16 Q75,-12 74,2 L74,18 Q50,4 18,-6 Q15,1 7,9 Q74,31 109,65 L10,65 L10,82 L124,82 Q123,84 119,89 Q114,96 112,100 M105,176 L166,176 L166,208 L184,208 L184,176 L247,176 L247,159 L184,159 L184,127 L238,127 L238,110 L113,110 L113,127 L166,127 L166,159 L105,159 M76,209 L94,209 L94,97 L76,97 L76,135 Q66,129 42,115 Q28,106 22,103 Q19,109 12,121 Q57,144 76,155 M18,185 L31,197 Q53,179 64,168 L50,154 Q47,157 42,162 Q34,171 18,185"/> 
            <glyph glyph-name="要" unicode="&#x8981;" horiz-adv-x="248" d=" M16,198 L240,198 L240,183 L167,183 L167,155 L227,155 L227,93 L28,93 L28,155 L89,155 L89,183 L16,183 M15,-12 Q75,-6 113,8 Q83,18 51,27 Q52,28 53,30 Q61,39 70,54 L8,54 L8,69 L80,69 Q88,81 94,93 L114,87 Q113,85 110,81 Q104,73 102,69 L248,69 L248,54 L191,54 Q178,30 156,12 Q172,7 203,-1 Q223,-7 232,-10 L221,-28 Q182,-13 137,0 Q97,-20 24,-30 Q23,-24 15,-12 M77,35 Q83,33 98,29 Q121,22 134,18 Q158,33 170,54 L91,54 Q90,52 88,49 Q84,44 77,35 M106,141 L106,108 L150,108 L150,141 M210,141 L167,141 L167,108 L210,108 M46,141 L46,108 L89,108 L89,141 M106,183 L106,155 L150,155 L150,183"/> 
            <glyph glyph-name="解" unicode="&#x89E3;" horiz-adv-x="247" d=" M8,140 Q35,169 51,208 L68,203 Q66,199 62,191 Q59,186 58,184 L103,184 L103,169 L85,143 L116,143 L116,0 Q117,-26 91,-26 Q82,-26 70,-26 Q70,-22 69,-15 Q68,-10 68,-9 Q72,-10 88,-10 Q101,-11 100,2 L100,39 L78,39 L78,0 L62,0 L62,39 L41,39 Q41,0 21,-29 Q11,-21 8,-18 Q27,4 25,55 L25,135 Q22,131 17,126 Q15,129 10,138 Q8,139 8,140 M180,114 L198,114 L198,88 L241,88 L241,71 L198,71 L198,37 L247,37 L247,20 L198,20 L198,-29 L180,-29 L180,20 L123,20 L123,37 L180,37 L180,71 L151,71 Q149,64 143,51 Q141,47 140,45 Q131,50 124,52 Q138,76 145,111 L163,108 Q160,97 157,88 L180,88 M125,195 L234,195 Q234,174 232,152 Q231,122 201,122 Q186,122 176,122 Q176,125 173,140 Q176,140 185,140 Q195,139 199,139 Q214,139 215,153 Q215,158 216,167 Q216,175 216,179 L170,179 Q172,132 129,109 Q128,110 124,115 Q119,121 117,123 Q154,140 152,179 L125,179 M49,169 Q42,155 31,143 L66,143 L83,169 M78,84 L78,53 L100,53 L100,84 M100,129 L78,129 L78,98 L100,98 M41,84 L41,53 L62,53 L62,84 M41,129 L41,98 L62,98 L62,129"/> 
            <glyph glyph-name="让" unicode="&#x8BA9;" horiz-adv-x="248" d=" M148,205 L168,205 L168,134 L236,134 L236,116 L168,116 L168,2 L248,2 L248,-14 L87,-14 L87,2 L148,2 M101,50 Q101,49 103,40 Q105,32 106,28 Q93,19 69,1 Q64,-1 62,-3 Q54,-10 49,-17 L33,-1 Q43,5 42,23 L42,106 L7,106 L7,124 L62,124 L62,19 Q64,20 68,24 Q89,40 101,50 M46,201 Q54,194 71,177 Q83,166 87,162 L71,147 Q67,151 58,161 Q40,179 31,188"/> 
            <glyph glyph-name="质" unicode="&#x8D28;" horiz-adv-x="247" d=" M140,176 L158,176 L158,149 L241,149 L241,133 L158,133 L158,104 L224,104 L224,19 L206,19 L206,88 L93,88 L93,19 L75,19 L75,104 L140,104 L140,133 L60,133 L60,149 L140,149 M31,194 Q152,194 238,203 L243,185 Q170,180 50,177 L50,114 Q50,55 44,25 Q37,-6 20,-29 Q13,-21 5,-14 Q33,15 31,114 M159,75 Q159,53 154,33 Q164,28 185,18 Q229,-3 247,-11 L237,-28 Q201,-8 147,17 Q129,-13 56,-30 Q52,-23 46,-12 Q149,-1 141,75"/> 
            <glyph glyph-name="超" unicode="&#x8D85;" horiz-adv-x="248" d=" M9,121 L58,121 L58,156 L18,156 L18,173 L58,173 L58,207 L76,207 L76,173 L113,173 L113,156 L76,156 L76,121 L116,121 L116,103 L83,103 L83,65 L118,65 L118,48 L83,48 L83,2 Q101,-2 126,-3 Q147,-4 190,-3 Q237,-3 248,-2 Q247,-5 246,-10 Q244,-16 242,-21 Q202,-21 118,-21 Q60,-18 39,20 Q31,-9 19,-29 Q14,-18 8,-7 Q27,26 29,88 L47,87 Q46,63 43,44 Q53,23 65,13 L65,103 L9,103 M131,95 L232,95 L232,16 L131,16 M119,180 L119,196 L235,196 Q235,192 234,181 Q233,162 232,150 Q231,112 200,113 Q182,112 172,112 Q171,125 169,131 Q171,131 177,131 Q190,130 197,130 Q215,130 215,151 Q216,169 216,180 L170,180 Q170,132 130,103 Q125,111 118,119 Q153,139 153,180 M148,79 L148,33 L215,33 L215,79"/> 
            <glyph glyph-name="路" unicode="&#x8DEF;" horiz-adv-x="249" d=" M23,194 L101,194 L101,119 L78,119 L78,79 L101,79 L101,62 L78,62 L78,12 Q92,14 107,17 Q106,11 106,0 Q96,-2 56,-8 Q24,-13 11,-15 L8,2 Q16,2 23,4 L23,95 L39,95 L39,6 Q49,8 61,9 L61,119 L23,119 M104,135 Q129,164 148,209 L166,204 Q165,201 162,196 Q161,192 155,182 L232,182 L232,166 Q212,130 190,110 Q213,94 249,85 Q244,78 238,67 Q200,80 176,99 Q149,79 113,65 Q105,77 102,81 Q140,96 162,110 Q147,126 135,147 Q126,134 116,120 Q111,127 104,135 M122,63 L227,63 L227,-29 L209,-29 L209,-17 L140,-17 L140,-29 L122,-29 M140,46 L140,-1 L209,-1 L209,46 M40,177 L40,135 L84,135 L84,177 M211,166 L146,166 Q146,165 145,164 Q158,139 176,121 Q197,139 211,166"/> 
            <glyph glyph-name="身" unicode="&#x8EAB;" horiz-adv-x="249" d=" M10,66 L43,66 L43,182 L103,182 Q105,197 106,209 L126,207 Q124,197 121,182 L206,182 L206,83 Q221,94 237,107 L249,93 Q243,88 230,79 Q214,67 206,61 L206,9 Q207,-26 172,-25 Q155,-26 134,-26 Q133,-20 131,-11 Q130,-8 130,-6 Q140,-7 166,-7 Q189,-8 188,10 L188,48 Q116,0 20,-29 Q15,-17 9,-11 Q94,10 157,50 L10,50 M61,89 L61,66 L183,66 Q185,68 188,70 L188,89 M61,166 L61,143 L188,143 L188,166 M61,127 L61,105 L188,105 L188,127"/> 
            <glyph glyph-name="达" unicode="&#x8FBE;" horiz-adv-x="248" d=" M144,207 L164,207 Q164,188 162,150 L238,150 L238,132 L161,132 Q157,104 153,93 L163,101 Q166,98 172,93 Q220,47 239,27 L224,12 Q181,59 151,88 Q139,48 84,11 Q79,17 81,15 Q72,26 71,27 Q141,68 142,132 L77,132 L77,150 L143,150 Q144,170 144,207 M120,-5 Q210,-5 248,-4 Q248,-5 247,-7 Q242,-19 241,-23 Q150,-23 117,-22 Q73,-24 47,4 Q36,-3 16,-25 L6,-5 Q25,10 38,20 L38,104 L10,104 L10,122 L57,122 L57,20 Q78,-5 120,-5 M37,206 Q39,203 46,195 Q66,170 73,161 L56,149 Q47,163 22,195"/> 
            <glyph glyph-name="过" unicode="&#x8FC7;" horiz-adv-x="248" d=" M184,207 L204,207 L204,161 L245,161 L245,143 L204,143 L204,46 Q206,12 169,12 Q146,12 137,12 Q135,22 132,32 Q147,31 166,31 Q185,30 184,49 L184,143 L85,143 L85,161 L184,161 M120,-2 Q145,-3 186,-3 Q224,-2 248,-1 Q248,-2 247,-4 Q242,-16 241,-20 Q189,-20 117,-20 Q71,-20 47,7 Q28,-8 16,-23 L6,-2 Q9,0 19,7 Q32,18 38,23 L38,106 L10,106 L10,123 L57,123 L57,23 Q78,-2 120,-2 M90,112 L104,123 Q121,106 149,74 L133,61 Q105,97 90,112 M38,206 Q51,192 73,161 L56,150 Q47,165 24,196"/> 
            <glyph glyph-name="透" unicode="&#x900F;" horiz-adv-x="249" d=" M76,161 L147,161 L147,181 Q118,179 88,179 Q88,180 88,181 Q87,187 84,195 Q137,195 220,201 L224,185 Q217,185 202,184 Q177,182 164,182 L164,161 L239,161 L239,145 L173,145 Q200,122 247,112 Q243,104 238,95 Q189,110 164,136 L164,104 L147,104 L147,136 Q123,112 75,94 Q74,97 70,102 Q67,108 65,110 Q109,122 139,145 L76,145 M109,-2 Q167,-4 249,-2 Q245,-11 241,-21 Q141,-21 106,-20 Q68,-20 48,7 Q35,-4 18,-24 L7,-5 Q13,0 25,10 Q35,19 40,23 L40,104 L10,104 L10,121 L58,121 L58,22 Q75,-3 109,-2 M183,81 L134,81 Q134,34 89,5 Q83,13 76,19 Q117,42 117,81 L91,81 L91,97 L204,97 L196,70 L230,70 Q230,69 230,66 Q228,41 226,33 Q224,8 195,8 Q182,8 165,8 Q164,18 161,27 Q172,26 193,26 Q208,25 209,37 Q211,45 211,54 L175,54 M39,206 Q54,184 67,158 L49,149 Q37,174 23,198"/> 
            <glyph glyph-name="通" unicode="&#x901A;" horiz-adv-x="248" d=" M100,164 L110,176 Q142,160 156,152 L199,179 L83,179 L83,195 L229,195 L229,178 L172,144 L231,144 L231,37 Q232,8 204,7 Q185,6 178,7 Q178,8 177,10 Q176,22 174,26 Q175,26 176,26 Q189,24 198,24 Q215,23 214,41 L214,50 L167,50 L167,11 L150,11 L150,50 L104,50 L104,8 L87,8 L87,144 L142,144 Q130,150 100,164 M106,-4 Q128,-5 179,-4 Q236,-4 248,-3 Q245,-11 241,-22 Q227,-23 182,-22 Q130,-22 104,-21 Q72,-21 47,6 Q37,-2 17,-26 L5,-9 Q15,1 38,23 L38,104 L9,104 L9,122 L57,122 L57,22 Q75,-2 106,-4 M167,89 L167,65 L214,65 L214,89 M104,89 L104,65 L150,65 L150,89 M214,129 L167,129 L167,104 L214,104 M37,203 Q52,185 71,157 Q63,152 54,145 Q32,179 22,193 M104,129 L104,104 L150,104 L150,129"/> 
            <glyph glyph-name="速" unicode="&#x901F;" horiz-adv-x="248" d=" M91,141 L152,141 L152,165 L79,165 L79,181 L152,181 L152,208 L169,208 L169,181 L245,181 L245,165 L169,165 L169,141 L230,141 L230,78 L169,78 L169,63 L178,74 Q209,54 244,29 L232,13 Q211,31 169,60 L169,2 L152,2 L152,63 Q124,34 84,10 Q75,22 71,26 Q112,46 144,78 L91,78 M106,-4 Q128,-5 179,-4 Q236,-4 248,-3 Q245,-11 241,-22 Q227,-23 182,-22 Q130,-22 104,-21 Q66,-20 46,5 Q36,-3 17,-26 L7,-5 Q28,14 38,23 L38,104 L9,104 L9,122 L57,122 L57,19 Q71,-3 106,-4 M108,125 L108,93 L152,93 L152,125 M212,125 L169,125 L169,93 L212,93 M35,203 Q50,185 69,157 Q64,154 53,146 Q52,145 52,145 Q30,179 20,193"/> 
            <glyph glyph-name="道" unicode="&#x9053;" horiz-adv-x="249" d=" M90,140 L140,140 L144,161 L76,161 L76,177 L123,177 Q117,186 105,199 L119,210 Q133,195 141,185 L129,177 L173,177 Q182,188 195,210 L214,200 Q205,189 194,177 L246,177 L246,161 L164,161 L157,140 L228,140 L228,15 L90,15 M114,-5 Q140,-6 185,-6 Q225,-5 249,-4 Q243,-16 241,-23 Q142,-23 113,-22 Q65,-24 46,5 Q36,-3 18,-26 L8,-7 Q22,6 38,22 L38,104 L10,104 L10,122 L56,122 L56,20 Q73,-5 114,-5 M108,52 L108,30 L210,30 L210,52 M108,88 L108,67 L210,67 L210,88 M108,124 L108,103 L210,103 L210,124 M31,202 Q55,172 63,160 L47,149 Q36,167 16,192"/> 
            <glyph glyph-name="里" unicode="&#x91CC;" horiz-adv-x="249" d=" M23,48 L119,48 L119,76 L32,76 L32,195 L224,195 L224,76 L137,76 L137,48 L233,48 L233,31 L137,31 L137,0 L249,0 L249,-16 L8,-16 L8,0 L119,0 L119,31 L23,31 M206,179 L137,179 L137,143 L206,143 M50,179 L50,143 L119,143 L119,179 M50,127 L50,92 L119,92 L119,127 M137,127 L137,92 L206,92 L206,127"/> 
            <glyph glyph-name="重" unicode="&#x91CD;" horiz-adv-x="247" d=" M28,178 Q27,185 25,194 Q156,196 224,201 L229,185 Q208,183 137,181 L137,162 L247,162 L247,147 L137,147 L137,129 L220,129 L220,45 L137,45 L137,27 L229,27 L229,13 L137,13 L137,-4 L247,-4 L247,-20 L8,-20 L8,-4 L119,-4 L119,13 L27,13 L27,27 L119,27 L119,45 L37,45 L37,129 L119,129 L119,147 L10,147 L10,162 L119,162 L119,180 Q53,178 28,178 M137,80 L137,59 L203,59 L203,80 M54,80 L54,59 L119,59 L119,80 M203,115 L137,115 L137,94 L203,94 M54,115 L54,94 L119,94 L119,115"/> 
            <glyph glyph-name="量" unicode="&#x91CF;" horiz-adv-x="248" d=" M37,99 L220,99 L220,32 L136,32 L136,17 L229,17 L229,5 L136,5 L136,-8 L248,-8 L248,-21 L8,-21 L8,-8 L120,-8 L120,5 L27,5 L27,17 L120,17 L120,32 L37,32 M39,198 L218,198 L218,135 L39,135 M10,124 L247,124 L247,111 L10,111 M55,161 L55,148 L201,148 L201,161 M55,186 L55,173 L201,173 L201,186 M136,60 L136,44 L203,44 L203,60 M54,60 L54,44 L120,44 L120,60 M203,87 L136,87 L136,71 L203,71 M54,87 L54,71 L120,71 L120,87"/> 
            <glyph glyph-name="金" unicode="&#x91D1;" horiz-adv-x="249" d=" M124,211 L146,206 Q145,205 143,203 Q141,200 140,199 Q183,149 249,125 Q240,113 236,107 Q225,111 205,122 Q202,124 200,125 L200,111 L137,111 L137,77 L224,77 L224,60 L137,60 L137,-1 L241,-1 L241,-19 L16,-19 L16,-1 L119,-1 L119,60 L32,60 L32,77 L119,77 L119,111 L55,111 L55,124 Q47,119 28,109 Q22,106 19,104 Q17,110 7,122 Q90,160 124,211 M129,186 Q100,153 61,129 L196,129 Q155,154 129,186 M161,16 Q173,26 198,53 L213,42 Q191,18 176,3 M45,42 L59,53 Q65,47 77,35 Q88,23 94,16 L78,3 Q59,27 45,42"/> 
            <glyph glyph-name="钟" unicode="&#x949F;" horiz-adv-x="236" d=" M163,207 L181,207 L181,160 L236,160 L236,44 L218,44 L218,55 L181,55 L181,-28 L163,-28 L163,55 L125,55 L125,44 L107,44 L107,160 L163,160 M5,130 Q29,165 45,209 L62,203 Q56,186 49,171 L97,171 L97,155 L41,155 Q39,151 34,142 Q29,134 26,129 L91,129 L91,113 L60,113 L60,80 L97,80 L97,63 L60,63 L60,6 Q75,14 93,24 Q93,13 94,4 Q92,3 89,1 Q70,-7 58,-15 Q52,-18 48,-23 L35,-7 Q44,1 43,10 L43,63 L9,63 L9,80 L43,80 L43,113 L26,113 L26,129 Q25,127 22,123 Q19,118 17,116 Q14,121 5,130 M125,143 L125,72 L163,72 L163,143 M218,143 L181,143 L181,72 L218,72"/> 
            <glyph glyph-name="间" unicode="&#x95F4;" horiz-adv-x="239" d=" M76,144 L179,144 L179,21 L76,21 M97,175 L97,194 L237,194 L237,10 Q239,-29 202,-27 Q188,-28 165,-27 Q164,-20 162,-7 Q181,-8 199,-8 Q219,-10 218,11 L218,175 M20,161 L39,161 L39,-27 L20,-27 M93,74 L93,38 L162,38 L162,74 M93,127 L93,92 L162,92 L162,127 M33,197 L47,209 Q75,182 81,175 L65,161 Q45,184 33,197"/> 
            <glyph glyph-name="除" unicode="&#x9664;" horiz-adv-x="250" d=" M180,205 Q179,204 178,201 Q176,198 175,196 Q205,151 250,128 Q249,127 247,124 Q245,120 240,111 Q192,139 165,181 Q145,149 115,125 L215,125 L215,109 L174,109 L174,78 L239,78 L239,61 L174,61 L174,2 Q175,-25 146,-25 Q134,-25 121,-25 Q121,-24 120,-20 Q119,-10 117,-6 Q121,-6 130,-7 Q138,-7 141,-7 Q156,-8 155,5 L155,61 L94,61 L94,78 L155,78 L155,109 L110,109 L110,121 Q107,119 101,115 Q95,110 92,108 Q89,112 82,122 Q81,123 80,124 Q135,157 161,209 M90,56 Q91,24 67,21 Q58,20 43,20 Q43,23 41,30 Q40,37 39,40 Q47,39 60,39 Q72,39 72,57 Q73,82 49,112 L69,179 L38,179 L38,-28 L20,-28 L20,196 L88,196 L88,179 L67,115 Q91,88 90,56 M114,49 L131,41 Q113,10 94,-16 Q87,-10 79,-5 Q99,19 114,49 M189,37 L203,48 Q227,23 246,0 L231,-11 Q215,8 189,37"/> 
            <glyph glyph-name="陶" unicode="&#x9676;" horiz-adv-x="239" d=" M87,48 Q88,12 57,12 Q48,12 41,12 Q41,17 37,29 L37,-28 L20,-28 L20,195 L83,195 L83,178 Q79,163 73,138 Q68,121 66,111 Q88,83 87,48 M73,125 Q103,159 119,208 L137,202 Q136,200 135,197 Q133,191 127,180 L239,180 Q236,49 234,20 Q235,-24 187,-23 Q168,-24 147,-24 Q147,-23 147,-21 Q145,-7 143,-3 Q164,-5 186,-5 Q218,-7 217,22 Q219,55 221,163 L119,163 Q104,136 89,114 Q82,121 73,125 M101,63 L117,63 L117,26 L140,26 L140,75 L94,75 L94,90 L140,90 L140,120 L126,120 Q120,108 108,94 Q102,98 93,103 Q114,124 126,155 L142,150 Q141,148 138,143 Q136,138 134,135 L197,135 L197,120 L157,120 L157,90 L208,90 L208,75 L157,75 L157,26 L180,26 L180,63 L197,63 L197,11 L101,11 M37,179 L37,30 Q47,29 56,29 Q69,29 69,47 Q70,82 47,109 Q58,146 65,179"/> 
            <glyph glyph-name="隐" unicode="&#x9690;" horiz-adv-x="249" d=" M106,109 L214,109 L214,129 L105,129 L105,137 Q101,132 95,126 Q89,135 84,140 Q118,172 137,209 L155,204 Q149,193 142,184 L211,184 L211,167 Q209,164 202,156 Q196,149 193,145 L232,145 L232,56 L100,56 L100,71 L214,71 L214,93 L106,93 M89,75 Q94,35 67,31 Q62,30 44,30 Q43,33 41,39 Q39,47 38,48 Q50,47 60,48 Q76,48 71,76 Q67,96 50,119 Q52,124 57,138 Q70,169 73,180 L37,180 L37,-29 L20,-29 L20,197 L92,197 L92,180 Q89,172 82,155 Q72,130 68,122 Q87,97 89,75 M116,45 L132,45 L132,9 Q131,-7 150,-6 L168,-6 Q190,-7 191,5 Q194,18 194,27 Q195,27 196,26 Q207,22 211,21 Q209,8 206,0 Q201,-22 172,-21 L146,-21 Q115,-23 116,8 M191,168 L131,168 Q122,156 113,145 L172,145 Q175,149 182,157 Q188,164 191,168 M91,40 L107,34 Q97,6 86,-13 Q79,-10 70,-5 Q82,12 91,40 M208,37 L222,45 Q238,23 249,5 L234,-2 Q231,2 225,12 Q214,28 208,37 M143,45 L156,54 Q160,50 166,42 Q176,30 180,25 L165,15 Q159,24 143,45"/> 
            <glyph glyph-name="需" unicode="&#x9700;" horiz-adv-x="247" d=" M49,-26 L31,-26 L31,52 L111,52 L114,71 L9,71 L9,86 L247,86 L247,71 L133,71 L129,52 L225,52 L225,2 Q226,-25 200,-24 Q181,-24 176,-24 Q175,-17 173,-6 Q175,-6 180,-6 Q190,-7 195,-7 Q209,-8 208,6 L208,38 L164,38 L164,-22 L147,-22 L147,38 L107,38 L107,-22 L90,-22 L90,38 L49,38 M17,168 L119,168 L119,182 L29,182 L29,196 L225,196 L225,182 L136,182 L136,168 L239,168 L239,122 L221,122 L221,153 L136,153 L136,94 L119,94 L119,153 L35,153 L35,122 L17,122 M50,113 L106,113 L106,100 L50,100 M50,140 L106,140 L106,127 L50,127 M149,113 L206,113 L206,100 L149,100 M149,140 L206,140 L206,127 L149,127"/> 
            <glyph glyph-name="面" unicode="&#x9762;" horiz-adv-x="244" d=" M11,194 L244,194 L244,177 L134,177 L121,143 L231,143 L231,-28 L213,-28 L213,-14 L42,-14 L42,-28 L24,-28 L24,143 L101,143 Q102,145 104,152 Q110,168 113,177 L11,177 M213,127 L173,127 L173,0 L213,0 M42,127 L42,0 L82,0 L82,127 M99,32 L99,0 L155,0 L155,32 M99,80 L99,48 L155,48 L155,80 M99,127 L99,95 L155,95 L155,127"/> 
            <glyph glyph-name="高" unicode="&#x9AD8;" horiz-adv-x="247" d=" M49,152 L206,152 L206,101 L49,101 M40,-27 L22,-27 L22,85 L233,85 L233,4 Q235,-25 204,-25 Q187,-25 172,-25 Q171,-18 169,-10 Q168,-8 168,-7 Q180,-7 199,-7 Q217,-8 215,6 L215,70 L40,70 M73,54 L183,54 L183,1 L73,1 M115,204 L133,208 Q136,197 140,184 L247,184 L247,168 L9,168 L9,184 L120,184 Q119,187 117,196 Q116,201 115,204 M68,136 L68,116 L188,116 L188,136 M91,39 L91,16 L165,16 L165,39"/> 
            <glyph glyph-name="！" unicode="&#xFF01;" horiz-adv-x="79" d=" M73,26 L55,26 Q54,114 49,201 L79,201 Q78,181 77,142 Q75,66 73,26 M77,5 L77,-23 L52,-23 L52,5"/> 
            <glyph glyph-name="（" unicode="&#xFF08;" horiz-adv-x="185" d=" M166,-36 L185,-36 Q138,20 139,89 Q139,157 185,217 L167,217 Q119,157 118,89 Q120,19 166,-36"/> 
            <glyph glyph-name="）" unicode="&#xFF09;" horiz-adv-x="138" d=" M72,-36 L90,-36 Q136,19 138,89 Q137,157 90,217 L71,217 Q117,157 117,89 Q118,21 72,-36"/> 
            <glyph glyph-name="，" unicode="&#xFF0C;" horiz-adv-x="78" d=" M52,-37 L43,-28 Q61,-15 62,11 L45,11 L45,44 L78,44 Q78,36 78,15 Q78,-20 52,-37"/> 
            <glyph glyph-name="？" unicode="&#xFF1F;" horiz-adv-x="122" d=" M28,127 L6,127 Q6,190 67,189 Q120,187 122,137 Q122,119 97,97 Q73,75 73,59 L73,50 L52,50 L52,63 Q52,82 77,106 Q96,125 98,137 Q97,164 69,167 Q27,169 28,127 M73,29 L73,5 L52,5 L52,29"/> 
        </font>
</defs>
</svg>
