<?xml version="1.0" standalone="no"?>
<!DOCTYPE svg PUBLIC "-//W3C//DTD SVG 1.1//EN" "http://www.w3.org/Graphics/SVG/1.1/DTD/svg11.dtd" >
<svg xmlns="http://www.w3.org/2000/svg">
    <defs>
        <font id="">
            <font-face font-family=""
                       units-per-em="256"
                       ascent="234"
                       descent="-58"
                       bbox="-14 -58 266 234"
                    />
            <missing-glyph horiz-adv-x="0" />
            
            <glyph glyph-name="%" unicode="&#x25;" horiz-adv-x="232" d=" M63,-5 L77,-5 L187,205 L173,205 M59,111 Q89,112 90,153 Q90,193 60,194 Q30,193 29,152 Q30,113 59,111 M60,205 Q101,203 102,152 Q101,101 58,100 Q19,103 17,152 Q18,203 60,205 M190,5 Q219,6 220,47 Q220,87 190,88 Q160,87 159,46 Q161,8 190,5 M190,100 Q230,98 232,46 Q231,-3 189,-4 Q149,-2 147,46 Q149,98 190,100"/> 
            <glyph glyph-name="-" unicode="&#x2D;" horiz-adv-x="135" d=" M135,94 L135,107 L16,107 L16,94"/> 
            <glyph glyph-name="." unicode="&#x2E;" horiz-adv-x="49" d=" M49,1 L49,27 L25,27 L25,1"/> 
            <glyph glyph-name="/" unicode="&#x2F;" horiz-adv-x="76" d=" M0,-1 L12,-1 L76,204 L63,204"/> 
            <glyph glyph-name="0" unicode="&#x30;" horiz-adv-x="144" d=" M78,9 Q129,8 128,100 Q129,192 77,191 Q29,189 28,100 Q28,9 78,9 M78,204 Q144,204 144,100 Q143,0 79,-1 Q13,0 12,100 Q14,201 78,204"/> 
            <glyph glyph-name="1" unicode="&#x31;" horiz-adv-x="105" d=" M90,0 L105,0 L105,204 L94,204 Q83,172 31,145 L31,131 Q77,154 90,174"/> 
            <glyph glyph-name="2" unicode="&#x32;" horiz-adv-x="144" d=" M140,0 L140,13 L27,13 Q45,48 87,78 Q144,116 139,150 Q136,202 80,204 Q30,205 13,156 L27,149 Q38,190 75,191 Q122,190 123,148 Q127,123 75,86 Q29,52 9,10 L9,0"/> 
            <glyph glyph-name="3" unicode="&#x33;" horiz-adv-x="143" d=" M99,106 Q133,117 135,152 Q133,203 76,204 Q25,204 14,154 L29,149 Q35,192 77,191 Q119,191 119,152 Q118,111 67,111 L56,111 L56,99 L74,99 Q126,99 127,59 Q126,11 75,10 Q32,10 25,55 L10,51 Q21,-1 77,-1 Q140,1 143,57 Q141,98 99,106"/> 
            <glyph glyph-name="4" unicode="&#x34;" horiz-adv-x="144" d=" M21,63 L102,63 L102,182 Q102,178 98,173 M144,50 L116,50 L116,0 L102,0 L102,50 L4,50 L4,58 L105,204 L116,204 L116,63 L144,63"/> 
            <glyph glyph-name="5" unicode="&#x35;" horiz-adv-x="144" d=" M35,113 L43,187 L134,187 L134,200 L31,200 L19,95 L29,93 Q44,120 78,120 Q128,118 129,66 Q127,12 77,10 Q32,10 25,56 L11,52 Q23,-1 79,-1 Q142,0 144,68 Q140,131 82,134 Q52,134 35,113"/> 
            <glyph glyph-name="6" unicode="&#x36;" horiz-adv-x="144" d=" M26,72 Q29,12 79,9 Q127,11 129,64 Q127,117 81,119 Q30,116 26,72 M140,159 L126,154 Q116,191 82,191 Q25,191 25,97 Q44,131 84,132 Q140,128 144,66 Q141,2 81,-1 Q10,-2 11,93 Q11,204 83,204 Q127,202 140,159"/> 
            <glyph glyph-name="7" unicode="&#x37;" horiz-adv-x="143" d=" M143,191 L143,200 L13,200 L13,187 L125,187 Q59,87 47,0 L63,0 Q74,91 143,191"/> 
            <glyph glyph-name="8" unicode="&#x38;" horiz-adv-x="147" d=" M79,99 Q30,98 28,54 Q30,10 80,8 Q129,10 132,52 Q130,97 79,99 M79,192 Q38,190 36,151 Q37,111 80,110 Q121,112 123,151 Q121,190 79,192 M52,105 Q22,117 20,150 Q24,200 79,204 Q133,200 139,150 Q137,117 108,105 Q145,92 147,52 Q145,0 80,-2 Q15,0 12,54 Q15,94 52,105"/> 
            <glyph glyph-name="9" unicode="&#x39;" horiz-adv-x="145" d=" M130,128 Q128,189 77,191 Q28,190 27,136 Q29,83 74,81 Q125,84 130,128 M16,41 L29,46 Q40,9 74,9 Q131,9 131,103 Q113,69 71,69 Q16,73 12,135 Q16,200 75,204 Q145,205 145,107 Q145,-2 72,-2 Q28,0 16,41"/> 
            <glyph glyph-name="&gt;" unicode="&#x3E;" horiz-adv-x="151" d=" M15,173 L139,101 L15,27 L15,10 L151,94 L151,107 L15,190"/> 
            <glyph glyph-name="A" unicode="&#x41;" horiz-adv-x="188" d=" M49,79 L138,79 L94,185 L93,185 M171,0 L144,65 L44,65 L16,0 L0,0 L85,201 L101,201 L188,0"/> 
            <glyph glyph-name="B" unicode="&#x42;" horiz-adv-x="171" d=" M97,99 L35,99 L35,14 L101,14 Q155,14 155,59 Q151,97 97,99 M94,188 L35,188 L35,112 L94,112 Q145,112 146,152 Q145,188 94,188 M104,0 L21,0 L21,201 L99,201 Q157,198 162,153 Q161,113 119,106 Q169,97 171,56 Q169,1 104,0"/> 
            <glyph glyph-name="C" unicode="&#x43;" horiz-adv-x="191" d=" M174,69 L191,64 Q175,-1 104,-2 Q19,3 14,98 Q18,199 107,204 Q164,202 187,146 L170,142 Q153,188 105,190 Q35,184 30,100 Q34,17 103,10 Q161,10 174,69"/> 
            <glyph glyph-name="D" unicode="&#x44;" horiz-adv-x="188" d=" M93,188 L37,188 L37,13 L92,13 Q172,13 172,100 Q170,185 93,188 M92,0 L21,0 L21,201 L94,201 Q184,198 187,101 Q188,-1 92,0"/> 
            <glyph glyph-name="E" unicode="&#x45;" horiz-adv-x="171" d=" M38,13 L171,13 L171,0 L23,0 L23,201 L166,201 L166,188 L38,188 L38,111 L159,111 L159,98 L38,98"/> 
            <glyph glyph-name="F" unicode="&#x46;" horiz-adv-x="158" d=" M158,187 L38,187 L38,111 L143,111 L143,98 L38,98 L38,0 L22,0 L22,201 L158,201"/> 
            <glyph glyph-name="G" unicode="&#x47;" horiz-adv-x="199" d=" M114,104 L199,104 L199,32 Q176,0 114,-1 Q19,3 15,100 Q19,199 110,204 Q178,203 199,145 L182,141 Q167,190 109,190 Q35,185 31,99 Q36,16 112,10 Q164,11 184,38 L184,91 L114,91"/> 
            <glyph glyph-name="H" unicode="&#x48;" horiz-adv-x="179" d=" M164,201 L179,201 L179,0 L164,0 L164,98 L38,98 L38,0 L23,0 L23,201 L38,201 L38,111 L164,111"/> 
            <glyph glyph-name="I" unicode="&#x49;" horiz-adv-x="40" d=" M25,0 L40,0 L40,201 L25,201"/> 
            <glyph glyph-name="J" unicode="&#x4A;" horiz-adv-x="121" d=" M119,60 L119,201 L104,201 L104,58 Q105,9 65,10 Q24,8 24,59 L9,55 Q13,-2 64,-1 Q121,-3 119,60"/> 
            <glyph glyph-name="K" unicode="&#x4B;" horiz-adv-x="186" d=" M165,0 L85,108 L36,61 L36,0 L20,0 L20,201 L36,201 L36,80 L160,201 L181,201 L94,117 L186,0"/> 
            <glyph glyph-name="L" unicode="&#x4C;" horiz-adv-x="146" d=" M146,0 L146,13 L35,13 L35,201 L20,201 L20,0"/> 
            <glyph glyph-name="M" unicode="&#x4D;" horiz-adv-x="214" d=" M188,201 L214,201 L214,0 L199,0 L199,189 L197,189 L124,0 L111,0 L38,189 L36,189 L36,0 L22,0 L22,201 L47,201 L117,18 L118,18"/> 
            <glyph glyph-name="N" unicode="&#x4E;" horiz-adv-x="180" d=" M39,189 L156,0 L180,0 L180,201 L165,201 L165,10 L164,10 L46,201 L22,201 L22,0 L38,0 L38,189"/> 
            <glyph glyph-name="O" unicode="&#x4F;" horiz-adv-x="206" d=" M109,190 Q34,183 29,100 Q33,15 108,9 Q185,14 189,100 Q185,184 109,190 M109,-2 Q18,2 13,99 Q17,198 111,203 Q200,197 206,100 Q202,1 109,-2"/> 
            <glyph glyph-name="P" unicode="&#x50;" horiz-adv-x="175" d=" M102,187 L37,187 L37,96 L102,96 Q158,96 158,144 Q156,185 102,187 M106,82 L37,82 L37,0 L22,0 L22,201 L108,201 Q169,197 175,143 Q173,84 106,82"/> 
            <glyph glyph-name="Q" unicode="&#x51;" horiz-adv-x="204" d=" M106,11 Q185,14 187,100 Q183,184 108,190 Q32,184 27,101 Q31,16 106,11 M130,1 L176,-43 L159,-49 L113,0 Q110,0 106,0 Q15,4 11,100 Q15,200 109,204 Q198,197 204,101 Q201,18 130,1"/> 
            <glyph glyph-name="R" unicode="&#x52;" horiz-adv-x="198" d=" M38,187 L38,105 L110,105 Q167,104 166,147 Q166,187 110,187 M198,0 L177,0 L103,91 L38,91 L38,0 L23,0 L23,201 L115,201 Q179,199 182,146 Q182,94 121,91"/> 
            <glyph glyph-name="S" unicode="&#x53;" horiz-adv-x="175" d=" M150,146 L167,150 Q156,203 91,204 Q23,202 20,151 Q19,108 92,98 Q159,89 156,54 Q152,12 97,10 Q37,9 29,64 L12,59 Q26,-4 98,-2 Q167,0 172,53 Q175,99 97,111 Q34,121 36,151 Q41,188 92,190 Q142,189 150,146"/> 
            <glyph glyph-name="T" unicode="&#x54;" horiz-adv-x="166" d=" M166,188 L94,188 L94,0 L79,0 L79,188 L7,188 L7,201 L166,201"/> 
            <glyph glyph-name="U" unicode="&#x55;" horiz-adv-x="182" d=" M166,201 L166,85 Q167,10 101,10 Q37,8 38,85 L38,201 L23,201 L23,85 Q22,-3 101,-2 Q182,-3 181,85 L181,201"/> 
            <glyph glyph-name="V" unicode="&#x56;" horiz-adv-x="187" d=" M187,201 L170,201 L95,13 L19,201 L3,201 L87,0 L102,0"/> 
            <glyph glyph-name="W" unicode="&#x57;" horiz-adv-x="262" d=" M245,201 L262,201 L201,0 L186,0 L136,175 Q136,177 135,182 Q134,188 133,189 Q133,188 132,183 Q131,179 130,177 L77,0 L62,0 L4,201 L20,201 L66,28 Q68,25 69,15 Q70,13 70,12 L71,12 Q71,15 73,25 Q74,28 74,29 L124,201 L142,201 L189,29 Q190,27 191,21 Q193,15 193,12 Q193,13 194,17 Q196,26 197,29"/> 
            <glyph glyph-name="X" unicode="&#x58;" horiz-adv-x="186" d=" M186,0 L104,104 L180,201 L161,201 L95,112 L30,201 L12,201 L86,104 L3,0 L22,0 L95,96 L167,0"/> 
            <glyph glyph-name="Y" unicode="&#x59;" horiz-adv-x="185" d=" M185,201 L100,87 L100,0 L85,0 L85,87 L2,201 L19,201 L92,98 L168,201"/> 
            <glyph glyph-name="Z" unicode="&#x5A;" horiz-adv-x="165" d=" M161,191 L161,201 L17,201 L17,188 L140,188 L6,8 L6,0 L165,0 L165,13 L26,13"/> 
            <glyph glyph-name="a" unicode="&#x61;" horiz-adv-x="145" d=" M123,60 L123,88 Q115,77 74,72 Q24,68 26,38 Q24,9 65,10 Q119,12 123,60 M30,104 L16,108 Q25,152 80,151 Q140,153 137,99 L137,33 Q136,12 145,0 L130,0 Q122,10 122,30 Q107,-1 58,-1 Q13,0 12,38 Q12,78 65,84 Q115,88 122,100 Q125,140 80,138 Q35,140 30,104"/> 
            <glyph glyph-name="b" unicode="&#x62;" horiz-adv-x="144" d=" M33,89 L33,65 Q35,11 81,9 Q129,10 129,73 Q127,136 80,138 Q37,131 33,89 M33,0 L18,0 L18,201 L33,201 L33,119 Q47,150 83,151 Q142,148 144,73 Q142,1 86,-1 Q45,-2 33,30"/> 
            <glyph glyph-name="c" unicode="&#x63;" horiz-adv-x="137" d=" M120,103 L135,107 Q122,149 75,151 Q14,148 11,73 Q12,0 76,-1 Q128,-2 137,48 L122,52 Q117,11 77,10 Q28,12 27,74 Q28,137 77,138 Q110,136 120,103"/> 
            <glyph glyph-name="d" unicode="&#x64;" horiz-adv-x="135" d=" M121,65 L121,89 Q117,131 73,138 Q26,136 24,73 Q24,9 73,9 Q119,11 121,65 M135,0 L121,0 L121,30 Q107,-2 67,-1 Q12,1 10,73 Q12,148 70,151 Q105,150 121,119 L121,201 L135,201"/> 
            <glyph glyph-name="e" unicode="&#x65;" horiz-adv-x="145" d=" M27,81 L129,81 Q128,137 79,138 Q30,135 27,81 M129,46 L144,42 Q132,-2 80,-1 Q13,1 10,72 Q13,147 79,151 Q143,149 145,72 Q145,70 145,69 L26,69 Q28,12 79,10 Q120,10 129,46"/> 
            <glyph glyph-name="f" unicode="&#x66;" horiz-adv-x="86" d=" M41,166 L41,147 L74,147 L74,135 L41,135 L41,1 L26,1 L26,135 L0,135 L0,147 L26,147 L26,167 Q25,205 59,204 Q75,203 86,198 L82,188 Q75,192 64,192 Q39,194 41,166"/> 
            <glyph glyph-name="g" unicode="&#x67;" horiz-adv-x="141" d=" M124,69 L124,91 Q120,135 76,139 Q26,137 24,76 Q25,17 74,16 Q123,18 124,69 M138,147 L138,21 Q141,-51 70,-48 Q33,-47 15,-27 L23,-18 Q40,-35 70,-36 Q126,-37 124,14 L124,34 Q112,5 70,5 Q10,7 9,77 Q12,147 72,151 Q108,150 124,123 L124,147"/> 
            <glyph glyph-name="h" unicode="&#x68;" horiz-adv-x="137" d=" M136,95 L136,0 L122,0 L122,93 Q123,140 82,139 Q36,137 33,85 L33,0 L18,0 L18,201 L33,201 L33,118 Q48,149 85,151 Q137,152 136,95"/> 
            <glyph glyph-name="i" unicode="&#x69;" horiz-adv-x="33" d=" M18,0 L33,0 L33,148 L18,148 M18,180 L33,180 L33,202 L18,202"/> 
            <glyph glyph-name="j" unicode="&#x6A;" horiz-adv-x="38" d=" M22,180 L37,180 L37,201 L22,201 M37,148 L37,-15 Q38,-49 9,-48 Q-4,-48 -14,-43 L-12,-34 Q-4,-38 4,-38 Q23,-39 22,-14 L22,148"/> 
            <glyph glyph-name="k" unicode="&#x6B;" horiz-adv-x="139" d=" M121,0 L64,83 L33,54 L33,0 L18,0 L18,201 L33,201 L33,70 L113,147 L133,147 L73,91 L139,0"/> 
            <glyph glyph-name="l" unicode="&#x6C;" horiz-adv-x="33" d=" M18,0 L33,0 L33,201 L18,201"/> 
            <glyph glyph-name="m" unicode="&#x6D;" horiz-adv-x="216" d=" M215,95 L215,0 L200,0 L200,93 Q201,141 165,139 Q129,137 123,92 L123,0 L109,0 L109,93 Q110,141 74,139 Q35,138 33,90 L33,0 L18,0 L18,147 L33,147 L33,119 Q44,150 77,151 Q116,151 122,115 Q132,150 168,151 Q216,152 215,95"/> 
            <glyph glyph-name="n" unicode="&#x6E;" horiz-adv-x="138" d=" M137,94 L137,0 L123,0 L123,92 Q124,139 82,138 Q40,135 33,92 L33,0 L19,0 L19,147 L33,147 L33,117 Q50,150 86,151 Q138,152 137,94"/> 
            <glyph glyph-name="o" unicode="&#x6F;" horiz-adv-x="145" d=" M78,138 Q27,136 25,72 Q28,12 78,8 Q128,10 130,73 Q127,134 78,138 M77,-2 Q12,1 9,71 Q12,148 80,150 Q142,147 145,74 Q144,-1 77,-2"/> 
            <glyph glyph-name="p" unicode="&#x70;" horiz-adv-x="144" d=" M33,88 L33,65 Q35,10 81,8 Q128,9 129,72 Q128,136 78,138 Q37,134 33,88 M33,-49 L18,-49 L18,147 L33,147 L33,120 Q45,150 82,150 Q141,147 144,72 Q141,0 87,-2 Q46,-2 33,28"/> 
            <glyph glyph-name="q" unicode="&#x71;" horiz-adv-x="135" d=" M121,65 L121,88 Q117,134 76,138 Q25,136 24,72 Q25,9 72,8 Q119,10 121,65 M135,-49 L121,-49 L121,28 Q108,-2 66,-2 Q12,0 10,72 Q12,147 72,150 Q108,150 121,120 L121,147 L135,147"/> 
            <glyph glyph-name="r" unicode="&#x72;" horiz-adv-x="98" d=" M91,129 L98,143 Q84,152 71,151 Q43,149 33,119 L32,119 L32,147 L18,147 L18,0 L32,0 L32,81 Q34,133 69,136 Q83,136 91,129"/> 
            <glyph glyph-name="s" unicode="&#x73;" horiz-adv-x="131" d=" M109,108 L123,112 Q115,151 67,151 Q18,149 15,110 Q12,78 71,69 Q118,62 115,39 Q113,10 71,9 Q30,8 23,46 L9,42 Q20,-3 71,-1 Q129,0 130,40 Q131,72 76,81 Q25,89 29,110 Q30,137 69,138 Q102,138 109,108"/> 
            <glyph glyph-name="t" unicode="&#x74;" horiz-adv-x="74" d=" M72,11 L74,3 Q67,-2 53,-1 Q25,-3 26,29 L26,135 L3,135 L3,147 L26,147 L26,190 L41,197 L41,147 L71,147 L71,135 L41,135 L41,29 Q40,6 58,8 Q67,8 72,11"/> 
            <glyph glyph-name="u" unicode="&#x75;" horiz-adv-x="136" d=" M122,147 L136,147 L136,0 L122,0 L122,30 Q106,0 70,-1 Q17,-2 18,52 L18,147 L32,147 L32,55 Q32,7 73,8 Q116,11 122,58"/> 
            <glyph glyph-name="v" unicode="&#x76;" horiz-adv-x="137" d=" M121,147 L137,147 L77,0 L61,0 L3,147 L19,147 L69,12 L70,12"/> 
            <glyph glyph-name="w" unicode="&#x77;" horiz-adv-x="201" d=" M201,147 L186,147 L143,13 L142,13 L109,147 L94,147 L59,13 L58,13 L16,147 L1,147 L51,0 L66,0 L101,135 L102,135 L134,0 L150,0"/> 
            <glyph glyph-name="x" unicode="&#x78;" horiz-adv-x="138" d=" M134,147 L117,147 L71,82 L25,147 L8,147 L62,75 L2,0 L20,0 L71,68 L120,0 L138,0 L79,75"/> 
            <glyph glyph-name="y" unicode="&#x79;" horiz-adv-x="138" d=" M122,147 L138,147 L72,-6 Q55,-52 34,-48 Q19,-48 10,-43 L12,-34 Q20,-37 30,-37 Q47,-41 61,0 Q62,0 63,2 Q64,4 65,5 L4,147 L20,147 L71,20"/> 
            <glyph glyph-name="z" unicode="&#x7A;" horiz-adv-x="134" d=" M134,1 L134,13 L26,13 L130,140 L130,147 L12,147 L12,135 L109,135 L5,8 L5,1"/> 
            <glyph glyph-name="、" unicode="&#x3001;" horiz-adv-x="99" d=" M39,37 L49,46 L99,-10 L88,-19"/> 
            <glyph glyph-name="一" unicode="&#x4E00;" horiz-adv-x="249" d=" M7,104 L249,104 L249,89 L7,89"/> 
            <glyph glyph-name="万" unicode="&#x4E07;" horiz-adv-x="246" d=" M12,189 L246,189 L246,175 L103,175 Q102,145 99,118 L216,118 Q215,85 210,24 Q207,-22 164,-22 Q141,-22 120,-22 Q119,-12 117,-6 Q137,-7 162,-7 Q194,-9 196,25 Q200,61 200,104 L98,104 Q91,19 20,-29 Q19,-28 18,-27 Q12,-22 9,-18 Q82,29 84,114 Q87,140 88,175 L12,175"/> 
            <glyph glyph-name="不" unicode="&#x4E0D;" horiz-adv-x="247" d=" M14,189 L245,189 L245,175 L153,175 Q102,94 17,37 Q11,43 7,49 Q95,107 135,175 L14,175 M120,126 L134,126 L134,-30 L120,-30 M238,44 Q176,87 153,100 L162,111 Q168,107 180,99 Q228,69 247,56"/> 
            <glyph glyph-name="个" unicode="&#x4E2A;" horiz-adv-x="248" d=" M238,93 Q166,131 130,185 Q88,126 17,88 Q10,97 7,100 Q91,145 129,209 L143,206 L137,196 Q178,139 248,105 Q247,103 243,99 Q239,95 238,93 M121,119 L135,119 L135,-29 L121,-29"/> 
            <glyph glyph-name="乐" unicode="&#x4E50;" horiz-adv-x="249" d=" M235,84 L137,84 L137,5 Q138,-25 109,-25 Q94,-25 78,-25 Q78,-20 75,-11 Q92,-11 105,-11 Q125,-13 123,6 L123,84 L27,84 L41,187 Q117,188 222,196 L227,183 Q123,175 53,174 L43,97 L123,97 L123,154 L137,154 L137,97 L235,97 M237,-14 Q234,-11 228,-3 Q193,37 175,56 L186,64 Q199,49 225,20 Q242,2 249,-5 M68,63 L81,56 Q48,12 19,-15 Q16,-11 8,-5 Q44,28 68,63"/> 
            <glyph glyph-name="书" unicode="&#x4E66;" horiz-adv-x="242" d=" M104,209 L118,209 L118,163 L205,163 L200,91 L236,91 Q235,55 232,31 Q231,0 192,0 Q176,0 157,0 Q157,5 154,13 Q162,12 189,12 Q218,11 219,33 Q220,41 221,62 Q222,73 222,78 L118,78 L118,-29 L104,-29 L104,78 L9,78 L9,91 L104,91 L104,150 L26,150 L26,163 L104,163 M190,150 L118,150 L118,91 L186,91 M180,193 L189,203 Q195,198 209,189 Q232,173 242,166 L233,155 Q227,159 216,167 Q192,185 180,193"/> 
            <glyph glyph-name="了" unicode="&#x4E86;" horiz-adv-x="233" d=" M126,119 L214,176 L16,176 L16,190 L233,190 L233,173 L141,111 L141,16 Q142,-24 101,-23 Q82,-23 62,-23 Q61,-14 59,-6 Q72,-7 99,-7 Q128,-8 126,16"/> 
            <glyph glyph-name="事" unicode="&#x4E8B;" horiz-adv-x="249" d=" M24,27 L121,27 L121,50 L8,50 L8,61 L121,61 L121,84 L25,84 L25,95 L121,95 L121,114 L39,114 L39,158 L121,158 L121,177 L9,177 L9,188 L121,188 L121,211 L134,211 L134,188 L247,188 L247,177 L134,177 L134,158 L216,158 L216,114 L134,114 L134,95 L221,95 L221,61 L249,61 L249,50 L221,50 L221,3 L208,3 L208,16 L134,16 L134,3 Q136,-25 103,-25 Q99,-25 87,-26 Q75,-26 71,-26 Q71,-17 68,-12 Q70,-12 79,-12 Q95,-13 101,-13 Q123,-14 121,5 L121,16 L24,16 M134,50 L134,27 L208,27 L208,50 M208,84 L134,84 L134,61 L208,61 M203,148 L134,148 L134,124 L203,124 M52,148 L52,124 L121,124 L121,148"/> 
            <glyph glyph-name="作" unicode="&#x4F5C;" horiz-adv-x="249" d=" M86,101 Q81,106 75,110 Q111,153 129,210 L143,207 Q141,203 139,197 Q134,186 127,170 L249,170 L249,157 L158,157 L158,109 L236,109 L236,96 L158,96 L158,46 L242,46 L242,33 L158,33 L158,-29 L144,-29 L144,157 L121,157 Q108,128 86,101 M14,74 Q13,78 8,84 Q7,87 6,88 Q40,136 65,210 L78,206 Q67,176 55,149 L55,-29 L42,-29 L42,121 Q29,96 14,74"/> 
            <glyph glyph-name="做" unicode="&#x505A;" horiz-adv-x="250" d=" M240,-25 Q213,0 200,19 Q188,0 155,-30 Q154,-29 151,-26 Q147,-21 145,-19 Q180,11 193,33 Q176,66 170,118 Q169,116 168,113 Q161,100 157,94 Q156,96 148,104 Q176,150 188,209 L201,208 Q195,183 188,162 L248,162 L248,150 L235,150 Q230,74 208,32 Q220,10 250,-13 Q244,-19 240,-25 M104,208 L117,208 L117,157 L157,157 L157,145 L117,145 L117,92 L146,92 L146,5 L88,5 L88,-10 L75,-10 L75,92 L104,92 L104,145 L64,145 L64,157 L104,157 M12,79 Q11,81 9,87 Q6,92 5,94 Q34,140 54,209 L67,206 Q66,202 63,194 Q55,168 49,155 L49,-29 L36,-29 L36,125 Q24,100 12,79 M88,80 L88,17 L133,17 L133,80 M200,47 Q218,81 222,150 L184,150 Q184,149 183,148 Q183,145 180,140 Q186,79 200,47"/> 
            <glyph glyph-name="像" unicode="&#x50CF;" horiz-adv-x="246" d=" M76,136 Q72,140 66,146 Q106,174 128,210 L141,207 Q135,198 129,189 L200,189 L200,178 L177,152 L232,152 L232,103 L154,103 Q151,99 147,94 Q162,82 170,67 Q196,80 223,98 L230,88 Q224,84 212,77 Q204,72 199,69 Q210,23 246,0 Q240,-3 236,-9 Q200,17 188,63 Q187,62 184,61 Q182,60 174,56 Q180,39 180,12 Q181,-24 142,-25 Q133,-25 121,-25 Q121,-19 119,-12 Q128,-13 141,-13 Q168,-14 167,13 Q167,27 166,37 Q135,3 74,-18 Q73,-17 70,-13 Q67,-10 66,-8 Q130,13 163,50 Q160,59 155,68 Q123,33 74,17 Q71,24 66,28 Q119,46 149,76 Q145,82 139,87 Q123,71 74,52 Q73,54 70,58 Q67,62 66,63 Q120,82 139,103 L88,103 L88,145 Q82,141 76,136 M12,77 Q7,87 5,90 Q38,138 60,208 L72,205 Q66,185 52,151 Q51,149 51,148 L51,-28 L38,-28 L38,121 Q27,98 12,77 M184,178 L120,178 Q108,165 95,152 L161,152 M219,142 L169,142 Q166,126 161,114 L219,114 M100,142 L100,114 L147,114 Q155,126 156,142"/> 
            <glyph glyph-name="充" unicode="&#x5145;" horiz-adv-x="249" d=" M226,67 Q217,76 208,85 Q200,85 185,84 Q170,84 162,83 L162,8 Q161,-13 182,-12 L205,-12 Q229,-12 232,4 Q233,8 234,21 Q235,28 235,31 Q241,28 249,26 Q247,10 245,0 Q242,-26 205,-24 L179,-24 Q146,-25 148,4 L148,83 Q140,83 125,82 Q111,82 105,82 Q104,31 87,11 Q71,-10 18,-29 Q15,-23 9,-17 Q59,-1 74,17 Q90,35 91,81 Q86,81 77,80 Q69,80 65,80 Q48,80 39,78 L31,92 Q40,95 52,105 Q87,133 110,161 L13,161 L13,174 L127,174 Q122,193 117,206 L130,209 Q132,205 136,191 Q139,179 141,174 L245,174 L245,161 L116,161 L126,156 Q99,128 57,92 Q145,94 196,97 Q178,114 161,129 L171,138 Q200,112 237,77"/> 
            <glyph glyph-name="光" unicode="&#x5149;" horiz-adv-x="250" d=" M121,210 L135,210 L135,104 L248,104 L248,91 L165,91 L165,6 Q165,-10 185,-10 L212,-10 Q231,-11 233,3 Q233,5 234,10 Q236,26 236,37 Q240,35 248,34 Q249,33 250,33 Q247,12 246,0 Q241,-23 214,-23 L182,-23 Q152,-23 152,5 L152,91 L96,91 Q101,2 16,-29 Q15,-27 11,-23 Q8,-18 6,-16 Q86,7 82,91 L9,91 L9,104 L121,104 M179,126 L168,135 Q196,161 216,189 L228,180 Q207,155 179,126 M28,181 L39,189 Q52,175 77,145 Q82,140 84,137 L72,128 Q53,152 28,181"/> 
            <glyph glyph-name="克" unicode="&#x514B;" horiz-adv-x="249" d=" M121,211 L135,211 L135,182 L246,182 L246,169 L135,169 L135,136 L216,136 L216,58 L161,58 L161,4 Q160,-11 179,-11 L212,-11 Q230,-11 232,3 Q235,12 236,31 Q243,28 249,27 Q248,11 245,0 Q241,-24 214,-24 L175,-24 Q147,-24 147,2 L147,58 L103,58 Q105,-11 15,-30 Q14,-27 10,-20 Q9,-18 8,-17 Q92,-1 89,58 L40,58 L40,136 L121,136 L121,169 L9,169 L9,182 L121,182 M54,124 L54,70 L203,70 L203,124"/> 
            <glyph glyph-name="全" unicode="&#x5168;" horiz-adv-x="249" d=" M48,115 L207,115 L207,102 L135,102 L135,57 L217,57 L217,44 L135,44 L135,-3 L239,-3 L239,-16 L17,-16 L17,-3 L121,-3 L121,44 L39,44 L39,57 L121,57 L121,102 L48,102 M239,107 Q165,143 129,193 Q83,139 16,105 Q11,111 6,116 Q88,159 126,212 L141,209 Q139,206 136,203 Q177,151 249,120 Q246,115 239,107"/> 
            <glyph glyph-name="内" unicode="&#x5185;" horiz-adv-x="228" d=" M122,209 L136,209 Q136,184 136,165 L227,165 L227,4 Q228,-23 197,-24 Q178,-24 161,-24 Q160,-21 159,-14 Q158,-11 158,-9 Q171,-10 194,-10 Q214,-10 213,7 L213,152 L135,152 Q135,148 135,143 Q134,115 127,96 L134,103 Q173,71 200,45 L189,34 Q160,63 126,93 Q115,62 62,30 Q61,33 56,38 Q54,41 53,42 Q125,78 121,143 Q121,148 121,152 L42,152 L42,-27 L28,-27 L28,165 L122,165 Q122,184 122,209"/> 
            <glyph glyph-name="凌" unicode="&#x51CC;" horiz-adv-x="249" d=" M77,19 Q73,25 68,29 Q109,59 132,95 L145,90 Q138,82 132,73 L217,73 L217,60 Q199,31 172,10 Q198,-2 249,-13 Q248,-15 246,-18 Q243,-23 242,-26 Q190,-13 160,2 Q123,-16 72,-29 Q69,-23 64,-17 Q123,-1 147,10 Q124,28 111,49 Q101,39 80,21 Q81,22 77,19 M151,209 L164,209 L164,180 L231,180 L231,168 L164,168 L164,138 L244,138 L244,126 L72,126 L72,138 L151,138 L151,168 L84,168 L84,180 L151,180 M202,62 L122,62 Q122,61 120,59 Q137,34 159,18 Q182,33 202,62 M10,-15 Q29,35 40,83 Q43,81 48,79 Q52,77 54,76 Q39,28 25,-21 M65,82 Q97,99 123,119 L133,109 Q104,88 74,71 Q71,77 65,82 M177,109 L185,119 Q220,103 245,87 L237,76 Q210,92 177,109 M44,135 Q41,141 34,153 Q21,178 13,191 L25,197 Q42,168 57,142"/> 
            <glyph glyph-name="出" unicode="&#x51FA;" horiz-adv-x="229" d=" M33,100 L33,184 L47,184 L47,113 L121,113 L121,207 L134,207 L134,113 L209,113 L209,184 L222,184 L222,100 L134,100 L134,-3 L216,-3 L216,67 L229,67 L229,-25 L216,-25 L216,-16 L26,-16 L26,67 L40,67 L40,-3 L121,-3 L121,100"/> 
            <glyph glyph-name="动" unicode="&#x52A8;" horiz-adv-x="241" d=" M162,210 L175,210 Q175,187 175,157 L241,157 Q241,153 241,145 Q239,41 237,15 Q235,-22 201,-23 Q186,-23 170,-23 Q168,-14 165,-7 Q171,-7 182,-8 Q193,-8 199,-8 Q222,-9 223,15 Q227,88 227,144 L174,144 Q174,132 173,119 Q173,25 119,-29 Q117,-27 111,-23 Q108,-21 107,-20 Q158,28 159,120 Q160,124 160,132 Q161,140 161,144 L122,144 L122,157 L161,157 Q161,165 161,182 Q162,200 162,210 M108,0 Q105,5 102,11 Q80,10 47,7 Q36,6 30,5 Q25,4 18,3 Q19,3 14,2 L8,14 Q16,20 21,32 Q35,61 52,104 L8,104 L8,118 L123,118 L123,104 L67,104 Q48,58 28,17 Q61,19 97,23 Q93,32 84,52 Q79,61 77,66 L89,71 Q100,51 119,10 Q120,7 121,5 M19,188 L113,188 L113,175 L19,175"/> 
            <glyph glyph-name="协" unicode="&#x534F;" horiz-adv-x="252" d=" M133,209 L147,209 Q146,181 146,158 L207,158 Q207,94 203,17 Q204,-24 168,-23 Q152,-23 141,-23 Q140,-16 139,-10 Q139,-11 138,-8 Q147,-9 166,-9 Q189,-11 189,16 Q193,89 193,145 L145,145 Q145,136 144,122 Q144,113 144,110 Q141,14 80,-29 Q76,-24 68,-19 Q126,19 130,108 Q131,113 131,126 Q132,139 132,145 L90,145 L90,158 L132,158 Q133,177 133,209 M34,209 L48,209 L48,136 L76,136 L76,123 L48,123 L48,-29 L34,-29 L34,123 L6,123 L6,136 L34,136 M91,112 L103,109 Q92,73 77,44 Q69,47 64,49 Q80,80 91,112 M212,107 L225,113 Q229,105 236,90 Q247,67 252,54 L239,48 Q225,82 212,107"/> 
            <glyph glyph-name="卷" unicode="&#x5377;" horiz-adv-x="249" d=" M241,44 Q184,65 157,104 L100,104 Q88,86 69,70 L185,70 Q185,58 183,40 Q183,12 151,13 Q142,12 125,12 Q124,20 121,26 Q139,25 149,25 Q170,24 170,41 Q170,43 170,49 Q171,55 171,58 L74,58 L74,7 Q73,-12 97,-11 L176,-11 Q201,-12 207,5 Q207,7 208,12 Q210,20 211,26 Q214,25 218,23 Q223,21 225,20 Q222,9 219,0 Q211,-25 179,-24 L93,-24 Q60,-24 60,6 L60,62 Q40,46 13,31 Q12,32 11,35 Q9,38 5,44 Q54,67 83,104 L8,104 L8,116 L92,116 Q102,131 108,146 L23,146 L23,159 L113,159 Q123,189 125,211 L139,211 Q134,179 127,159 L234,159 L234,146 L123,146 Q117,131 109,116 L247,116 L247,104 L172,104 Q201,70 249,57 Q248,55 246,51 Q242,46 241,44 M41,197 L51,205 Q68,190 85,173 L74,163 Q61,177 41,197 M180,162 L169,170 Q183,184 200,205 L211,197 Q199,183 180,162"/> 
            <glyph glyph-name="双" unicode="&#x53CC;" horiz-adv-x="250" d=" M118,177 L118,190 L233,190 L233,177 Q219,85 185,41 Q208,9 250,-12 Q247,-14 241,-24 Q240,-25 240,-25 Q197,1 176,30 Q152,-1 99,-30 Q97,-27 93,-22 Q90,-18 90,-17 Q142,9 168,42 Q135,88 126,177 M13,144 L25,151 Q32,140 46,118 Q63,92 71,80 Q87,118 94,177 L9,177 L9,190 L108,190 L108,177 Q99,107 80,66 Q98,36 114,11 L101,3 Q97,9 90,21 Q78,41 72,50 Q54,16 18,-21 Q14,-16 7,-11 Q45,28 64,64 Q52,84 25,125 Q17,138 13,144 M219,177 L140,177 Q147,96 177,53 Q208,96 219,177"/> 
            <glyph glyph-name="口" unicode="&#x53E3;" horiz-adv-x="225" d=" M31,185 L225,185 L225,-19 L210,-19 L210,3 L46,3 L46,-19 L31,-19 M210,171 L46,171 L46,17 L210,17"/> 
            <glyph glyph-name="可" unicode="&#x53EF;" horiz-adv-x="249" d=" M35,134 L139,134 L139,36 L49,36 L49,16 L35,16 M8,190 L249,190 L249,177 L207,177 L207,5 Q208,-24 174,-24 Q159,-25 136,-25 Q136,-23 135,-20 Q134,-14 133,-10 Q155,-11 170,-11 Q194,-12 193,9 L193,177 L8,177 M49,122 L49,49 L126,49 L126,122"/> 
            <glyph glyph-name="喜" unicode="&#x559C;" horiz-adv-x="248" d=" M71,76 L80,83 L40,83 L40,126 L215,126 L215,83 L175,83 L187,76 Q177,64 167,54 L248,54 L248,43 L9,43 L9,54 L90,54 Q82,65 71,76 M38,24 L218,24 L218,-29 L205,-29 L205,-20 L51,-20 L51,-29 L38,-29 M31,156 L121,156 L121,176 L15,176 L15,187 L121,187 L121,209 L134,209 L134,187 L241,187 L241,176 L134,176 L134,156 L225,156 L225,145 L31,145 M51,13 L51,-9 L205,-9 L205,13 M54,115 L54,93 L202,93 L202,115 M102,61 L92,54 L151,54 Q167,72 174,83 L82,83 Q85,80 92,72 Q99,65 102,61"/> 
            <glyph glyph-name="器" unicode="&#x5668;" horiz-adv-x="248" d=" M241,53 Q153,57 131,98 L125,98 Q115,63 14,51 Q13,53 11,57 Q8,61 7,63 Q99,73 111,98 L15,98 L15,109 L116,109 Q119,118 120,130 L133,130 Q132,118 129,109 L180,109 Q176,116 170,126 L182,131 Q188,121 194,109 L243,109 L243,98 L145,98 Q168,67 248,66 Q247,64 243,57 Q241,54 241,53 M143,45 L227,45 L227,-29 L214,-29 L214,-16 L156,-16 L156,-28 L143,-28 M28,45 L111,45 L111,-28 L99,-28 L99,-16 L41,-16 L41,-29 L28,-29 M143,196 L226,196 L226,135 L143,135 M28,196 L110,196 L110,135 L28,135 M156,34 L156,-5 L214,-5 L214,34 M41,34 L41,-5 L99,-5 L99,34 M156,185 L156,146 L213,146 L213,185 M41,185 L41,146 L98,146 L98,185"/> 
            <glyph glyph-name="处" unicode="&#x5904;" horiz-adv-x="250" d=" M4,75 Q37,137 51,208 L66,206 Q60,182 53,159 L121,159 L121,144 Q113,79 82,35 Q108,5 142,-1 Q184,-10 250,-5 Q249,-8 247,-14 Q246,-18 245,-21 Q165,-22 141,-15 Q101,-8 74,24 Q55,-1 16,-30 Q11,-24 6,-19 Q44,7 66,35 Q45,65 35,108 Q27,87 15,66 Q8,73 4,75 M107,146 L49,146 Q46,137 43,129 Q53,78 74,47 Q101,88 107,146 M161,208 L174,208 L174,129 L182,137 Q212,116 244,92 L234,80 Q207,102 174,125 L174,9 L161,9"/> 
            <glyph glyph-name="够" unicode="&#x591F;" horiz-adv-x="247" d=" M23,127 L77,127 L77,32 L34,32 L34,18 L23,18 M14,116 Q11,122 6,127 Q34,164 49,210 L62,207 Q60,201 54,188 Q51,180 49,176 L114,176 Q114,86 111,15 Q111,-24 73,-24 Q57,-24 46,-24 Q46,-18 44,-10 Q47,-10 54,-10 Q64,-11 71,-11 Q99,-13 99,17 Q101,65 101,164 L43,164 Q31,140 14,116 M131,28 Q128,34 123,38 Q159,65 188,103 L199,98 Q192,88 184,79 L247,79 L247,67 Q212,0 122,-30 Q120,-25 114,-18 Q197,7 233,68 L174,68 Q167,59 158,52 Q166,45 183,28 L173,21 Q172,22 170,24 Q161,35 151,45 Q148,42 141,37 Q135,31 131,28 M129,135 Q125,141 120,144 Q151,172 174,208 L186,203 Q183,198 176,189 Q173,185 172,183 L237,183 L237,171 Q207,117 132,80 Q129,86 124,91 Q192,122 223,172 L163,172 Q162,171 161,170 Q158,165 152,159 Q165,148 177,136 L168,128 Q165,131 160,136 Q157,140 145,151 Q143,149 140,146 Q137,144 129,135 M34,116 L34,43 L65,43 L65,116"/> 
            <glyph glyph-name="大" unicode="&#x5927;" horiz-adv-x="248" d=" M20,-28 Q18,-26 15,-23 Q11,-18 9,-16 Q114,34 119,127 L10,127 L10,141 L120,141 Q123,174 122,209 L136,209 Q136,164 135,141 L246,141 L246,127 L135,127 Q150,30 248,-11 Q239,-21 238,-24 Q144,19 128,104 Q117,19 20,-28"/> 
            <glyph glyph-name="天" unicode="&#x5929;" horiz-adv-x="248" d=" M20,-28 Q14,-19 9,-16 Q108,25 117,99 L9,99 L9,113 L119,113 Q121,133 121,180 L23,180 L23,193 L234,193 L234,180 L135,180 Q135,135 133,113 L247,113 L247,99 L138,99 Q155,14 248,-12 Q245,-16 241,-21 Q239,-24 238,-25 Q144,7 128,89 Q115,13 20,-28"/> 
            <glyph glyph-name="头" unicode="&#x5934;" horiz-adv-x="247" d=" M9,74 L136,74 Q143,107 144,209 L158,209 Q157,111 151,74 L247,74 L247,61 L148,61 Q147,53 144,47 Q190,20 241,-11 L231,-24 Q211,-10 174,13 Q150,28 138,36 Q117,-1 19,-29 Q18,-27 15,-23 Q12,-18 10,-16 Q126,13 133,61 L9,61 M83,95 Q49,120 24,136 L32,146 Q61,129 92,107 M112,148 Q88,166 55,188 L63,198 Q96,177 122,159"/> 
            <glyph glyph-name="好" unicode="&#x597D;" horiz-adv-x="249" d=" M109,10 L98,0 Q88,7 65,27 Q50,3 17,-24 Q12,-19 6,-13 Q40,10 55,36 Q49,41 37,52 Q24,62 18,67 Q24,91 34,144 L10,144 L10,157 L37,157 Q39,166 41,183 Q44,201 45,209 L59,208 Q55,181 50,157 L97,157 L97,144 Q91,74 72,39 Q92,24 109,10 M154,-11 Q173,-12 172,6 L172,84 L103,84 L103,97 L172,97 L172,137 L222,180 L113,180 L113,192 L239,192 L239,177 L186,132 L186,97 L249,97 L249,84 L186,84 L186,4 Q187,-24 156,-25 Q139,-25 127,-25 Q126,-18 124,-10 Q139,-11 154,-11 M83,144 L48,144 Q40,102 47,138 Q40,102 31,72 Q34,70 41,65 Q45,62 62,48 Q80,85 83,144"/> 
            <glyph glyph-name="娱" unicode="&#x5A31;" horiz-adv-x="251" d=" M92,13 L82,2 Q78,6 71,13 Q63,21 59,24 Q46,2 16,-25 Q11,-20 6,-14 Q31,4 49,33 Q33,48 15,63 Q24,103 30,145 L10,145 L10,157 L32,157 Q35,173 38,205 Q36,184 39,210 L52,208 Q49,178 45,157 L87,157 L87,144 Q83,71 65,36 Q66,35 68,33 Q77,25 92,13 M110,198 L229,198 L229,130 L110,130 M93,56 L160,56 Q161,62 162,79 Q163,87 163,91 L101,91 L101,103 L241,103 L241,91 L176,91 Q176,71 173,56 L249,56 L249,44 L177,44 Q195,1 251,-14 Q250,-17 247,-21 Q245,-26 243,-28 Q185,-8 168,38 Q158,-5 87,-30 Q82,-24 79,-17 Q148,4 157,44 L93,44 M123,186 L123,142 L216,142 L216,186 M73,145 L43,145 Q37,105 29,67 Q42,57 55,45 Q72,80 73,145"/> 
            <glyph glyph-name="容" unicode="&#x5BB9;" horiz-adv-x="249" d=" M49,56 L206,56 L206,-29 L193,-29 L193,-16 L63,-16 L63,-29 L49,-29 M63,43 L63,-3 L193,-3 L193,43 M118,208 L132,211 Q135,195 138,180 L237,180 L237,140 L223,140 L223,168 L33,168 L33,140 L19,140 L19,180 L124,180 Q123,188 119,205 Q118,207 118,208 M242,43 Q166,70 128,113 Q87,71 15,39 Q11,46 6,51 Q86,84 129,132 L143,129 Q140,125 137,122 Q178,78 249,55 Q244,48 242,43 M92,151 L101,140 Q62,118 27,100 Q21,109 18,112 Q63,132 92,151 M228,102 Q192,122 154,140 L161,151 Q174,145 199,133 Q223,121 236,114"/> 
            <glyph glyph-name="寸" unicode="&#x5BF8;" horiz-adv-x="246" d=" M173,209 L187,209 L187,161 L246,161 L246,147 L187,147 L187,20 Q189,-24 144,-22 Q131,-23 95,-23 Q94,-20 93,-14 Q91,-9 91,-7 Q96,-7 107,-7 Q127,-8 140,-8 Q175,-11 173,23 L173,147 L10,147 L10,161 L173,161 M99,50 Q69,86 41,116 L52,125 Q84,91 111,59"/> 
            <glyph glyph-name="小" unicode="&#x5C0F;" horiz-adv-x="249" d=" M63,152 L78,147 Q54,81 23,23 Q16,28 8,31 Q40,82 63,152 M176,145 L189,151 Q208,117 249,34 L234,27 Q207,87 176,145 M123,207 L138,207 L138,4 Q139,-25 107,-26 Q91,-26 73,-26 Q72,-19 69,-11 Q85,-11 101,-11 Q125,-13 123,8"/> 
            <glyph glyph-name="尔" unicode="&#x5C14;" horiz-adv-x="247" d=" M78,209 L93,205 Q90,200 85,190 Q80,180 77,175 L244,175 L244,160 L217,116 Q212,119 203,122 L228,162 L68,162 Q50,133 19,102 Q16,107 9,112 Q56,158 78,209 M125,144 L139,144 L139,4 Q142,-27 106,-26 Q99,-26 79,-26 Q79,-19 76,-11 Q84,-12 104,-12 Q126,-13 125,5 M72,103 L86,97 Q56,39 23,-3 Q20,0 10,4 Q49,52 72,103 M172,95 L184,102 Q217,56 247,9 L233,1 Q192,67 172,95"/> 
            <glyph glyph-name="屏" unicode="&#x5C4F;" horiz-adv-x="249" d=" M236,138 L48,138 L48,101 Q48,50 42,25 Q35,-1 16,-28 Q11,-23 5,-20 Q24,5 29,29 Q35,52 35,101 L35,196 L236,196 M67,99 L164,99 Q182,125 188,137 L200,130 Q190,115 177,99 L234,99 L234,87 L192,87 L192,48 L249,48 L249,36 L192,36 L192,-29 L179,-29 L179,36 L118,36 Q117,-1 76,-30 Q69,-23 66,-21 Q104,4 105,36 L56,36 L56,48 L106,48 Q106,53 106,59 L106,87 L67,87 M48,184 L48,150 L223,150 L223,184 M119,59 Q119,53 119,48 L179,48 L179,87 L119,87 M97,130 L107,136 Q121,120 129,109 L118,101 Q117,103 114,107 Q104,122 97,130"/> 
            <glyph glyph-name="属" unicode="&#x5C5E;" horiz-adv-x="242" d=" M94,-3 L92,7 Q100,8 118,8 Q135,9 144,9 L144,35 L78,35 L78,-29 L65,-29 L65,45 L144,45 L144,64 L77,64 L77,105 L144,105 L144,124 Q129,124 101,123 Q76,123 65,123 L63,133 Q163,135 232,138 L234,127 Q195,125 156,125 L156,105 L224,105 L224,64 L156,64 L156,45 L240,45 L240,-1 Q242,-27 215,-27 Q204,-27 189,-27 Q189,-26 188,-22 Q187,-18 186,-16 Q194,-16 211,-16 Q229,-18 227,0 L227,35 L156,35 L156,10 Q162,10 174,11 Q185,11 191,12 Q190,13 189,16 Q186,20 185,24 L195,28 Q204,12 210,-1 L200,-6 Q199,-4 197,0 Q196,1 196,2 Q184,1 159,0 Q118,-1 94,-3 M36,197 L235,197 L235,153 L49,153 L49,111 Q49,54 43,28 Q37,1 17,-29 Q10,-22 6,-20 Q24,5 30,31 Q36,56 36,109 M49,187 L49,163 L223,163 L223,187 M212,95 L156,95 L156,74 L212,74 M89,95 L89,74 L144,74 L144,95"/> 
            <glyph glyph-name="工" unicode="&#x5DE5;" horiz-adv-x="246" d=" M10,1 L121,1 L121,173 L24,173 L24,187 L232,187 L232,173 L135,173 L135,1 L246,1 L246,-11 L10,-11"/> 
            <glyph glyph-name="幕" unicode="&#x5E55;" horiz-adv-x="249" d=" M242,18 Q239,19 233,21 Q223,24 208,29 L208,7 Q209,-11 184,-12 Q172,-12 159,-12 L157,0 Q160,0 181,0 Q197,-1 196,11 L196,28 L134,28 L134,-30 L122,-30 L122,28 L60,28 L60,-14 L47,-14 L47,30 Q40,26 25,20 Q18,17 14,16 Q11,22 7,28 Q53,43 80,65 L15,65 L15,76 L93,76 Q102,85 109,94 L42,94 L42,162 L214,162 L214,94 L123,94 Q117,85 109,76 L242,76 L242,65 L168,65 Q198,38 249,31 Q248,30 247,28 Q244,24 242,18 M159,210 L172,210 L172,193 L244,193 L244,182 L172,182 L172,168 L159,168 L159,182 L98,182 L98,168 L85,168 L85,182 L13,182 L13,193 L85,193 L85,210 L98,210 L98,193 L159,193 M55,151 L55,133 L201,133 L201,151 M55,123 L55,105 L201,105 L201,123 M122,57 L134,57 L134,39 L186,39 Q168,49 153,65 L99,65 Q84,51 63,39 L122,39"/> 
            <glyph glyph-name="平" unicode="&#x5E73;" horiz-adv-x="247" d=" M21,198 L236,198 L236,184 L135,184 L135,74 L247,74 L247,60 L135,60 L135,-30 L121,-30 L121,60 L9,60 L9,74 L121,74 L121,184 L21,184 M173,93 L161,102 Q192,137 209,162 L221,154 Q211,140 188,111 Q178,99 173,93 M35,154 L46,162 Q69,133 91,103 L78,94 Q57,126 35,154"/> 
            <glyph glyph-name="当" unicode="&#x5F53;" horiz-adv-x="229" d=" M31,57 L215,57 L215,106 L24,106 L24,119 L121,119 L121,209 L135,209 L135,119 L229,119 L229,-30 L215,-30 L215,-16 L16,-16 L16,-3 L215,-3 L215,45 L31,45 M165,144 Q189,166 214,195 L225,187 Q206,163 176,135 M33,188 L43,196 Q55,185 79,158 Q87,151 90,147 L78,137 Q76,139 73,143 Q47,174 33,188"/> 
            <glyph glyph-name="彩" unicode="&#x5F69;" horiz-adv-x="248" d=" M16,-6 Q15,-4 11,0 Q8,2 7,4 Q45,33 69,81 L15,81 L15,93 L70,93 L70,113 L83,113 L83,93 L135,93 L135,81 L83,81 L83,50 L89,57 Q111,42 138,22 L129,11 Q104,32 83,47 L83,-29 L70,-29 L70,62 Q51,22 16,-6 M132,-29 Q131,-27 127,-22 Q125,-18 124,-16 Q197,10 237,64 L248,56 Q206,1 132,-29 M15,179 Q14,185 12,191 Q87,194 137,199 L140,187 Q116,185 65,182 Q32,180 15,179 M147,69 Q200,96 229,132 L240,123 Q205,84 157,58 Q156,60 152,64 Q149,68 147,69 M144,139 Q191,162 223,199 L233,190 Q202,155 153,127 Q150,133 144,139 M113,114 L101,121 Q120,148 129,168 L141,162 Q136,153 125,135 Q118,122 113,114 M14,156 L26,161 Q43,131 48,120 L36,114 Q26,136 14,156 M62,168 L74,172 Q80,156 89,130 L77,126 Q71,148 62,168"/> 
            <glyph glyph-name="快" unicode="&#x5FEB;" horiz-adv-x="248" d=" M147,209 L161,209 Q161,185 161,165 L222,165 L222,86 L247,86 L247,73 L165,73 Q186,13 248,-12 Q245,-15 241,-21 Q239,-24 238,-25 Q172,9 154,69 Q144,13 80,-29 Q79,-27 75,-23 Q72,-19 70,-17 Q132,21 142,73 L81,73 L81,86 L144,86 Q147,104 147,153 L100,153 L100,165 L147,165 Q147,183 147,209 M44,209 L57,209 L57,159 L65,165 Q67,162 71,157 Q87,139 94,129 L83,121 Q69,141 57,156 L57,-29 L44,-29 M209,153 L161,153 Q161,107 158,86 L209,86 M17,151 L29,149 Q26,120 19,91 Q13,93 6,93 Q11,116 17,151"/> 
            <glyph glyph-name="惊" unicode="&#x60CA;" horiz-adv-x="246" d=" M101,136 L226,136 L226,66 L170,66 L170,-1 Q171,-26 145,-27 Q135,-27 120,-27 Q120,-21 117,-14 Q131,-14 140,-14 Q158,-15 157,-1 L157,66 L101,66 M114,124 L114,78 L212,78 L212,124 M40,209 L53,209 L53,158 L61,164 Q64,161 70,154 Q81,142 87,135 L77,127 Q75,130 70,136 Q59,149 53,156 L53,-29 L40,-29 M83,179 L159,179 Q155,195 150,207 L163,210 Q169,193 173,179 L246,179 L246,167 L83,167 M83,-16 Q78,-12 72,-7 Q93,11 114,46 L125,39 Q109,11 83,-16 M195,38 L205,45 Q211,38 222,24 Q238,3 246,-5 L234,-13 Q214,14 195,38 M18,155 L29,153 Q25,129 18,93 Q12,95 6,95 Q10,113 16,143 Q17,151 18,155"/> 
            <glyph glyph-name="戏" unicode="&#x620F;" horiz-adv-x="249" d=" M113,-20 Q107,-14 102,-9 Q138,11 164,38 Q154,71 150,126 L111,121 L108,134 L150,139 Q148,169 148,210 L161,210 Q161,198 162,175 Q162,150 163,140 L243,150 L244,137 L164,127 Q167,78 175,49 Q199,76 219,111 L231,105 Q204,60 179,34 Q194,-11 215,-13 Q225,-14 229,1 Q234,15 236,34 Q237,33 240,32 Q243,31 249,29 Q246,9 241,-5 Q235,-27 215,-27 Q187,-27 169,23 Q155,9 119,-16 Q115,-18 113,-20 M96,6 Q94,10 89,18 Q83,29 68,52 Q48,12 15,-19 Q14,-17 10,-13 Q7,-9 5,-7 Q41,26 59,66 Q37,100 14,134 L25,141 Q27,138 31,132 Q45,113 65,81 Q77,114 85,166 L12,166 L12,179 L98,179 L98,165 Q89,105 74,67 Q86,51 105,20 Q107,17 108,15 M177,185 L185,195 Q214,177 226,167 L217,157 Q214,159 206,165 Q187,179 177,185"/> 
            <glyph glyph-name="按" unicode="&#x6309;" horiz-adv-x="248" d=" M92,101 L130,101 Q141,123 148,144 L162,140 Q154,123 145,101 L248,101 L248,88 L217,88 Q205,44 180,20 Q187,16 202,8 Q231,-6 246,-15 L237,-27 Q203,-6 170,11 Q139,-12 81,-29 Q78,-23 73,-16 Q129,-3 157,18 Q132,33 103,48 Q114,65 125,88 L92,88 M9,63 L7,77 Q9,78 14,79 Q24,81 42,87 L42,148 L10,148 L10,160 L42,160 L42,209 L55,209 L55,160 L82,160 L82,148 L55,148 L55,91 Q69,96 82,100 Q82,93 83,87 Q79,86 69,83 Q60,80 55,78 L55,-2 Q56,-25 32,-26 Q24,-26 13,-26 Q13,-20 11,-12 Q14,-12 20,-13 Q27,-13 29,-13 Q43,-13 42,-1 L42,73 Q37,72 26,68 Q15,65 9,63 M121,52 Q131,47 152,35 Q163,30 168,27 Q193,51 203,88 L139,88 Q137,84 133,76 Q125,60 121,52 M152,204 L164,209 Q173,194 182,177 L170,173 L242,173 L242,131 L229,131 L229,160 L110,160 L110,131 L97,131 L97,173 L168,173 Q162,189 152,204"/> 
            <glyph glyph-name="挑" unicode="&#x6311;" horiz-adv-x="249" d=" M9,158 L42,158 L42,210 L55,210 L55,158 L82,158 L82,146 L55,146 L55,89 Q71,94 83,98 Q83,95 84,91 Q84,87 85,84 Q81,83 73,80 Q61,77 55,75 L55,0 Q56,-27 31,-26 Q24,-27 10,-27 Q10,-23 8,-15 Q10,-20 8,-13 Q12,-13 19,-14 Q25,-14 28,-14 Q43,-15 42,0 L42,71 Q26,66 9,60 L6,74 Q14,76 30,81 Q38,84 42,85 L42,146 L9,146 M237,48 Q230,52 217,60 Q210,65 188,78 L188,2 Q187,-11 204,-10 L215,-10 Q230,-10 233,3 Q233,6 234,12 Q236,24 236,31 Q239,29 247,27 Q248,27 249,27 Q248,11 245,0 Q240,-22 217,-22 L200,-22 Q175,-22 175,1 L175,207 L188,207 L188,92 Q192,90 200,85 Q229,70 245,60 M130,206 L143,206 L143,116 Q143,55 131,27 Q120,-1 83,-30 Q81,-27 73,-19 Q127,16 128,77 Q121,72 107,62 Q92,51 84,45 L77,58 Q103,73 129,92 Q129,95 129,103 Q130,112 130,116 M195,118 Q215,150 226,172 L238,166 Q222,135 206,111 M86,167 L97,172 Q101,163 111,141 Q119,123 122,116 L109,111 Q97,142 86,167"/> 
            <glyph glyph-name="接" unicode="&#x63A5;" horiz-adv-x="248" d=" M77,-29 Q76,-28 75,-25 Q73,-22 69,-16 Q123,-6 153,8 Q144,12 124,20 Q108,27 99,31 Q100,33 103,36 Q110,45 121,60 L82,60 L82,72 L129,72 Q138,86 145,99 L159,94 Q157,91 152,83 Q148,76 145,72 L247,72 L247,60 L214,60 Q198,28 180,10 Q184,8 192,5 Q212,-1 246,-15 L237,-27 Q230,-24 217,-18 Q184,-3 168,2 Q138,-18 77,-29 M8,63 L6,78 Q13,79 29,83 Q37,85 41,86 L41,148 L9,148 L9,160 L41,160 L41,210 L54,210 L54,160 L80,160 L80,148 L54,148 L54,90 Q60,91 72,95 Q78,96 81,97 Q81,94 82,90 Q82,86 82,84 Q79,83 74,82 Q70,81 54,77 L54,0 Q55,-27 29,-26 Q23,-27 8,-27 Q8,-25 7,-22 Q6,-16 5,-12 Q17,-13 27,-13 Q42,-14 41,0 L41,73 Q25,69 8,63 M83,120 L178,120 Q193,140 206,162 L218,155 Q216,152 212,147 Q199,129 192,120 L248,120 L248,108 L83,108 M118,35 Q142,26 165,16 Q185,32 199,60 L137,60 Q134,56 129,49 Q122,39 118,35 M153,205 L165,210 Q174,195 180,183 L169,178 L240,178 L240,166 L91,166 L91,178 L167,178 Q161,192 153,205 M114,155 L125,162 Q129,158 138,146 Q147,134 150,129 L138,122 Q131,133 114,155"/> 
            <glyph glyph-name="新" unicode="&#x65B0;" horiz-adv-x="249" d=" M114,-18 Q148,16 146,94 L146,189 Q187,191 238,198 L242,185 Q206,180 159,177 L159,113 L249,113 L249,101 L215,101 L215,-29 L201,-29 L201,101 L159,101 L159,93 Q161,13 126,-27 Q120,-23 114,-18 M64,103 L77,103 L77,77 L125,77 L125,65 L77,65 L77,1 Q78,-24 52,-25 Q43,-25 30,-25 Q30,-19 28,-12 Q38,-12 48,-12 Q64,-12 64,2 L64,65 L13,65 L13,77 L64,77 M7,122 L78,122 Q90,143 101,163 L113,157 Q103,139 92,122 L132,122 L132,111 L7,111 M57,207 L70,211 Q76,197 82,181 L125,181 L125,169 L14,169 L14,181 L68,181 Q62,197 57,207 M33,49 L44,44 Q29,11 19,-2 L8,2 Q16,15 33,49 M113,7 Q104,23 88,44 L98,51 Q106,42 118,23 Q122,18 124,15 M27,157 L38,163 Q48,149 58,131 L47,125 Q37,143 27,157"/> 
            <glyph glyph-name="更" unicode="&#x66F4;" horiz-adv-x="248" d=" M16,-31 Q13,-24 9,-18 Q67,-6 87,5 Q73,13 47,36 Q44,39 42,40 L52,49 Q77,25 98,15 Q115,32 118,57 L35,57 L35,157 L122,157 Q123,173 123,185 L16,185 L16,197 L240,197 L240,185 L136,185 Q136,173 136,157 L221,157 L221,45 L208,45 L208,57 L132,57 Q127,29 111,9 Q150,-5 248,-9 Q244,-17 242,-23 Q139,-18 101,0 Q83,-16 16,-31 M133,69 L208,69 L208,101 L135,101 Q135,95 134,85 Q134,74 133,69 M48,145 L48,113 L122,113 Q122,128 122,145 M120,69 Q121,74 121,85 Q122,95 122,101 L48,101 L48,69 M208,145 L136,145 Q135,128 135,113 L208,113"/> 
            <glyph glyph-name="有" unicode="&#x6709;" horiz-adv-x="245" d=" M71,-29 L57,-29 L57,103 Q39,83 15,62 Q9,70 6,73 Q56,113 87,164 L15,164 L15,176 L94,176 Q103,192 111,210 L125,207 Q118,191 109,176 L245,176 L245,164 L102,164 Q92,146 79,130 L216,130 L216,3 Q217,-24 186,-24 Q173,-25 151,-25 Q151,-17 147,-11 Q161,-11 183,-11 Q203,-12 202,5 L202,27 L71,27 M71,73 L71,39 L202,39 L202,73 M71,118 L71,85 L202,85 L202,118"/> 
            <glyph glyph-name="机" unicode="&#x673A;" horiz-adv-x="250" d=" M132,180 L132,109 Q132,51 123,25 Q115,-1 86,-28 Q82,-24 74,-18 Q103,8 111,31 Q119,54 119,110 L119,193 L203,193 L203,5 Q203,-8 213,-7 L218,-7 Q232,-7 233,7 Q236,23 237,47 Q244,44 250,42 Q249,15 246,3 Q242,-21 220,-20 L211,-20 Q189,-20 189,3 L189,180 M12,39 Q11,41 9,45 Q7,50 5,53 Q32,89 47,148 L11,148 L11,160 L47,160 L47,209 L60,209 L60,160 L95,160 L95,148 L60,148 L60,107 L67,115 Q89,95 100,84 L91,75 Q85,81 73,92 Q64,101 60,105 L60,-28 L47,-28 L47,122 Q33,67 12,39"/> 
            <glyph glyph-name="来" unicode="&#x6765;" horiz-adv-x="249" d=" M16,-12 Q15,-10 11,-6 Q8,-1 6,0 Q67,26 114,78 L10,78 L10,91 L121,91 L121,162 L25,162 L25,174 L121,174 L121,210 L135,210 L135,174 L233,174 L233,162 L135,162 L135,91 L246,91 L246,78 L142,78 Q185,28 249,4 Q245,-1 240,-8 Q170,21 135,70 L135,-30 L121,-30 L121,70 Q82,20 16,-12 M176,101 L166,111 Q176,121 193,141 Q198,146 200,149 L211,141 Q205,134 191,119 Q181,107 176,101 M47,142 L57,150 Q60,146 67,139 Q81,123 88,113 L77,104 Q62,125 47,142"/> 
            <glyph glyph-name="板" unicode="&#x677F;" horiz-adv-x="249" d=" M72,-19 Q109,22 106,97 L106,190 Q167,190 241,199 L245,186 Q196,181 119,177 L119,131 L234,131 L234,120 Q224,64 193,28 Q211,7 249,-14 Q245,-19 240,-26 Q204,-3 184,18 Q159,-6 119,-28 Q118,-26 115,-23 Q112,-19 110,-17 Q158,8 175,28 Q147,64 137,119 L119,119 L119,98 Q122,17 83,-27 Q82,-26 79,-24 Q75,-20 72,-19 M13,40 Q11,45 6,55 Q29,88 44,148 L7,148 L7,160 L45,160 L45,209 L57,209 L57,160 L91,160 L91,148 L57,148 L57,111 L62,115 Q79,101 94,86 L85,77 Q72,92 57,105 L57,-29 L45,-29 L45,123 Q33,75 13,40 M221,119 L150,119 Q159,71 184,38 Q211,71 221,119"/> 
            <glyph glyph-name="样" unicode="&#x6837;" horiz-adv-x="248" d=" M108,105 L162,105 L162,149 L102,149 L102,162 L177,162 Q195,187 209,210 L221,204 Q208,183 191,162 L240,162 L240,149 L175,149 L175,105 L233,105 L233,92 L175,92 L175,46 L248,46 L248,33 L175,33 L175,-29 L162,-29 L162,33 L89,33 L89,46 L162,46 L162,92 L108,92 M12,39 Q9,48 4,54 Q31,90 46,145 L10,145 L10,157 L46,157 L46,209 L60,209 L60,157 L89,157 L89,145 L60,145 L60,104 L67,110 Q82,95 98,79 L88,70 Q83,76 74,86 Q65,96 60,102 L60,-29 L46,-29 L46,118 Q34,74 12,39 M116,203 L126,210 Q139,195 154,176 L143,168 Q140,172 134,180 Q128,188 116,203"/> 
            <glyph glyph-name="游" unicode="&#x6E38;" horiz-adv-x="249" d=" M59,163 L143,163 L143,152 L92,152 Q92,143 91,127 Q91,114 91,108 L137,108 Q137,92 136,58 Q135,23 134,7 Q133,-22 104,-22 Q97,-22 88,-22 L86,-8 Q95,-9 101,-9 Q121,-10 121,8 Q121,16 122,35 Q124,79 124,97 L90,97 Q89,8 56,-28 Q52,-23 45,-19 Q66,8 72,41 Q79,72 79,152 L59,152 M194,87 L227,120 L162,120 L162,132 L241,132 L241,118 L207,83 L207,70 L249,70 L249,58 L207,58 L207,1 Q208,-24 180,-24 Q173,-25 156,-25 Q156,-23 155,-18 Q154,-13 153,-11 Q156,-11 164,-11 Q174,-12 178,-12 Q195,-13 194,4 L194,58 L148,58 L148,70 L194,70 M180,211 L193,208 Q186,189 178,173 L249,173 L249,161 L173,161 Q161,138 148,120 Q147,121 142,125 Q139,127 137,128 Q164,163 180,211 M12,-22 Q27,26 35,68 Q37,67 41,65 Q46,63 49,62 Q40,34 26,-27 M39,102 Q38,103 35,106 Q17,122 5,131 L14,140 Q36,124 48,112 M89,205 L101,209 Q107,195 115,170 L102,166 Q98,179 89,205 M45,167 Q29,182 14,195 L23,204 Q43,188 55,176"/> 
            <glyph glyph-name="满" unicode="&#x6EE1;" horiz-adv-x="246" d=" M148,27 Q138,39 127,51 Q120,25 99,1 Q97,3 94,6 Q90,9 88,10 Q118,37 120,83 L85,83 L85,-29 L72,-29 L72,95 L121,95 Q121,111 121,126 L67,126 L67,137 L246,137 L246,126 L190,126 Q190,111 190,95 L238,95 L238,0 Q239,-25 213,-26 Q210,-26 201,-26 Q190,-27 186,-27 Q186,-21 183,-13 Q191,-14 209,-14 Q226,-14 225,0 L225,83 L189,83 Q189,69 186,57 Q195,49 209,33 Q217,25 221,21 L212,12 Q201,26 183,45 Q174,18 153,-2 Q151,0 145,3 Q149,1 143,5 Q175,34 177,83 L132,83 Q132,74 130,64 Q145,49 157,36 M185,210 L198,210 L198,182 L246,182 L246,170 L198,170 L198,149 L185,149 L185,170 L128,170 L128,148 L115,148 L115,170 L67,170 L67,182 L115,182 L115,210 L128,210 L128,182 L185,182 M134,126 Q134,119 133,107 Q133,99 133,95 L178,95 Q178,111 178,126 M11,-22 Q20,8 35,70 Q42,67 48,65 Q36,22 25,-27 M49,163 Q28,182 12,196 L22,205 Q39,191 59,173 M43,97 Q30,109 6,128 L15,137 Q17,135 21,132 Q42,117 53,107"/> 
            <glyph glyph-name="然" unicode="&#x7136;" horiz-adv-x="249" d=" M16,105 Q10,111 6,113 Q43,154 67,211 L80,208 Q74,193 66,179 L128,179 L128,166 Q105,75 24,31 Q18,38 13,41 Q94,82 114,167 L60,167 Q59,165 57,162 Q55,158 54,156 Q62,153 78,143 Q86,139 89,137 L81,126 Q66,137 48,147 Q47,145 45,142 Q42,138 35,128 Q43,124 60,112 Q67,108 70,106 L62,95 Q45,108 28,119 Q25,114 16,105 M168,209 L182,209 Q182,189 180,146 L246,146 L246,134 L180,134 Q190,77 249,51 Q248,50 246,47 Q241,41 240,39 Q184,67 173,118 Q162,65 109,37 Q108,38 105,41 Q101,47 99,48 Q159,79 164,134 L131,134 L131,146 L166,146 Q168,164 168,209 M38,26 L51,20 Q50,18 47,13 Q35,-11 26,-27 L13,-21 Q29,4 38,26 M206,24 L217,30 Q233,8 246,-15 L233,-21 Q227,-10 215,8 Q209,18 206,24 M82,17 L94,22 Q95,20 97,16 Q108,-3 115,-18 L101,-24 Q93,-4 82,17 M144,19 L157,25 Q161,16 169,2 Q175,-8 178,-15 L165,-21 Q163,-17 160,-11 Q151,6 144,19 M194,189 L203,198 Q224,181 236,170 L226,161 Q225,162 223,163 Q211,175 194,189"/> 
            <glyph glyph-name="版" unicode="&#x7248;" horiz-adv-x="250" d=" M88,-19 Q106,6 112,30 Q118,54 118,102 L118,190 Q176,190 241,199 L245,186 Q199,181 130,177 L130,131 L236,131 L236,119 Q223,63 198,29 Q217,7 250,-13 Q246,-19 241,-26 Q205,0 189,19 Q168,-4 130,-28 Q129,-26 126,-23 Q123,-19 121,-17 Q164,9 180,30 Q156,63 146,119 L130,119 L130,102 Q130,52 124,26 Q117,0 99,-27 Q98,-26 95,-24 Q90,-21 88,-19 M67,208 L80,208 L80,133 L100,133 L100,121 L37,121 L37,77 L82,77 L82,-26 L69,-26 L69,66 L37,66 Q38,5 17,-28 Q12,-23 6,-19 Q26,7 24,77 L24,201 L37,201 L37,133 L67,133 M223,119 L159,119 Q167,74 189,40 Q212,70 223,119"/> 
            <glyph glyph-name="特" unicode="&#x7279;" horiz-adv-x="249" d=" M52,209 L65,209 L65,150 L95,150 L95,138 L65,138 L65,81 Q70,83 79,86 Q89,90 93,91 Q95,84 96,78 Q92,77 83,74 Q71,70 65,68 L65,-29 L52,-29 L52,63 Q31,56 9,47 L6,61 Q12,63 24,67 Q42,73 52,77 L52,138 L26,138 Q21,118 15,100 Q10,103 4,106 Q17,142 21,185 L34,184 Q31,166 28,150 L52,150 M167,210 L180,210 L180,175 L238,175 L238,163 L180,163 L180,121 L249,121 L249,109 L99,109 L99,121 L167,121 L167,163 L110,163 L110,175 L167,175 M199,97 L212,97 L212,70 L249,70 L249,58 L212,58 L212,0 Q213,-27 182,-27 Q169,-27 152,-27 Q152,-22 150,-15 Q150,-16 149,-13 Q159,-14 179,-14 Q200,-15 199,2 L199,58 L100,58 L100,70 L199,70 M112,38 L121,46 Q138,31 153,14 L142,5 Q133,18 112,38"/> 
            <glyph glyph-name="理" unicode="&#x7406;" horiz-adv-x="249" d=" M99,44 L162,44 L162,79 L104,79 L104,196 L233,196 L233,79 L175,79 L175,44 L239,44 L239,32 L175,32 L175,-8 L249,-8 L249,-20 L84,-20 L84,-8 L162,-8 L162,32 L99,32 M10,103 L42,103 L42,175 L8,175 L8,187 L88,187 L88,175 L55,175 L55,103 L87,103 L87,92 L55,92 L55,17 Q73,20 88,25 Q88,23 89,18 Q89,13 89,11 Q82,9 67,6 Q31,-1 9,-6 L6,6 Q14,8 33,12 Q39,13 42,14 L42,92 L10,92 M175,132 L175,91 L220,91 L220,132 M117,185 L117,143 L162,143 L162,185 M220,185 L175,185 L175,143 L220,143 M117,132 L117,91 L162,91 L162,132"/> 
            <glyph glyph-name="用" unicode="&#x7528;" horiz-adv-x="235" d=" M141,-26 L127,-26 L127,52 L48,52 Q46,10 19,-30 Q13,-24 6,-21 Q25,6 30,30 Q36,54 36,106 L36,195 L234,195 L234,3 Q235,-26 203,-26 Q189,-27 173,-27 Q173,-20 170,-12 Q180,-13 200,-13 Q221,-14 220,4 L220,52 L141,52 M220,182 L141,182 L141,130 L220,130 M141,117 L141,65 L220,65 L220,117 M50,106 Q50,97 49,82 Q49,70 49,65 L127,65 L127,117 L50,117 M50,182 L50,130 L127,130 L127,182"/> 
            <glyph glyph-name="电" unicode="&#x7535;" horiz-adv-x="247" d=" M112,210 L125,210 L125,176 L218,176 L218,42 L125,42 L125,13 Q124,-8 151,-7 L201,-7 Q226,-8 229,7 Q232,22 234,36 Q243,33 247,32 Q244,10 241,0 Q236,-22 204,-21 L147,-21 Q110,-22 112,12 L112,42 L33,42 L33,24 L20,24 L20,176 L112,176 M125,55 L204,55 L204,103 L125,103 M33,103 L33,55 L112,55 L112,103 M204,163 L125,163 L125,115 L204,115 M33,163 L33,115 L112,115 L112,163"/> 
            <glyph glyph-name="的" unicode="&#x7684;" horiz-adv-x="239" d=" M17,168 L43,168 Q51,192 55,209 L69,206 Q63,186 57,168 L108,168 L108,-24 L94,-24 L94,-4 L30,-4 L30,-26 L17,-26 M130,114 Q128,115 124,118 Q120,120 118,121 Q140,157 156,209 L170,206 Q164,188 156,169 L239,169 Q239,164 239,153 Q237,64 234,16 Q235,-23 191,-24 Q171,-24 152,-24 Q152,-23 151,-21 Q150,-13 148,-10 Q162,-11 189,-11 Q221,-12 221,18 Q223,43 224,123 Q225,146 225,156 L151,156 Q138,127 130,114 M30,76 L30,7 L94,7 L94,76 M30,156 L30,88 L94,88 L94,156 M141,102 L151,110 Q153,107 157,102 Q179,75 191,57 L180,49 Q161,77 141,102"/> 
            <glyph glyph-name="目" unicode="&#x76EE;" horiz-adv-x="218" d=" M38,197 L218,197 L218,-28 L204,-28 L204,-7 L52,-7 L52,-28 L38,-28 M204,133 L204,185 L52,185 L52,133 M204,68 L204,120 L52,120 L52,68 M204,3 L204,56 L52,56 L52,3"/> 
            <glyph glyph-name="相" unicode="&#x76F8;" horiz-adv-x="238" d=" M112,193 L238,193 L238,-29 L225,-29 L225,-12 L126,-12 L126,-29 L112,-29 M13,39 Q12,42 9,46 Q7,51 5,53 Q34,93 48,146 L10,146 L10,158 L48,158 L48,208 L62,208 L62,158 L97,158 L97,146 L62,146 L62,103 L69,110 Q85,95 101,79 L91,70 Q90,71 89,73 Q77,86 62,101 L62,-29 L48,-29 L48,118 Q36,72 13,39 M126,51 L126,0 L225,0 L225,51 M126,180 L126,128 L225,128 L225,180 M126,116 L126,63 L225,63 L225,116"/> 
            <glyph glyph-name="看" unicode="&#x770B;" horiz-adv-x="248" d=" M27,159 L107,159 Q113,171 117,183 Q73,181 25,181 L23,193 Q158,195 227,200 L230,188 Q184,185 131,184 Q127,171 121,159 L229,159 L229,148 L116,148 Q115,146 114,143 Q107,130 103,124 L248,124 L248,112 L96,112 Q88,100 79,90 L217,90 L217,-30 L204,-30 L204,-19 L74,-19 L74,-30 L61,-30 L61,69 Q42,48 15,29 Q12,32 6,40 Q52,72 81,112 L10,112 L10,124 L88,124 Q95,133 102,148 L27,148 M74,13 L74,-7 L204,-7 L204,13 M74,46 L74,24 L204,24 L204,46 M74,79 L74,57 L204,57 L204,79"/> 
            <glyph glyph-name="眼" unicode="&#x773C;" horiz-adv-x="249" d=" M133,-8 Q136,-6 144,-3 Q155,1 176,13 Q176,6 178,0 Q164,-5 136,-20 Q134,-21 131,-24 Q126,-27 123,-29 L114,-19 Q120,-12 120,0 L120,198 L230,198 L230,86 L171,86 Q177,61 188,42 Q215,59 236,74 L244,63 Q235,57 213,44 Q201,37 195,33 Q211,8 249,-10 Q243,-16 239,-21 Q171,14 158,86 L133,86 M23,195 L90,195 L90,-17 L78,-17 L78,3 L36,3 L36,-23 L23,-23 M133,98 L217,98 L217,137 L133,137 M133,186 L133,148 L217,148 L217,186 M36,63 L36,14 L78,14 L78,63 M36,183 L36,134 L78,134 L78,183 M36,123 L36,74 L78,74 L78,123"/> 
            <glyph glyph-name="米" unicode="&#x7C73;" horiz-adv-x="249" d=" M16,-12 Q13,-6 6,0 Q77,38 108,96 L9,96 L9,109 L122,109 L122,207 L136,207 L136,109 L247,109 L247,96 L150,96 Q183,37 249,5 Q248,4 246,1 Q244,0 239,-7 Q165,32 138,96 L136,96 L136,-29 L122,-29 L122,96 L120,96 Q90,29 16,-12 M31,183 L42,191 Q69,161 88,138 L76,129 Q59,152 31,183 M181,128 L169,136 Q184,152 208,184 Q211,188 213,190 L225,183 Q206,158 181,128"/> 
            <glyph glyph-name="精" unicode="&#x7CBE;" horiz-adv-x="249" d=" M124,-29 L111,-29 L111,91 L232,91 L232,0 Q233,-27 206,-26 Q202,-26 191,-26 Q180,-27 175,-27 Q175,-19 172,-13 Q183,-14 203,-14 Q221,-15 220,0 L220,15 L124,15 M112,154 L165,154 L165,175 L105,175 L105,186 L165,186 L165,210 L178,210 L178,186 L246,186 L246,175 L178,175 L178,154 L239,154 L239,143 L178,143 L178,121 L249,121 L249,110 L101,110 L101,121 L165,121 L165,143 L112,143 M9,118 L47,118 L47,208 L59,208 L59,118 L93,118 L93,106 L59,106 L59,75 L68,82 Q69,81 70,80 Q91,54 98,44 L87,36 Q81,44 70,60 Q62,70 59,74 L59,-28 L47,-28 L47,79 Q34,38 13,9 Q12,12 9,17 Q7,21 6,22 Q33,57 46,106 L9,106 M124,48 L124,26 L220,26 L220,48 M124,80 L124,58 L220,58 L220,80 M78,134 L67,138 Q78,162 87,185 L98,181 Q89,159 78,134 M8,181 L19,185 Q30,160 38,138 L27,134 Q26,136 25,140 Q15,165 8,181"/> 
            <glyph glyph-name="素" unicode="&#x7D20;" horiz-adv-x="247" d=" M35,154 L122,154 L122,175 L19,175 L19,186 L122,186 L122,211 L135,211 L135,186 L237,186 L237,175 L135,175 L135,154 L221,154 L221,143 L135,143 L135,122 L246,122 L246,111 L120,111 L130,105 Q119,101 96,94 Q76,88 65,84 Q110,86 150,87 Q170,95 186,102 L197,93 Q134,68 58,43 Q83,44 136,45 Q174,47 191,47 Q179,55 167,64 L176,72 Q210,50 234,31 L225,22 Q216,28 206,36 Q162,36 137,35 L137,2 Q139,-25 109,-25 Q94,-25 82,-25 Q82,-23 81,-19 Q80,-14 79,-12 Q91,-12 105,-12 Q125,-13 124,4 L124,35 Q113,35 117,35 Q72,33 56,33 Q52,33 45,32 Q37,32 33,31 L27,44 Q37,46 52,51 Q57,53 68,56 Q105,69 124,77 Q70,76 39,73 L34,86 Q47,89 54,91 Q85,100 110,111 L9,111 L9,122 L122,122 L122,143 L35,143 M169,12 L177,23 Q216,6 247,-7 L238,-18 Q225,-11 184,5 Q174,10 169,12 M77,22 L85,12 Q49,-4 14,-18 Q12,-13 7,-6 Q44,5 77,22"/> 
            <glyph glyph-name="线" unicode="&#x7EBF;" horiz-adv-x="250" d=" M93,86 L144,93 Q141,113 139,136 L98,131 L96,143 L138,148 Q136,176 136,209 L150,209 Q150,176 152,150 L240,160 L242,148 L153,138 Q154,114 157,95 L247,108 L248,96 L159,83 Q163,61 170,41 Q171,40 172,37 Q173,35 173,33 Q200,53 222,78 L232,69 Q205,41 178,20 Q196,-15 215,-14 Q226,-14 230,0 Q236,24 237,35 Q244,32 250,30 Q247,8 242,-5 Q236,-27 216,-27 Q187,-28 167,13 Q133,-8 92,-24 Q88,-17 83,-12 Q133,5 161,25 Q160,29 158,35 Q151,56 146,81 L95,74 M31,60 Q40,61 57,62 Q76,64 85,65 Q85,64 84,62 Q83,56 83,52 Q48,50 16,46 L10,59 Q17,63 24,72 Q39,90 54,116 Q29,116 11,114 L6,127 Q11,132 16,139 Q38,171 56,210 L70,204 Q68,200 63,192 Q34,143 23,127 Q28,127 40,127 Q55,128 61,128 Q70,143 78,157 L91,151 Q58,98 31,60 M8,4 Q19,5 61,13 Q81,16 90,18 Q89,9 89,4 Q51,0 12,-8 M174,196 L182,205 Q202,191 218,176 L209,167 Q194,181 174,196"/> 
            <glyph glyph-name="练" unicode="&#x7EC3;" horiz-adv-x="251" d=" M95,178 L140,178 Q142,184 146,195 Q149,206 151,211 L164,208 Q163,205 161,199 Q160,195 154,178 L243,178 L243,167 L150,167 Q148,161 144,150 Q139,138 137,132 L185,132 L185,77 L241,77 L241,66 L185,66 L185,1 Q186,-24 160,-25 Q145,-25 135,-25 Q135,-23 133,-16 Q132,-13 132,-12 Q147,-12 155,-12 Q173,-14 172,4 L172,66 L102,66 L102,79 Q107,89 117,115 Q118,119 119,121 L97,121 L97,132 L124,132 Q130,149 136,167 L95,167 M30,59 Q31,59 33,59 Q55,62 86,67 Q86,65 85,60 Q85,56 84,53 Q41,49 15,43 L9,56 Q16,60 20,66 Q30,77 54,113 Q28,113 10,111 L6,123 Q13,127 16,133 Q33,162 57,211 L70,206 Q44,156 24,124 Q32,124 45,125 Q56,125 61,125 Q72,142 79,155 L92,149 Q55,91 30,59 M115,77 L172,77 L172,121 L133,121 Q124,98 115,77 M9,-6 L6,6 Q29,9 75,18 Q84,19 88,20 Q88,15 88,6 Q49,0 9,-6 M131,46 L142,40 Q122,9 101,-14 Q96,-9 90,-5 Q109,13 131,46 M205,39 L216,46 Q222,37 237,16 Q247,2 251,-3 L239,-11 Q228,5 205,39"/> 
            <glyph glyph-name="继" unicode="&#x7EE7;" horiz-adv-x="247" d=" M129,25 Q125,33 121,37 Q152,65 173,107 L124,107 L124,119 L175,119 L175,209 L187,209 L187,119 L242,119 L242,107 L187,107 L187,82 L194,88 Q215,68 237,44 L227,36 Q217,47 200,65 Q191,74 187,79 L187,2 L175,2 L175,91 Q158,55 129,25 M98,199 L111,199 L111,-6 L247,-6 L247,-19 L98,-19 M29,64 Q38,65 57,67 Q73,68 82,69 Q82,67 81,62 Q81,58 81,57 Q43,54 15,50 L10,64 Q11,64 11,65 Q18,70 24,78 Q27,83 36,96 Q46,111 52,120 Q26,120 10,118 L6,131 Q12,136 16,142 Q33,171 51,207 L64,201 Q60,194 52,180 Q44,165 23,131 Q28,131 40,131 Q53,132 59,132 Q68,147 77,162 L90,156 Q66,115 29,64 M7,6 Q34,11 68,16 Q80,17 84,18 Q84,15 83,11 Q83,7 83,5 Q74,4 57,1 Q26,-1 9,-5 M211,135 L200,141 Q205,149 217,171 Q223,182 226,187 L237,182 Q232,172 218,147 Q213,139 211,135 M128,181 L139,186 Q141,181 146,171 Q155,152 160,141 L148,136 Q139,159 128,181"/> 
            <glyph glyph-name="续" unicode="&#x7EED;" horiz-adv-x="248" d=" M173,114 L186,114 Q186,71 181,46 L248,46 L248,34 L178,34 Q177,30 174,25 Q212,5 245,-16 L236,-27 Q191,1 168,15 Q148,-10 87,-30 Q86,-28 82,-23 Q80,-19 79,-17 Q155,3 164,34 L91,34 L91,46 L168,46 Q173,69 173,114 M162,210 L175,210 L175,181 L235,181 L235,169 L175,169 L175,138 L245,138 L245,126 L238,95 Q236,96 232,96 Q227,97 225,97 L233,126 L93,126 L93,138 L162,138 L162,169 L104,169 L104,181 L162,181 M24,129 Q45,129 59,130 Q68,145 77,160 L90,155 Q52,95 31,64 Q38,64 54,66 Q73,67 82,68 Q82,67 82,64 Q81,59 81,56 Q37,54 16,50 L11,63 Q18,67 25,77 Q39,97 52,118 Q33,117 13,115 Q14,115 10,115 L6,129 Q13,134 18,141 Q41,174 57,211 L71,206 Q44,157 24,129 M10,-5 L7,6 Q11,7 20,8 Q61,14 82,17 Q82,12 82,5 Q69,3 41,0 Q20,-3 10,-5 M94,80 L100,89 Q116,82 138,69 L131,58 Q122,64 104,74 Q97,78 94,80 M114,106 L120,116 Q137,108 156,97 L149,86 Q127,99 114,106"/> 
            <glyph glyph-name="网" unicode="&#x7F51;" horiz-adv-x="231" d=" M37,-27 L24,-27 L24,195 L231,195 L231,3 Q231,-25 203,-25 Q189,-26 170,-26 Q170,-24 169,-21 Q168,-14 167,-11 Q176,-12 197,-12 Q219,-13 218,5 L218,182 L37,182 M128,139 L139,145 Q146,133 160,109 Q165,100 168,95 Q183,125 193,153 L205,148 Q195,119 175,82 Q179,75 187,61 Q192,52 207,24 L195,18 Q183,41 192,24 Q183,41 168,68 Q151,38 134,12 Q130,16 122,20 Q147,56 161,81 Q155,92 143,113 Q133,131 128,139 M50,145 L60,151 Q66,141 78,121 Q87,107 91,100 Q92,103 94,108 Q108,139 112,154 L125,150 Q113,118 98,88 Q113,63 126,38 L114,31 Q102,55 91,73 Q74,42 56,16 Q55,16 54,18 Q51,20 45,23 Q68,56 84,87 Q79,95 70,111 Q57,133 50,145"/> 
            <glyph glyph-name="膜" unicode="&#x819C;" horiz-adv-x="249" d=" M96,37 L160,37 Q162,48 162,61 L109,61 L109,143 L230,143 L230,61 L175,61 Q175,57 174,49 Q174,41 173,37 L244,37 L244,25 L179,25 Q195,-5 249,-14 Q247,-17 243,-24 Q242,-26 242,-27 Q184,-14 169,20 Q160,-11 95,-30 Q92,-24 88,-17 Q151,-3 157,25 L96,25 M24,195 L84,195 L84,0 Q85,-25 60,-24 Q51,-25 43,-25 Q43,-18 41,-12 Q50,-12 58,-12 Q72,-13 71,1 L71,56 L37,56 Q38,5 17,-28 Q8,-22 6,-20 Q26,7 24,65 M97,185 L134,185 L134,209 L146,209 L146,185 L192,185 L192,209 L205,209 L205,185 L243,185 L243,174 L205,174 L205,154 L192,154 L192,174 L146,174 L146,154 L134,154 L134,174 L97,174 M121,132 L121,108 L217,108 L217,132 M121,97 L121,73 L217,73 L217,97 M37,120 L37,67 L71,67 L71,120 M37,183 L37,131 L71,131 L71,183"/> 
            <glyph glyph-name="般" unicode="&#x822C;" horiz-adv-x="249" d=" M8,100 L28,100 L28,182 L52,182 Q57,198 58,211 L72,209 Q71,205 69,196 Q66,187 65,182 L102,182 L102,0 Q102,-24 80,-24 Q67,-25 56,-25 Q54,-17 54,-12 Q64,-12 74,-12 Q90,-13 89,0 L89,88 L41,88 L41,74 Q43,10 17,-28 Q13,-24 5,-20 Q30,10 28,74 L28,88 L8,88 M117,81 L117,94 L228,94 L228,81 Q208,38 186,16 Q202,2 249,-13 Q243,-20 240,-26 Q201,-11 176,7 Q152,-11 110,-30 Q108,-27 102,-17 Q145,0 166,16 Q143,39 128,81 M231,125 Q241,125 248,125 Q248,123 247,119 Q247,116 246,113 Q237,112 227,112 Q203,111 203,140 L203,183 L151,183 L151,175 Q154,122 119,102 Q118,103 116,105 Q112,111 110,112 Q142,129 138,175 L138,196 L216,196 L216,142 Q215,124 231,125 M41,170 L41,100 L89,100 L89,170 M214,81 L141,81 Q156,46 176,25 Q195,43 214,81 M66,31 Q64,37 61,47 Q56,64 53,73 L64,76 Q72,56 78,35 M66,115 Q63,123 58,136 Q54,146 52,151 L63,155 Q71,137 77,120"/> 
            <glyph glyph-name="节" unicode="&#x8282;" horiz-adv-x="248" d=" M20,114 L221,114 Q221,97 219,66 Q218,54 218,48 Q216,3 172,4 Q154,4 140,4 Q139,13 137,19 Q139,19 145,19 Q160,18 170,18 Q203,15 204,47 Q205,61 207,101 L99,101 L99,-30 L85,-30 L85,101 L20,101 M165,209 L178,209 L178,176 L248,176 L248,163 L178,163 L178,135 L165,135 L165,163 L91,163 L91,135 L77,135 L77,163 L8,163 L8,176 L77,176 L77,209 L91,209 L91,176 L165,176"/> 
            <glyph glyph-name="英" unicode="&#x82F1;" horiz-adv-x="248" d=" M241,-28 Q152,-11 129,41 Q110,-7 16,-30 Q14,-24 9,-16 Q97,2 118,47 L8,47 L8,59 L40,59 L40,126 L122,126 L122,150 L136,150 L136,126 L216,126 L216,59 L248,59 L248,47 L139,47 Q165,-2 247,-13 Q246,-15 245,-18 Q242,-25 241,-28 M168,210 L181,210 L181,180 L247,180 L247,168 L181,168 L181,145 L168,145 L168,168 L89,168 L89,145 L75,145 L75,168 L9,168 L9,180 L75,180 L75,210 L89,210 L89,180 L168,180 M120,59 Q122,77 122,114 L54,114 L54,59 M136,114 Q136,104 135,87 Q135,67 134,59 L202,59 L202,114"/> 
            <glyph glyph-name="蔽" unicode="&#x853D;" horiz-adv-x="250" d=" M241,-25 Q213,-5 198,12 Q179,-9 149,-30 Q148,-29 148,-28 Q144,-22 140,-19 Q175,2 189,23 Q173,49 166,90 Q160,78 152,65 Q148,70 142,74 Q163,104 180,153 L193,150 Q187,137 183,123 L246,123 L246,111 L230,111 Q226,54 205,23 Q218,5 250,-14 Q249,-16 246,-20 Q243,-23 241,-25 M71,153 L84,153 L84,104 L137,104 L137,-1 Q137,-25 116,-25 Q107,-26 97,-26 Q96,-20 93,-13 Q103,-14 112,-14 Q125,-14 125,-1 L125,92 L84,92 L84,-24 L71,-24 L71,92 L31,92 L31,-27 L18,-27 L18,104 L71,104 M157,210 L170,210 L170,187 L248,187 L248,175 L170,175 L170,156 L157,156 L157,175 L98,175 L98,159 L85,159 L85,175 L8,175 L8,187 L85,187 L85,210 L98,210 L98,187 L157,187 M197,35 Q214,62 218,111 L177,111 Q177,109 175,107 Q182,61 197,35 M50,71 L62,69 Q61,65 59,56 Q53,30 48,15 L36,19 Q43,41 50,71 M105,19 Q101,36 93,63 Q92,67 91,69 L103,72 Q104,68 107,60 Q114,37 118,23 M98,122 Q101,125 107,131 Q118,141 124,148 L133,140 Q121,127 107,113 M21,140 L30,148 Q33,145 39,139 Q50,129 56,122 L46,113 Q32,131 21,140"/> 
            <glyph glyph-name="薄" unicode="&#x8584;" horiz-adv-x="249" d=" M91,40 L78,40 L78,120 L147,120 L147,138 L70,138 L70,148 L147,148 L147,163 L159,163 L159,148 L200,148 Q199,151 197,157 Q195,162 194,165 L205,168 Q205,167 206,165 Q209,161 212,148 L243,148 L243,138 L159,138 L159,120 L228,120 L228,44 L215,44 L215,53 L159,53 L159,41 L147,41 L147,53 L91,53 M162,209 L175,209 L175,188 L249,188 L249,177 L175,177 L175,166 L162,166 L162,177 L96,177 L96,161 L83,161 L83,177 L8,177 L8,188 L83,188 L83,209 L96,209 L96,188 L162,188 M197,41 L210,41 L210,29 L249,29 L249,18 L210,18 L210,2 Q211,-24 179,-25 Q163,-25 149,-25 Q149,-20 147,-12 Q148,-12 156,-12 Q173,-13 178,-13 Q198,-14 197,2 L197,18 L61,18 L61,29 L197,29 M27,-29 L13,-23 Q31,23 39,57 Q46,53 52,51 Q50,45 46,33 Q33,-7 27,-29 M159,81 L159,63 L215,63 L215,81 M215,109 L159,109 L159,91 L215,91 M91,81 L91,63 L147,63 L147,81 M91,109 L91,91 L147,91 L147,109 M7,102 L16,111 Q35,99 51,85 L42,75 Q23,92 7,102 M21,148 L29,157 Q43,148 65,131 L56,122 Q39,136 21,148 M93,8 L103,16 Q118,3 133,-8 L124,-17 Q123,-16 121,-15 Q103,1 93,8"/> 
            <glyph glyph-name="视" unicode="&#x89C6;" horiz-adv-x="249" d=" M109,198 L229,198 L229,54 L216,54 L216,185 L123,185 L123,50 L109,50 M11,145 L11,158 L83,158 L83,144 Q70,119 57,102 L57,-29 L43,-29 L43,85 Q30,69 12,53 Q11,55 8,63 Q7,66 6,68 Q42,96 69,145 M162,162 L175,162 Q175,119 173,100 Q172,11 85,-29 Q80,-24 74,-18 Q161,21 160,100 Q162,131 162,162 M172,67 L185,67 L185,8 Q184,-10 203,-9 L214,-9 Q230,-9 233,5 Q236,22 236,36 Q240,34 249,31 Q249,18 246,3 Q243,-22 214,-21 L200,-21 Q172,-22 172,7 M33,202 L45,208 Q48,203 56,189 Q64,174 67,169 L54,163 Q38,195 33,202 M63,88 L72,96 Q79,89 91,76 Q98,68 100,66 L89,57 Q81,67 63,88"/> 
            <glyph glyph-name="解" unicode="&#x89E3;" horiz-adv-x="248" d=" M16,133 Q15,134 11,138 Q8,141 6,142 Q38,172 56,210 L68,205 Q62,193 55,183 L105,183 L105,170 L84,143 L116,143 L116,-1 Q117,-25 91,-25 Q89,-25 84,-25 Q76,-26 73,-26 Q73,-19 71,-13 Q78,-13 88,-13 Q105,-14 104,0 L104,39 L76,39 L76,0 L64,0 L64,39 L36,39 Q36,-1 17,-28 Q12,-23 6,-21 Q27,5 25,57 L25,142 Q21,138 16,133 M185,113 L198,113 L198,84 L242,84 L242,72 L198,72 L198,33 L248,33 L248,21 L198,21 L198,-30 L185,-30 L185,21 L124,21 L124,33 L185,33 L185,72 L149,72 Q143,58 137,47 Q130,51 125,52 Q139,77 149,109 L162,106 Q161,103 158,95 Q156,88 154,84 L185,84 M122,122 Q164,140 162,180 L132,180 L132,193 L236,193 Q236,187 235,175 Q234,159 233,150 Q232,122 203,122 Q190,122 180,122 Q180,128 178,135 Q189,135 202,135 Q220,134 220,152 Q222,166 222,180 L175,180 Q178,134 131,112 Q129,115 122,122 M48,172 Q38,156 25,143 L68,143 L91,172 M76,85 L76,50 L104,50 L104,85 M104,131 L76,131 L76,96 L104,96 M37,55 L37,50 L64,50 L64,85 L37,85 M37,131 L37,96 L64,96 L64,131"/> 
            <glyph glyph-name="触" unicode="&#x89E6;" horiz-adv-x="250" d=" M16,133 Q15,134 11,138 Q8,141 6,142 Q38,172 56,210 L68,205 Q62,193 55,183 L105,183 L105,170 L84,143 L114,143 L114,-1 Q116,-25 90,-25 Q88,-25 83,-25 Q75,-26 72,-26 Q72,-25 71,-21 Q70,-14 69,-13 Q77,-13 87,-13 Q104,-15 102,1 L102,39 L75,39 L75,0 L63,0 L63,39 L36,39 Q36,-1 17,-28 Q12,-23 6,-21 Q26,3 24,57 L24,141 Q21,136 16,133 M136,158 L180,158 L180,208 L193,208 L193,158 L238,158 L238,66 L193,66 L193,1 Q210,3 224,4 Q218,19 212,31 L223,35 Q233,16 250,-23 L238,-28 Q235,-22 231,-12 Q230,-7 229,-5 Q223,-6 205,-8 Q146,-15 127,-18 L126,-4 Q145,-3 180,0 L180,66 L149,66 L149,51 L136,51 M225,146 L193,146 L193,78 L225,78 M149,146 L149,78 L180,78 L180,146 M48,172 Q38,156 25,143 L68,143 L90,172 M102,131 L75,131 L75,96 L102,96 M75,85 L75,50 L102,50 L102,85 M36,55 L36,50 L63,50 L63,85 L36,85 M36,131 L36,96 L63,96 L63,131"/> 
            <glyph glyph-name="议" unicode="&#x8BAE;" horiz-adv-x="249" d=" M63,-16 Q113,8 148,43 Q99,99 88,191 L101,194 Q112,106 158,54 Q202,105 215,194 L229,191 Q214,96 168,43 Q201,11 249,-12 Q248,-13 247,-14 Q244,-18 239,-26 Q184,4 158,32 Q132,4 74,-29 Q69,-23 63,-16 M51,16 Q74,33 88,46 Q89,42 90,36 Q91,33 91,31 Q73,18 51,0 Q45,-4 41,-8 L30,0 Q37,8 37,21 L37,114 L7,114 L7,126 L51,126 M136,202 L147,208 Q167,177 178,156 L165,149 Q151,176 136,202 M54,155 Q45,166 30,184 Q24,192 21,195 L31,203 Q36,198 45,188 Q58,173 66,165"/> 
            <glyph glyph-name="误" unicode="&#x8BEF;" horiz-adv-x="250" d=" M95,198 L229,198 L229,130 L95,130 M76,56 L152,56 Q154,70 154,91 L84,91 L84,103 L240,103 L240,91 L168,91 Q168,71 165,56 L249,56 L249,44 L168,44 Q189,1 250,-14 Q246,-21 243,-28 Q179,-7 159,37 Q147,-3 78,-30 Q77,-28 74,-24 Q71,-19 69,-17 Q137,5 148,44 L76,44 M109,186 L109,142 L216,142 L216,186 M49,5 Q54,9 65,16 Q76,24 81,27 Q81,19 83,13 Q62,0 47,-10 Q43,-13 38,-18 L29,-7 Q37,0 36,10 L36,111 L7,111 L7,123 L49,123 M56,154 Q44,170 22,194 L33,202 Q50,184 68,164"/> 
            <glyph glyph-name="读" unicode="&#x8BFB;" horiz-adv-x="246" d=" M171,114 L184,114 Q184,70 179,47 L246,47 L246,35 L177,35 Q177,34 175,31 Q174,28 173,26 Q184,20 203,9 Q230,-5 245,-14 L236,-26 Q191,2 166,15 Q148,-7 83,-30 Q82,-28 79,-25 Q76,-20 74,-17 Q153,6 162,35 L74,35 L74,47 L166,47 Q171,66 171,114 M77,138 L153,138 L153,169 L86,169 L86,181 L153,181 L153,210 L166,210 L166,181 L238,181 L238,169 L166,169 L166,138 L242,138 L242,127 L234,95 Q233,95 230,95 Q225,96 222,96 L230,126 L77,126 M49,2 Q70,16 80,23 Q80,17 82,9 Q59,-3 48,-12 Q42,-15 38,-20 L30,-10 Q36,-4 36,4 L36,111 L7,111 L7,123 L49,123 M56,157 Q39,177 22,193 L32,201 Q57,178 68,166 M86,79 L92,89 Q114,78 134,66 L127,56 Q125,57 121,60 Q99,73 86,79 M106,106 L112,116 Q121,112 137,103 Q147,97 153,94 L145,84 Q123,98 106,106"/> 
            <glyph glyph-name="身" unicode="&#x8EAB;" horiz-adv-x="249" d=" M8,64 L43,64 L43,183 L102,183 Q106,194 111,211 L124,208 Q124,207 123,203 Q122,197 116,183 L206,183 L206,80 Q223,92 239,106 L249,97 Q227,79 206,64 L206,8 Q207,-25 173,-24 Q159,-25 129,-25 Q129,-18 126,-11 Q144,-11 167,-11 Q195,-12 193,10 L193,52 L189,52 Q116,2 18,-28 Q15,-22 10,-15 Q104,11 166,52 L8,52 M185,64 Q188,67 193,70 L193,92 L57,92 L57,64 M57,132 L57,104 L193,104 L193,132 M57,171 L57,144 L193,144 L193,171"/> 
            <glyph glyph-name="轻" unicode="&#x8F7B;" horiz-adv-x="249" d=" M8,23 L7,36 Q16,37 36,39 Q50,40 58,41 L58,83 L11,83 L11,97 Q22,126 35,162 L9,162 L9,174 L38,174 Q44,193 50,211 L64,208 Q63,204 60,196 Q55,182 52,174 L104,174 L104,162 L48,162 Q38,132 24,95 L58,95 L58,141 L71,141 L71,95 L98,95 L98,83 L71,83 L71,43 Q89,44 106,47 Q105,45 105,34 Q99,33 87,32 Q76,30 71,30 L71,-29 L58,-29 L58,29 Q32,26 8,23 M115,73 L236,73 L236,61 L183,61 L183,-5 L249,-5 L249,-17 L99,-17 L99,-5 L169,-5 L169,61 L115,61 M241,87 Q240,88 237,90 Q204,113 182,127 Q159,106 113,85 Q113,85 112,87 Q108,93 104,97 Q174,123 209,180 L116,180 L116,193 L223,193 L223,179 Q208,154 190,136 Q223,117 249,99"/> 
            <glyph glyph-name="载" unicode="&#x8F7D;" horiz-adv-x="250" d=" M130,-26 Q125,-20 120,-16 Q154,8 171,30 Q160,61 154,123 Q154,128 154,131 L8,131 L8,143 L70,143 L70,171 L18,171 L18,182 L70,182 L70,208 L83,208 L83,182 L132,182 L132,171 L83,171 L83,143 L153,143 Q151,179 151,209 L165,209 Q165,168 166,143 L250,143 L250,131 L167,131 Q167,130 168,127 Q168,124 168,123 Q172,71 181,43 Q199,68 215,107 L227,102 Q208,58 186,28 Q203,-12 220,-13 Q227,-13 231,-1 Q234,9 237,30 Q243,27 249,26 Q247,6 241,-11 Q236,-26 221,-27 Q196,-28 177,16 Q159,-3 130,-26 M13,0 L11,13 Q16,13 31,14 Q60,16 77,17 L77,45 L22,45 L22,58 Q29,65 45,90 L14,90 L14,101 L51,101 Q58,113 64,125 L78,121 Q76,118 72,111 Q68,105 66,101 L142,101 L142,90 L59,90 Q54,81 43,66 Q38,59 36,56 L77,56 L77,79 L90,79 L90,56 L138,56 L138,45 L90,45 L90,18 Q100,19 120,20 Q134,22 140,22 Q140,17 140,10 Q137,10 123,9 Q102,8 90,7 L90,-29 L77,-29 L77,6 Q64,5 68,5 Q28,2 13,0 M184,188 L193,197 Q196,194 202,190 Q220,175 229,167 L219,157 Q208,168 184,188"/> 
            <glyph glyph-name="选" unicode="&#x9009;" horiz-adv-x="249" d=" M155,210 L168,210 L168,166 L234,166 L234,154 L168,154 L168,107 L246,107 L246,95 L186,95 L186,41 Q185,22 203,23 L212,23 Q228,22 230,39 Q232,50 233,63 Q241,60 246,58 Q245,46 242,35 Q238,10 217,11 L197,11 Q173,11 173,39 L173,95 L134,95 Q137,32 85,7 Q81,13 76,18 Q124,41 121,95 L73,95 L73,107 L155,107 L155,154 L108,154 Q101,136 92,121 Q85,125 79,127 Q100,164 110,199 L123,196 Q119,181 113,166 L155,166 M115,-8 Q185,-8 249,-8 Q248,-11 246,-15 Q245,-20 244,-22 Q165,-22 109,-20 Q70,-20 46,9 Q29,-5 15,-23 L6,-12 Q16,0 40,20 L40,109 L9,109 L9,122 L54,122 L54,20 Q76,-8 115,-8 M56,156 Q38,176 20,194 L31,202 Q48,186 67,166"/> 
            <glyph glyph-name="通" unicode="&#x901A;" horiz-adv-x="249" d=" M105,170 L114,179 Q123,174 142,163 Q151,158 156,155 L211,185 L82,185 L82,196 L229,196 L229,182 L168,148 Q170,146 173,145 Q175,144 175,144 L231,144 L231,35 Q232,9 204,8 Q193,7 182,7 Q182,15 180,21 Q189,20 200,20 Q220,18 218,40 L218,50 L166,50 L166,12 L153,12 L153,50 L101,50 L101,8 L88,8 L88,144 L153,144 Q125,160 105,170 M115,-7 Q185,-7 249,-7 Q248,-10 246,-14 Q245,-19 244,-21 Q165,-21 109,-19 Q69,-19 46,10 Q37,1 19,-18 Q16,-21 15,-22 L6,-11 Q16,0 40,21 L40,109 L9,109 L9,121 L53,121 L53,22 Q74,-7 115,-7 M166,91 L166,61 L218,61 L218,91 M101,91 L101,61 L153,61 L153,91 M101,132 L101,103 L153,103 L153,132 M218,132 L166,132 L166,103 L218,103 M61,153 Q56,158 42,173 Q29,187 23,193 L33,201 Q52,184 72,162"/> 
            <glyph glyph-name="量" unicode="&#x91CF;" horiz-adv-x="249" d=" M37,97 L219,97 L219,31 L134,31 L134,14 L229,14 L229,4 L134,4 L134,-11 L249,-11 L249,-21 L7,-21 L7,-11 L122,-11 L122,4 L27,4 L27,14 L122,14 L122,31 L37,31 M35,198 L220,198 L220,138 L35,138 M48,164 L48,147 L208,147 L208,164 M48,189 L48,173 L208,173 L208,189 M9,122 L248,122 L248,113 L9,113 M50,60 L50,41 L122,41 L122,60 M134,60 L134,41 L206,41 L206,60 M50,88 L50,69 L122,69 L122,88 M206,88 L134,88 L134,69 L206,69"/> 
            <glyph glyph-name="金" unicode="&#x91D1;" horiz-adv-x="248" d=" M49,128 L203,128 L203,115 L135,115 L135,74 L225,74 L225,62 L135,62 L135,-6 L241,-6 L241,-19 L15,-19 L15,-6 L121,-6 L121,62 L31,62 L31,74 L121,74 L121,115 L49,115 M241,120 Q170,146 129,194 Q85,147 16,116 Q13,122 7,128 Q90,164 127,212 L142,209 Q141,208 140,206 Q138,204 137,203 Q182,154 248,132 Q245,127 241,120 M175,5 L165,14 Q183,30 200,49 L211,41 Q195,23 175,5 M44,41 L55,49 Q66,38 86,17 Q84,18 88,14 L77,5 Q65,20 44,41"/> 
            <glyph glyph-name="键" unicode="&#x952E;" horiz-adv-x="249" d=" M142,174 L142,185 L175,185 L175,210 L187,210 L187,185 L231,185 L231,150 L248,150 L248,139 L231,139 L231,104 L187,104 L187,78 L233,78 L233,67 L187,67 L187,42 L239,42 L239,31 L187,31 L187,4 L175,4 L175,31 L131,31 L131,42 L175,42 L175,67 L137,67 L137,78 L175,78 L175,104 L142,104 L142,114 L175,114 L175,139 L130,139 L130,150 L175,150 L175,174 M178,-18 Q122,-16 103,8 Q94,-9 76,-28 Q75,-27 71,-24 Q68,-21 66,-20 Q89,4 96,20 Q86,38 77,70 L88,74 Q95,50 102,34 Q110,56 113,97 L81,97 L81,110 L116,176 L80,176 L80,187 L129,187 L129,174 L93,109 L125,109 L125,97 Q121,47 110,21 Q126,-6 180,-6 Q202,-7 249,-7 Q246,-14 244,-20 Q211,-20 178,-18 M8,84 L35,84 L35,118 L22,118 L22,129 L69,129 L69,118 L47,118 L47,84 L76,84 L76,73 L47,73 L47,9 Q63,25 71,34 Q74,28 77,23 Q69,15 52,0 Q48,-3 46,-5 Q41,-10 38,-15 L29,-7 Q35,0 35,7 L35,73 L8,73 M13,121 Q12,122 11,123 Q9,127 5,131 Q25,163 36,210 L49,208 Q43,189 37,172 L73,172 L73,161 L33,161 Q25,140 13,121 M187,139 L187,114 L219,114 L219,139 M219,174 L187,174 L187,150 L219,150"/> 
            <glyph glyph-name="镜" unicode="&#x955C;" horiz-adv-x="249" d=" M99,109 L226,109 L226,34 L189,34 L189,0 Q189,-11 204,-11 L218,-11 Q231,-11 234,0 Q236,8 237,20 Q238,20 241,19 Q247,17 249,17 Q248,7 246,-3 Q241,-23 219,-23 L201,-23 Q176,-23 176,0 L176,34 L147,34 Q148,-15 83,-30 Q82,-28 80,-24 Q77,-20 76,-18 Q137,-6 134,34 L99,34 M8,76 L40,76 L40,115 L24,115 L24,126 L77,126 L77,115 L52,115 L52,76 L83,76 L83,64 L52,64 L52,4 Q70,22 78,31 Q79,29 80,25 Q82,20 83,18 Q80,14 70,4 Q59,-6 53,-12 Q49,-14 43,-23 L33,-14 Q40,-4 40,6 L40,64 L8,64 M118,166 L129,172 Q132,168 138,159 Q143,151 146,146 L136,141 L179,141 Q185,150 194,165 Q197,170 198,172 L210,167 Q206,161 198,149 Q195,144 193,141 L246,141 L246,130 L86,130 L86,141 L134,141 Q130,148 122,161 Q119,164 118,166 M112,66 L112,45 L214,45 L214,66 M112,98 L112,77 L214,77 L214,98 M153,207 L165,210 Q166,208 167,203 Q170,197 173,185 L236,185 L236,174 L97,174 L97,185 L160,185 Q159,188 157,194 Q154,202 153,207 M15,123 Q14,125 11,128 Q8,132 6,133 Q28,165 39,208 L52,205 Q51,201 48,194 Q44,180 40,172 L83,172 L83,161 L35,161 Q27,141 15,123"/> 
            <glyph glyph-name="防" unicode="&#x9632;" horiz-adv-x="249" d=" M93,166 L249,166 L249,154 L142,154 L140,109 L231,109 Q230,56 227,19 Q227,-24 187,-22 Q173,-23 158,-23 Q156,-12 154,-8 Q172,-8 186,-8 Q212,-10 214,20 Q216,53 217,97 L140,97 Q138,14 85,-29 Q84,-28 80,-25 Q75,-21 73,-19 Q129,22 126,108 L128,154 L93,154 M90,48 Q90,16 67,13 Q58,12 45,12 Q44,18 42,26 Q51,25 60,25 Q77,26 77,48 Q77,77 50,110 L74,185 L32,185 L32,-29 L19,-29 L19,197 L88,197 L88,183 L65,112 Q91,79 90,48 M156,206 L169,210 Q171,206 175,195 Q182,178 185,171 L171,167 Q165,186 156,206"/> 
            <glyph glyph-name="面" unicode="&#x9762;" horiz-adv-x="245" d=" M10,195 L245,195 L245,182 L131,182 L116,144 L231,144 L231,-29 L218,-29 L218,-14 L37,-14 L37,-29 L23,-29 L23,144 L102,144 L115,182 L10,182 M218,131 L171,131 L171,-2 L218,-2 M37,131 L37,-2 L83,-2 L83,131 M96,82 L96,45 L158,45 L158,82 M96,131 L96,94 L158,94 L158,131 M96,33 L96,-2 L158,-2 L158,33"/> 
            <glyph glyph-name="频" unicode="&#x9891;" horiz-adv-x="250" d=" M131,146 L168,146 L176,184 L120,184 L120,196 L249,196 L249,184 L189,184 L181,146 L238,146 L238,22 L225,22 L225,135 L144,135 L144,22 L131,22 M68,209 L81,209 L81,169 L115,169 L115,158 L81,158 L81,118 L120,118 L120,107 L7,107 L7,118 L27,118 L27,186 L39,186 L39,118 L68,118 M178,113 L191,113 L191,95 Q191,44 179,21 L187,30 Q223,4 250,-16 L241,-26 Q231,-18 203,2 Q187,14 179,20 Q166,-8 111,-30 Q108,-24 102,-18 Q152,0 164,21 Q179,40 178,95 M18,-30 Q14,-24 9,-19 Q77,9 102,73 L113,68 Q85,0 18,-30 M60,96 L73,96 L73,34 L60,34 M19,25 L8,31 Q20,52 30,81 L42,77 Q34,52 19,25"/> 
            <glyph glyph-name="！" unicode="&#xFF01;" horiz-adv-x="72" d=" M72,185 L53,185 L56,38 L68,38 M72,-14 L72,6 L54,6 L54,-14"/> 
            <glyph glyph-name="（" unicode="&#xFF08;" horiz-adv-x="179" d=" M179,-34 L167,-34 Q115,12 113,90 Q115,169 167,215 L179,215 Q127,163 128,90 Q126,17 179,-34"/> 
            <glyph glyph-name="）" unicode="&#xFF09;" horiz-adv-x="142" d=" M76,-34 L88,-34 Q140,12 142,90 Q140,169 88,215 L76,215 Q128,163 127,90 Q129,17 76,-34"/> 
            <glyph glyph-name="，" unicode="&#xFF0C;" horiz-adv-x="80" d=" M79,39 L79,17 Q80,-17 55,-33 L48,-27 Q70,-11 69,13 L55,13 L55,39"/> 
        </font>
</defs>
</svg>
