<?xml version="1.0" standalone="no"?>
<!DOCTYPE svg PUBLIC "-//W3C//DTD SVG 1.1//EN" "http://www.w3.org/Graphics/SVG/1.1/DTD/svg11.dtd" >
<svg xmlns="http://www.w3.org/2000/svg">
    <defs>
        <font id="">
            <font-face font-family=""
                       units-per-em="1000"
                       ascent="888"
                       descent="-237"
                       bbox="-56 -237 1003 888"
                    />
            <missing-glyph horiz-adv-x="0" />
            
            <glyph glyph-name="." unicode="&#x2E;" horiz-adv-x="134" d=" M134,0 L66,0 L66,81 L134,81"/> 
            <glyph glyph-name="0" unicode="&#x30;" horiz-adv-x="489" d=" M264,729 Q485,723 489,361 Q486,-4 264,-10 Q46,-6 43,361 Q47,722 264,729 M264,668 Q112,664 110,361 Q111,54 264,51 Q420,56 422,361 Q420,663 264,668"/> 
            <glyph glyph-name="1" unicode="&#x31;" horiz-adv-x="301" d=" M233,0 L233,635 L90,569 L90,634 L267,714 L301,714 L301,0"/> 
            <glyph glyph-name="2" unicode="&#x32;" horiz-adv-x="461" d=" M461,0 L47,0 L47,45 Q109,134 273,318 Q386,442 382,538 Q381,663 243,664 Q173,664 90,616 L73,673 Q161,726 258,725 Q444,718 450,538 Q453,422 333,291 Q242,192 143,62 L461,62"/> 
            <glyph glyph-name="3" unicode="&#x33;" horiz-adv-x="452" d=" M50,32 L67,88 Q134,54 211,52 Q382,54 384,211 Q376,341 222,349 L166,349 L166,411 L222,411 Q364,416 368,547 Q367,663 238,664 Q178,664 95,629 L79,687 Q165,725 242,725 Q430,719 436,553 Q433,426 305,378 Q446,343 452,207 Q441,-1 226,-10 Q123,-9 50,32"/> 
            <glyph glyph-name="6" unicode="&#x36;" horiz-adv-x="489" d=" M427,725 L436,669 Q158,663 118,362 Q187,457 299,455 Q479,444 489,233 Q477,2 274,-10 Q57,-4 52,294 Q65,706 427,725 M274,49 Q414,58 422,233 Q422,396 271,396 Q170,389 120,284 Q124,55 274,49"/> 
            <glyph glyph-name="D" unicode="&#x44;" horiz-adv-x="646" d=" M82,10 L82,704 Q170,725 265,725 Q634,714 646,359 Q635,2 265,-10 Q172,-9 82,10 M150,647 L150,66 Q205,53 270,52 Q575,56 578,359 Q573,659 270,664 Q210,664 150,647"/> 
            <glyph glyph-name="H" unicode="&#x48;" horiz-adv-x="582" d=" M84,714 L152,714 L152,407 L514,407 L514,714 L582,714 L582,0 L514,0 L514,345 L152,345 L152,0 L84,0"/> 
            <glyph glyph-name="R" unicode="&#x52;" horiz-adv-x="522" d=" M82,0 L82,700 Q185,724 254,725 Q500,724 501,528 Q497,397 360,355 Q442,315 469,206 Q484,145 513,32 Q519,10 522,0 L455,0 Q435,76 406,196 Q371,327 254,328 L150,328 L150,0 M150,653 L150,387 L254,387 Q437,384 433,528 Q438,670 254,666 Q193,665 150,653"/> 
            <glyph glyph-name="一" unicode="&#x4E00;" horiz-adv-x="932" d=" M67,345 L67,413 L932,413 L932,345"/> 
            <glyph glyph-name="与" unicode="&#x4E0E;" horiz-adv-x="894" d=" M691,-87 Q653,-87 591,-79 Q588,-41 574,-12 Q647,-23 685,-23 Q781,-25 785,76 L801,361 L224,361 L260,794 L328,790 L316,659 L894,659 L894,599 L311,599 L295,421 L871,421 L852,67 Q844,-87 691,-87 M75,135 L75,195 L706,195 L706,135"/> 
            <glyph glyph-name="为" unicode="&#x4E3A;" horiz-adv-x="873" d=" M691,-71 Q643,-71 599,-66 Q595,-25 577,4 Q641,-6 685,-6 Q781,-8 785,90 L805,482 L487,482 Q428,91 130,-92 Q102,-63 65,-50 Q365,124 421,482 L120,482 L120,543 L429,543 Q443,658 446,796 L515,790 Q506,631 496,543 L873,543 L851,79 Q845,-71 691,-71 M641,139 Q578,240 501,325 L557,355 Q631,272 689,185 M322,574 Q265,644 188,715 L240,749 Q313,687 365,619"/> 
            <glyph glyph-name="了" unicode="&#x4E86;" horiz-adv-x="872" d=" M427,-88 Q391,-88 332,-81 Q328,-42 312,-12 Q378,-21 420,-21 Q490,-23 488,44 L488,472 Q632,554 766,661 L117,661 L117,723 L872,723 L872,668 Q746,552 557,437 L557,34 Q558,-89 427,-88"/> 
            <glyph glyph-name="亮" unicode="&#x4EAE;" horiz-adv-x="935" d=" M239,399 L239,585 L759,585 L759,399 M133,-97 Q116,-66 84,-44 Q327,-14 321,137 L323,217 L669,217 L669,49 Q665,-17 728,-12 L805,-12 Q858,-13 869,41 Q877,73 880,105 Q901,81 935,68 Q930,34 925,20 Q905,-74 809,-68 L718,-68 Q602,-71 605,37 L605,163 L384,163 L382,123 Q387,-50 133,-97 M105,178 L105,337 L895,337 L895,179 L830,179 L830,284 L170,284 L170,178 M101,646 L101,700 L494,700 Q448,747 404,784 L469,807 Q535,754 570,710 L551,700 L898,700 L898,646 M304,448 L694,448 L694,535 L304,535"/> 
            <glyph glyph-name="令" unicode="&#x4EE4;" horiz-adv-x="969" d=" M624,-106 Q459,2 275,92 L319,142 Q376,115 500,46 Q636,154 726,269 L179,269 L179,329 L815,329 L815,276 Q704,123 561,11 Q607,-16 652,-46 M916,374 Q642,490 495,692 Q341,476 84,363 Q65,392 31,413 Q363,563 486,807 L547,779 L529,747 Q700,529 969,438 Q933,411 916,374 M540,351 Q472,430 390,498 L443,533 Q515,476 582,399"/> 
            <glyph glyph-name="位" unicode="&#x4F4D;" horiz-adv-x="945" d=" M193,-96 L193,469 Q138,385 90,343 Q74,367 33,382 Q197,546 280,798 L340,768 Q313,681 257,574 L257,-96 M313,-51 L313,8 L623,8 Q696,206 758,467 L825,445 Q756,181 690,8 L945,8 L945,-51 M354,536 L354,595 L913,595 L913,536 M507,88 Q462,279 402,435 L470,444 Q521,309 570,111 M634,601 Q591,694 528,785 L595,801 Q646,731 693,635"/> 
            <glyph glyph-name="作" unicode="&#x4F5C;" horiz-adv-x="942" d=" M560,-96 L560,572 L534,572 Q462,438 382,353 Q360,371 319,380 Q486,558 556,803 L618,772 Q599,711 564,631 L942,631 L942,572 L625,572 L625,399 L891,399 L891,340 L625,340 L625,166 L917,166 L917,108 L625,108 L625,-96 M202,-96 L202,472 Q151,393 95,332 Q67,359 34,371 Q206,562 283,799 L346,766 Q319,686 268,587 L268,-96"/> 
            <glyph glyph-name="你" unicode="&#x4F60;" horiz-adv-x="944" d=" M195,-96 L195,469 Q136,381 93,344 Q74,368 33,383 Q198,542 285,798 L345,766 Q319,684 261,576 L261,-96 M854,416 Q830,425 790,423 L852,568 L500,568 Q457,487 396,416 Q367,438 331,443 Q467,595 517,797 L578,768 Q558,693 528,626 L922,626 L922,577 M557,-91 Q524,-91 480,-87 Q484,-52 463,-19 Q511,-28 544,-28 Q605,-31 602,33 L602,470 L668,470 L668,25 Q668,-91 557,-91 M889,29 Q827,166 749,297 L813,313 Q894,176 944,66 M374,38 Q341,56 306,57 Q405,178 444,322 L504,301 Q463,161 374,38"/> 
            <glyph glyph-name="依" unicode="&#x4F9D;" horiz-adv-x="974" d=" M477,-106 L445,-52 Q474,-28 472,26 L472,284 Q397,188 320,124 Q297,149 264,163 Q455,309 558,570 L334,570 L334,630 L643,630 Q585,706 517,776 L577,800 Q645,733 695,667 L647,630 L932,630 L932,570 L624,570 Q584,464 533,378 L533,6 L675,89 L713,40 L525,-70 Q499,-84 477,-106 M185,-94 L185,462 Q132,384 89,344 Q65,369 33,379 Q190,538 274,799 L332,768 Q304,677 247,567 L247,-94 M919,-22 Q695,120 611,447 L664,476 Q685,388 720,311 Q812,384 866,454 L917,421 Q848,336 745,259 Q831,96 974,26 Q941,11 919,-22"/> 
            <glyph glyph-name="偶" unicode="&#x5076;" horiz-adv-x="906" d=" M471,53 L445,106 Q502,110 593,117 L593,247 L411,247 L411,-96 L350,-96 L350,299 L593,299 L593,391 L391,391 L391,748 L855,748 L855,391 L652,391 L652,299 L906,299 L906,24 Q905,-85 795,-86 Q746,-86 718,-82 Q718,-54 697,-23 Q746,-31 784,-31 Q846,-32 845,31 L845,247 L652,247 L652,123 Q666,125 692,127 Q724,131 739,133 Q719,173 709,190 L754,201 Q797,129 823,63 L781,40 Q779,44 776,52 Q771,66 759,92 Q620,68 471,53 M186,-96 L186,460 Q135,378 92,330 Q67,354 32,363 Q189,539 276,800 L334,772 Q307,685 247,567 L247,-96 M652,443 L795,443 L795,546 L652,546 M451,443 L593,443 L593,546 L451,546 M795,696 L652,696 L652,594 L795,594 M451,696 L451,594 L593,594 L593,696"/> 
            <glyph glyph-name="光" unicode="&#x5149;" horiz-adv-x="934" d=" M69,369 L69,427 L473,427 L473,796 L539,796 L539,427 L929,427 L929,369 L645,369 L645,53 Q645,-5 704,-5 L791,-5 Q848,-6 863,54 Q874,101 879,135 Q907,108 934,97 Q932,84 922,45 Q920,34 919,31 Q895,-69 798,-67 L698,-67 Q578,-68 579,42 L579,369 L412,369 L412,367 Q423,22 101,-96 Q87,-72 48,-46 Q359,50 346,368 L346,369 M676,478 Q653,499 619,507 Q724,616 796,740 L854,712 Q776,582 676,478 M334,482 Q257,591 149,707 L207,732 Q295,641 380,527"/> 
            <glyph glyph-name="具" unicode="&#x5177;" horiz-adv-x="946" d=" M53,106 L53,163 L220,163 L220,749 L778,749 L778,163 L946,163 L946,106 M285,694 L285,600 L713,600 L713,694 M285,257 L285,163 L713,163 L713,257 M285,403 L285,309 L713,309 L713,403 M285,548 L285,455 L713,455 L713,548 M871,-97 Q722,-11 582,52 L629,97 Q771,36 898,-37 M145,-98 Q127,-72 89,-50 Q253,6 363,94 L414,54 Q302,-38 145,-98"/> 
            <glyph glyph-name="冲" unicode="&#x51B2;" horiz-adv-x="897" d=" M593,-96 L593,192 L419,192 L419,121 L356,121 L356,596 L593,596 L593,796 L659,796 L659,596 L897,596 L897,121 L834,121 L834,192 L659,192 L659,-96 M834,537 L659,537 L659,251 L834,251 M419,537 L419,251 L593,251 L593,537 M109,-17 L52,31 Q143,161 228,365 L279,325 Q195,120 109,-17 M213,450 Q148,586 69,700 L131,726 Q200,625 266,492"/> 
            <glyph glyph-name="击" unicode="&#x51FB;" horiz-adv-x="943" d=" M143,577 L143,638 L466,638 L466,796 L533,796 L533,638 L856,638 L856,577 L533,577 L533,406 L943,406 L943,344 L533,344 L533,7 L767,7 L767,253 L832,253 L832,-96 L767,-96 L767,-55 L167,-55 L167,249 L233,249 L233,7 L466,7 L466,344 L58,344 L58,406 L466,406 L466,577"/> 
            <glyph glyph-name="创" unicode="&#x521B;" horiz-adv-x="892" d=" M279,-67 Q158,-68 159,52 L159,456 L492,456 L492,262 Q493,150 379,151 Q347,151 310,156 Q309,183 295,215 Q335,209 373,209 Q432,208 431,268 L431,400 L221,400 L221,55 Q222,-8 289,-9 L415,-9 Q490,-13 504,51 Q510,71 519,113 Q542,84 571,72 Q565,45 556,16 Q532,-72 423,-67 M774,-86 Q745,-86 693,-80 Q692,-46 676,-14 Q734,-23 769,-23 Q831,-25 829,42 L829,794 L892,794 L892,32 Q892,-86 774,-86 M556,468 Q440,583 327,675 Q232,519 90,420 Q64,453 37,464 Q236,598 320,802 L378,774 Q368,752 356,728 Q460,646 590,524 M639,146 L639,674 L700,674 L700,146"/> 
            <glyph glyph-name="力" unicode="&#x529B;" horiz-adv-x="861" d=" M673,-67 Q622,-67 578,-61 Q576,-18 557,11 Q623,1 669,1 Q770,0 772,101 L791,532 L500,532 Q465,93 145,-92 Q122,-67 79,-51 Q405,131 432,532 L134,532 L134,595 L436,595 Q437,631 438,677 Q438,699 438,726 Q438,750 438,797 L509,793 Q507,659 504,595 L861,595 L839,89 Q831,-67 673,-67"/> 
            <glyph glyph-name="原" unicode="&#x539F;" horiz-adv-x="941" d=" M101,-84 Q75,-66 36,-57 Q171,111 171,381 L171,745 L912,745 L912,688 L549,688 L608,666 Q588,617 563,570 L844,570 L844,212 L627,212 L627,12 Q627,-90 521,-90 Q485,-90 455,-85 Q452,-55 436,-22 Q482,-30 513,-30 Q564,-31 563,24 L563,212 L330,212 L330,570 L493,570 Q523,624 546,688 L236,688 L236,376 Q236,101 101,-84 M394,518 L394,417 L780,417 L780,518 M394,264 L780,264 L780,365 L394,365 M285,-57 Q258,-36 226,-23 Q342,62 405,163 L459,129 Q386,22 285,-57 M900,-51 Q819,42 714,135 L768,166 Q876,69 941,-5"/> 
            <glyph glyph-name="双" unicode="&#x53CC;" horiz-adv-x="975" d=" M909,-74 Q773,16 685,138 Q583,7 425,-83 Q398,-56 360,-41 Q534,46 646,198 Q541,372 505,631 L560,649 L469,649 L469,710 L876,710 L876,656 Q845,382 724,196 Q818,61 975,-26 Q937,-43 909,-74 M430,89 Q390,145 316,233 Q233,71 100,-40 Q75,-19 32,-6 Q180,106 270,288 Q162,414 95,479 L147,516 Q229,434 298,355 Q353,494 362,638 L97,638 L97,700 L429,700 L429,645 Q412,456 346,299 Q438,192 475,141 M808,649 L563,649 Q596,417 685,259 Q784,426 808,649"/> 
            <glyph glyph-name="叹" unicode="&#x53F9;" horiz-adv-x="969" d=" M911,-85 Q755,4 659,128 Q550,-4 384,-93 Q360,-63 328,-45 Q502,43 617,184 Q487,376 448,650 L399,650 L399,712 L876,712 L876,658 Q837,375 700,182 Q807,47 969,-28 Q935,-49 911,-85 M101,39 L101,701 L359,701 L359,58 L299,58 L299,114 L162,114 L162,39 M810,650 L510,650 Q549,407 658,241 Q772,410 810,650 M162,643 L162,172 L299,172 L299,643"/> 
            <glyph glyph-name="品" unicode="&#x54C1;" horiz-adv-x="886" d=" M241,431 L241,740 L760,740 L760,431 M544,-87 L544,330 L886,330 L886,-87 L824,-87 L824,-21 L607,-21 L607,-87 M117,-87 L117,330 L451,330 L451,-87 L389,-87 L389,-21 L179,-21 L179,-87 M307,490 L695,490 L695,681 L307,681 M607,274 L607,35 L824,35 L824,274 M179,274 L179,35 L389,35 L389,274"/> 
            <glyph glyph-name="实" unicode="&#x5B9E;" horiz-adv-x="932" d=" M72,155 L72,214 L523,214 Q553,280 565,366 Q576,450 582,573 L648,566 Q642,455 628,352 Q619,276 594,214 L932,214 L932,155 L566,155 Q465,-33 169,-99 Q155,-70 121,-43 Q391,11 489,155 M819,463 L819,608 L181,608 L181,466 L115,466 L115,667 L507,667 Q447,734 402,773 L459,809 Q517,755 571,692 L546,667 L884,667 L884,463 M868,-99 Q732,-7 575,77 L621,120 Q769,46 895,-38 M427,248 Q343,304 220,370 L262,412 Q371,354 451,301 M478,393 Q386,460 294,511 L334,554 Q446,490 503,446"/> 
            <glyph glyph-name="对" unicode="&#x5BF9;" horiz-adv-x="951" d=" M436,27 Q362,129 303,205 Q230,67 102,-45 Q73,-21 37,-12 Q174,92 260,260 Q184,356 84,468 L137,499 Q229,396 288,325 Q348,468 361,631 L84,631 L84,691 L426,691 L426,637 Q406,429 334,268 Q414,166 476,79 M454,526 L454,587 L754,587 L754,793 L819,793 L819,587 L951,587 L951,526 L819,526 L819,31 Q818,-87 697,-88 Q658,-88 612,-83 Q612,-46 594,-16 Q661,-24 687,-24 Q756,-26 754,43 L754,526 M614,194 Q562,283 482,392 L539,417 Q592,348 662,233"/> 
            <glyph glyph-name="小" unicode="&#x5C0F;" horiz-adv-x="957" d=" M116,81 Q84,96 40,99 Q167,307 220,576 L287,547 Q225,267 116,81 M418,-88 Q374,-88 329,-81 Q327,-47 309,-13 Q365,-22 403,-22 Q476,-24 474,43 L474,790 L543,790 L543,35 Q544,-89 418,-88 M895,77 Q792,355 691,552 L760,570 Q867,352 957,117"/> 
            <glyph glyph-name="尔" unicode="&#x5C14;" horiz-adv-x="927" d=" M812,431 Q786,440 747,440 L809,593 L303,593 Q232,477 151,397 Q121,418 85,424 Q254,592 331,802 L392,771 Q372,716 338,655 L878,655 L878,600 M438,-85 Q397,-85 354,-80 Q351,-43 336,-14 Q400,-22 428,-22 Q484,-24 482,37 L482,498 L549,498 L549,27 Q549,-86 438,-85 M137,9 Q111,27 72,34 Q211,181 280,354 L340,332 Q266,145 137,9 M877,17 Q775,180 663,327 L722,352 Q831,214 927,60"/> 
            <glyph glyph-name="屏" unicode="&#x5C4F;" horiz-adv-x="937" d=" M99,-86 Q68,-65 32,-61 Q165,102 161,388 L161,750 L868,750 L868,539 L227,539 L227,387 Q228,89 99,-86 M279,332 L279,387 L483,387 Q414,456 364,496 L419,528 Q483,480 531,424 L496,387 L613,387 Q691,467 737,528 L796,499 Q748,442 692,387 L892,387 L892,332 L743,332 L743,196 L937,196 L937,141 L743,141 L743,-95 L679,-95 L679,141 L488,141 Q471,-2 311,-98 Q288,-75 249,-62 Q403,19 424,141 L238,141 L238,196 L430,196 Q430,200 430.5,208 Q431,216 431,221 L431,332 M227,694 L227,594 L805,594 L805,694 M494,222 Q494,208 493,196 L679,196 L679,332 L494,332"/> 
            <glyph glyph-name="己" unicode="&#x5DF1;" horiz-adv-x="922" d=" M308,-59 Q172,-62 175,66 L175,433 L741,433 L741,668 L153,668 L153,730 L810,730 L810,371 L243,371 L243,73 Q241,2 310,4 L750,4 Q823,-1 843,81 Q843,83 844,86 Q856,131 862,162 Q886,132 922,118 Q918,99 909,63 Q906,54 905,50 Q874,-63 759,-59"/> 
            <glyph glyph-name="幕" unicode="&#x5E55;" horiz-adv-x="973" d=" M78,675 L78,727 L319,727 L319,796 L380,796 L380,727 L614,727 L614,796 L675,796 L675,727 L918,727 L918,675 L675,675 L675,614 L795,614 L795,360 L474,360 Q455,327 428,297 L925,297 L925,245 L700,245 Q807,168 973,138 Q947,117 930,80 Q856,100 787,133 L787,37 Q788,-57 701,-56 Q659,-56 627,-51 Q627,-23 615,7 Q658,-1 688,-1 Q727,-2 726,42 L726,108 L529,108 L529,-96 L469,-96 L469,108 L285,108 L285,-54 L225,-54 L225,131 Q155,91 85,67 Q59,101 35,115 Q182,163 291,245 L73,245 L73,297 L352,297 Q382,327 405,360 L199,360 L199,614 L319,614 L319,675 M262,408 L733,408 L733,465 L262,465 M379,245 Q325,194 267,158 L469,158 L469,220 L529,220 L529,158 L740,158 Q674,194 616,245 M262,566 L262,510 L733,510 L733,566 M380,675 L380,614 L614,614 L614,675"/> 
            <glyph glyph-name="张" unicode="&#x5F20;" horiz-adv-x="978" d=" M384,369 L384,426 L495,426 L495,795 L559,795 L559,426 L920,426 L920,369 L677,369 Q769,124 978,24 Q942,3 917,-28 Q707,101 622,369 L559,369 L559,18 L683,91 L716,48 L540,-64 Q526,-72 498,-98 L467,-43 Q496,-15 495,39 L495,369 M244,-78 Q215,-78 153,-72 Q151,-39 133,-8 Q196,-18 233,-18 Q298,-18 300,47 L310,242 L99,242 L116,514 L312,514 L312,691 L91,691 L91,746 L373,746 L373,458 L174,458 L163,298 L373,298 L361,37 Q356,-77 244,-78 M632,486 Q605,505 575,514 Q722,625 812,766 L867,735 Q762,586 632,486"/> 
            <glyph glyph-name="彩" unicode="&#x5F69;" horiz-adv-x="955" d=" M81,316 L81,373 L317,373 L317,438 L379,438 L379,373 L584,373 L584,316 L379,316 L379,238 L404,256 Q510,170 579,99 L545,51 Q476,123 379,206 L379,-96 L317,-96 L317,240 Q233,97 107,1 Q78,25 48,33 Q214,157 299,316 M565,-96 Q544,-71 505,-51 Q756,53 902,248 L955,212 Q812,12 565,-96 M130,659 Q116,691 94,715 Q368,722 530,767 L576,716 Q389,672 130,659 M609,480 Q589,502 556,519 Q730,627 837,766 L891,727 Q776,586 609,480 M623,222 Q599,248 568,264 Q746,359 860,492 L910,457 Q807,332 623,222 M473,442 Q448,455 419,461 Q478,548 519,647 L575,624 Q529,522 473,442 M192,422 Q147,507 89,590 L147,610 Q200,532 238,457 M329,471 Q309,532 263,626 L322,639 Q363,556 381,498"/> 
            <glyph glyph-name="快" unicode="&#x5FEB;" horiz-adv-x="952" d=" M353,273 L353,330 L574,330 Q574,335 574,341 Q577,395 579,569 L403,569 L403,626 L580,626 L580,797 L644,790 Q643,699 643,717 Q643,698 643,677 Q643,659 643,626 L850,626 L850,330 L935,330 L935,273 L646,273 Q729,60 952,-33 Q917,-52 892,-87 Q690,18 615,213 Q569,19 360,-97 Q332,-67 300,-53 Q528,51 567,273 M203,-95 L203,796 L266,796 L266,-95 M642,569 Q641,444 637,330 L787,330 L787,569 M100,304 L41,331 Q91,457 100,586 L157,570 Q138,394 100,304 M364,396 Q329,496 286,583 L340,598 Q383,515 414,428"/> 
            <glyph glyph-name="想" unicode="&#x60F3;" horiz-adv-x="934" d=" M494,258 L494,745 L868,745 L868,258 M417,381 Q363,464 319,512 L319,243 L257,243 L257,514 Q207,400 118,312 Q93,334 59,343 Q183,446 245,604 L94,604 L94,659 L257,659 L257,796 L319,796 L319,659 L451,659 L451,604 L319,604 L319,522 L360,543 Q419,478 456,423 M409,-68 Q300,-71 303,30 L303,192 L368,192 L368,34 Q369,-9 415,-10 L625,-10 Q678,-14 696,47 Q697,51 699,60 Q707,86 710,101 Q733,73 763,59 Q760,48 753,24 Q751,16 750,13 Q723,-70 634,-68 M555,550 L555,454 L808,454 L808,550 M555,691 L555,596 L808,596 L808,691 M555,313 L808,313 L808,407 L555,407 M123,-45 L67,-2 Q135,88 180,199 L231,168 Q199,69 123,-45 M888,-8 Q820,89 732,179 L790,208 Q889,104 934,35 M571,70 Q503,159 449,212 L507,235 Q560,186 620,108"/> 
            <glyph glyph-name="技" unicode="&#x6280;" horiz-adv-x="963" d=" M912,-93 Q767,-34 663,65 Q554,-30 386,-97 Q368,-66 334,-44 Q504,14 618,111 Q521,218 459,377 L426,377 L426,435 L628,435 L628,579 L400,579 L400,638 L628,638 L628,796 L692,796 L692,638 L928,638 L928,579 L692,579 L692,435 L862,435 L862,382 Q809,216 707,108 Q812,15 963,-36 Q929,-60 912,-93 M69,527 L69,585 L211,585 L211,796 L272,796 L272,585 L379,585 L379,527 L272,527 L272,336 L363,378 L393,336 L272,275 L272,18 Q272,-83 180,-83 Q155,-83 106,-76 Q103,-44 87,-15 Q92,-16 101,-17 Q153,-24 170,-24 Q213,-26 211,26 L211,243 L86,180 L44,230 L211,308 L211,527 M795,377 L521,377 Q575,246 661,152 Q753,251 795,377"/> 
            <glyph glyph-name="拍" unicode="&#x62CD;" horiz-adv-x="892" d=" M443,-94 L443,654 L582,654 Q617,720 638,800 L702,783 Q679,710 650,654 L892,654 L892,-94 L827,-94 L827,0 L507,0 L507,-94 M70,540 L70,597 L212,597 L212,792 L276,792 L276,597 L392,597 L392,540 L276,540 L276,345 L378,383 L403,338 L276,286 L276,14 Q276,-90 170,-89 Q139,-89 107,-84 Q106,-52 91,-19 Q135,-27 163,-27 Q214,-29 212,25 L212,261 L73,205 L42,259 L212,322 L212,540 M507,301 L507,58 L827,58 L827,301 M507,596 L507,358 L827,358 L827,596"/> 
            <glyph glyph-name="时" unicode="&#x65F6;" horiz-adv-x="950" d=" M110,-32 L110,720 L414,720 L414,-10 L352,-10 L352,59 L171,59 L171,-32 M457,527 L457,587 L753,587 L753,793 L819,793 L819,587 L950,587 L950,527 L819,527 L819,34 Q818,-83 694,-83 Q661,-83 609,-75 Q608,-43 592,-10 Q642,-18 684,-19 Q756,-22 753,50 L753,527 M171,364 L171,118 L352,118 L352,364 M171,663 L171,420 L352,420 L352,663 M613,193 Q557,293 485,391 L542,415 Q594,345 662,229"/> 
            <glyph glyph-name="暗" unicode="&#x6697;" horiz-adv-x="951" d=" M95,0 L95,716 L342,716 L342,29 L282,29 L282,83 L155,83 L155,0 M445,-96 L445,314 L871,314 L871,-96 L810,-96 L810,-39 L507,-39 L507,-96 M370,390 L370,444 L568,444 Q523,517 470,580 L525,603 Q577,543 620,472 L579,444 L694,444 Q754,526 791,607 L849,584 Q805,504 761,444 L951,444 L951,390 M407,627 L407,680 L655,680 Q608,740 566,779 L624,802 Q695,729 724,684 L716,680 L910,680 L910,627 M507,113 L507,12 L810,12 L810,113 M507,263 L507,163 L810,163 L810,263 M155,374 L155,139 L282,139 L282,374 M155,659 L155,428 L282,428 L282,659"/> 
            <glyph glyph-name="更" unicode="&#x66F4;" horiz-adv-x="949" d=" M93,688 L93,746 L912,746 L912,688 L543,688 L543,596 L833,596 L833,233 L536,233 Q521,120 467,54 Q536,27 629,14 Q716,1 804,-5 Q889,-10 949,-6 Q923,-37 917,-77 Q740,-67 617,-47 Q506,-29 422,10 Q328,-62 96,-100 Q80,-67 47,-44 Q259,-16 356,43 Q269,95 193,177 L236,214 Q313,131 405,82 Q460,136 470,233 L183,233 L183,596 L476,596 L476,688 M248,540 L248,442 L476,442 L476,540 M248,289 L475,289 Q476,310 476,358 L476,387 L248,387 M541,289 L769,289 L769,387 L543,387 L543,357 Q543,320 541,289 M769,540 L543,540 L543,442 L769,442"/> 
            <glyph glyph-name="术" unicode="&#x672F;" horiz-adv-x="947" d=" M462,-95 L462,430 Q350,168 120,2 Q92,30 50,45 Q304,206 429,485 L95,485 L95,548 L462,548 L462,793 L530,793 L530,548 L900,548 L900,485 L560,485 Q680,213 947,66 Q903,43 876,10 Q634,175 530,431 L530,-95 M768,574 Q703,649 622,717 L674,750 Q742,695 810,619"/> 
            <glyph glyph-name="来" unicode="&#x6765;" horiz-adv-x="957" d=" M465,-96 L465,289 Q338,95 106,-24 Q76,9 44,24 Q281,134 427,322 L80,322 L80,379 L465,379 L465,624 L130,624 L130,682 L465,682 L465,796 L530,796 L530,682 L867,682 L867,624 L530,624 L530,379 L917,379 L917,322 L571,322 Q705,139 957,40 Q927,21 900,-18 Q657,92 530,290 L530,-96 M654,407 Q634,429 600,439 Q690,519 751,598 L804,566 Q740,484 654,407 M339,407 Q271,489 188,562 L241,593 Q316,528 384,450"/> 
            <glyph glyph-name="次" unicode="&#x6B21;" horiz-adv-x="958" d=" M901,-81 Q680,22 606,240 Q542,5 297,-96 Q273,-64 240,-46 Q525,64 560,338 Q568,403 566,497 L632,491 Q632,425 626,367 Q689,82 958,-24 Q919,-50 901,-81 M821,401 Q787,409 755,408 L823,583 L489,583 Q444,471 386,390 Q355,406 319,411 Q448,585 485,803 L551,782 Q532,703 511,641 L895,641 L895,590 M112,18 L52,61 Q178,199 264,343 L311,306 Q225,149 112,18 M259,488 Q178,576 77,660 L132,697 Q228,620 299,541"/> 
            <glyph glyph-name="止" unicode="&#x6B62;" horiz-adv-x="944" d=" M55,-57 L55,6 L223,6 L223,582 L290,582 L290,6 L515,6 L515,791 L584,791 L584,466 L870,466 L870,404 L584,404 L584,6 L944,6 L944,-57"/> 
            <glyph glyph-name="步" unicode="&#x6B65;" horiz-adv-x="938" d=" M60,394 L60,452 L260,452 L260,713 L324,713 L324,452 L502,452 L502,793 L567,793 L567,663 L851,663 L851,605 L567,605 L567,452 L938,452 L938,394 M118,-96 Q99,-61 72,-36 Q616,5 811,316 L866,281 Q663,-44 118,-96 M502,95 L502,360 L567,360 L567,95 M187,97 Q160,121 126,131 Q243,222 306,331 L361,300 Q279,173 187,97"/> 
            <glyph glyph-name="比" unicode="&#x6BD4;" horiz-adv-x="944" d=" M668,-67 Q541,-72 546,56 L546,789 L613,789 L613,454 Q774,524 868,595 L920,550 Q782,459 613,390 L613,56 Q612,-4 673,-3 L805,-3 Q858,-4 871,61 Q882,112 887,144 Q913,115 944,102 Q940,76 931,38 Q910,-69 812,-67 M151,-86 L116,-30 Q151,-4 149,46 L149,760 L216,760 L216,477 L474,477 L474,417 L216,417 L216,29 L447,139 L480,88 L204,-49 Q171,-64 151,-86"/> 
            <glyph glyph-name="温" unicode="&#x6E29;" horiz-adv-x="950" d=" M266,-57 L266,-2 L345,-2 L345,289 L873,289 L873,-2 L950,-2 L950,-57 M382,380 L382,749 L834,749 L834,380 M445,433 L771,433 L771,539 L445,539 M445,696 L445,591 L771,591 L771,696 M406,234 L406,-2 L505,-2 L505,234 M812,234 L714,234 L714,-2 L812,-2 M134,-82 L76,-40 Q155,104 216,285 L268,249 Q212,82 134,-82 M561,234 L561,-2 L658,-2 L658,234 M257,605 Q173,679 91,731 L139,771 Q219,721 291,658 M214,367 Q126,439 47,486 L91,529 Q165,487 245,422"/> 
            <glyph glyph-name="滤" unicode="&#x6EE4;" horiz-adv-x="948" d=" M279,-93 Q247,-73 217,-67 Q351,78 348,365 L348,606 L577,606 L577,796 L640,796 L640,721 L894,721 L894,670 L640,670 L640,606 L923,606 L923,559 L888,453 Q869,462 828,461 L860,553 L410,553 L410,369 Q413,70 279,-93 M450,389 L444,439 L568,450 L568,528 L627,528 L627,455 L795,470 L800,420 L627,405 L627,362 Q626,322 665,323 L775,323 Q813,321 825,359 Q834,379 838,406 Q859,380 888,371 Q882,348 877,335 Q858,267 785,270 L656,270 Q566,268 568,354 L568,399 M651,-67 Q545,-68 547,27 L547,184 L606,184 L606,34 Q605,-11 652,-11 L722,-11 Q767,-12 779,32 Q788,56 793,84 Q815,60 843,48 Q837,24 829,3 Q808,-69 732,-67 M131,-48 L76,-9 Q164,138 226,317 L276,281 Q212,94 131,-48 M222,366 Q131,441 56,484 L102,527 Q185,479 255,418 M270,596 Q198,664 116,721 L164,762 Q245,706 306,649 M900,-2 Q857,86 796,177 L849,197 Q895,131 948,31 M439,-32 L387,-1 Q437,75 465,180 L513,157 Q484,48 439,-32 M707,96 Q667,164 617,226 L668,246 Q712,192 751,130"/> 
            <glyph glyph-name="漂" unicode="&#x6F02;" horiz-adv-x="940" d=" M310,696 L310,748 L931,748 L931,696 L727,696 L727,611 L891,611 L891,406 L342,406 L342,611 L506,611 L506,696 M309,151 L309,203 L932,203 L932,151 L651,151 L651,11 Q649,-90 548,-92 Q528,-92 481,-87 Q481,-56 465,-27 Q509,-33 540,-33 Q591,-34 590,18 L590,151 M384,281 L384,331 L850,331 L850,281 M137,-83 L82,-40 Q159,105 219,285 L269,251 Q209,60 137,-83 M310,-64 Q288,-32 260,-21 Q369,30 468,127 L514,88 Q421,-4 310,-64 M911,-59 Q818,21 715,87 L759,123 Q857,61 940,-9 M219,362 Q142,427 51,483 L95,525 Q173,480 249,417 M252,601 Q161,682 88,727 L134,766 Q203,724 284,653 M835,560 L727,560 L727,456 L835,456 M564,560 L564,456 L671,456 L671,560 M399,456 L506,456 L506,560 L399,560 M564,696 L564,611 L671,611 L671,696"/> 
            <glyph glyph-name="灯" unicode="&#x706F;" horiz-adv-x="951" d=" M421,659 L421,720 L951,720 L951,659 L746,659 L746,40 Q746,-77 629,-77 Q598,-77 539,-68 Q537,-39 521,-1 Q574,-12 616,-13 Q682,-16 679,57 L679,659 M416,27 Q368,100 264,229 Q223,48 114,-85 Q86,-68 45,-62 Q239,135 237,570 Q238,670 232,796 L298,790 Q299,686 299,702 Q299,679 299,652 Q299,629 299,584 Q298,509 294,445 Q369,539 402,619 L457,592 Q410,497 336,410 Q323,420 293,429 Q286,335 270,252 L303,271 Q397,166 462,72 M115,298 L59,324 Q102,427 107,582 L163,570 Q157,414 115,298"/> 
            <glyph glyph-name="焦" unicode="&#x7126;" horiz-adv-x="928" d=" M88,413 Q69,440 38,454 Q206,588 288,798 L344,770 Q323,718 290,661 L561,661 Q520,716 459,773 L519,796 Q570,751 616,690 L573,661 L885,661 L885,605 L594,605 L594,509 L836,509 L836,454 L594,454 L594,358 L841,358 L841,303 L594,303 L594,207 L917,207 L917,150 L269,150 L269,119 L204,119 L204,531 Q148,462 88,413 M269,605 L269,509 L529,509 L529,605 M269,303 L269,207 L529,207 L529,303 M269,454 L269,358 L529,358 L529,454 M873,-95 Q817,3 754,83 L815,107 Q878,30 928,-56 M128,-102 L76,-59 Q145,13 186,106 L241,75 Q196,-25 128,-102 M622,-86 Q590,1 544,84 L606,94 Q653,13 679,-57 M399,-91 Q365,10 332,78 L396,86 Q429,21 458,-66"/> 
            <glyph glyph-name="然" unicode="&#x7136;" horiz-adv-x="959" d=" M129,115 Q98,142 67,152 Q179,204 265,292 Q201,330 134,360 L173,398 Q247,365 301,332 Q334,372 359,414 Q285,453 226,475 L259,518 Q320,495 384,462 Q419,531 432,601 L253,601 Q196,500 118,426 Q88,448 56,456 Q203,584 267,795 L326,767 Q308,710 281,656 L498,656 L498,608 Q423,275 129,115 M898,127 Q718,232 651,411 Q605,229 440,133 Q418,158 376,171 Q577,277 609,482 L483,482 L483,538 L615,538 Q622,659 621,795 L682,791 Q682,639 674,538 L910,538 L910,482 L681,482 Q751,271 959,176 Q926,159 898,127 M865,-101 Q785,35 734,100 L796,123 Q859,47 920,-61 M137,-97 L81,-57 Q155,24 200,127 L255,96 Q211,-8 137,-97 M618,-92 Q583,9 538,91 L601,104 Q653,8 677,-65 M401,-92 Q369,14 335,89 L398,99 Q432,30 461,-67 M826,570 Q781,632 706,707 L757,731 Q828,665 868,608"/> 
            <glyph glyph-name="照" unicode="&#x7167;" horiz-adv-x="939" d=" M137,170 L137,745 L400,745 L400,170 M487,171 L487,420 L862,420 L862,171 M753,468 Q724,468 697,471 Q694,499 681,527 Q714,521 748,521 Q806,519 809,582 L816,689 L654,689 Q636,506 483,439 Q465,463 428,477 Q580,531 594,689 L466,689 L466,742 L878,742 L868,576 Q863,466 753,468 M547,224 L803,224 L803,367 L547,367 M197,225 L340,225 L340,432 L197,432 M197,690 L197,485 L340,485 L340,690 M107,-97 L52,-55 Q121,27 163,129 L217,97 Q172,-14 107,-97 M885,-94 Q837,-3 767,99 L828,121 Q890,40 939,-54 M622,-82 Q591,3 544,91 L607,106 Q653,22 681,-53 M389,-86 Q367,-9 322,93 L384,104 Q414,50 449,-59"/> 
            <glyph glyph-name="片" unicode="&#x7247;" horiz-adv-x="904" d=" M670,-93 L670,245 L259,245 Q239,53 116,-95 Q90,-73 47,-65 Q208,102 199,385 L199,768 L267,768 L267,538 L581,538 L581,796 L649,796 L649,538 L904,538 L904,475 L267,475 L267,384 Q267,345 265,308 L738,308 L738,-93"/> 
            <glyph glyph-name="现" unicode="&#x73B0;" horiz-adv-x="961" d=" M67,673 L67,729 L398,729 L398,673 L269,673 L269,429 L384,429 L384,374 L269,374 L269,129 L401,171 L427,124 L74,3 L39,58 L207,110 L207,374 L79,374 L79,429 L207,429 L207,673 M770,-70 Q670,-72 672,30 L672,254 Q614,20 360,-99 Q335,-69 302,-56 Q648,93 632,435 L632,599 L691,599 L691,431 Q691,341 673,266 L730,266 L730,36 Q728,-16 778,-14 L837,-14 Q887,-16 898,39 Q905,70 911,112 Q934,85 961,74 Q957,46 946,6 Q927,-71 843,-70 M811,207 L811,691 L512,691 L512,214 L450,214 L450,747 L872,747 L872,207"/> 
            <glyph glyph-name="的" unicode="&#x7684;" horiz-adv-x="911" d=" M120,-82 L120,629 L216,629 Q271,730 290,798 L351,774 Q321,693 286,629 L450,629 L450,-64 L388,-64 L388,15 L182,15 L182,-82 M755,-83 Q716,-83 679,-78 Q676,-42 658,-12 Q705,-21 747,-21 Q830,-23 831,70 L846,578 L614,578 Q566,483 517,422 Q487,438 454,443 Q569,588 630,800 L690,774 Q667,696 640,637 L911,637 L895,60 Q893,-85 755,-83 M182,296 L182,74 L388,74 L388,296 M182,570 L182,352 L388,352 L388,570 M672,181 Q608,282 534,365 L588,393 Q647,332 719,226"/> 
            <glyph glyph-name="相" unicode="&#x76F8;" horiz-adv-x="901" d=" M489,-92 L489,734 L901,734 L901,-91 L836,-91 L836,-7 L553,-7 L553,-92 M75,527 L75,586 L242,586 L242,793 L306,793 L306,586 L441,586 L441,527 L306,527 L306,418 L328,425 Q412,318 444,263 L405,223 Q349,308 306,367 L306,-96 L242,-96 L242,387 Q188,237 107,133 Q80,156 49,164 Q184,333 233,527 M553,224 L553,52 L836,52 L836,224 M553,449 L553,279 L836,279 L836,449 M553,675 L553,506 L836,506 L836,675"/> 
            <glyph glyph-name="种" unicode="&#x79CD;" horiz-adv-x="908" d=" M654,-96 L654,185 L525,185 L525,109 L465,109 L465,600 L654,600 L654,793 L718,793 L718,600 L908,600 L908,109 L847,109 L847,185 L718,185 L718,-96 M74,468 L74,524 L241,524 L241,675 Q174,664 121,661 Q108,691 84,711 Q279,731 399,771 L439,721 Q381,703 304,687 L304,524 L429,524 L429,468 L304,468 L304,369 L332,382 Q399,309 441,239 L401,196 Q357,265 304,332 L304,-96 L241,-96 L241,353 Q185,211 100,109 Q72,128 36,131 Q172,287 228,468 M847,542 L718,542 L718,243 L847,243 M525,542 L525,243 L654,243 L654,542"/> 
            <glyph glyph-name="秒" unicode="&#x79D2;" horiz-adv-x="958" d=" M104,654 Q93,682 71,704 Q250,721 382,763 L424,714 Q374,698 287,680 L287,522 L420,522 L420,467 L287,467 L287,353 L315,368 Q368,313 420,241 L380,195 Q341,253 287,320 L287,-96 L226,-96 L226,346 Q174,213 99,113 Q73,132 35,139 Q161,289 215,467 L66,467 L66,522 L226,522 L226,668 Q156,659 104,654 M418,-98 Q397,-67 366,-45 Q714,53 824,351 L875,311 Q757,18 418,-98 M637,198 L637,792 L700,792 L700,198 M461,282 Q436,296 398,301 Q481,445 511,615 L569,593 Q531,418 461,282 M909,331 Q839,465 746,612 L799,632 Q886,510 958,367"/> 
            <glyph glyph-name="级" unicode="&#x7EA7;" horiz-adv-x="971" d=" M919,-84 Q809,-34 722,49 Q636,-44 508,-98 Q481,-68 452,-55 Q595,1 680,93 Q594,190 549,310 Q509,77 357,-77 Q330,-60 291,-53 Q503,147 505,494 Q506,522 507,591 Q509,651 509,676 L396,676 L396,731 L841,731 L841,684 L758,446 L881,446 L881,393 Q857,224 762,95 Q849,12 971,-27 Q941,-50 919,-84 M772,676 L572,676 Q571,587 567,487 Q567,477 566,456.5 Q565,436 564,425 Q616,256 719,139 Q798,249 819,391 L740,391 Q712,391 685,384 L664,428 Q695,444 711,495 M112,216 L84,272 Q121,285 148,322 Q186,366 242,443 L130,436 Q103,434 78,425 L53,476 Q82,488 102,518 Q198,660 262,792 L319,766 Q243,615 155,492 L282,499 Q332,570 363,620 L416,593 Q317,430 197,290 L369,309 L380,255 L180,230 Q137,225 112,216 M90,-8 L53,48 L367,156 L395,109"/> 
            <glyph glyph-name="继" unicode="&#x7EE7;" horiz-adv-x="940" d=" M498,400 L498,454 L672,454 L672,787 L731,787 L731,454 L900,454 L900,400 L731,400 L731,27 L672,27 L672,330 Q618,199 525,100 Q503,121 472,131 Q596,263 650,400 M403,-59 L403,724 L466,724 L466,-1 L940,-1 L940,-59 M103,181 L74,234 Q105,247 124,273 Q171,336 235,435 L141,429 Q119,428 79,419 L52,467 Q81,477 99,509 Q195,667 246,793 L306,769 Q240,627 153,485 L272,492 Q316,565 334,599 L386,571 Q288,400 182,256 L345,276 L359,225 L168,197 Q131,193 103,181 M87,-53 L51,5 L349,112 L377,64 M880,109 Q818,212 732,324 L782,342 Q869,234 923,150 M810,510 Q789,523 758,527 Q813,603 859,709 L910,683 Q858,577 810,510 M595,509 Q565,574 494,684 L548,701 Q604,614 640,539"/> 
            <glyph glyph-name="续" unicode="&#x7EED;" horiz-adv-x="943" d=" M438,634 L438,688 L629,688 L629,796 L692,796 L692,688 L889,688 L889,634 L692,634 L692,537 L924,537 L924,487 L874,335 Q847,343 815,343 L862,482 L401,482 L401,537 L629,537 L629,634 M104,182 L74,235 Q106,248 125,274 Q176,342 237,436 L142,430 Q110,428 80,420 L53,469 Q81,479 100,510 Q199,674 247,795 L307,770 Q244,633 154,487 L274,493 Q321,568 342,608 L394,580 Q286,393 183,257 L352,279 L368,227 L169,199 Q130,193 104,182 M379,136 L379,190 L645,190 Q655,225 660,281 Q665,351 665,452 L726,449 Q726,342 721,275 Q716,218 709,190 L943,190 L943,136 L693,136 Q640,-21 428,-97 Q412,-70 378,-48 Q578,20 626,136 M83,-45 L48,14 L359,106 L385,56 M905,-98 Q781,4 686,60 L726,101 Q836,38 932,-39 M554,212 Q475,268 402,302 L433,340 Q507,306 575,258 M603,314 Q531,368 461,403 L492,440 Q561,408 624,360"/> 
            <glyph glyph-name="编" unicode="&#x7F16;" horiz-adv-x="911" d=" M78,-12 L42,45 L337,138 L359,95 Q398,215 398,388 L398,684 L652,684 Q614,726 552,774 L609,798 Q660,763 717,699 L694,684 L889,684 L889,464 L459,464 L459,382 Q454,105 350,-67 Q323,-51 287,-48 Q329,12 356,87 M599,-30 L599,138 L524,138 L524,-96 L469,-96 L469,378 L910,378 L910,7 Q911,-92 818,-91 Q792,-91 768,-88 Q766,-59 752,-30 Q784,-35 811,-35 Q855,-38 853,15 L853,138 L774,138 L774,-16 L724,-16 L724,138 L650,138 L650,-30 M71,421 L43,469 Q75,484 89,511 Q171,647 230,791 L289,766 Q222,618 143,488 L248,494 Q282,552 319,622 L373,595 Q284,428 180,279 L338,304 L354,251 L168,221 Q125,213 103,202 L72,256 Q101,270 121,296 Q171,366 213,436 L132,431 Q101,428 71,421 M459,631 L459,517 L829,517 L829,631 M853,325 L774,325 L774,189 L853,189 M524,325 L524,189 L599,189 L599,325 M650,325 L650,189 L724,189 L724,325"/> 
            <glyph glyph-name="美" unicode="&#x7F8E;" horiz-adv-x="953" d=" M115,606 L115,662 L380,662 Q327,716 264,769 L321,799 Q390,742 437,691 L401,662 L555,662 Q633,740 672,801 L733,773 Q683,708 636,662 L885,662 L885,606 L532,606 L532,513 L814,513 L814,457 L532,457 L532,363 L937,363 L937,307 L62,307 L62,363 L466,363 L466,457 L185,457 L185,513 L466,513 L466,606 M107,148 L107,205 L457,205 Q464,244 464,280 L531,274 Q530,247 524,205 L893,205 L893,148 L549,148 Q663,-3 953,-22 Q920,-58 913,-91 Q616,-54 499,122 Q406,-63 100,-95 Q85,-63 58,-36 Q367,-7 439,148"/> 
            <glyph glyph-name="自" unicode="&#x81EA;" horiz-adv-x="818" d=" M182,-96 L182,675 L385,675 Q425,739 449,809 L522,791 Q489,717 464,675 L818,675 L818,-96 L752,-96 L752,-27 L249,-27 L249,-96 M249,189 L249,32 L752,32 L752,189 M249,403 L249,247 L752,247 L752,403 M249,617 L249,461 L752,461 L752,617"/> 
            <glyph glyph-name="色" unicode="&#x8272;" horiz-adv-x="936" d=" M313,-66 Q187,-67 187,53 L187,503 L495,503 L643,644 L344,644 Q242,536 120,470 Q119,471 117,473 Q91,501 64,511 Q288,629 387,810 L443,776 Q412,725 392,701 L738,701 L738,651 L581,503 L842,503 L842,218 L253,218 L253,56 Q254,-3 318,-4 L775,-4 Q843,-7 860,49 Q873,86 880,135 Q905,105 936,91 Q935,89 934,84 Q923,36 917,22 Q891,-70 781,-66 M777,445 L545,445 L545,275 L777,275 M253,445 L253,275 L483,275 L483,445"/> 
            <glyph glyph-name="表" unicode="&#x8868;" horiz-adv-x="955" d=" M310,-107 L278,-53 Q305,-29 303,23 L303,157 Q210,95 93,44 Q78,74 41,96 Q274,176 415,334 L79,334 L79,390 L464,390 L464,486 L185,486 L185,541 L464,541 L464,637 L135,637 L135,692 L464,692 L464,796 L531,796 L531,692 L864,692 L864,637 L531,637 L531,541 L814,541 L814,486 L531,486 L531,390 L919,390 L919,334 L495,334 Q435,260 368,206 L368,-7 L544,66 L577,16 L363,-73 Q334,-86 310,-107 M902,-72 Q640,16 512,269 L560,305 Q601,220 657,159 Q765,225 818,280 L868,240 Q796,175 698,118 Q797,30 955,-18 Q924,-37 902,-72"/> 
            <glyph glyph-name="观" unicode="&#x89C2;" horiz-adv-x="961" d=" M376,95 Q316,182 274,239 Q207,115 97,13 Q73,34 31,44 Q155,144 233,294 Q143,414 78,485 L131,517 Q195,445 263,358 Q315,490 327,631 L80,631 L80,689 L390,689 L390,636 Q373,454 306,302 Q365,223 421,141 M770,-70 Q670,-71 672,30 L672,256 Q618,27 366,-96 Q346,-73 307,-54 Q649,101 633,437 L633,599 L692,599 L692,434 Q692,343 674,266 L730,266 L730,36 Q729,-16 779,-14 L837,-14 Q887,-16 898,39 Q906,70 912,112 Q933,86 961,74 Q957,46 946,6 Q928,-72 843,-70 M812,207 L812,691 L516,691 L516,214 L454,214 L454,747 L872,747 L872,207"/> 
            <glyph glyph-name="视" unicode="&#x89C6;" horiz-adv-x="961" d=" M770,-70 Q671,-71 672,31 L672,262 Q624,33 373,-96 Q354,-70 316,-53 Q643,97 630,434 L630,595 L690,595 L690,435 Q690,342 672,266 L731,266 L731,36 Q730,-13 779,-12 L839,-12 Q885,-14 896,37 Q905,71 911,113 Q935,84 961,75 Q956,45 948,9 Q928,-71 844,-70 M811,206 L811,685 L510,685 L510,210 L448,210 L448,742 L871,742 L871,206 M208,-96 L208,306 Q147,238 88,193 Q66,222 33,228 Q215,372 294,546 L73,546 L73,602 L366,602 L366,555 Q331,470 269,382 L269,346 L302,366 Q364,306 404,254 L366,214 Q315,277 269,324 L269,-96 M280,629 Q218,702 148,763 L204,795 Q275,735 327,675"/> 
            <glyph glyph-name="解" unicode="&#x89E3;" horiz-adv-x="941" d=" M274,-18 L274,144 L178,144 Q171,4 116,-95 Q87,-81 53,-76 Q93,-9 107.5,56.5 Q122,122 122,233 L122,526 Q108,514 96,502 Q77,522 43,532 Q173,655 233,802 L288,775 Q272,736 255,707 L460,707 L460,660 L371,534 L479,534 L479,21 Q480,-80 391,-79 Q376,-79 345,-76 Q344,-76 343,-76 Q340,-43 328,-18 Q356,-21 380,-21 Q423,-24 421,28 L421,144 L327,144 L327,-18 M554,178 Q527,193 495,197 Q558,277 585,396 L638,375 Q633,357 621,320 Q618,312 617,309 L716,309 L716,408 L775,408 L775,309 L921,309 L921,254 L775,254 L775,130 L941,130 L941,76 L775,76 L775,-95 L716,-95 L716,76 L511,76 L511,130 L716,130 L716,254 L595,254 Q575,212 554,178 M558,417 Q530,438 500,448 Q628,523 639,674 L521,674 L521,729 L911,729 L902,548 Q898,439 801,440 Q771,440 731,445 Q729,480 717,503 Q760,496 787,496 Q841,496 844,553 L850,674 L698,674 Q685,502 558,417 M222,653 Q180,589 130,534 L298,534 L385,653 M421,481 L327,481 L327,363 L421,363 M327,313 L327,194 L421,194 L421,313 M181,232 Q181,212 180,194 L274,194 L274,313 L181,313 M181,481 L181,363 L274,363 L274,481"/> 
            <glyph glyph-name="让" unicode="&#x8BA9;" horiz-adv-x="951" d=" M323,-57 L323,5 L573,5 L573,796 L640,796 L640,500 L917,500 L917,439 L640,439 L640,5 L951,5 L951,-57 M197,-62 L157,-10 Q184,21 182,78 L182,423 L49,423 L49,482 L245,482 L245,70 L368,184 L407,143 L234,-19 Q219,-36 197,-62 M323,558 Q241,644 148,718 L202,756 Q295,680 361,611"/> 
            <glyph glyph-name="话" unicode="&#x8BDD;" horiz-adv-x="947" d=" M412,659 Q402,690 378,714 Q665,724 845,768 L889,715 Q803,696 676,680 L676,514 L947,514 L947,457 L676,457 L676,306 L878,306 L878,-97 L813,-97 L813,-25 L476,-25 L476,-97 L412,-97 L412,306 L611,306 L611,457 L348,457 L348,514 L611,514 L611,672 Q491,661 412,659 M476,248 L476,32 L813,32 L813,248 M187,-80 L151,-27 Q185,0 183,50 L183,418 L49,418 L49,476 L246,476 L246,49 L349,129 L382,85 L228,-42 Q213,-54 187,-80 M263,567 Q195,643 101,721 L158,757 Q255,673 310,611"/> 
            <glyph glyph-name="象" unicode="&#x8C61;" horiz-adv-x="967" d=" M181,381 L181,558 Q129,528 94,516 Q75,539 42,558 Q272,663 375,813 L436,785 Q414,752 385,720 L762,720 L762,681 Q700,628 631,589 L860,589 L860,381 L467,381 Q549,321 587,245 Q740,302 829,364 L879,325 Q821,285 712,238 Q795,76 967,18 Q928,-2 901,-32 Q740,56 663,219 Q634,207 607,198 Q625,146 624,84 Q625,-92 462,-91 Q444,-91 416,-89 Q411,-54 394,-26 Q428,-33 455,-33 Q566,-35 564,86 Q564,132 551,174 Q388,-4 129,-84 Q112,-60 80,-38 Q358,42 532,222 Q518,251 495,278 Q351,139 101,66 Q85,95 55,115 Q301,170 463,313 Q444,331 421,349 Q308,269 127,229 Q110,257 82,278 Q261,308 372,381 M797,537 L574,537 Q553,481 513,433 L797,433 M334,669 Q286,625 231,589 L528,589 Q603,630 658,669 M244,433 L436,433 Q484,479 511,537 L244,537"/> 
            <glyph glyph-name="辑" unicode="&#x8F91;" horiz-adv-x="950" d=" M418,428 L418,480 L947,480 L947,428 L857,428 L857,80 L946,85 L950,32 L857,28 L857,-95 L796,-95 L796,25 L409,5 L403,58 L502,63 L502,428 M67,606 L67,662 L208,662 Q228,718 249,803 L308,784 Q290,722 270,662 L440,662 L440,606 L250,606 Q198,460 150,369 L259,369 L259,527 L319,527 L319,369 L431,369 L431,314 L319,314 L319,178 L434,205 L456,154 L319,121 L319,-96 L259,-96 L259,106 L74,61 L47,117 L259,165 L259,314 L84,314 L84,369 Q135,458 188,606 M491,548 L491,755 L868,755 L868,548 M551,599 L808,599 L808,704 L551,704 M562,159 L562,66 L796,78 L796,159 M562,294 L562,208 L796,208 L796,294 M562,428 L562,342 L796,342 L796,428"/> 
            <glyph glyph-name="达" unicode="&#x8FBE;" horiz-adv-x="957" d=" M853,86 Q752,198 605,339 Q549,176 387,79 Q365,105 329,121 Q555,246 572,503 L342,503 L342,563 L575,563 Q578,659 578,791 L644,785 Q644,650 641,563 L897,563 L897,503 L637,503 Q633,452 623,406 Q770,276 894,143 M116,-79 L65,-35 Q136,42 199,98 L199,409 L65,409 L65,468 L263,468 L263,98 Q374,0 584,-1 Q670,-4 770,-1 Q870,2 957,10 Q937,-24 934,-64 Q863,-66 767,-66.5 Q671,-67 596,-66 Q350,-64 231,48 Q176,-3 116,-79 M258,556 Q203,635 114,718 L170,754 Q252,680 308,602"/> 
            <glyph glyph-name="还" unicode="&#x8FD8;" horiz-adv-x="951" d=" M346,668 L346,728 L903,728 L903,668 L669,668 Q644,598 614,536 L646,536 L646,71 L582,71 L582,475 Q497,321 351,197 Q322,223 290,233 Q507,406 600,668 M119,-72 L67,-25 Q136,53 195,104 L195,411 L65,411 L65,471 L260,471 L260,107 Q356,27 486,16 Q571,6 701.5,6 Q832,6 951,16 Q925,-26 925,-59 Q873,-60 818,-61 Q765,-62 715,-61 Q617,-60 551,-56 Q357,-51 230,54 Q157,-15 119,-72 M889,204 Q783,336 667,448 L723,479 Q827,378 931,254 M268,558 Q192,647 114,717 L171,752 Q252,683 316,604"/> 
            <glyph glyph-name="进" unicode="&#x8FDB;" horiz-adv-x="954" d=" M338,563 L338,621 L470,621 L470,793 L533,793 L533,621 L698,621 L698,793 L762,793 L762,621 L895,621 L895,563 L762,563 L762,374 L913,374 L913,316 L762,316 L762,52 L698,52 L698,316 L527,316 Q515,165 408,60 Q384,79 345,89 Q452,186 463,316 L317,316 L317,374 L468,374 Q470,421 470,453 L470,563 M114,-78 L62,-31 Q131,47 191,98 L191,418 L59,418 L59,476 L254,476 L254,100 Q351,22 481,9 Q569,-1 701,-2 Q835,-1 954,9 Q930,-30 928,-65 Q819,-67 715,-67 Q614,-66 545,-63 Q350,-56 224,47 Q155,-17 114,-78 M533,451 Q533,410 531,374 L698,374 L698,563 L533,563 M253,566 Q178,655 103,723 L160,758 Q233,692 300,611"/> 
            <glyph glyph-name="通" unicode="&#x901A;" horiz-adv-x="952" d=" M362,54 L362,544 L611,544 Q529,595 456,630 L496,668 Q529,651 598,612 Q611,605 618,601 Q688,641 764,696 L354,696 L354,749 L859,749 L859,703 Q796,648 669,570 Q678,564 687,558 L677,544 L869,544 L869,147 Q868,54 775,53 Q748,53 725,56 Q724,85 710,112 Q743,106 766,106 Q810,106 810,153 L810,208 L644,208 L644,78 L585,78 L585,208 L422,208 L422,54 M112,-78 L61,-32 Q125,42 185,97 L185,415 L56,415 L56,472 L247,472 L247,99 Q344,15 482,4 Q569,-4 702.5,-3.5 Q836,-3 952,6 Q932,-27 928,-64 Q831,-67 719,-67 Q613,-67 541,-63 Q336,-57 219,46 Q149,-22 112,-78 M644,352 L644,257 L810,257 L810,352 M422,352 L422,257 L585,257 L585,352 M810,493 L644,493 L644,401 L810,401 M422,493 L422,401 L585,401 L585,493 M243,560 Q170,646 91,718 L145,752 Q225,684 287,607"/> 
            <glyph glyph-name="镜" unicode="&#x955C;" horiz-adv-x="941" d=" M432,139 L432,423 L853,423 L853,139 L738,139 L738,24 Q738,-17 780,-17 L825,-17 Q873,-19 883,31 Q890,58 895,87 Q914,65 941,53 Q936,24 931,3 Q913,-75 830,-71 L773,-71 Q681,-71 681,14 L681,139 L601,139 Q593,-48 366,-94 Q349,-68 320,-49 Q544,-8 543,139 M89,421 Q62,444 32,451 Q145,592 197,798 L255,772 Q239,715 219,660 L364,660 L364,606 L196,606 Q171,549 130,480 L349,480 L349,426 L250,426 L250,303 L371,303 L371,249 L250,249 L250,52 L346,128 L384,88 L244,-26 Q224,-43 203,-67 L165,-18 Q194,8 191,65 L191,249 L68,249 L68,303 L191,303 L191,426 L123,426 L123,469 Q106,442 89,421 M371,487 L371,537 L541,537 Q516,576 475,625 L525,648 Q560,611 596,554 L572,537 L681,537 Q725,587 763,652 L816,626 Q784,579 751,537 L928,537 L928,487 M400,655 L400,705 L634,705 Q603,745 562,786 L612,812 Q658,768 697,717 L680,705 L894,705 L894,655 M490,375 L490,303 L795,303 L795,375 M490,188 L795,188 L795,259 L490,259"/> 
            <glyph glyph-name="闪" unicode="&#x95EA;" horiz-adv-x="883" d=" M761,-88 Q724,-88 686,-85 Q683,-51 665,-16 Q723,-23 752,-23 Q819,-25 817,42 L817,667 L387,667 L387,725 L882,725 L882,33 Q883,-89 761,-88 M282,82 Q257,111 224,125 Q476,256 472,575 L536,568 Q533,468 514,389 Q630,286 754,149 L714,93 Q601,221 494,325 Q440,181 282,82 M119,-96 L119,617 L184,617 L184,-96 M289,603 Q222,694 164,748 L222,778 Q287,718 338,648"/> 
            <glyph glyph-name="频" unicode="&#x9891;" horiz-adv-x="951" d=" M481,692 L481,748 L944,748 L944,692 L742,692 Q725,635 697,569 L894,569 L894,100 L834,100 L834,515 L583,515 L583,100 L524,100 L524,569 L631,569 Q660,631 677,692 M55,411 L55,466 L133,466 L133,716 L190,716 L190,466 L284,466 L284,796 L344,796 L344,659 L478,659 L478,606 L344,606 L344,466 L494,466 L494,411 M482,-100 Q467,-72 433,-54 Q687,36 679,258 L679,436 L737,436 L737,259 Q743,9 482,-100 M66,-94 Q57,-64 29,-41 Q356,35 435,321 L486,292 Q400,-4 66,-94 M918,-95 Q816,3 707,84 L753,120 Q836,61 951,-42 M276,133 L276,375 L334,375 L334,133 M123,122 Q95,138 65,140 Q129,220 166,332 L219,310 Q179,197 123,122"/> 
            <glyph glyph-name="颜" unicode="&#x989C;" horiz-adv-x="955" d=" M523,693 L523,747 L937,747 L937,693 L762,693 Q749,642 719,571 L901,571 L901,111 L842,111 L842,519 L609,519 L609,107 L550,107 L550,571 L659,571 Q685,640 700,693 M86,-101 Q62,-83 27,-77 Q79,-1 95.5,69 Q112,139 112,272 L112,489 L324,489 Q374,562 412,632 L466,608 Q424,536 387,489 L506,489 L506,435 L172,435 L172,267 Q177,27 86,-101 M512,-98 Q491,-69 462,-54 Q707,31 698,261 L698,449 L754,449 L754,251 Q758,-3 512,-98 M88,642 L88,696 L306,696 Q277,731 229,781 L287,804 Q332,761 369,713 L341,696 L505,696 L505,642 M193,-77 Q176,-46 153,-26 Q349,15 473,124 L513,84 Q381,-28 193,-77 M214,92 Q198,122 175,142 Q349,185 447,270 L486,232 Q380,145 214,92 M215,253 Q203,280 180,302 Q336,339 437,417 L477,379 Q369,300 215,253 M920,-96 Q836,-7 724,79 L770,112 Q868,40 955,-42 M237,491 Q210,537 156,602 L211,621 Q253,574 287,521"/> 
            <glyph glyph-name="！" unicode="&#xFF01;" horiz-adv-x="281" d=" M268,217 L221,217 L209,714 L281,714 M279,0 L211,0 L211,81 L279,81"/> 
            <glyph glyph-name="，" unicode="&#xFF0C;" horiz-adv-x="294" d=" M294,72 L294,31 Q293,-50 246,-128 L208,-128 Q249,-57 249,0 Q248,18 228,19 L207,19 L207,110 L251,110 Q292,108 294,72"/> 
        </font>
</defs>
</svg>
