<?xml version="1.0" standalone="no"?>
<!DOCTYPE svg PUBLIC "-//W3C//DTD SVG 1.1//EN" "http://www.w3.org/Graphics/SVG/1.1/DTD/svg11.dtd" >
<svg xmlns="http://www.w3.org/2000/svg">
    <defs>
        <font id="">
            <font-face font-family=""
                       units-per-em="256"
                       ascent="221"
                       descent="-58"
                       bbox="0 -58 264 221"
                    />
            <missing-glyph horiz-adv-x="0" />
            
            <glyph glyph-name="6" unicode="&#x36;" horiz-adv-x="100" d=" M60,172 Q37,169 36,98 Q46,113 61,113 Q97,107 100,57 Q98,1 56,0 Q13,0 13,83 Q15,176 62,181 Q93,179 96,152 Q96,136 82,136 Q64,138 72,161 Q70,173 60,172 M57,103 Q38,100 36,61 Q37,9 56,6 Q77,7 77,56 Q76,100 57,103"/> 
            <glyph glyph-name="7" unicode="&#x37;" horiz-adv-x="99" d=" M19,120 L13,121 L18,177 L99,177 L99,160 Q61,86 62,15 Q62,0 48,0 Q35,0 35,12 Q35,54 85,150 L38,150 Q25,152 19,120"/> 
            <glyph glyph-name="9" unicode="&#x39;" horiz-adv-x="99" d=" M52,7 Q72,5 76,81 Q65,65 49,65 Q13,67 12,120 Q13,178 55,180 Q96,175 99,95 Q99,0 51,0 Q18,0 15,26 Q16,43 29,44 Q51,41 41,17 Q44,7 52,7 M55,172 Q36,170 35,121 Q35,78 55,77 Q76,77 76,123 Q75,170 55,172"/> 
            <glyph glyph-name="A" unicode="&#x41;" horiz-adv-x="156" d=" M91,3 L91,10 Q113,10 108,24 L98,60 L48,60 L37,24 Q32,11 56,10 L56,3 L8,3 L8,10 Q23,9 28,25 L76,177 L89,178 L133,33 Q139,10 156,10 L156,3 M51,70 L95,70 L74,144"/> 
            <glyph glyph-name="F" unicode="&#x46;" horiz-adv-x="116" d=" M26,36 L26,144 Q27,171 9,169 L9,177 L112,177 L116,133 L108,131 Q101,173 77,169 L49,169 L49,97 L71,97 Q90,95 91,121 L98,121 L98,63 L91,63 Q89,91 71,89 L49,89 L49,37 Q47,9 68,11 L68,3 L8,3 L8,11 Q27,10 26,36"/> 
            <glyph glyph-name="P" unicode="&#x50;" horiz-adv-x="123" d=" M25,36 L25,144 Q26,171 8,169 L8,177 L67,177 Q122,177 122,129 Q123,75 68,76 L48,76 L48,37 Q47,9 67,11 L67,3 L8,3 L8,11 Q26,9 25,36 M48,83 L61,83 Q97,84 98,128 Q98,169 61,169 L48,169"/> 
            <glyph glyph-name="「" unicode="&#x300C;" horiz-adv-x="169" d=" M119,198 L169,198 L169,185 L136,185 L136,-17 L119,-17"/> 
            <glyph glyph-name="」" unicode="&#x300D;" horiz-adv-x="137" d=" M137,-17 L87,-17 L87,-4 L120,-4 L120,199 L137,199"/> 
            <glyph glyph-name="一" unicode="&#x4E00;" horiz-adv-x="241" d=" M54,95 Q28,93 22,91 L12,101 L202,105 L220,123 L240,103 Q241,100 238,100"/> 
            <glyph glyph-name="久" unicode="&#x4E45;" horiz-adv-x="252" d=" M25,68 Q24,66 23,68 Q22,69 23,71 Q69,121 99,215 L125,202 Q127,199 124,198 L121,194 Q120,191 117,187 Q113,178 104,164 L146,165 L159,179 L182,163 Q185,160 182,159 L173,148 Q164,129 154,113 Q168,46 250,-6 Q252,-9 249,-9 Q231,-9 215,-26 Q160,15 151,107 Q109,32 10,-33 Q8,-34 7,-33 Q6,-31 7,-30 Q103,41 146,159 L100,157 Q70,111 25,68"/> 
            <glyph glyph-name="传" unicode="&#x4F20;" horiz-adv-x="252" d=" M143,160 Q130,160 115,158 Q116,158 114,158 L107,165 L149,166 L153,184 L158,214 L183,204 Q186,203 183,200 Q177,196 176,185 L172,166 L201,166 L215,180 L231,165 Q232,162 229,162 L170,161 L163,125 L218,127 L232,142 L250,126 Q252,123 250,123 L161,120 L158,106 L154,90 L198,91 L208,102 L229,86 Q231,84 229,82 L220,75 Q202,51 168,23 Q189,11 199,2 Q204,-7 194,-24 Q190,-29 188,-28 Q186,-27 182,-21 Q156,14 123,40 Q122,42 125,43 Q145,35 163,26 Q185,59 198,87 L152,85 Q141,74 133,72 Q128,71 128,74 L138,114 L140,119 L126,119 Q123,119 117,118 Q103,118 99,116 L91,124 L141,125 L148,160 M5,75 Q3,74 2,75 Q1,76 2,78 Q62,129 94,214 L114,201 Q117,200 114,196 Q100,171 80,145 L79,2 Q77,-11 65,-25 Q58,-30 57,-25 L59,42 L61,124 Q39,102 5,75"/> 
            <glyph glyph-name="似" unicode="&#x4F3C;" horiz-adv-x="236" d=" M181,199 L208,187 Q212,186 209,183 L204,175 L204,100 Q203,56 192,34 Q227,23 234,10 Q236,-8 218,-13 Q212,-14 208,-5 Q202,15 189,29 Q174,0 100,-24 Q98,-25 98,-23 Q97,-22 99,-21 Q155,0 167,22 Q182,41 182,103 L182,160 Q182,191 181,199 M7,72 Q5,71 4,72 Q3,73 4,74 Q51,134 73,210 L92,201 Q94,200 92,198 L89,194 Q81,174 70,156 L68,4 Q68,-8 57,-23 Q51,-28 50,-23 L52,44 L54,130 Q34,101 7,72 M168,111 Q172,112 170,109 L133,52 Q123,39 98,-2 Q96,-5 93,-2 Q88,7 85,18 Q85,19 86,22 Q86,24 86,24 Q95,31 103,40 L101,148 Q101,172 99,183 L126,173 Q128,171 126,169 L122,163 L119,56 Q120,57 123,61 Q127,65 129,67 M135,204 Q166,191 164,176 Q163,165 151,161 Q144,158 143,165 Q143,164 143,166 Q143,188 133,201 Q132,202 133,204 Q133,205 135,204"/> 
            <glyph glyph-name="体" unicode="&#x4F53;" horiz-adv-x="254" d=" M151,215 L176,204 Q177,204 177,202 L172,194 L171,155 L206,156 L219,168 L235,154 Q237,151 234,151 L180,150 Q193,81 253,28 Q254,27 254,26 Q254,25 252,25 Q236,25 221,14 Q185,56 176,150 L171,150 L169,42 L174,42 L184,53 L199,40 Q200,38 198,38 L169,37 L170,-3 Q168,-16 154,-30 Q148,-35 147,-29 L149,37 L141,36 Q140,36 135,36 Q126,35 123,35 L117,41 L149,42 L149,43 L149,104 Q124,62 80,12 Q75,9 78,14 Q113,65 144,150 L132,150 Q122,150 109,148 Q105,147 103,147 L95,154 L150,155 L150,180 Q150,203 149,214 Q149,216 151,215 M7,78 Q5,77 4,78 Q4,80 5,81 Q57,133 89,214 L111,200 Q113,199 113,199 Q113,198 111,197 L108,193 Q97,175 75,148 L77,0 Q74,-13 62,-28 Q59,-30 57,-30 Q56,-30 56,-27 L57,40 L58,127 Q31,98 7,78"/> 
            <glyph glyph-name="使" unicode="&#x4F7F;" horiz-adv-x="250" d=" M153,212 Q153,215 155,214 L178,202 Q181,201 178,198 L174,191 L174,173 L214,174 L227,187 L243,173 Q245,170 242,170 L174,168 L174,140 L203,140 L212,151 L234,137 Q236,137 234,135 L228,126 L229,91 L230,88 Q231,88 230,87 Q216,87 170,87 Q166,59 153,36 Q186,14 248,2 Q250,2 250,1 Q250,0 248,0 Q229,-3 214,-24 Q170,-7 145,25 Q121,-7 61,-31 Q58,-31 60,-27 Q118,-1 136,37 Q129,51 123,64 L126,65 Q132,55 141,46 Q148,64 151,86 Q137,86 123,85 Q122,76 111,68 Q109,66 107,67 Q106,67 106,69 L106,122 Q106,143 105,147 Q105,148 106,149 Q106,149 108,148 L124,138 L155,139 L155,167 L137,167 Q122,167 107,165 L99,172 L155,173 L155,176 Q155,195 153,212 M6,78 Q5,77 4,79 Q3,80 4,81 Q57,132 89,214 L111,200 Q113,199 111,196 L107,192 Q106,190 103,186 Q94,173 81,156 L84,16 Q82,2 71,-12 Q68,-14 67,-14 Q66,-14 66,-11 L67,56 L67,138 Q38,104 6,78 M174,127 Q174,109 172,92 L204,93 L203,135 L174,134 M152,92 Q153,100 154,118 Q155,127 155,131 L155,134 L124,133 L124,91"/> 
            <glyph glyph-name="保" unicode="&#x4FDD;" horiz-adv-x="254" d=" M127,93 Q105,92 97,89 L89,97 L154,98 L154,109 L153,131 Q153,134 155,133 L176,123 Q179,123 178,119 L176,110 L176,99 L214,100 L227,114 L244,99 Q245,96 243,96 L180,94 Q194,44 252,20 Q254,19 254,18 Q254,17 252,16 Q242,18 222,2 Q186,32 178,94 L176,94 L176,37 L177,2 Q176,-12 159,-26 Q156,-28 154,-27 Q152,-26 153,-23 L154,33 L154,65 Q125,26 81,-5 Q79,-6 78,-5 Q78,-3 79,-2 Q120,35 148,93 M201,202 L220,190 Q222,189 220,187 L214,180 L213,141 L215,138 Q215,136 214,136 Q211,136 203,136 Q162,137 131,135 Q129,126 120,120 Q117,118 116,119 Q115,119 115,121 L115,155 L115,174 Q115,195 114,199 Q114,201 117,199 L135,191 L191,192 M4,67 Q3,66 2,67 Q1,69 2,70 Q55,127 87,215 L109,202 Q111,201 109,198 L105,194 Q90,167 73,144 L76,0 Q74,-11 61,-26 Q59,-28 57,-28 Q56,-28 55,-25 L57,42 L57,123 Q33,92 4,67 M133,186 L132,141 L191,142 L192,187"/> 
            <glyph glyph-name="内" unicode="&#x5185;" horiz-adv-x="229" d=" M116,214 L143,206 Q146,206 144,202 L141,194 Q141,176 139,160 L193,161 L205,174 L227,159 Q229,158 227,156 L219,145 L218,60 L219,27 Q219,-8 180,-27 Q177,-29 176,-26 Q177,-8 166,-3 Q164,-2 165,0 Q165,0 167,0 Q195,-2 192,21 L194,155 L139,154 Q136,129 129,110 Q182,86 185,75 Q187,62 174,49 Q167,44 164,54 Q154,81 127,105 Q113,66 60,27 L60,1 Q59,-12 45,-27 Q42,-30 40,-30 Q38,-29 38,-26 L39,129 Q40,150 38,172 Q38,175 39,173 L62,159 L116,159 Q116,184 116,214 M61,153 L60,33 Q111,78 115,153"/> 
            <glyph glyph-name="决" unicode="&#x51B3;" horiz-adv-x="249" d=" M125,216 L156,205 Q159,203 156,200 L152,193 L152,158 L182,159 L191,172 L212,160 Q214,159 212,157 L206,148 L205,89 L216,89 L230,104 L246,87 Q248,84 245,84 L149,82 Q148,17 37,-32 Q35,-33 34,-32 Q34,-31 35,-29 Q122,18 125,81 L102,81 Q92,81 79,79 Q80,80 76,79 L67,86 L126,87 Q127,102 127,119 L127,152 L91,151 Q88,151 87,153 Q87,157 90,157 L127,158 L127,177 Q127,192 125,216 M83,163 L47,45 Q45,37 45,28 Q44,18 46,10 Q49,2 44,-1 Q39,-7 26,-8 Q18,-9 19,0 Q21,8 23,19 Q25,28 13,34 Q11,36 14,36 Q24,34 27,42 L80,163 Q81,164 82,165 Q83,164 83,163 M160,77 Q163,35 247,-3 Q249,-4 249,-5 Q248,-7 246,-7 Q229,-6 208,-25 Q163,12 157,76 M182,154 L152,153 L152,116 Q152,101 150,88 L182,88 M24,186 Q56,171 56,158 Q54,146 42,141 Q34,140 32,147 Q30,171 21,184 Q22,187 24,186"/> 
            <glyph glyph-name="切" unicode="&#x5207;" horiz-adv-x="241" d=" M231,22 Q229,-3 202,-18 Q200,-19 199,-18 Q197,-17 198,-15 Q199,-3 190,1 Q188,2 189,3 Q189,4 191,4 Q209,4 207,16 L208,187 L156,185 L176,176 Q179,175 177,171 L175,165 L175,119 Q180,6 40,-34 Q38,-34 38,-33 Q38,-31 40,-30 Q158,9 153,119 L153,148 Q153,177 152,185 L145,185 Q133,185 123,183 L117,189 L207,193 L219,204 L239,191 Q241,190 239,188 L232,179 L230,80 M43,131 Q35,129 22,125 Q18,124 16,124 L8,129 L56,138 L56,170 Q56,201 55,211 Q55,212 56,212 L82,201 Q85,201 83,199 L80,193 L78,143 L103,147 L114,162 L132,150 Q134,148 132,148 L78,137 L75,46 L128,71 Q129,72 131,70 Q131,69 130,68 L67,19 Q55,10 49,3 Q48,2 46,3 L29,28 Q31,29 36,30 Q48,34 54,37 L57,38 L56,133"/> 
            <glyph glyph-name="匠" unicode="&#x5320;" horiz-adv-x="241" d=" M37,201 L61,187 L193,189 L207,202 L222,187 Q224,185 222,185 L62,182 L60,176 L59,-1 L208,0 L223,14 L239,-1 Q241,-3 239,-3 L59,-6 Q55,-18 40,-30 Q36,-31 35,-27 L37,35 L37,155 Q37,163 36,184 Q36,197 36,200 Q37,201 37,201 M95,161 L122,147 L116,142 L116,118 L116,111 L189,112 L203,127 L220,111 Q222,109 220,108 L161,107 L176,98 Q179,97 177,94 L173,88 L174,28 Q172,17 157,5 Q152,1 150,7 L151,54 L151,106 L115,106 Q118,48 64,7 Q62,6 61,8 Q60,9 62,10 Q97,42 94,119 L94,130 Q94,139 93,153 Q93,158 93,159 Q93,162 95,161 M182,175 L198,158 Q199,155 196,155 Q189,154 156,151 Q136,149 125,148 L125,151 Q154,160 178,175 Q180,177 182,175"/> 
            <glyph glyph-name="厚" unicode="&#x539A;" horiz-adv-x="247" d=" M188,115 L119,113 Q117,107 108,101 Q105,99 104,99 Q102,100 102,103 L102,150 L101,172 Q101,174 103,173 L121,164 L192,165 L200,178 L223,166 Q227,165 224,162 L219,154 L219,123 L220,118 Q222,114 219,114 Q213,114 201,115 Q192,115 188,115 M64,201 Q63,202 66,202 L88,189 L204,191 L219,206 L237,190 Q239,187 236,187 L88,183 L88,114 Q95,30 4,-29 Q2,-29 2,-28 Q2,-26 4,-25 Q41,6 53,38 Q66,67 65,127 L65,170 M147,74 L161,68 L181,92 L137,90 Q118,89 110,86 L100,93 L183,97 L195,108 L216,89 Q217,88 216,87 Q216,86 214,86 Q196,86 164,67 L172,64 Q175,64 173,62 Q169,60 169,54 L169,47 L215,48 L227,62 L246,48 Q247,46 246,46 Q246,45 244,45 L169,42 L169,33 L170,10 Q171,-11 142,-26 Q138,-28 138,-23 Q139,-7 127,-5 Q125,-4 126,-3 Q126,-2 128,-2 Q150,-4 147,3 L147,31 L147,41 L112,40 Q94,39 85,36 L76,45 L147,46 Q147,52 146,63 Q146,69 146,72 Q146,75 147,74 M120,159 L120,143 L187,145 Q189,144 189,143 Q189,141 187,140 L120,138 L120,118 L193,120 L193,161"/> 
            <glyph glyph-name="原" unicode="&#x539F;" horiz-adv-x="238" d=" M121,81 Q118,74 110,68 Q105,65 104,69 L105,99 L105,138 Q105,142 104,151 Q104,158 104,160 Q104,163 106,161 L121,153 L133,154 Q141,170 146,191 L87,189 L87,119 Q92,38 5,-21 Q3,-22 3,-20 Q3,-18 5,-17 Q42,14 54,44 Q66,73 64,132 L64,174 L62,205 Q62,207 64,206 L88,195 L203,197 L217,214 L237,196 Q238,194 235,193 L153,191 L170,183 Q173,181 170,179 Q162,175 138,154 L191,156 L199,167 L222,156 Q224,156 222,154 L218,147 L217,91 L219,85 Q220,83 220,83 Q219,82 218,82 Q207,84 186,82 L171,82 L170,32 L171,8 Q171,-14 143,-27 Q140,-27 140,-25 Q140,-12 132,-7 Q130,-6 130,-5 Q130,-4 132,-4 Q150,-5 148,0 L149,82 M193,151 L122,148 L122,122 L180,124 Q183,125 183,122 Q183,120 180,120 L122,118 L122,86 L192,88 M136,52 Q138,51 136,49 Q107,14 66,-22 Q61,-24 64,-20 Q99,21 115,64 M186,60 Q227,43 232,28 Q231,18 221,9 Q213,4 210,12 Q202,42 185,58 Q185,60 186,60"/> 
            <glyph glyph-name="厨" unicode="&#x53A8;" horiz-adv-x="245" d=" M57,200 Q57,203 59,202 L83,191 L208,193 L222,208 L242,191 Q243,189 240,189 L81,186 L80,116 Q80,64 65,37 Q49,6 4,-29 Q2,-29 2,-27 Q1,-26 3,-25 Q38,4 49,36 Q60,64 59,129 L58,170 M220,175 Q222,175 222,174 Q222,174 220,172 L219,166 L218,135 L220,135 L230,146 L243,134 Q245,133 243,132 L218,131 L218,55 L218,14 Q219,-11 190,-26 Q187,-27 188,-24 Q188,-9 181,-6 Q180,-5 180,-4 Q180,-3 182,-3 Q201,-4 198,4 L199,130 L167,129 Q164,128 163,130 Q163,133 166,134 L199,134 L198,184 M141,140 L161,129 Q164,128 162,126 L157,120 L157,82 L158,79 Q159,78 158,77 Q140,79 108,78 Q107,70 96,62 Q90,59 90,63 L90,90 L90,115 L89,137 L108,130 L133,131 M170,23 Q171,23 172,22 Q171,21 170,20 L118,-2 Q98,-10 86,-18 Q84,-21 82,-18 L66,-3 Q65,-2 65,-2 Q65,-1 66,0 Q81,0 104,6 L123,10 Q136,52 138,70 L161,61 Q163,60 161,57 L128,12 M108,126 L108,82 L134,83 L134,126 M86,155 Q83,155 83,158 Q82,160 85,160 L140,161 L152,173 L167,160 Q168,159 168,158 Q168,157 166,157 M95,56 Q118,40 117,32 Q114,22 104,19 Q97,18 98,25 Q100,42 93,54 Q92,57 95,56 M169,104 Q192,90 193,81 Q191,75 181,70 Q175,68 175,74 Q175,92 167,102 Q167,105 169,104"/> 
            <glyph glyph-name="合" unicode="&#x5408;" horiz-adv-x="256" d=" M166,72 L177,86 L201,73 Q202,72 202,70 L195,61 L196,5 L198,0 Q199,-3 198,-3 Q198,-4 195,-4 Q153,0 91,-2 Q86,-20 72,-30 Q69,-31 68,-28 L69,19 L70,52 L69,79 Q69,81 70,81 Q70,82 72,81 L91,71 M121,216 L146,205 Q149,204 146,201 L143,198 Q177,143 254,111 Q256,107 254,107 Q240,106 225,89 Q165,133 139,195 L139,194 Q94,124 6,67 Q4,66 3,67 Q3,69 4,70 Q81,130 121,216 M91,65 L91,3 L168,4 L167,66 M118,111 Q103,110 90,108 L83,116 L154,117 L166,130 L184,115 Q185,112 183,112"/> 
            <glyph glyph-name="味" unicode="&#x5473;" horiz-adv-x="251" d=" M152,215 L176,204 Q178,203 176,201 L173,194 L172,163 L196,164 L208,176 L223,163 Q224,161 221,160 L172,158 L172,114 L209,115 L222,127 L238,113 Q240,112 237,110 L179,109 Q193,54 248,11 Q251,8 248,7 Q235,9 218,-2 Q192,26 176,109 L171,109 L170,41 L171,-3 Q168,-19 154,-30 Q149,-34 148,-29 L150,43 L150,75 Q112,23 70,-10 Q68,-12 66,-11 Q65,-10 67,-8 Q106,30 142,108 L130,108 Q114,107 102,105 L95,112 L150,113 L150,157 L108,156 Q104,156 104,159 Q104,161 107,161 L150,163 L151,179 Q151,188 150,203 Q150,211 150,214 Q150,215 152,215 M75,190 L99,177 Q101,176 99,174 L91,164 L93,68 L94,66 Q95,64 93,64 Q77,64 44,63 L44,47 Q44,33 30,16 Q27,14 26,14 Q24,15 24,17 L26,78 L26,163 Q26,168 25,181 Q25,187 25,189 Q25,191 28,190 L45,178 L67,178 M45,173 L44,68 L69,69 L68,174"/> 
            <glyph glyph-name="命" unicode="&#x547D;" horiz-adv-x="256" d=" M121,217 L145,207 Q148,205 145,202 L142,199 Q169,146 254,112 Q256,110 254,108 Q244,110 225,91 Q163,137 139,196 L138,196 Q84,121 6,68 Q4,67 3,68 Q3,70 4,71 Q84,129 121,217 M143,112 L160,100 L187,101 L194,111 L208,102 Q210,101 210,100 Q211,100 209,98 L206,93 L206,57 L207,38 Q205,21 185,13 Q186,25 177,30 Q175,33 178,33 Q183,33 185,34 Q187,35 187,39 L187,97 L160,95 L160,-3 Q160,-15 145,-32 Q143,-34 141,-34 Q140,-33 140,-31 L141,22 L142,81 Q142,86 141,96 Q141,107 140,111 Q140,112 141,113 Q141,113 143,112 M111,104 L130,90 Q132,90 130,88 L124,81 L125,41 L126,38 Q126,37 125,37 Q113,37 78,35 L78,31 Q78,21 65,6 Q60,3 59,7 L60,54 L60,75 Q60,92 60,101 Q60,102 62,102 L78,93 L103,94 M78,89 L78,39 L104,41 L104,90 M124,130 Q113,130 101,128 Q103,129 99,128 L91,134 L150,136 L159,146 L171,134 Q173,132 170,131"/> 
            <glyph glyph-name="品" unicode="&#x54C1;" horiz-adv-x="233" d=" M84,186 L84,129 L163,129 L162,188 M162,193 L173,207 L197,194 Q199,193 197,191 L191,183 L191,129 L194,123 Q196,119 191,119 Q171,121 141,122 Q108,123 84,122 Q80,109 68,98 Q62,97 62,101 L63,146 L63,177 L62,201 Q62,203 63,203 Q63,204 65,203 L84,192 M48,78 L48,18 L91,18 L91,78 M90,83 L100,97 L123,84 Q125,84 123,82 L118,75 L118,19 L120,14 Q122,10 117,10 Q89,13 48,12 L48,0 Q46,-10 34,-21 Q31,-24 30,-23 Q28,-22 28,-19 L29,21 L30,63 L29,95 L48,83 M153,79 L152,16 L197,17 L198,80 M197,86 L207,100 L231,87 Q233,86 231,84 L226,77 L225,18 L227,12 Q228,10 228,9 Q227,8 225,8 Q197,11 152,11 L152,2 Q150,-9 138,-18 Q135,-21 134,-20 Q132,-19 132,-15 L133,25 L134,63 L133,97 L153,85"/> 
            <glyph glyph-name="土" unicode="&#x571F;" horiz-adv-x="247" d=" M65,110 Q62,110 57,109 Q42,109 37,107 L30,115 L114,116 L115,168 Q113,206 113,214 Q112,215 114,215 L145,207 Q148,206 145,203 Q142,200 141,193 L140,117 L191,118 L207,133 L224,116 Q226,115 224,113 L140,112 L139,-4 L208,-2 L224,13 L246,-4 Q247,-6 245,-7 L44,-13 Q32,-14 19,-16 Q20,-16 17,-16 L9,-7 L114,-5 L114,111"/> 
            <glyph glyph-name="型" unicode="&#x578B;" horiz-adv-x="241" d=" M62,184 Q42,182 36,180 L28,188 L135,189 L147,201 L162,187 Q164,186 162,184 L117,184 L131,178 Q133,177 131,176 L129,171 L129,139 L141,139 L154,152 L169,136 Q171,134 169,134 L129,133 L129,126 L130,95 Q127,83 115,72 Q112,70 111,71 Q109,71 109,74 L110,119 L110,132 L90,132 Q91,75 13,30 Q11,29 11,31 Q10,32 12,33 Q70,71 72,131 L59,131 Q40,131 30,128 L24,136 L72,137 Q72,142 73,146 L73,159 Q73,169 72,180 Q71,182 71,184 M83,25 Q70,24 57,22 L48,30 L115,31 L115,69 L146,60 Q149,59 146,56 Q143,54 141,46 L141,31 L175,32 L189,46 L208,30 Q209,29 209,29 Q209,28 207,27 L141,26 L140,-13 L204,-12 L219,1 L239,-14 Q241,-17 238,-17 L54,-21 Q41,-21 28,-23 Q29,-23 27,-23 L19,-15 L115,-14 L116,25 M210,210 L233,200 Q236,199 234,196 L230,188 L230,100 Q231,67 203,51 Q200,49 199,54 Q201,68 191,72 Q189,76 193,76 Q211,73 209,87 L209,159 Q209,172 208,193 Q208,204 208,208 Q207,211 210,210 M176,181 L189,174 Q192,173 191,169 L190,125 Q190,113 179,101 Q177,99 175,99 Q174,100 174,102 L174,179 Q174,183 176,181 M91,143 Q90,140 90,138 L110,138 L111,184 L78,184 L92,177 Q95,177 93,173 L90,166"/> 
            <glyph glyph-name="处" unicode="&#x5904;" horiz-adv-x="248" d=" M76,210 L99,196 Q100,195 100,192 Q99,190 97,185 Q93,176 83,156 L112,157 L123,170 L145,155 Q148,153 145,151 L136,141 Q117,85 85,43 Q86,40 89,37 Q102,18 130,14 Q157,9 244,12 Q246,13 247,11 Q248,10 246,8 Q227,7 216,-22 Q162,-21 130,-16 Q98,-12 84,15 Q83,17 82,21 Q78,28 77,32 Q53,2 10,-33 Q7,-34 8,-29 Q48,6 70,48 Q69,51 68,56 Q64,69 56,98 L59,99 Q60,97 61,93 Q68,77 76,59 Q95,95 112,152 L80,150 Q54,101 22,64 Q20,62 19,67 Q60,126 73,208 Q73,211 76,210 M183,202 L181,190 L181,81 L182,51 Q179,33 161,21 Q158,21 157,26 L158,68 L159,183 Q158,203 156,215 L182,205 Q182,205 182,204 Q183,203 183,202 M191,155 Q238,133 239,122 Q239,109 228,98 Q221,93 217,103 Q209,137 189,152 Q188,154 191,155"/> 
            <glyph glyph-name="大" unicode="&#x5927;" horiz-adv-x="244" d=" M62,112 Q44,112 34,110 L26,118 L113,120 Q116,157 114,211 L143,204 Q145,203 145,203 Q145,202 143,201 L137,194 Q137,152 134,120 L200,122 L216,138 L234,119 Q236,116 233,116 L144,114 Q155,28 242,-7 Q244,-8 244,-9 Q243,-11 241,-11 Q222,-12 209,-27 Q144,4 138,114 L134,114 Q136,2 5,-28 Q3,-29 3,-28 Q3,-26 4,-25 Q111,7 113,113"/> 
            <glyph glyph-name="学" unicode="&#x5B66;" horiz-adv-x="242" d=" M118,90 L134,83 L158,113 L98,110 Q79,109 70,105 L61,114 L161,119 L172,129 L193,111 Q194,110 194,109 Q194,108 191,107 Q172,105 139,82 L145,79 Q147,78 145,76 Q142,73 141,68 L141,62 L201,63 L217,81 L236,62 Q237,61 237,60 Q237,59 235,59 L141,56 L141,43 L141,13 Q142,-13 109,-30 Q107,-31 106,-31 Q105,-30 105,-27 Q108,-12 93,-5 Q91,-2 94,-1 Q120,-3 117,5 L117,41 Q117,49 117,55 L59,53 Q41,52 32,50 L23,58 L117,61 Q116,79 116,89 Q116,91 118,90 M192,215 L214,200 Q217,197 214,196 L209,193 Q196,179 160,152 L204,154 L216,165 L239,145 Q242,141 237,140 Q216,133 202,124 Q200,123 199,124 Q198,125 199,126 L204,148 L54,143 Q54,109 34,97 Q23,96 23,116 Q45,129 49,160 Q49,162 50,162 Q52,163 52,161 Q52,160 53,159 Q54,154 54,148 L155,152 Q182,192 192,215 M63,208 Q94,187 94,176 Q92,165 79,159 Q71,158 71,166 Q72,192 61,206 Q60,209 63,208 M115,212 Q144,196 145,184 Q145,173 133,168 Q124,166 123,173 Q122,199 114,211 Q113,213 115,212"/> 
            <glyph glyph-name="导" unicode="&#x5BFC;" horiz-adv-x="246" d=" M52,213 L74,201 L172,203 L183,214 L203,201 Q206,200 203,197 L198,191 L197,171 L199,168 Q200,166 198,166 Q195,166 187,166 Q164,167 149,166 L69,164 L67,149 Q65,135 77,135 Q142,127 195,137 Q211,138 215,155 Q216,156 217,157 Q218,156 218,155 Q217,146 228,143 Q246,128 221,116 Q162,103 81,114 Q48,118 50,159 L51,177 Q51,185 50,200 Q50,208 50,211 Q50,214 52,213 M47,65 Q26,63 20,61 L11,70 L154,74 Q154,94 154,104 Q153,106 155,105 L183,94 Q185,93 183,91 Q180,88 179,83 L179,74 L209,76 L225,92 L244,74 Q245,73 245,72 Q245,71 243,71 L179,69 L178,45 L179,15 Q179,-12 145,-28 Q142,-30 142,-25 Q142,-6 130,-3 Q128,-2 129,0 Q129,0 131,0 Q157,-2 155,7 L155,56 Q155,58 155,62 Q154,66 154,68 M173,197 L173,198 L74,195 L72,190 L70,170 L173,173 M68,58 Q104,42 102,30 Q100,20 86,14 Q78,13 77,20 Q74,44 66,56 Q65,58 68,58"/> 
            <glyph glyph-name="寿" unicode="&#x5BFF;" horiz-adv-x="245" d=" M66,174 Q52,174 39,172 L30,180 L104,181 Q108,196 111,213 L138,202 Q140,200 140,200 Q140,200 138,198 L134,192 Q134,190 133,187 Q132,183 131,181 L190,182 L205,197 L223,181 Q224,180 224,179 Q224,178 222,178 L129,176 Q123,159 118,145 L168,145 L180,158 L199,143 Q201,142 198,140 L115,139 Q109,122 101,107 L209,109 L224,125 L244,107 Q245,105 243,104 L98,101 Q73,46 12,-19 Q10,-21 9,-20 Q8,-18 10,-16 Q55,40 79,101 L47,100 Q32,99 19,97 L12,105 L82,106 Q84,112 88,122 Q91,133 93,138 L84,138 Q71,138 58,136 L49,144 L95,144 Q100,160 103,175 M167,102 L193,91 Q195,91 194,89 Q194,88 194,88 Q191,86 190,81 L189,69 L207,70 L219,83 L237,67 Q238,67 235,65 L189,64 L189,40 L190,12 Q190,-11 158,-28 Q155,-29 155,-25 Q155,-8 143,-4 Q141,-2 144,-1 Q169,-3 167,5 L167,56 L167,63 L89,61 Q86,61 86,63 Q85,67 88,67 L167,69 Q167,76 166,89 Q166,97 166,100 Q166,103 167,102 M99,54 Q131,40 131,28 Q130,19 116,13 Q109,12 107,19 Q106,42 97,52 Q97,54 99,54"/> 
            <glyph glyph-name="层" unicode="&#x5C42;" horiz-adv-x="245" d=" M63,209 Q63,211 65,210 L89,199 L194,201 L205,213 L226,199 Q228,198 228,198 Q228,197 226,196 L221,189 L220,160 L222,157 Q223,155 221,155 Q214,155 199,156 Q184,156 176,156 L87,154 L87,119 Q89,40 3,-21 Q1,-22 1,-20 Q1,-18 3,-17 Q39,14 52,47 Q65,78 65,133 L65,178 M179,35 Q179,37 181,37 Q222,14 227,0 Q228,-12 212,-24 Q204,-27 204,-19 Q203,-4 198,5 Q113,-12 91,-22 Q89,-24 87,-22 L79,0 Q99,-1 102,3 Q122,30 137,71 L116,70 Q98,70 88,68 L81,75 L211,78 L225,93 L243,76 Q245,75 242,73 L142,71 L164,60 Q166,59 164,56 Q147,35 110,1 L196,9 Q190,24 179,35 M87,193 L87,160 L195,162 L195,195 L87,194 M138,115 Q121,114 112,112 L104,119 L183,121 L196,135 L212,120 Q214,119 212,117"/> 
            <glyph glyph-name="工" unicode="&#x5DE5;" horiz-adv-x="246" d=" M66,171 Q52,170 39,168 L31,176 L188,179 L204,195 L224,177 Q226,175 224,174 L142,173 L140,0 L205,1 L222,19 L244,0 Q246,-1 244,-2 L45,-8 Q33,-9 20,-11 Q21,-11 18,-11 L10,-3 L114,0 L116,172"/> 
            <glyph glyph-name="广" unicode="&#x5E7F;" horiz-adv-x="237" d=" M64,191 Q63,194 66,193 L91,181 L135,182 L136,215 L167,209 Q169,209 167,206 Q163,202 162,183 L203,183 L217,198 L235,182 Q237,179 234,178 L90,175 L90,115 Q96,37 4,-27 Q2,-27 2,-26 Q2,-24 4,-23 Q40,8 53,41 Q66,72 65,129 L65,160"/> 
            <glyph glyph-name="序" unicode="&#x5E8F;" horiz-adv-x="248" d=" M66,193 Q66,195 68,194 L92,183 L141,184 L143,215 L173,209 Q174,209 175,208 Q175,208 174,206 Q168,201 167,185 L210,185 L223,200 L242,184 Q244,181 241,180 L89,177 L89,120 Q89,117 88,110 Q88,103 87,99 L165,102 Q151,122 132,136 Q130,138 134,139 Q135,139 139,138 Q156,133 165,129 L186,157 L107,155 Q104,155 104,157 Q105,160 107,160 L188,163 L198,173 L218,159 Q220,158 218,156 L209,152 L170,127 Q172,127 174,126 Q177,125 178,124 Q182,123 179,115 Q178,109 173,102 L211,104 L222,114 L245,93 Q248,89 243,87 Q228,86 211,77 Q208,76 208,80 L212,98 L158,96 L175,91 Q177,90 175,88 Q172,85 172,81 L172,39 L173,10 Q173,-15 142,-30 Q139,-31 139,-28 Q139,-14 128,-10 Q126,-8 128,-6 Q149,-8 149,1 L149,67 Q149,72 148,82 Q148,92 147,96 L120,95 Q102,94 93,91 L87,97 Q87,36 4,-21 Q2,-22 2,-20 Q1,-18 3,-17 Q41,13 55,46 Q69,76 68,133 L68,162"/> 
            <glyph glyph-name="心" unicode="&#x5FC3;" horiz-adv-x="241" d=" M84,147 L111,135 Q113,135 111,132 L108,126 L100,29 Q98,9 119,9 Q151,5 178,14 Q184,16 183,25 L182,53 Q182,55 184,56 Q185,56 186,54 L193,34 Q199,20 210,11 Q226,-1 206,-11 Q171,-22 113,-14 Q80,-8 81,33 L83,110 Q83,140 82,146 Q82,148 84,147 M41,125 Q41,127 44,127 Q45,127 46,125 Q59,81 49,53 Q40,40 25,39 Q14,41 23,57 Q40,79 41,125 M107,206 Q158,192 161,179 Q161,163 151,155 Q141,149 139,158 Q126,192 105,204 Q103,206 107,206 M183,124 Q236,103 241,82 Q240,66 228,56 Q218,49 215,60 Q203,103 182,122 Q180,125 183,124"/> 
            <glyph glyph-name="房" unicode="&#x623F;" horiz-adv-x="238" d=" M69,192 Q69,195 71,194 L95,183 L134,184 L136,215 L166,208 Q169,208 167,205 Q162,201 161,184 L198,185 L209,197 L230,184 Q233,183 230,180 L225,173 L225,150 L227,146 Q228,144 225,144 Q212,145 176,145 L90,143 L90,119 Q92,41 5,-19 Q3,-19 3,-18 Q3,-16 5,-15 Q43,18 57,50 Q71,81 71,132 L71,162 M197,83 L217,70 Q219,69 217,68 L211,61 L209,22 Q206,-9 174,-23 Q172,-24 172,-21 Q175,-8 167,-3 Q164,-2 167,-1 Q184,-3 185,13 L188,67 L148,65 L147,59 Q145,8 56,-29 Q54,-30 53,-28 Q52,-27 54,-26 Q132,9 129,81 L129,99 L125,99 Q110,99 100,96 L91,104 L209,107 L221,120 L236,105 Q237,104 238,103 Q237,102 236,102 L138,99 L151,94 Q154,93 151,90 L150,84 L148,71 L188,72 M90,177 L90,148 L199,151 L200,180 M145,141 Q170,131 171,122 Q169,111 157,108 Q151,107 150,112 Q150,130 143,139 Q142,142 145,141"/> 
            <glyph glyph-name="打" unicode="&#x6253;" horiz-adv-x="245" d=" M58,211 L82,202 Q85,201 83,199 L79,191 L79,156 L91,157 L104,170 L120,156 Q121,153 118,153 L79,150 L78,102 Q82,103 89,106 Q98,109 119,118 Q121,117 119,114 Q96,100 78,88 L78,62 L79,14 Q80,-12 50,-29 Q48,-30 47,-30 Q46,-29 46,-27 Q47,-12 38,-8 Q37,-7 37,-6 Q38,-4 39,-5 Q59,-8 56,4 L57,73 Q36,60 28,51 Q25,49 24,52 L14,80 Q14,82 15,82 Q22,83 43,90 Q52,93 57,94 L57,149 L46,148 Q30,148 19,145 L12,153 L57,155 L57,160 Q57,173 56,194 Q56,205 56,209 Q56,212 58,211 M151,174 Q133,173 124,170 L114,178 L213,181 L227,196 L244,180 Q245,179 245,178 Q245,177 243,177 L173,174 L195,167 Q197,167 195,164 L192,156 L191,62 L192,19 Q193,-9 158,-28 Q155,-29 154,-28 Q153,-27 154,-25 Q154,-10 145,-5 Q143,-4 144,-3 Q144,-2 146,-2 Q171,-3 168,4 L168,126 L167,174"/> 
            <glyph glyph-name="持" unicode="&#x6301;" horiz-adv-x="250" d=" M50,147 Q37,146 24,144 L17,151 L55,153 L55,158 Q55,171 54,192 Q54,203 54,207 Q54,211 56,209 L79,201 Q81,200 81,200 Q81,200 79,198 L76,190 L75,155 L85,155 L95,166 L109,154 Q110,151 108,151 L75,148 L74,100 Q79,102 89,106 Q101,112 107,114 Q111,115 108,112 Q103,109 94,102 Q81,93 74,89 L74,67 L75,19 Q75,-8 47,-25 Q45,-26 44,-25 Q42,-24 43,-22 Q44,-10 35,-4 Q33,-1 36,0 Q57,0 54,8 L54,73 Q47,67 36,58 Q29,53 27,51 Q26,50 26,50 Q25,50 24,51 L16,77 Q16,79 17,79 Q23,80 42,87 Q50,90 55,92 L55,147 M132,75 Q113,74 105,71 L98,80 L176,82 L176,87 Q175,101 175,117 L201,109 Q204,108 202,106 Q199,103 198,99 L198,83 L215,83 L227,96 L244,81 Q245,80 243,78 L198,77 L198,34 L199,6 Q197,-17 167,-32 Q165,-32 165,-29 Q165,-12 156,-8 Q155,-8 155,-7 Q155,-5 156,-5 Q179,-6 176,0 L176,76 M140,170 Q137,170 131,169 Q118,169 114,167 L108,175 L148,176 L147,215 L176,208 Q177,208 178,207 Q177,206 176,205 Q173,202 171,195 L171,176 L194,177 L206,189 L222,175 Q224,174 221,172 L171,171 L171,127 L217,128 L229,142 L248,126 Q250,123 247,123 L127,119 Q109,119 100,116 L93,124 L149,126 L149,170 M120,66 Q154,44 152,36 Q151,25 139,18 Q128,16 128,25 Q127,52 118,63 Q117,66 120,66"/> 
            <glyph glyph-name="效" unicode="&#x6548;" horiz-adv-x="253" d=" M101,-28 Q100,-29 99,-27 Q99,-26 100,-25 Q145,9 166,48 Q162,63 158,96 Q157,108 156,114 L159,114 Q164,87 174,66 Q188,97 195,136 L164,134 Q149,110 133,86 Q130,85 131,88 Q165,163 175,213 Q175,213 176,214 Q176,215 177,214 L201,197 Q203,195 201,193 Q195,188 191,182 Q188,176 181,164 Q172,148 168,140 L219,144 L232,159 L251,143 Q253,141 250,141 L201,137 L216,130 Q220,127 216,121 Q205,82 184,49 Q208,16 251,-2 Q253,-3 253,-4 Q253,-6 251,-6 Q239,-5 216,-22 Q182,3 172,31 Q145,-1 101,-28 M44,94 Q61,84 75,73 Q86,98 93,131 L113,120 Q116,119 113,114 Q113,113 112,111 Q98,77 89,63 Q120,38 122,27 Q122,13 110,4 Q102,0 100,10 Q92,29 80,47 Q53,6 9,-27 Q4,-31 7,-25 Q48,13 70,61 Q65,68 52,82 Q45,88 42,92 Q40,95 44,94 M52,167 Q36,167 25,164 L17,172 L72,173 L71,211 Q71,213 72,212 L98,205 Q100,204 98,201 Q95,198 95,190 L95,174 L115,174 L128,188 L146,173 Q148,170 145,170 M53,163 L72,151 Q74,148 71,147 Q41,106 12,75 Q11,74 10,74 Q9,75 9,77 Q35,111 50,161 Q50,164 53,163 M92,156 Q127,145 139,134 Q144,126 134,111 Q130,105 125,112 Q109,144 91,154 Q90,155 92,156"/> 
            <glyph glyph-name="日" unicode="&#x65E5;" horiz-adv-x="213" d=" M187,198 L210,186 Q212,185 212,184 Q213,184 211,182 L204,173 L207,28 Q207,8 185,-15 Q181,-18 179,-16 Q177,-15 176,-10 Q174,0 169,14 Q167,17 167,18 L77,16 L77,10 Q75,-4 60,-18 Q57,-21 56,-21 Q54,-20 53,-17 L54,48 L55,153 Q55,162 54,180 Q54,193 54,198 Q54,200 55,200 L79,186 L79,182 L176,183 M77,176 L77,110 L164,111 Q167,110 168,108 Q168,106 165,105 L77,103 L77,23 L174,25 Q177,26 177,32 L177,177"/> 
            <glyph glyph-name="更" unicode="&#x66F4;" horiz-adv-x="245" d=" M67,184 Q52,185 31,182 L21,189 L196,191 L211,208 L230,189 Q231,188 231,187 Q231,186 229,186 L122,185 L136,172 L136,156 L174,157 L184,169 L205,156 Q206,155 206,153 L199,145 L200,102 Q201,82 186,68 Q181,64 179,68 Q172,79 171,84 L133,83 Q129,41 110,22 Q150,1 243,1 Q245,0 244,0 Q244,-1 242,-1 Q222,-4 204,-28 Q127,-20 97,9 Q76,-6 8,-35 Q4,-35 4,-34 Q4,-33 7,-31 Q69,-3 89,17 Q73,34 61,70 L65,71 Q73,44 98,28 Q111,47 114,83 L73,82 Q65,69 54,72 L54,164 Q54,167 56,165 Q56,166 57,165 L73,155 L114,156 L114,165 L114,185 M166,125 Q169,125 169,123 Q169,121 166,119 L135,119 L135,115 Q135,110 134,102 Q134,93 133,89 L175,90 L174,151 L135,151 L135,124 M115,109 L114,119 L73,118 L73,88 L114,89 Q115,98 115,109 M73,150 L73,124 L114,124 L114,150"/> 
            <glyph glyph-name="本" unicode="&#x672C;" horiz-adv-x="253" d=" M69,151 Q50,151 40,149 L32,157 L115,159 L115,173 L114,215 L145,208 Q148,207 145,204 Q141,200 140,195 L140,159 L193,161 L208,177 L227,158 Q229,155 226,155 L154,153 Q169,80 251,33 Q253,31 252,30 Q252,29 250,29 Q236,30 208,12 Q164,59 150,153 L140,153 L140,48 L151,48 L163,59 L178,46 Q179,45 177,43 L140,42 L140,30 L140,0 Q136,-22 118,-32 Q114,-33 113,-26 L114,15 L114,42 L109,42 Q106,42 100,41 Q86,41 81,39 L74,47 L114,47 L115,111 Q81,65 10,4 Q8,3 7,4 Q6,5 8,7 Q69,71 107,152"/> 
            <glyph glyph-name="术" unicode="&#x672F;" horiz-adv-x="246" d=" M55,136 Q35,136 26,133 L19,143 L115,145 L115,172 L114,215 L143,207 Q144,207 145,206 Q144,205 143,204 Q140,201 139,194 L139,145 L206,147 L225,164 L244,145 Q245,142 242,141 L153,139 Q162,70 243,25 Q246,22 242,21 Q226,22 206,6 Q155,48 151,139 L139,138 L139,31 L139,-3 Q136,-23 119,-31 Q115,-32 114,-25 L115,16 L115,99 Q74,45 8,0 Q4,-2 6,0 Q69,61 106,138 M167,198 Q199,185 201,176 Q201,166 190,157 Q182,154 179,161 Q177,184 165,197 Q164,199 167,198"/> 
            <glyph glyph-name="材" unicode="&#x6750;" horiz-adv-x="248" d=" M164,145 Q153,144 139,142 Q141,143 136,142 L129,149 L182,151 L182,180 L181,214 L210,201 Q212,200 210,198 L205,189 L205,151 L217,152 L230,166 L247,151 Q248,148 246,147 L205,146 L204,61 L205,19 Q206,-12 173,-29 Q171,-30 170,-29 Q169,-28 170,-27 Q171,-9 162,-5 Q161,-5 161,-4 Q162,-2 163,-2 Q182,-3 181,8 L181,90 Q158,61 104,11 Q103,10 101,10 Q100,11 101,13 Q155,77 182,142 L182,145 M68,214 L95,203 Q98,201 96,201 L90,193 L90,150 L101,150 L113,162 L128,147 Q130,146 127,144 L90,144 L89,114 Q120,104 123,94 Q123,86 113,78 Q107,74 104,82 Q99,99 89,109 L89,40 L89,-3 Q87,-17 73,-29 Q71,-32 69,-32 Q67,-32 67,-29 L69,42 L69,84 Q37,45 6,14 Q5,13 3,13 Q2,14 3,16 Q45,74 69,137 L69,144 L61,144 Q43,144 30,141 L23,148 L69,149 L69,178"/> 
            <glyph glyph-name="欣" unicode="&#x6B23;" horiz-adv-x="250" d=" M208,161 L217,170 L240,151 Q243,147 238,146 Q223,145 203,127 Q200,125 201,129 L208,155 L162,153 Q144,123 125,103 Q123,101 123,104 Q131,116 137,130 L101,129 L117,119 Q120,117 117,113 L112,106 L113,7 Q114,-6 99,-16 Q93,-21 92,-16 L91,129 L69,128 Q73,46 9,-31 Q7,-32 6,-31 Q5,-31 6,-29 Q32,8 40,40 Q49,72 49,134 L49,164 Q49,172 48,186 Q48,192 48,193 Q48,196 50,195 L70,184 Q95,197 108,208 Q111,210 112,208 L130,188 Q131,185 128,185 Q110,183 70,176 L69,176 L69,133 L111,134 L124,149 L139,134 Q157,171 166,213 Q166,216 167,215 L189,205 Q193,203 190,200 Q184,188 166,158 M103,-34 Q100,-36 101,-32 Q140,0 154,36 Q169,69 168,130 L193,119 Q195,118 193,116 L190,114 Q194,37 249,-12 Q250,-13 250,-15 Q249,-16 248,-15 Q238,-14 222,-23 Q187,11 188,113 L187,112 Q187,25 103,-34"/> 
            <glyph glyph-name="每" unicode="&#x6BCF;" horiz-adv-x="244" d=" M53,79 Q50,79 43,78 Q30,78 25,76 L17,84 L64,84 L67,130 L69,158 L91,146 L171,148 L180,159 L204,143 Q206,142 204,139 L196,132 L195,87 L209,87 L224,102 L242,86 Q244,83 241,82 L195,81 L193,18 L201,19 L216,32 L232,17 Q234,14 231,14 L193,13 Q191,-18 162,-32 Q158,-33 158,-30 Q157,-18 149,-14 Q147,-14 148,-12 Q148,-11 150,-11 Q167,-12 167,3 L167,13 L78,12 Q74,4 61,-1 Q58,-4 57,-1 L60,33 L63,79 M84,79 L79,17 L167,18 L169,81 M88,140 L84,85 L169,86 L170,142 M78,216 L101,202 Q103,201 100,198 L95,192 Q93,190 90,186 Q86,181 84,179 L193,180 L209,197 L228,178 Q230,177 227,176 L79,173 Q54,144 13,110 Q10,108 11,112 Q57,163 74,214 Q75,217 78,216 M113,70 Q145,55 144,46 Q142,35 130,30 Q123,28 122,35 Q118,55 111,69 Q110,72 113,70 M113,135 Q144,121 142,111 Q140,100 128,97 Q121,96 121,102 Q119,122 111,133 Q111,136 113,135"/> 
            <glyph glyph-name="沸" unicode="&#x6CB8;" horiz-adv-x="238" d=" M89,160 Q86,160 86,163 Q86,165 89,165 L124,166 L124,171 Q124,176 123,186 Q122,203 121,209 L144,200 Q146,200 146,199 Q147,199 146,197 L143,191 L143,166 L159,167 L159,177 Q159,198 157,213 L182,205 Q184,204 183,202 L179,196 L179,167 L195,167 L204,178 L226,165 Q229,164 226,161 L220,155 L220,132 L222,126 Q224,123 221,123 L199,124 L179,124 L179,85 L199,86 L210,100 L235,85 Q238,84 235,81 L230,74 L229,40 Q228,19 202,9 Q200,8 199,9 Q197,9 198,11 Q197,23 191,26 Q190,27 190,28 Q190,29 191,29 Q204,29 203,34 L204,75 Q204,81 197,81 L179,80 L179,24 Q179,8 180,2 Q181,-3 178,-11 Q174,-19 165,-27 Q157,-32 157,-27 L159,31 L159,80 L140,79 Q135,19 60,-33 Q58,-34 57,-33 Q56,-32 58,-30 Q118,21 122,79 L106,79 Q103,72 92,64 Q86,61 86,66 L88,112 Q88,127 87,134 Q87,137 89,135 L109,128 L124,128 L124,161 M81,151 L54,33 Q52,28 52,16 Q52,11 55,2 Q57,-1 57,-2 Q60,-6 56,-14 Q48,-20 39,-22 Q30,-23 31,-15 Q31,-13 32,-4 Q33,7 33,10 Q33,22 21,25 Q19,26 20,27 Q20,28 22,28 Q34,26 36,34 L78,152 Q79,153 80,153 Q81,153 81,151 M31,203 Q68,197 69,184 Q70,170 60,165 Q53,162 49,169 Q42,191 30,200 Q28,203 31,203 M23,140 Q53,129 53,115 Q53,105 42,100 Q33,99 32,106 Q30,127 20,138 Q20,141 23,140 M143,123 Q143,102 141,84 L159,85 L159,123 M108,122 L107,83 L122,84 Q124,101 124,123 M196,129 L196,162 L179,162 L179,129 M143,161 L143,128 L159,129 L159,162"/> 
            <glyph glyph-name="浅" unicode="&#x6D45;" horiz-adv-x="241" d=" M128,212 L157,201 Q159,199 157,197 L152,192 Q151,172 151,154 L189,157 L202,172 L220,158 Q222,155 219,154 L151,148 Q152,125 155,105 L207,110 L219,127 L238,111 Q239,110 239,110 Q239,109 237,108 L156,99 Q160,75 169,57 Q187,77 199,97 Q201,98 201,98 L218,82 Q220,81 218,78 Q221,81 217,77 Q204,60 178,38 Q192,17 211,7 Q217,3 221,7 L232,20 Q233,22 235,21 Q237,20 236,18 Q231,5 237,-10 Q238,-13 238,-14 Q241,-33 214,-24 Q176,-9 158,23 Q115,-7 53,-32 Q51,-33 50,-32 Q50,-31 51,-29 Q107,-1 151,39 Q139,64 135,97 L110,94 Q89,91 84,88 L75,96 L134,102 Q131,123 130,146 L118,145 Q102,144 91,141 L83,148 L130,152 Q130,158 130,164 Q130,165 130,167 Q128,195 128,212 M81,141 L55,28 Q51,13 58,-2 Q61,-8 56,-14 Q50,-21 37,-23 Q30,-23 31,-15 Q34,-5 34,4 Q35,16 23,18 Q22,20 24,21 Q36,19 38,27 L78,142 Q79,143 80,143 Q81,143 81,141 M42,196 Q77,191 80,179 Q81,167 71,161 Q65,158 61,164 Q54,185 42,193 Q40,196 42,196 M19,138 Q49,128 51,114 Q51,104 41,99 Q32,98 30,105 Q28,123 17,136 Q15,139 19,138 M175,205 Q203,196 203,188 Q204,182 194,174 Q187,172 186,177 Q183,195 174,204 Q173,206 175,205"/> 
            <glyph glyph-name="涂" unicode="&#x6D82;" horiz-adv-x="254" d=" M119,73 Q116,73 109,72 Q95,72 90,70 L83,78 L141,79 L140,119 Q125,118 115,116 L108,123 L170,125 L180,136 L194,124 Q196,122 194,121 L151,119 L162,116 Q166,115 165,111 L164,80 L200,81 L212,92 L228,79 Q229,77 229,77 Q228,76 227,76 L164,74 L162,2 Q162,-18 137,-28 Q135,-28 135,-27 Q134,-12 127,-9 Q124,-7 127,-5 Q144,-7 142,0 L141,73 M77,101 Q74,99 73,100 Q72,101 74,103 Q120,153 143,216 L166,207 Q168,207 167,204 L164,202 Q188,151 252,121 Q254,120 253,118 Q253,117 251,117 Q239,120 223,107 Q187,128 162,200 Q127,142 77,101 M82,140 L54,32 Q52,27 52,14 Q52,7 55,1 Q59,-5 54,-11 Q46,-19 35,-20 Q28,-20 29,-10 Q30,-2 31,14 Q32,23 20,27 Q19,29 21,30 Q32,28 35,37 L79,140 Q80,141 81,142 Q82,141 82,140 M116,65 L133,54 Q136,53 133,49 Q111,20 71,-16 Q66,-19 69,-14 Q100,23 113,63 Q114,65 114,66 Q114,66 116,65 M175,56 Q210,37 218,24 Q223,12 209,2 Q200,0 198,6 Q195,32 174,54 Q173,56 175,56 M42,207 Q80,196 81,183 Q81,172 69,165 Q60,163 57,170 Q54,195 41,204 Q41,204 41,205 Q40,207 42,207 M14,146 Q48,137 49,123 Q49,112 38,107 Q30,105 27,113 Q23,134 13,143 Q12,144 12,146 Q12,147 14,146"/> 
            <glyph glyph-name="滚" unicode="&#x6EDA;" horiz-adv-x="251" d=" M172,19 Q175,20 174,17 L131,-12 Q130,-13 127,-15 Q117,-22 111,-27 Q109,-29 108,-27 L93,-10 Q92,-9 93,-7 Q101,-6 114,-1 L112,49 Q86,36 57,22 Q55,23 56,25 Q102,51 137,89 Q119,84 105,79 Q101,76 99,80 L91,99 L110,100 Q134,129 145,151 L165,138 Q168,135 165,134 L158,129 Q154,126 143,118 Q125,106 117,100 L187,105 Q183,115 176,124 Q176,126 178,126 Q208,108 210,99 Q210,91 200,84 Q195,82 194,83 Q192,83 192,88 Q191,96 188,101 Q183,100 173,98 Q161,95 144,91 L158,80 Q161,78 157,75 Q153,73 145,68 Q131,59 124,55 L135,52 Q137,52 136,49 L128,2 M143,212 L168,205 Q171,204 169,201 Q166,198 166,191 L165,180 L204,181 L218,196 L235,180 Q236,178 236,178 Q235,177 234,177 L127,174 L142,162 Q144,161 142,159 Q109,131 74,111 Q71,110 72,113 Q109,142 123,174 L109,174 Q91,173 81,170 L74,179 L142,180 L141,210 Q141,213 143,212 M161,68 L164,69 Q169,52 180,40 Q202,61 211,75 L227,61 Q229,60 226,58 L219,55 Q214,53 204,48 Q191,42 183,38 Q200,20 249,0 Q250,0 251,0 Q250,-1 249,-2 Q233,-1 219,-16 Q175,9 161,68 M74,138 L50,24 Q47,8 54,-4 Q57,-12 53,-16 Q49,-21 35,-24 Q29,-24 29,-17 Q32,3 31,9 Q32,20 20,23 Q19,24 20,25 Q32,24 35,32 L72,138 Q73,141 74,138 M169,169 Q209,158 221,147 Q227,138 219,124 Q211,117 207,126 Q192,153 168,167 Q166,170 169,169 M34,190 Q70,184 70,173 Q71,162 61,155 Q55,151 52,158 Q44,178 32,188 Q30,190 34,190 M15,140 Q47,127 46,114 Q44,103 34,100 Q26,98 24,106 Q23,124 13,138 Q11,141 15,140"/> 
            <glyph glyph-name="灰" unicode="&#x7070;" horiz-adv-x="239" d=" M66,-34 Q64,-35 62,-35 Q61,-34 62,-32 Q106,4 122,45 Q138,82 137,152 L165,139 Q167,138 165,136 L162,134 Q164,45 235,-12 Q237,-14 236,-15 Q236,-16 234,-16 Q219,-16 200,-28 Q160,12 159,133 L158,132 Q159,31 66,-34 M94,214 L122,202 Q123,202 124,201 Q124,201 123,199 L120,193 Q119,189 117,180 Q115,172 114,167 L201,169 L218,185 L238,167 Q239,164 237,164 L112,162 Q91,77 25,-1 Q21,-4 23,0 Q72,75 87,161 L58,161 Q51,160 40,158 Q33,157 31,157 L22,166 L88,167 Q93,189 94,214 M105,115 Q105,117 106,117 Q108,118 109,116 Q118,81 112,63 Q106,53 91,51 Q81,54 90,67 Q106,86 105,115 M207,129 L228,115 Q230,114 230,114 Q230,113 228,112 Q211,101 178,75 Q175,73 176,77 Q197,106 207,129"/> 
            <glyph glyph-name="灶" unicode="&#x7076;" horiz-adv-x="253" d=" M116,113 Q113,113 113,116 Q113,119 115,119 L158,120 L158,168 L157,214 L185,207 Q188,206 186,203 Q183,200 181,193 L180,121 L206,122 L219,135 L236,120 Q238,117 235,117 L180,115 L179,-8 L218,-8 L234,6 L252,-10 Q253,-12 251,-12 L122,-16 Q107,-16 94,-18 L87,-10 L157,-9 L158,114 M115,173 L133,157 Q135,156 135,156 Q135,155 133,154 L127,152 L89,122 Q89,90 85,66 Q125,49 125,40 Q125,28 114,21 Q108,18 105,24 Q98,45 84,62 Q76,12 5,-32 Q3,-32 3,-30 Q2,-29 4,-28 Q43,-1 56,31 Q69,64 68,133 L68,175 Q68,182 67,197 Q67,207 67,211 Q66,214 68,213 L93,202 Q96,200 93,197 L89,190 L89,130 M45,158 Q45,160 47,161 Q48,161 49,159 Q59,118 51,97 Q46,86 32,85 Q22,87 29,100 Q45,120 45,158"/> 
            <glyph glyph-name="烈" unicode="&#x70C8;" horiz-adv-x="238" d=" M76,122 Q77,122 79,121 Q89,117 99,111 Q110,130 117,148 L86,147 Q64,115 33,84 Q31,83 30,84 Q29,85 30,86 Q62,129 80,183 L68,183 Q51,183 40,180 L34,187 L126,190 L140,202 L155,188 Q155,186 154,186 L86,183 L101,172 Q103,171 101,169 Q96,161 90,152 L117,153 L128,165 L149,153 Q151,150 148,148 L141,141 Q131,119 117,102 Q135,90 136,82 Q134,70 125,62 Q118,58 114,66 Q111,75 104,86 Q79,59 31,25 Q28,23 27,24 Q26,24 28,27 Q69,64 93,101 Q84,113 75,120 Q73,123 76,122 M200,209 L226,199 Q228,198 226,195 L221,187 L223,82 Q224,51 194,36 Q193,35 192,36 Q191,36 191,39 Q193,49 184,56 Q183,57 183,58 Q183,60 184,59 Q203,57 200,70 L199,161 Q199,173 198,192 Q198,203 198,207 Q198,210 200,209 M164,173 L178,166 Q181,165 180,160 L180,104 Q180,91 168,80 Q163,78 163,81 L162,171 Q162,174 164,173 M187,29 Q215,19 228,5 Q238,-2 229,-14 Q225,-20 220,-22 Q207,-31 205,-17 Q197,15 186,27 Q185,30 187,29 M56,24 Q67,5 59,-12 Q51,-26 37,-28 Q29,-20 38,-6 Q52,3 54,23 Q54,26 56,24 M141,24 Q140,26 141,26 Q142,26 144,25 Q164,10 168,-1 Q169,-5 166,-8 Q164,-14 158,-17 Q148,-22 147,-12 Q145,9 141,24 M97,22 Q98,24 100,22 Q117,6 118,-5 Q118,-9 115,-12 Q112,-17 106,-20 Q96,-22 97,-13 Q100,4 97,22"/> 
            <glyph glyph-name="热" unicode="&#x70ED;" horiz-adv-x="243" d=" M137,211 L160,203 L158,195 L157,167 L182,168 L191,181 L211,170 Q213,169 211,167 L204,158 Q196,103 223,78 Q227,74 230,78 L238,86 Q239,87 241,87 Q242,87 241,85 Q235,74 237,64 Q243,51 236,45 Q228,40 217,48 Q175,78 183,163 L157,162 L157,141 Q157,128 153,114 Q171,107 174,104 Q178,89 171,79 Q168,76 162,81 Q155,90 145,98 Q125,65 75,37 Q73,36 73,38 Q72,39 74,40 Q120,73 133,109 Q119,120 106,126 Q104,129 107,129 Q113,127 128,122 Q134,121 136,120 Q137,126 138,138 Q139,144 139,147 L139,161 Q133,160 126,158 Q122,157 120,157 L113,164 L139,166 L139,184 M81,205 Q84,205 82,201 L78,194 L78,164 L86,164 L95,176 L110,164 Q111,161 109,160 L78,159 L77,134 Q84,136 99,142 Q105,144 108,145 Q110,144 108,142 Q104,139 96,135 Q83,128 77,124 L79,83 Q79,53 50,38 Q47,37 47,41 Q49,53 40,58 Q39,59 39,61 Q39,62 41,61 Q60,60 58,72 L58,113 Q39,101 31,94 Q29,92 28,93 Q28,93 27,95 L20,117 Q19,119 21,119 Q34,121 58,128 L58,158 L23,157 Q20,156 20,159 Q19,162 22,162 L58,163 L58,173 L57,213 M181,36 Q211,25 222,12 Q233,3 224,-6 Q220,-12 215,-15 Q204,-22 200,-10 Q195,16 182,33 Q181,34 180,35 Q179,37 181,36 M53,34 Q63,14 55,-5 Q47,-22 33,-21 Q24,-10 34,2 Q49,15 50,33 Q50,36 53,34 M138,28 Q138,31 142,30 Q165,14 167,3 Q169,0 166,-3 Q163,-9 157,-11 Q145,-15 145,-6 Q143,14 138,28 M94,27 Q94,29 97,28 Q118,9 118,0 Q118,-4 114,-8 Q112,-13 104,-15 Q92,-18 93,-8 Q97,11 94,27"/> 
            <glyph glyph-name="焰" unicode="&#x7130;" horiz-adv-x="240" d=" M113,116 L132,107 Q145,117 156,129 L170,113 Q171,111 169,111 L164,110 Q161,109 154,108 Q150,107 133,103 L130,96 L130,60 L145,60 L154,70 L166,59 Q167,58 167,58 Q167,57 165,56 L130,55 L130,7 L207,9 L207,59 L176,58 Q174,58 174,60 Q174,62 176,63 L207,63 L208,104 L179,103 Q177,102 176,105 Q177,107 179,107 L206,108 L216,122 L238,110 Q240,110 238,108 L232,99 L232,42 L232,17 Q233,-3 217,-19 Q211,-25 208,-18 Q206,-8 202,4 L130,2 L130,0 Q129,-13 117,-24 Q112,-29 111,-24 L112,25 L112,82 Q112,105 111,115 Q111,118 113,116 M97,172 L114,158 Q116,157 113,155 L108,152 L77,129 Q79,88 73,62 Q106,46 107,39 Q107,28 98,22 Q91,19 90,25 Q83,45 72,59 Q64,12 4,-31 Q2,-31 2,-29 Q1,-28 3,-27 Q37,1 48,34 Q60,67 59,132 L58,172 Q58,200 57,208 Q57,211 59,210 L81,198 Q84,196 81,193 L77,187 L77,136 Q93,162 97,172 M150,216 L174,207 Q176,206 174,204 L169,198 Q165,188 157,178 L195,179 L203,188 L223,176 Q224,175 222,173 L211,165 L179,127 Q177,125 176,125 Q175,126 176,129 L194,174 L153,173 Q139,151 110,118 Q107,114 105,112 Q102,111 103,113 Q138,164 150,216 M37,158 Q37,160 39,160 Q40,160 41,158 Q51,117 43,94 Q39,85 25,86 Q15,90 22,99 Q37,118 37,158"/> 
            <glyph glyph-name="物" unicode="&#x7269;" horiz-adv-x="240" d=" M102,113 Q100,112 99,112 Q98,113 99,115 Q128,154 146,216 L171,205 Q174,205 171,201 L167,197 Q162,187 151,171 Q148,168 147,166 L207,167 L218,180 L238,166 Q240,165 238,163 L232,154 L228,57 L227,28 Q227,-6 190,-22 Q187,-23 187,-20 Q189,-3 179,2 Q178,3 178,4 Q178,5 180,5 Q205,5 203,21 L208,162 L188,161 L199,157 Q203,155 200,152 Q177,58 102,-15 Q101,-16 100,-16 Q98,-15 99,-14 Q160,60 179,161 L143,161 Q130,144 102,113 M34,192 L58,185 Q61,184 59,182 L56,178 Q53,169 49,159 L66,160 L66,164 Q66,177 65,198 Q65,209 65,213 Q65,217 67,215 L90,207 Q92,206 90,205 L86,196 L86,161 L92,161 L102,172 L116,158 Q118,156 116,156 L86,155 L85,95 Q90,97 99,101 Q104,102 106,103 Q108,103 107,101 Q102,97 92,92 Q87,88 85,87 L84,60 L85,17 Q84,-5 73,-24 Q70,-28 66,-27 Q63,-26 63,-21 L65,43 L65,74 Q37,56 30,48 Q27,46 26,49 L18,74 Q18,76 19,76 Q35,79 65,89 L66,154 L47,154 Q32,121 15,93 Q12,93 12,95 Q27,132 34,192 M148,159 L165,151 Q168,150 166,146 Q147,94 102,43 Q101,42 99,42 Q98,43 99,45 Q130,90 148,159"/> 
            <glyph glyph-name="状" unicode="&#x72B6;" horiz-adv-x="254" d=" M141,212 L168,201 Q171,201 168,197 L165,190 L164,133 L205,134 L219,150 L237,132 Q240,130 236,130 L173,127 Q180,45 251,0 Q254,-2 250,-3 Q234,-2 217,-19 Q171,23 169,127 L164,127 L164,123 Q168,21 71,-32 Q69,-32 69,-30 Q68,-29 70,-28 Q145,16 143,126 L131,126 Q117,125 104,123 L95,131 L143,132 L143,174 Q141,197 141,212 M90,13 Q88,-1 74,-16 Q70,-20 67,-19 Q65,-19 65,-15 L67,58 L67,102 Q50,82 29,52 Q26,47 25,45 Q20,39 13,40 Q6,43 8,50 Q17,65 13,76 Q17,65 67,111 L67,178 Q67,205 66,214 L90,202 Q94,201 92,198 Q89,197 89,192 L89,62 M19,167 Q50,157 53,146 Q53,134 42,129 Q35,125 32,132 Q31,155 17,165 Q16,167 19,167 M186,185 Q211,176 211,166 Q210,159 200,154 Q194,150 193,158 Q192,172 185,184 Q184,186 186,185"/> 
            <glyph glyph-name="用" unicode="&#x7528;" horiz-adv-x="215" d=" M88,193 L182,195 L190,208 L213,196 Q215,196 213,194 L207,185 L208,31 Q212,-11 173,-24 Q174,-5 164,0 Q162,0 163,1 Q163,2 165,2 Q186,0 184,22 L183,80 L145,79 L145,30 Q146,10 132,-6 Q129,-9 127,-9 Q124,-9 124,-5 L125,43 L125,78 L87,77 Q84,14 5,-33 Q3,-34 3,-32 Q3,-30 4,-29 Q73,16 68,111 L68,177 L67,205 Q67,206 69,206 M145,179 L144,159 L144,139 L183,140 L182,190 L127,188 L144,182 Q146,182 145,179 M144,134 L145,84 L183,85 L183,135 M89,111 Q89,106 88,97 Q88,87 87,82 L125,83 L124,133 L88,132 M124,149 Q124,173 123,188 L88,188 L88,137 L124,138"/> 
            <glyph glyph-name="留" unicode="&#x7559;" horiz-adv-x="233" d=" M197,-25 Q190,-32 187,-25 Q183,-15 178,-8 L73,-10 Q70,-21 60,-29 Q57,-32 55,-31 Q54,-30 54,-26 L52,59 L51,81 Q51,82 53,82 L75,74 L181,77 L193,89 L215,74 Q217,73 215,71 L208,63 L208,22 L209,0 Q207,-15 197,-25 M223,134 Q222,107 194,93 Q190,91 189,95 Q190,108 181,112 Q179,116 182,116 Q199,115 198,129 L200,186 L163,186 L178,180 Q180,180 180,179 Q180,179 178,177 L175,172 Q155,116 102,78 Q99,77 100,79 Q143,118 153,185 L149,185 Q138,185 128,183 L123,190 L199,192 L211,204 L231,189 Q233,188 230,186 L224,179 L222,148 M36,197 L60,186 Q95,204 105,212 L118,193 Q119,192 119,190 Q118,189 116,189 Q108,188 82,184 Q67,182 60,181 Q58,177 58,169 L54,119 L100,136 Q97,145 89,158 Q89,158 88,160 Q87,163 90,162 Q122,146 125,133 Q125,118 112,110 Q103,107 102,114 Q102,118 101,124 Q101,129 101,131 L58,99 Q56,98 53,95 Q45,88 41,84 Q40,83 38,84 L24,109 Q27,110 33,111 Q36,113 38,113 L36,166 L34,195 Q34,198 36,197 M173,37 Q176,37 176,35 Q175,33 173,31 L139,31 L139,-3 L183,-2 L182,71 L139,70 L139,36 M73,29 L73,-4 L117,-4 L117,30 M72,69 L72,35 L117,36 L116,70"/> 
            <glyph glyph-name="的" unicode="&#x7684;" horiz-adv-x="237" d=" M81,213 L98,195 Q98,193 97,193 L89,190 Q67,176 47,166 L49,164 L49,161 L84,162 L94,173 L116,159 Q118,158 118,158 Q118,158 116,156 L109,147 L109,112 Q137,149 154,213 L176,200 Q177,200 178,199 Q177,198 176,197 L172,193 Q165,177 156,165 L201,167 L212,181 L235,166 Q237,165 235,163 L227,152 L225,65 L226,33 Q223,-10 182,-28 Q178,-29 179,-25 Q182,-8 172,-2 Q170,-1 171,0 Q171,0 173,0 Q202,0 200,22 L202,162 L153,159 Q135,132 109,106 L108,64 L110,25 Q108,7 98,-6 Q95,-10 92,-10 Q90,-10 89,-6 Q84,13 81,18 L46,18 L46,4 Q45,-13 32,-26 Q27,-29 27,-25 L29,45 L30,143 L29,173 Q30,176 33,175 L44,168 Q67,191 81,213 M48,155 L47,99 L77,100 Q79,101 79,98 Q79,95 77,95 L47,94 L46,24 L84,24 L86,156 M141,114 Q140,117 142,116 Q182,98 182,89 Q184,77 170,68 Q157,64 156,73 Q155,97 141,114"/> 
            <glyph glyph-name="碗" unicode="&#x7897;" horiz-adv-x="259" d=" M125,70 Q126,69 129,68 Q131,68 135,65 Q143,92 144,115 L132,114 Q121,81 97,44 Q95,43 94,46 Q117,97 116,141 Q116,144 118,144 L136,134 Q139,133 137,131 Q136,125 133,119 L143,120 L152,130 L166,120 L166,126 Q166,129 168,127 L188,118 L201,119 L212,129 L228,116 Q230,114 228,112 L224,108 L223,59 Q222,43 205,32 Q201,31 201,35 Q199,44 194,48 Q193,49 193,50 Q193,51 194,51 Q208,49 207,56 L205,110 Q206,113 202,115 L187,113 L184,109 L182,12 Q180,0 190,0 Q206,-2 221,0 Q233,0 237,15 Q238,17 239,16 Q241,16 240,14 Q240,6 246,2 Q259,-5 239,-15 Q225,-21 201,-20 Q165,-18 166,16 L166,112 L162,107 Q156,76 148,57 Q153,54 154,49 Q156,42 148,34 Q144,31 141,37 L140,39 Q116,-4 77,-31 Q76,-32 75,-30 Q75,-29 76,-28 Q115,1 132,54 Q131,55 130,57 Q126,64 123,68 Q123,70 125,70 M91,36 Q80,38 52,38 L52,26 Q48,-1 36,-2 L37,37 L38,112 Q23,91 3,67 Q0,66 1,69 Q35,120 51,176 Q35,176 25,174 L19,180 L82,182 L94,194 L108,180 Q109,178 107,178 L59,176 L74,169 Q76,168 74,166 L71,162 Q62,145 46,124 L54,120 L70,120 L78,131 L96,121 Q98,120 96,118 L92,112 L91,44 L92,39 Q93,36 91,36 M106,138 Q102,136 97,147 Q97,150 99,152 Q114,162 120,184 Q121,186 122,186 Q123,187 123,185 L123,175 L156,175 L157,210 L182,204 Q185,202 182,199 L179,191 L178,176 L211,177 L222,187 L244,165 Q246,164 246,162 Q245,161 243,160 Q226,159 210,150 Q208,150 208,150 Q207,151 208,153 L212,172 L123,169 Q121,148 106,138 M54,114 L52,43 L71,44 L72,115"/> 
            <glyph glyph-name="米" unicode="&#x7C73;" horiz-adv-x="253" d=" M119,215 L145,203 Q147,202 145,201 L142,193 L141,122 L204,123 L221,141 L241,121 Q242,119 242,119 Q241,118 240,118 L152,115 Q154,63 251,9 Q252,8 253,7 Q252,6 251,6 Q232,7 213,-11 Q155,34 149,115 L141,115 L140,42 L141,-2 Q139,-15 122,-30 Q120,-32 118,-31 Q115,-30 116,-27 L118,45 L118,81 Q85,37 19,-11 Q10,-18 6,-21 Q4,-22 3,-21 Q2,-20 3,-18 Q60,24 108,114 L52,113 Q33,112 24,109 L16,119 L118,121 L118,179 Q118,202 118,214 Q118,215 119,215 M189,192 L209,176 Q212,174 209,171 Q183,148 153,124 L152,125 Q177,158 189,192 M51,186 Q92,166 94,155 Q94,146 81,136 Q74,133 72,140 Q65,169 49,184 Q48,187 51,186"/> 
            <glyph glyph-name="粉" unicode="&#x7C89;" horiz-adv-x="255" d=" M177,209 L179,210 Q198,148 253,110 Q255,109 254,107 Q254,105 252,106 Q241,107 224,91 Q218,99 212,106 L206,98 L203,20 Q201,-5 174,-21 Q170,-23 169,-18 Q171,-5 162,0 Q160,2 163,2 Q180,1 180,13 L184,105 L145,104 L158,98 Q162,98 160,91 Q164,5 64,-30 Q62,-31 61,-29 Q60,-28 62,-27 Q113,-1 126,23 Q142,47 141,104 L140,104 Q136,104 129,103 Q122,103 119,102 L114,107 Q113,105 110,102 Q108,99 101,91 Q101,91 102,90 Q108,87 108,84 Q110,77 100,70 Q94,66 93,72 Q89,86 78,97 L78,54 L78,8 Q77,-1 65,-16 Q58,-21 59,-16 L60,56 L60,73 Q40,42 5,1 Q2,0 3,3 Q41,54 60,122 L60,124 L54,124 Q36,124 26,121 L19,129 L60,130 L60,175 Q60,202 59,209 Q59,210 61,210 L83,201 Q84,200 84,198 L79,191 L78,150 Q93,173 99,186 L114,175 Q115,174 113,172 L78,142 L78,130 L92,131 L102,141 L115,129 Q116,126 113,126 L78,124 L78,101 Q89,98 98,93 Q128,143 144,200 L166,188 Q166,188 167,188 Q168,187 166,185 L162,180 Q147,151 115,108 L183,111 L193,123 L208,113 Q186,145 177,209 M27,173 Q25,176 28,175 Q45,169 52,160 Q55,154 47,146 Q40,140 38,146 Q36,160 27,173"/> 
            <glyph glyph-name="粘" unicode="&#x7C98;" horiz-adv-x="240" d=" M220,-6 Q189,-3 134,-3 L134,-14 Q124,-32 114,-26 L114,76 Q114,81 116,79 L133,69 L154,69 L156,172 L156,210 L184,203 Q186,202 184,199 L177,191 L176,142 L207,143 L221,159 L238,140 Q240,137 237,137 L176,135 L175,70 L192,70 L203,84 L224,70 Q227,69 225,67 L220,59 L220,2 L223,-3 Q225,-6 220,-6 M64,210 L88,201 Q90,200 88,198 L82,190 L82,150 Q93,166 101,184 L114,170 Q116,169 113,168 L82,142 L82,130 L99,130 L109,141 L123,128 Q125,125 122,125 L82,124 L82,104 Q109,95 110,88 Q112,84 102,74 Q96,71 94,77 Q91,90 82,101 L81,42 L82,-2 Q80,-14 68,-28 Q62,-33 61,-28 L63,44 L63,73 Q40,40 6,0 Q4,0 3,0 Q2,0 3,1 Q41,50 63,124 L57,124 Q47,124 34,122 Q30,121 28,121 L21,128 L63,129 L63,174 Q63,202 62,209 Q62,210 64,210 M134,62 L134,1 L194,2 L194,65 M29,172 Q28,173 28,174 Q29,175 31,175 Q49,168 55,160 Q58,153 49,145 Q44,141 41,145 Q41,146 40,149 Q36,165 29,172"/> 
            <glyph glyph-name="级" unicode="&#x7EA7;" horiz-adv-x="252" d=" M148,113 Q152,80 173,50 Q190,78 204,122 L181,120 Q176,113 166,109 Q162,107 160,111 L172,187 L119,185 L135,179 L132,174 L132,130 Q138,23 45,-30 Q43,-30 42,-28 Q41,-27 43,-26 Q82,1 98,36 Q113,69 112,132 L112,161 Q112,178 112,185 L96,184 Q94,184 94,186 Q94,188 96,189 L172,192 L179,203 L200,192 Q202,192 200,190 L193,180 L183,125 L204,127 L214,138 L235,124 Q237,123 234,121 L227,114 Q211,71 184,38 Q211,8 249,-6 Q252,-8 249,-10 Q236,-10 219,-25 Q185,-4 170,22 Q145,-3 102,-32 Q101,-33 100,-32 Q99,-30 100,-29 Q138,-1 163,34 Q149,63 144,112 M81,164 L101,147 Q103,146 100,143 Q76,116 35,80 L94,84 Q95,82 94,81 Q46,65 28,56 Q24,53 23,56 L18,78 Q18,78 19,78 Q25,78 33,86 Q48,104 65,133 Q37,125 24,119 Q21,116 20,119 L16,137 Q17,137 18,137 Q23,136 29,143 Q46,166 59,208 L82,194 Q84,193 80,188 Q62,168 32,139 L69,140 Q76,152 81,164 M93,50 Q95,50 95,49 Q95,48 94,47 L59,25 Q37,12 30,5 Q29,4 27,5 L18,30 Q31,32 46,36"/> 
            <glyph glyph-name="细" unicode="&#x7EC6;" horiz-adv-x="235" d=" M226,64 L227,22 Q228,-1 209,-17 Q204,-19 203,-15 Q201,1 197,12 L127,10 Q124,-9 111,-20 Q107,-21 105,-17 L106,29 L106,167 L105,194 Q105,197 108,196 L131,183 L200,185 L213,198 L233,183 Q235,182 233,180 L226,172 M84,164 L103,146 Q105,145 102,142 Q66,100 39,74 L97,79 Q101,79 98,77 Q43,58 29,49 Q29,49 28,49 Q25,47 24,50 L18,73 Q26,73 34,82 Q41,91 60,121 Q63,126 65,128 Q38,120 25,114 Q21,111 21,114 L17,133 Q23,133 30,142 Q46,165 61,210 L82,195 Q85,194 82,190 Q58,160 36,136 L70,137 Q73,143 78,153 Q83,162 84,164 M195,109 Q198,108 198,106 Q198,104 196,103 L175,102 L175,17 L199,18 Q202,19 202,24 L202,179 L176,178 L175,108 M127,100 L127,15 L155,16 L155,102 M128,177 L127,106 L155,107 L155,178 M100,42 Q103,43 101,40 L60,16 Q53,11 43,4 Q34,-1 31,-3 Q29,-5 29,-5 Q29,-5 28,-3 L18,22 Q22,23 33,25 Q42,27 47,28"/> 
            <glyph glyph-name="美" unicode="&#x7F8E;" horiz-adv-x="246" d=" M140,88 Q142,87 140,85 L136,80 Q135,67 133,56 L200,57 L214,72 L232,56 Q235,53 231,52 L146,50 Q160,11 244,-4 Q246,-4 246,-6 Q246,-7 244,-8 Q227,-10 213,-28 Q158,-6 142,50 L132,50 Q126,-10 11,-32 Q10,-33 9,-31 Q9,-29 10,-29 Q101,-4 108,49 L65,48 Q49,47 37,45 L30,53 L109,55 Q111,72 111,93 L51,92 Q36,92 24,90 L17,98 L115,99 L115,130 L82,129 Q72,129 60,127 Q57,126 55,126 L46,134 L115,136 L115,164 L58,163 Q40,162 30,159 L22,168 L83,169 L83,195 Q82,200 82,207 Q81,210 84,209 L102,201 Q104,200 104,197 L103,170 L147,171 L160,214 L184,201 Q186,201 184,199 L179,194 L166,171 L202,172 L216,187 L236,170 Q237,168 235,167 L140,165 L140,137 L184,138 L196,150 L212,135 Q214,132 211,132 L140,130 L139,99 L208,100 L222,114 L241,98 Q243,96 241,96 L119,93"/> 
            <glyph glyph-name="翻" unicode="&#x7FFB;" horiz-adv-x="245" d=" M97,74 L105,84 L122,73 Q124,72 122,70 L116,63 L116,35 L118,11 Q118,-3 105,-18 Q103,-20 101,-20 Q100,-20 99,-17 Q98,-11 95,-1 Q94,0 94,0 L43,0 L43,-2 Q41,-11 32,-21 Q30,-23 28,-23 Q27,-22 27,-20 L28,21 L28,55 L27,79 Q27,80 28,80 L44,72 M235,19 Q234,-7 209,-24 Q207,-25 206,-25 Q205,-24 205,-21 Q207,-8 197,-3 Q195,0 198,0 Q216,0 214,10 L215,95 Q201,67 195,48 Q192,41 186,41 Q179,42 180,49 Q187,64 180,71 Q189,63 215,107 L216,185 L204,184 Q196,184 188,181 L181,187 L215,190 L224,200 L242,188 Q245,188 243,186 L236,177 L234,73 M176,19 Q178,-5 151,-24 Q149,-25 147,-24 Q146,-23 147,-21 Q148,-7 139,-3 Q137,0 140,0 Q157,0 156,10 L157,91 Q138,57 133,42 Q131,35 125,35 Q119,37 120,44 Q125,56 120,64 Q127,55 157,101 L158,179 L148,179 Q138,178 130,176 L124,182 L157,185 L165,194 L184,183 Q186,182 184,180 L177,172 L175,73 M103,180 L118,169 Q119,168 116,166 L84,140 L105,141 L116,153 L131,140 Q132,137 130,137 L80,135 L80,124 L81,98 Q79,88 68,77 Q64,74 62,78 L63,113 Q49,98 17,75 Q8,69 4,66 Q3,66 2,67 Q2,68 3,69 Q33,94 59,135 L41,134 Q27,134 19,131 L12,139 L63,140 L63,161 L63,186 Q44,185 22,183 Q20,183 20,184 Q20,185 22,186 Q83,198 103,210 L117,194 Q120,191 116,190 Q115,190 112,190 Q88,188 71,186 L82,182 Q83,182 83,180 L80,173 L80,141 Q94,159 103,180 M91,42 Q95,40 91,37 L78,37 L77,4 L97,5 L97,69 L78,68 L78,42 M84,128 Q125,116 129,108 Q131,99 125,91 Q121,85 116,90 Q102,115 83,126 M43,36 L43,3 L62,4 L62,36 M43,67 L43,41 L62,41 L62,68 M188,153 Q209,142 210,129 Q209,121 201,119 Q194,118 194,124 Q194,142 186,151 Q186,154 188,153 M131,148 Q154,138 153,127 Q152,120 144,117 Q138,116 138,121 Q139,136 129,147 Q129,149 131,148 M31,174 Q30,176 31,176 Q32,177 34,176 Q49,171 54,162 Q57,155 49,148 Q43,144 41,150 Q40,164 31,174"/> 
            <glyph glyph-name="胆" unicode="&#x80C6;" horiz-adv-x="253" d=" M194,185 L204,199 L227,184 Q230,183 227,180 L221,172 L221,100 L222,72 Q222,48 202,28 Q198,26 196,29 Q194,39 188,50 L148,48 Q148,38 136,26 Q133,23 131,23 Q130,23 129,26 L130,154 L128,193 Q128,195 129,196 Q130,196 132,195 L149,183 M96,203 L113,192 Q115,191 113,189 L108,183 L108,54 Q111,5 79,-9 Q80,3 73,7 Q72,9 73,9 Q92,4 88,52 L88,188 L66,186 L63,182 L62,142 L82,142 Q84,142 84,140 Q84,137 82,137 L62,136 L61,103 Q61,99 61,95 L82,96 Q84,96 84,94 Q83,91 81,91 L61,90 Q62,20 5,-29 Q3,-30 3,-28 Q2,-27 4,-26 Q48,17 45,111 L45,157 Q46,169 44,189 Q44,196 44,199 Q44,202 45,201 L64,191 L87,193 M149,177 L149,124 L186,125 Q188,125 188,123 Q188,121 186,120 L149,118 L148,54 L194,56 Q195,56 195,58 L195,179 M135,-14 Q121,-15 108,-17 L100,-9 L218,-5 L234,7 L251,-7 Q253,-9 251,-10"/> 
            <glyph glyph-name="腾" unicode="&#x817E;" horiz-adv-x="255" d=" M204,201 L217,188 Q219,187 217,186 L212,184 L184,162 L201,162 L210,172 L225,159 Q227,158 225,157 L173,157 Q170,144 165,133 L216,134 L228,146 L244,132 Q245,130 243,130 L162,127 Q150,104 102,71 L102,42 Q105,-5 73,-21 Q73,-8 68,-3 Q67,-2 67,-1 Q67,0 68,0 Q86,-5 83,41 L83,185 L63,184 L61,179 L60,140 L77,140 Q79,140 79,138 Q79,135 77,135 L60,134 L59,103 Q59,98 59,93 L77,94 Q79,94 79,92 Q78,89 76,89 L58,88 Q59,16 4,-30 Q1,-30 3,-26 Q27,0 34,26 Q43,52 43,110 L43,156 Q44,167 42,188 Q42,195 42,198 Q41,201 43,200 L62,188 L81,189 L90,202 L108,190 Q110,189 108,188 L102,181 L102,77 Q135,102 146,127 Q124,127 114,124 L106,132 L148,132 Q153,144 154,156 L152,156 Q135,156 121,154 L114,160 L155,161 Q156,165 156,175 Q157,183 157,188 Q157,202 156,209 Q156,212 158,211 L182,202 Q184,201 182,199 L178,193 Q177,175 174,161 L179,161 M186,125 Q197,99 253,78 Q254,77 255,76 Q254,75 253,75 Q239,75 227,59 Q212,71 200,89 L194,81 L189,51 L197,51 L204,61 L223,51 Q225,50 225,50 Q225,49 223,48 L219,41 Q216,12 212,0 Q206,-17 179,-27 Q177,-28 177,-25 Q179,-13 170,-8 Q168,-6 171,-6 Q190,-8 190,-1 Q196,7 198,46 L142,44 Q136,38 127,34 Q123,34 124,37 L128,64 L130,79 L148,70 Q150,69 148,68 L146,64 L143,49 L171,50 L176,89 L134,88 Q130,90 134,93 L175,94 L182,102 L197,93 Q188,108 184,124 M137,16 Q126,16 113,14 L105,20 L164,21 L174,32 L187,20 Q188,19 188,19 Q188,18 186,17 M122,195 Q146,188 146,183 Q147,177 139,169 Q134,167 133,172 Q128,184 121,193 Q119,195 122,195"/> 
            <glyph glyph-name="艺" unicode="&#x827A;" horiz-adv-x="234" d=" M151,122 L82,118 Q76,117 65,116 Q57,114 54,114 L44,123 L153,129 L167,142 L194,124 Q196,124 194,122 L182,114 L66,20 Q63,16 64,14 Q66,11 72,10 Q98,8 138,11 Q174,13 188,17 Q203,19 209,42 Q210,44 211,44 Q212,43 212,41 Q210,26 222,21 Q234,15 233,4 Q231,-5 216,-10 Q175,-24 81,-14 Q34,-6 57,27 M61,169 Q40,167 34,166 L25,175 L87,176 L87,210 L112,200 Q114,200 113,198 L110,194 L108,177 L142,177 L144,211 L173,202 Q175,201 173,199 L169,195 L165,178 L194,178 L210,193 L228,176 Q229,175 229,175 Q229,174 227,173 L163,172 L158,150 Q150,140 143,138 Q141,139 140,142 L142,171 L107,170 L106,156 Q103,144 91,136 Q87,135 86,137 L87,169"/> 
            <glyph glyph-name="节" unicode="&#x8282;" horiz-adv-x="241" d=" M195,144 L218,131 Q218,131 219,130 Q220,130 219,128 L211,119 L211,79 L211,52 Q209,32 181,17 Q178,16 179,19 Q179,33 170,38 Q169,39 169,40 Q169,41 171,41 Q187,39 186,44 L187,126 L103,125 L116,119 Q119,119 118,114 L117,95 L117,42 L118,7 Q116,-8 101,-26 Q95,-30 92,-25 L94,31 L94,86 Q94,110 93,124 L72,124 Q57,124 41,122 L33,129 L186,132 M150,145 L151,174 L109,173 L109,160 Q104,146 95,140 Q91,139 90,141 L89,173 L55,172 Q46,172 33,170 Q30,169 28,169 L20,177 L89,178 L88,214 L112,206 Q114,206 113,204 L110,199 L110,179 L151,179 L152,214 L180,205 Q182,205 180,202 L177,198 L173,180 L207,181 L221,196 L239,179 Q241,177 238,177 L172,175 L167,153 Q162,144 154,141 Q152,142 150,145"/> 
            <glyph glyph-name="蓄" unicode="&#x84C4;" horiz-adv-x="242" d=" M188,-28 Q181,-35 178,-28 Q175,-19 169,-13 L73,-15 Q70,-26 62,-31 Q59,-34 58,-33 Q56,-32 56,-29 L55,35 L54,55 Q54,57 55,56 L76,49 L172,50 L184,61 L203,48 Q205,47 203,45 L197,37 L197,15 L198,-5 Q197,-17 188,-28 M58,143 Q39,142 30,140 L23,147 L113,148 L114,173 L139,167 Q142,167 140,163 L137,157 L136,149 L198,150 L212,164 L230,148 Q232,147 229,145 L123,144 L135,135 Q136,134 133,132 Q98,121 73,112 L126,111 Q145,121 163,135 L183,118 Q185,117 182,115 Q172,112 176,113 Q98,85 65,74 L184,80 Q181,92 173,101 Q172,102 172,103 Q172,104 174,104 Q209,86 209,76 Q209,68 200,62 Q189,58 186,65 Q186,67 185,71 Q185,74 184,76 Q62,61 51,57 Q48,56 48,58 L40,77 Q51,77 64,81 Q84,89 116,105 Q109,104 97,104 Q69,102 63,100 Q58,99 58,100 L52,113 Q60,113 68,117 Q87,127 107,143 M50,182 Q32,181 23,178 L14,187 L82,188 L82,214 L106,204 Q108,204 107,201 L104,197 L103,188 L154,189 L156,213 L181,203 Q183,203 181,201 L177,196 L175,189 L206,189 L222,204 L240,187 Q242,184 239,184 L173,183 L168,168 Q163,159 155,156 Q152,157 152,160 L154,183 L102,182 L101,177 Q96,163 87,157 Q83,156 82,159 L82,182 M165,22 Q167,22 167,20 Q167,17 165,17 L134,16 L134,-8 L174,-8 L173,45 L134,44 L134,21 M73,15 L74,-9 L114,-9 L114,16 M73,44 L73,20 L114,21 L114,44"/> 
            <glyph glyph-name="解" unicode="&#x89E3;" horiz-adv-x="251" d=" M159,119 L175,110 Q177,109 175,108 Q173,105 169,99 Q166,95 164,92 L183,92 L183,99 L182,126 L202,119 Q205,118 203,114 L201,110 L201,93 L216,94 L226,104 L239,92 Q240,89 237,89 L201,88 L201,54 L222,55 L234,67 L249,53 Q251,50 248,50 L201,48 L201,37 L202,3 Q199,-12 188,-24 Q185,-27 183,-27 Q181,-27 181,-24 L182,32 L182,48 L180,48 Q175,48 167,47 Q158,47 153,46 L145,52 L182,53 L183,87 L159,87 Q151,75 142,66 Q142,65 141,65 L141,46 Q143,3 112,-14 Q112,0 106,2 Q105,4 106,5 Q124,3 122,40 L123,145 L96,144 L106,140 Q109,139 107,135 L105,128 L104,110 L116,110 Q119,110 119,108 Q119,105 116,105 L104,105 L103,70 L117,70 Q119,70 119,68 Q119,66 116,65 L103,65 L102,28 Q102,13 91,3 Q89,1 87,1 Q86,2 86,4 L88,65 L70,64 Q64,10 4,-33 Q2,-34 2,-32 Q1,-30 3,-29 Q57,10 56,101 L57,125 Q57,143 56,153 Q44,141 31,131 Q28,129 29,132 Q64,172 79,215 L100,205 Q102,204 99,201 L94,197 Q93,196 91,193 Q90,191 84,184 L105,185 L113,193 L131,181 Q131,180 130,178 L121,172 L96,150 L121,150 L129,161 L149,150 Q151,149 149,147 L143,140 L142,69 Q156,98 159,119 M228,156 Q226,137 205,126 Q201,125 201,128 Q202,137 195,140 Q193,143 196,143 Q208,143 208,147 L209,188 L170,188 Q167,188 161,187 Q155,187 153,186 L146,192 L209,193 L217,202 L234,191 Q236,191 234,189 L229,183 L228,167 M61,158 L78,149 L91,149 L104,180 L80,179 Q77,176 71,169 Q64,162 61,158 M191,179 Q193,179 191,177 L188,174 Q177,158 149,130 Q147,130 147,132 Q165,158 174,186 M73,104 Q73,100 72,93 Q72,77 70,69 L88,70 L89,104 M74,136 L73,109 L89,110 L90,144 L76,144"/> 
            <glyph glyph-name="计" unicode="&#x8BA1;" horiz-adv-x="244" d=" M184,198 L181,187 L181,126 L213,127 L226,142 L243,126 Q244,124 244,124 Q243,123 242,123 L181,121 L180,44 L182,0 Q179,-18 160,-31 Q157,-32 156,-25 L157,20 L157,120 L136,119 Q119,119 109,116 L100,124 L157,126 L158,166 L156,212 L183,201 Q184,201 184,198 M121,59 Q124,60 123,57 L79,2 Q74,-2 66,-13 Q62,-18 60,-20 Q59,-23 57,-22 L38,-4 Q36,-2 38,0 Q44,0 56,8 Q47,1 58,9 L58,129 L41,128 Q28,128 19,125 L10,133 L56,135 L67,148 L87,135 Q89,134 87,133 L81,125 L79,24 M44,208 Q72,199 79,186 Q83,177 67,163 Q60,160 57,164 Q51,193 41,206 Q41,208 44,208"/> 
            <glyph glyph-name="设" unicode="&#x8BBE;" horiz-adv-x="251" d=" M103,97 Q99,100 103,103 L183,105 L193,116 L216,100 Q218,99 216,97 L205,89 Q187,61 161,36 Q200,7 249,-4 Q250,-5 251,-6 Q250,-7 249,-7 Q230,-7 211,-27 Q172,-6 148,24 Q112,-6 67,-30 Q65,-31 64,-30 Q63,-28 64,-27 Q110,0 140,36 Q122,63 115,98 M200,197 Q202,197 200,195 L194,185 L184,153 Q182,144 188,143 Q204,142 221,150 Q225,152 226,151 Q227,150 227,150 Q236,144 242,135 Q245,132 238,129 Q219,121 193,124 Q165,127 167,158 L170,190 L138,189 Q142,137 91,100 Q87,99 88,103 Q119,132 118,174 L118,208 L138,194 L138,193 L168,195 L177,209 M106,62 Q109,63 108,60 L76,12 Q73,7 65,-1 Q60,-7 58,-10 Q57,-13 55,-12 L37,4 Q35,6 36,7 Q41,9 51,17 Q54,20 56,21 L55,131 L38,130 Q28,130 17,128 L8,136 L53,137 L63,150 L83,137 Q85,137 83,135 L77,127 L72,34 M181,100 L118,98 Q124,71 148,47 Q166,70 181,100 M41,208 Q71,198 74,188 Q77,176 63,166 Q57,164 54,169 Q49,196 39,206 Q38,209 41,208"/> 
            <glyph glyph-name="质" unicode="&#x8D28;" horiz-adv-x="238" d=" M65,194 Q65,197 67,196 L90,183 L87,173 L87,149 L143,150 L144,151 L145,185 Q124,182 99,181 L99,184 Q175,200 195,212 L211,194 Q212,192 209,191 Q192,188 149,185 L170,177 Q171,177 172,176 Q171,175 170,174 Q170,173 169,172 Q168,171 165,164 L164,150 L205,150 L218,164 L236,148 Q238,146 235,146 L164,144 L162,114 L188,115 L198,127 L218,115 Q220,115 219,112 L213,104 L213,79 L214,54 Q214,39 198,25 Q192,20 190,26 L190,110 L121,108 L122,38 Q118,24 107,15 Q102,13 102,16 L103,53 L102,97 L102,120 Q102,123 104,122 L122,113 L141,113 L143,144 L87,143 L87,110 Q88,61 71,35 Q56,9 4,-25 Q2,-26 2,-24 Q1,-22 3,-21 Q42,6 53,34 Q67,63 67,117 L66,158 Q66,186 65,194 M170,83 Q172,83 171,81 L168,76 Q165,25 144,5 Q124,-15 58,-34 Q54,-33 57,-30 Q114,-10 129,9 Q146,26 146,78 L145,95 M166,23 Q222,5 230,-3 Q234,-12 227,-25 Q221,-33 215,-23 Q196,2 165,20 Q164,22 166,23"/> 
            <glyph glyph-name="赏" unicode="&#x8D4F;" horiz-adv-x="243" d=" M188,108 Q168,109 90,109 Q88,103 78,96 Q72,94 72,97 L73,119 L73,132 L72,150 L91,141 L161,143 L170,154 L191,143 Q193,143 192,141 L187,135 L187,115 L189,110 Q190,108 188,108 M203,168 L214,177 L240,155 Q243,151 237,150 Q222,151 200,138 Q198,138 198,140 L204,163 L63,159 Q57,134 35,120 Q30,117 29,121 Q26,133 30,138 Q49,153 48,170 Q48,173 49,173 Q49,173 52,172 Q56,170 62,164 L116,165 L116,191 L115,216 L144,207 Q146,206 144,204 L141,198 L140,166 L153,166 Q169,192 174,208 L194,196 Q196,196 194,195 L191,193 Q190,192 189,191 Q175,179 158,167 M83,81 L83,31 Q80,17 68,9 Q63,6 62,9 L63,40 L63,69 L62,92 Q62,94 64,93 L83,86 L175,88 L185,99 L205,88 Q207,87 205,85 L200,78 L200,63 L201,43 Q198,29 183,18 Q177,16 176,19 L176,83 M145,63 Q145,63 145,61 L141,56 Q146,-13 18,-34 Q14,-33 17,-30 Q123,-9 119,62 L119,74 M90,136 L90,113 L161,114 L162,138 M143,18 Q203,6 212,-2 Q218,-11 211,-25 Q208,-31 201,-25 Q177,1 142,15 Q140,17 143,18 M69,203 Q98,195 98,186 Q96,177 88,172 Q81,169 80,177 Q77,194 68,202 Q67,204 69,203"/> 
            <glyph glyph-name="近" unicode="&#x8FD1;" horiz-adv-x="243" d=" M241,14 Q243,14 243,13 Q243,12 242,11 Q225,5 215,-22 Q165,-25 115,-17 Q94,-15 74,14 Q72,18 69,19 Q67,19 64,15 Q52,1 39,-25 Q38,-28 36,-26 L22,-4 L57,23 L59,113 L24,111 Q21,111 20,114 Q20,117 23,117 L59,119 L68,131 L88,118 Q91,116 88,113 L81,105 L78,29 Q70,-11 241,14 M173,10 Q167,7 167,11 L168,81 L168,126 L167,130 L130,130 Q131,57 87,18 Q85,16 84,17 Q82,18 84,20 Q101,48 105,69 Q110,93 110,139 L110,166 Q110,174 109,186 Q109,190 109,191 Q109,194 111,193 L133,181 L130,177 L130,135 L210,137 L223,151 L239,135 Q241,132 238,132 L176,131 L193,124 Q196,124 193,122 L190,116 L190,82 L191,38 Q190,24 173,10 M203,210 L219,190 Q220,188 217,187 Q214,187 205,186 Q156,182 137,180 L135,183 Q177,196 199,210 Q201,212 203,210 M39,206 Q78,194 79,181 Q79,169 66,160 Q57,157 54,164 Q52,192 38,204 Q36,207 39,206"/> 
            <glyph glyph-name="造" unicode="&#x9020;" horiz-adv-x="247" d=" M243,14 Q247,14 244,10 Q223,3 216,-21 Q152,-24 104,-17 Q86,-14 70,9 Q68,14 64,15 Q61,15 58,11 Q42,-8 35,-25 Q34,-28 31,-26 L19,-7 Q17,-4 20,-4 L52,19 L54,111 L19,109 Q16,109 15,112 Q15,115 18,115 L54,117 L63,129 L84,116 Q87,114 83,111 L77,102 L74,27 Q69,-12 243,14 M183,93 L193,106 L215,92 Q217,91 215,89 L209,81 L209,46 L211,40 Q212,37 211,37 Q211,36 208,36 Q177,39 130,39 L130,33 Q128,19 114,10 Q110,11 110,14 L112,50 L112,70 L111,100 Q111,103 114,102 L131,92 M123,119 Q106,119 96,116 L89,123 L146,124 L146,165 L119,165 Q114,145 82,121 Q81,120 80,122 Q80,123 81,124 Q110,147 105,203 L126,195 Q128,195 126,192 L123,188 Q123,178 121,170 L146,170 L145,214 L173,206 Q176,205 173,202 Q170,201 168,193 L168,171 L194,172 L206,184 L222,170 Q224,169 221,167 L168,166 L167,125 L214,126 L226,139 L242,124 Q244,123 242,121 M130,87 L130,44 L184,44 L183,88 M36,202 Q72,191 74,177 Q74,164 63,157 Q54,154 52,161 Q51,186 35,199 Q34,200 34,201 Q35,202 36,202"/> 
            <glyph glyph-name="道" unicode="&#x9053;" horiz-adv-x="242" d=" M176,213 L196,202 Q199,201 196,198 L178,175 L203,176 L215,189 L232,175 Q234,172 231,172 L148,170 L162,166 Q154,156 138,138 Q137,136 137,136 L177,137 L185,150 L206,140 Q209,139 207,137 L201,128 L200,74 L202,39 Q197,21 184,9 Q180,6 179,10 Q176,22 168,31 L121,30 Q120,23 110,8 Q104,4 103,9 L105,101 Q105,139 104,145 Q104,147 106,146 L123,136 L131,136 Q139,160 141,169 L115,169 Q106,169 95,167 Q90,166 88,166 L81,173 L123,174 L122,206 L143,199 Q145,198 143,195 Q141,192 141,184 L141,175 L164,175 Q170,192 175,210 Q175,209 176,213 M239,10 Q242,10 240,7 Q222,1 213,-26 Q147,-28 104,-21 Q88,-19 71,6 Q69,11 67,11 Q65,12 61,8 Q44,-7 35,-29 Q34,-32 31,-30 L19,-10 Q17,-9 20,-7 L52,15 L54,104 L19,102 Q16,102 15,105 Q15,108 18,108 L54,110 L62,122 L83,109 Q86,107 82,104 L75,96 L73,22 Q71,-20 239,10 M166,76 Q168,76 168,74 Q168,72 166,72 L122,70 L122,35 L167,36 Q176,36 176,45 L177,133 L123,132 L123,105 L169,107 Q172,105 169,103 L123,101 L122,74 M34,202 Q70,190 71,178 Q71,168 58,161 Q48,158 49,164 Q46,188 33,199 Q32,200 32,201 Q32,202 34,202"/> 
            <glyph glyph-name="里" unicode="&#x91CC;" horiz-adv-x="245" d=" M76,46 Q58,45 49,42 L41,50 L113,52 L113,95 Q94,95 73,95 Q69,81 59,74 Q53,70 52,75 L52,126 L52,161 L51,199 Q51,201 53,200 L74,187 L172,189 L182,202 L205,190 Q207,189 205,187 L199,179 L200,103 L202,97 Q203,94 202,94 Q202,93 199,93 Q180,96 136,95 L135,52 L185,53 L198,68 L216,51 Q217,50 215,48 L135,47 L135,-4 L207,-3 L223,11 L243,-5 Q245,-7 243,-8 L51,-12 Q36,-13 25,-15 L17,-7 L113,-5 L113,46 M163,145 Q166,145 166,143 Q166,141 163,141 L136,140 L136,101 L174,102 L173,184 L118,183 L138,172 Q139,172 140,171 Q139,170 138,169 L136,159 L136,145 M73,138 L73,100 L113,101 L113,140 M72,182 L73,143 L113,144 L113,155 L111,183"/> 
            <glyph glyph-name="重" unicode="&#x91CD;" horiz-adv-x="242" d=" M51,148 Q39,148 25,146 Q25,146 23,146 L16,153 L116,155 L117,180 Q85,177 47,175 Q46,174 45,175 Q45,177 46,178 Q131,191 179,209 L196,191 Q197,188 194,187 Q185,186 164,184 Q149,183 140,182 L139,156 L209,157 L223,171 L240,155 Q242,153 239,153 L139,150 L139,127 L182,128 L190,140 L214,128 Q217,127 214,124 L209,118 L208,67 L211,62 Q212,60 209,60 Q194,62 138,60 L138,32 L186,34 L198,46 L215,32 Q216,29 214,29 L138,26 L138,-4 L207,-3 L222,10 L238,-4 Q239,-5 239,-6 Q239,-7 237,-7 L51,-12 Q32,-14 23,-15 L16,-7 L115,-5 L115,26 L77,25 Q67,25 55,23 Q52,22 50,22 L42,29 L115,31 L116,60 Q109,60 96,60 Q80,59 71,59 Q64,50 56,45 Q51,43 50,47 L51,76 L51,114 Q51,128 51,134 Q50,136 52,135 L72,126 L116,127 L116,150 M174,98 Q176,98 176,96 Q176,94 174,93 L139,92 L138,67 L183,68 L183,123 L139,122 L139,98 M72,91 L72,65 L116,66 L116,92 M72,121 L72,96 L116,97 L116,121"/> 
            <glyph glyph-name="金" unicode="&#x91D1;" horiz-adv-x="256" d=" M176,45 L196,30 Q199,28 196,25 Q195,24 194,23 Q174,5 152,-11 L204,-10 L219,4 L239,-12 Q241,-14 239,-15 L54,-18 Q40,-19 27,-21 L19,-13 L116,-11 L117,58 L84,58 Q74,57 62,56 Q59,55 57,55 L49,63 L117,64 L117,65 L115,105 L99,105 Q85,105 72,103 L63,110 L162,113 L176,127 L194,111 Q196,110 193,108 L127,106 L144,102 Q146,101 144,98 Q141,95 139,88 L139,65 L176,65 L190,80 L209,63 Q211,61 208,61 L139,59 L137,-11 L147,-11 Q167,15 176,45 M121,216 L146,205 Q149,204 146,201 L143,198 Q175,146 254,113 Q256,110 254,109 Q241,109 225,92 Q165,136 139,195 Q93,125 6,70 Q4,69 3,70 Q3,72 4,73 Q81,131 121,216 M69,38 Q98,28 102,15 Q102,4 92,-1 Q83,-3 82,1 Q81,22 68,36 Q67,39 69,38"/> 
            <glyph glyph-name="釜" unicode="&#x91DC;" horiz-adv-x="251" d=" M180,39 L199,23 Q202,21 197,19 Q189,15 146,-10 L202,-9 L217,4 L237,-12 Q239,-14 237,-14 L55,-18 Q45,-18 33,-20 Q30,-21 28,-21 L21,-12 L116,-11 L116,44 L77,43 Q57,41 50,40 L42,48 L116,49 L116,82 L103,81 Q83,79 76,78 L69,86 L157,89 L169,101 L185,88 Q187,86 185,84 L142,83 L142,50 L186,51 L199,64 L217,50 Q219,47 217,47 L142,45 L141,-10 Q164,14 180,39 M97,170 Q111,159 124,150 Q139,165 152,183 L171,167 Q173,165 172,165 Q172,164 170,163 L164,158 Q160,155 153,149 Q146,143 142,140 Q181,118 248,109 Q251,108 248,105 Q231,102 217,83 Q161,105 131,131 Q81,93 5,66 Q3,66 3,67 Q3,68 4,69 Q74,100 117,143 Q105,155 95,168 M141,204 Q191,196 212,182 Q219,174 213,158 Q208,149 200,158 Q179,184 141,202 Q139,203 141,204 M100,210 L114,192 Q116,190 112,187 Q72,160 20,140 Q18,139 18,141 Q17,142 19,143 Q74,170 97,209 Q99,212 100,210 M64,32 Q94,22 94,12 Q96,2 85,-4 Q77,-6 76,0 Q74,21 62,30 Q61,32 64,32"/> 
            <glyph glyph-name="铁" unicode="&#x94C1;" horiz-adv-x="254" d=" M156,211 Q156,214 157,213 L181,203 Q184,201 182,198 L178,191 L178,160 L197,161 L209,174 L225,159 Q227,157 224,157 L178,155 L178,130 Q178,114 177,100 L211,101 L226,116 L243,99 Q245,97 242,97 L176,94 Q172,20 76,-32 Q74,-32 74,-30 Q73,-29 75,-28 Q148,14 155,94 L144,94 Q126,93 117,91 L110,98 L156,99 Q157,117 157,136 L157,154 L136,154 Q126,131 107,104 Q104,103 104,107 Q121,137 126,190 L146,184 Q149,183 147,180 L144,177 Q141,167 138,159 L157,159 L157,175 Q157,183 156,198 Q156,208 156,211 M41,127 Q39,126 38,128 Q38,131 40,132 L86,134 L96,144 L109,132 Q109,132 108,130 L77,129 L76,86 L90,86 L101,97 L115,84 Q115,84 114,82 L76,80 L75,16 L114,39 Q118,41 116,37 L72,-3 Q70,-4 67,-7 Q56,-15 52,-20 Q51,-23 49,-21 L36,-5 Q35,-3 36,-2 Q37,-2 39,-1 Q50,2 57,6 L56,79 L54,79 Q36,78 26,75 L19,82 L56,84 L56,128 M48,216 L72,208 Q74,206 72,204 L69,200 Q65,186 59,174 L85,175 L96,186 L109,173 Q111,171 109,171 L57,169 Q39,128 5,83 Q2,83 3,86 Q35,137 48,216 M184,85 Q192,28 253,-6 Q254,-7 254,-8 Q254,-9 252,-9 Q237,-7 218,-24 Q182,6 182,85"/> 
            <glyph glyph-name="铸" unicode="&#x94F8;" horiz-adv-x="250" d=" M152,169 Q138,169 125,167 L117,175 L157,176 Q160,195 158,181 Q160,195 162,213 L189,203 Q191,203 189,200 L187,194 Q187,191 185,185 Q184,179 183,176 L213,177 L225,190 L241,175 Q243,174 241,172 L182,170 Q177,156 174,141 L209,143 L220,154 L235,141 Q237,138 234,138 L172,135 Q168,122 162,108 L220,109 L232,122 L249,106 Q250,105 249,105 Q250,105 248,104 L160,102 Q153,81 144,62 L192,64 L191,93 Q190,96 193,95 L213,88 Q215,88 214,85 L212,79 L211,65 L219,65 L229,76 L242,64 Q243,63 243,62 Q243,61 241,61 L211,60 L210,3 Q208,-19 186,-31 Q184,-32 184,-29 Q183,-16 177,-12 Q175,-11 175,-10 Q175,-9 177,-8 Q192,-9 190,-3 L191,59 L176,58 Q171,58 163,57 Q152,57 148,56 L143,60 Q126,22 92,-31 Q91,-33 89,-32 Q88,-30 89,-28 Q121,27 142,101 L141,101 Q129,101 115,99 Q115,99 113,99 L106,106 L143,107 Q147,121 150,134 Q143,134 133,132 Q134,132 131,132 L123,140 L151,141 Q154,156 157,169 M7,77 Q3,75 5,79 Q45,137 70,215 L90,206 Q92,205 89,203 L86,199 Q79,184 71,169 L90,170 L101,181 L116,168 Q118,167 115,165 L68,163 Q56,143 42,123 L86,125 L96,135 L109,125 Q110,123 110,123 Q109,122 108,122 L80,120 L77,81 L92,81 L102,92 L115,80 Q117,79 115,78 L77,76 L72,16 L113,41 Q116,41 115,39 L82,5 Q66,-8 58,-16 Q56,-19 54,-17 L37,-4 Q34,-2 37,-2 Q39,-1 44,1 Q52,4 57,7 L58,75 L26,73 Q24,73 23,75 Q23,77 25,78 L58,80 L59,119 L39,118 Q17,88 7,77 M147,44 Q146,47 149,46 Q150,46 151,45 Q169,39 173,31 Q176,22 167,17 Q160,12 159,17 Q155,35 147,44"/> 
            <glyph glyph-name="锅" unicode="&#x9505;" horiz-adv-x="248" d=" M124,12 Q122,12 122,11 L121,0 Q119,-13 108,-26 Q104,-30 103,-29 Q101,-29 101,-25 L103,15 L104,107 L124,96 L159,97 Q160,102 159,114 Q159,121 159,125 L141,125 Q139,119 130,113 Q128,111 126,111 Q125,112 125,114 L125,185 Q125,200 124,204 Q124,207 126,205 L143,196 L143,193 L194,194 L202,205 L221,194 Q223,194 222,192 L217,184 L217,137 Q217,128 207,114 Q202,110 199,113 Q193,123 192,125 L165,125 L184,119 Q186,118 184,116 L179,112 Q179,104 178,98 L215,99 L224,111 L246,98 Q248,97 246,95 L240,87 L241,17 Q244,-11 216,-27 Q212,-29 212,-26 Q212,-13 203,-9 Q201,-8 202,-7 Q202,-6 204,-6 Q219,-5 217,0 L217,94 L178,93 Q177,50 124,12 M30,119 Q27,119 27,121 Q28,123 30,124 L71,126 L80,137 L93,125 Q95,124 92,122 L67,121 L65,79 L78,80 L89,91 L102,78 Q104,76 101,76 L65,74 L63,12 L99,37 Q101,38 102,37 Q102,36 101,34 L46,-24 Q45,-26 42,-24 L33,-5 Q31,-4 33,-3 L46,5 L46,73 L44,73 Q40,73 33,72 Q25,72 22,71 L15,77 L46,78 L45,120 M195,189 L142,187 L142,130 L194,131 M46,215 L70,205 Q72,204 70,201 L67,197 Q61,185 51,167 L77,168 L89,180 L103,166 Q105,164 102,164 L49,162 Q25,122 4,94 Q2,93 1,97 Q30,146 46,215 M123,91 L122,14 L122,15 Q145,37 151,51 Q159,65 159,92 M175,67 Q207,52 208,44 Q208,31 198,26 Q192,22 189,29 Q184,55 173,65"/> 
            <glyph glyph-name="锻" unicode="&#x953B;" horiz-adv-x="255" d=" M156,97 Q152,98 155,103 L202,105 L211,114 L228,100 Q230,98 228,96 L221,88 Q210,59 192,35 Q217,5 253,-5 Q254,-5 255,-6 Q254,-7 253,-8 Q238,-8 223,-28 Q194,-8 181,21 Q161,-1 125,-30 Q123,-31 122,-30 Q122,-29 123,-27 Q156,2 176,35 Q168,54 163,97 M93,41 Q91,39 90,42 L82,62 Q82,63 83,63 Q85,64 91,65 Q99,67 103,69 L103,163 L102,196 Q101,199 104,197 L120,187 L120,151 L130,152 L141,163 L153,150 Q155,148 152,148 L120,146 L120,111 L128,111 L138,123 L151,110 Q152,108 150,108 L120,106 L120,74 Q122,75 127,77 Q137,80 154,87 Q158,87 155,85 Q150,81 141,75 Q134,70 120,60 L120,0 Q119,-14 105,-30 Q103,-32 102,-31 Q101,-31 101,-29 L103,43 L103,48 Q97,45 93,41 M30,117 Q28,117 28,119 Q28,121 30,122 L72,124 L82,134 L94,123 Q96,122 93,120 L67,119 L67,82 L67,78 L75,78 L87,90 L100,77 Q102,74 99,74 L67,73 L67,16 L97,35 Q101,38 99,34 L49,-20 Q48,-22 48,-22 Q47,-22 46,-20 L36,-3 Q35,-1 36,0 L50,7 L49,72 L45,72 Q31,71 23,69 L17,76 L49,77 L49,97 L49,118 M199,204 L214,196 Q217,195 215,193 L211,188 L203,148 Q200,137 210,138 Q222,139 227,145 Q229,147 231,145 Q231,146 232,145 Q232,144 235,141 Q240,136 243,132 Q246,129 241,126 Q230,120 208,122 Q190,125 191,145 L194,189 L180,188 Q182,136 152,103 Q150,102 151,104 Q167,134 167,174 L166,201 L180,192 L193,194 M47,215 L70,206 Q72,204 70,202 L67,198 Q57,179 50,165 L71,166 L82,178 L96,165 Q98,163 96,163 L47,161 Q30,130 7,102 Q5,100 5,104 Q31,145 47,215 M201,99 L164,97 Q171,68 183,49 Q194,71 201,99 M149,207 Q150,210 153,207 L164,194 Q165,191 162,191 Q154,190 136,189 Q127,188 123,188 L122,190 Q137,197 149,207"/> 
            <glyph glyph-name="长" unicode="&#x957F;" horiz-adv-x="240" d=" M52,104 Q49,104 44,103 Q29,103 25,101 L17,110 L74,110 L73,170 Q73,191 71,208 L102,197 Q104,196 102,193 L96,186 L94,110 L195,112 L214,131 L236,110 Q237,109 235,107 L137,106 Q148,42 238,0 Q240,0 240,-1 Q240,-2 237,-2 Q227,-1 204,-19 Q141,20 132,105 L94,105 L91,16 L138,37 Q141,38 140,35 L94,0 Q76,-13 64,-25 Q62,-28 60,-25 L41,-7 Q40,-6 40,-5 Q40,-4 41,-4 Q42,-4 44,-3 Q61,1 75,8 L74,104 M174,199 L189,179 Q192,176 188,173 Q163,154 101,115 L100,118 Q147,158 174,199"/> 
            <glyph glyph-name="难" unicode="&#x96BE;" horiz-adv-x="248" d=" M90,84 Q88,83 87,84 Q86,85 87,87 Q117,127 145,216 L169,206 Q171,205 169,203 L166,199 Q156,178 144,159 L144,155 L212,157 L224,169 L241,155 Q243,153 241,152 L195,151 L195,110 L207,110 L218,122 L233,108 Q235,107 235,107 Q235,106 233,105 L195,104 L194,69 L207,69 L219,80 L233,67 Q236,65 232,65 L194,63 L193,21 L217,22 L230,35 L246,20 Q248,18 246,17 L142,14 L142,-1 Q140,-15 128,-28 Q122,-33 121,-28 L123,39 L126,131 Q108,106 90,84 M103,43 Q99,34 90,26 Q84,22 83,29 Q77,49 68,69 Q45,27 6,-14 Q4,-15 3,-14 Q2,-13 3,-12 Q37,29 59,89 Q43,119 28,142 Q27,145 30,144 Q33,140 42,131 Q57,115 65,106 Q73,133 79,165 L24,162 Q21,161 20,164 Q20,167 23,168 L79,171 L90,184 L112,169 Q114,168 112,166 L104,157 Q93,119 79,89 Q97,65 103,55 Q106,48 103,43 M143,62 L142,20 L173,21 L173,63 M144,149 L143,109 L173,110 L173,150 M143,103 L143,68 L173,68 L173,104 M176,197 Q203,187 202,177 Q201,170 190,165 Q183,163 182,169 Q181,185 174,196 Q174,198 176,197"/> 
            <glyph glyph-name="题" unicode="&#x9898;" horiz-adv-x="246" d=" M53,97 Q32,96 25,94 L18,101 L110,104 L122,117 L138,103 Q139,101 137,100 L96,99 L94,11 Q130,-2 243,6 Q245,6 245,5 Q246,3 244,2 Q232,1 222,-24 Q135,-23 101,-16 Q75,-7 53,34 Q45,3 6,-34 Q2,-36 4,-32 Q45,12 44,87 L60,80 Q63,79 61,76 L59,71 Q58,55 55,41 L55,40 Q65,26 76,19 L77,98 M65,129 Q63,123 55,116 Q53,115 51,115 Q50,116 50,118 L50,189 Q50,200 50,207 Q49,210 52,209 L65,202 L65,198 L98,200 L104,210 L123,200 Q123,200 124,199 Q125,199 124,197 L119,189 L120,142 Q120,132 111,119 Q107,114 104,118 Q98,126 97,131 M169,190 Q153,190 142,188 L137,194 L215,196 L225,208 L240,195 Q241,193 239,192 L185,190 L197,188 Q199,186 197,186 L193,180 Q191,178 188,173 Q180,164 175,158 L205,159 L212,168 L229,157 Q231,155 229,154 L225,148 L225,118 L226,90 Q226,78 212,64 Q210,62 208,63 Q206,63 206,67 L205,154 L161,152 L161,84 Q161,74 150,61 Q146,58 144,62 L145,102 L145,139 L144,163 Q144,166 146,165 L162,157 L170,158 Q174,174 176,190 M174,140 Q174,143 176,142 L195,136 Q197,134 195,132 L193,127 L192,102 Q198,45 111,11 Q110,10 109,12 Q109,13 110,14 Q182,47 176,103 L176,114 Q176,119 175,127 Q175,136 174,140 M65,132 L99,135 L99,167 L65,165 M99,196 L65,194 L65,169 L99,170 M233,33 Q233,25 225,17 Q219,13 216,19 Q205,46 189,57 Q188,57 188,59 Q189,60 190,60 Q234,43 233,33 M134,76 L141,61 Q142,58 138,58 L133,58 Q114,58 99,58 Q96,58 98,60 Q118,66 134,76"/> 
            <glyph glyph-name="食" unicode="&#x98DF;" horiz-adv-x="254" d=" M119,217 L143,207 Q146,206 143,203 L140,199 Q168,145 252,112 Q254,110 252,109 Q242,109 223,91 Q204,106 191,119 Q191,118 190,116 L184,108 L183,58 L185,55 Q186,53 184,53 Q154,55 93,53 L92,0 L140,17 Q141,18 143,16 Q143,15 142,14 L73,-32 Q71,-34 69,-32 L59,-12 Q58,-10 60,-10 L74,-5 L74,102 L73,124 Q44,97 4,68 Q2,68 1,69 Q1,70 2,71 Q82,131 119,217 M136,196 Q107,159 80,130 L96,120 L156,121 L166,134 L189,120 Q155,153 137,197 M149,88 L94,86 L94,58 L156,59 L158,115 L95,114 L94,91 L149,92 Q151,92 151,90 Q151,88 149,88 M127,40 Q151,31 168,24 Q190,48 197,61 L217,42 Q220,39 216,38 Q204,35 174,21 Q205,6 211,-1 Q215,-16 203,-27 Q197,-33 193,-25 Q166,15 126,38 Q125,40 127,40 M113,157 Q140,148 142,138 Q142,128 131,124 Q124,121 123,127 Q123,145 112,155 Q110,158 113,157"/> 
            <glyph glyph-name="饭" unicode="&#x996D;" horiz-adv-x="256" d=" M151,118 Q156,87 174,61 Q185,84 193,131 L143,129 Q143,61 124,31 Q111,5 48,-28 Q46,-28 45,-27 Q45,-26 46,-25 Q95,3 108,33 Q124,63 124,134 L124,164 Q124,172 123,186 Q123,192 123,193 Q123,196 125,195 L147,180 L143,176 L143,134 L193,136 L202,148 L224,135 Q226,134 224,132 L217,123 Q209,81 186,45 Q215,11 254,-6 Q256,-9 253,-9 Q236,-10 217,-25 Q189,-2 173,27 Q147,-4 100,-32 Q98,-33 97,-32 Q96,-30 98,-29 Q146,4 166,43 Q156,65 148,118 M49,135 L77,126 Q79,125 77,123 Q78,123 77,122 L72,115 L68,32 L104,59 Q107,62 106,57 L50,-9 Q49,-10 47,-10 Q47,-10 46,-10 L31,4 L50,19 L51,98 Q51,118 49,135 M84,169 L94,178 L113,162 Q116,158 111,156 Q98,155 84,143 Q82,142 82,143 Q81,143 81,145 L85,163 L53,161 Q34,122 5,86 Q3,85 2,85 Q1,86 2,88 Q33,131 49,214 L71,205 Q73,204 72,201 L68,196 Q62,181 56,166 M205,209 L221,191 Q222,189 219,189 Q181,185 151,179 L151,181 Q184,195 202,208 Q204,209 205,209"/> 
            <glyph glyph-name="高" unicode="&#x9AD8;" horiz-adv-x="235" d=" M65,88 L190,90 L199,103 L224,90 Q226,89 225,86 L217,76 L219,17 Q219,-12 188,-30 Q184,-31 184,-28 Q184,-15 175,-11 Q174,-11 174,-10 Q174,-8 175,-8 Q194,-10 192,0 L190,84 L62,82 L62,0 Q60,-15 49,-26 Q45,-30 43,-30 Q40,-30 40,-26 L42,63 L41,100 M182,112 Q145,112 91,111 Q88,105 77,96 Q73,94 71,97 L72,163 Q72,165 73,166 Q73,166 76,165 L92,154 L152,156 L163,169 L187,156 Q189,155 189,155 Q189,154 187,153 L181,144 L182,119 L183,114 Q184,112 182,112 M150,75 L171,63 Q173,62 171,60 L165,53 L166,23 L167,20 Q168,19 166,18 Q162,18 154,18 Q130,19 106,18 Q103,7 93,0 Q91,-2 89,-1 Q88,-1 88,0 L89,29 L89,47 Q89,52 88,62 Q88,68 88,70 Q88,72 90,71 L106,62 L141,63 M58,174 Q42,174 29,172 L21,179 L112,180 L112,214 L141,204 Q144,203 142,200 L139,192 L138,181 L202,182 L217,197 L234,180 Q235,179 235,178 Q235,177 233,177 M92,149 L92,116 L153,118 L153,150 M107,57 L107,23 L142,25 L142,58"/> 
            <glyph glyph-name="，" unicode="&#xFF0C;" horiz-adv-x="83" d=" M48,-33 L45,-32 Q71,-15 68,2 L64,2 Q46,3 45,18 Q46,33 64,34 Q83,34 83,8 Q77,-19 48,-33"/> 
        </font>
</defs>
</svg>
