<?xml version="1.0" standalone="no"?>
<!DOCTYPE svg PUBLIC "-//W3C//DTD SVG 1.1//EN" "http://www.w3.org/Graphics/SVG/1.1/DTD/svg11.dtd" >
<svg xmlns="http://www.w3.org/2000/svg">
    <defs>
        <font id="">
            <font-face font-family=""
                       units-per-em="256"
                       ascent="221"
                       descent="-58"
                       bbox="0 -58 264 221"
                    />
            <missing-glyph horiz-adv-x="0" />
            
            <glyph glyph-name="一" unicode="&#x4E00;" horiz-adv-x="241" d=" M54,95 Q28,93 22,91 L12,101 L202,105 L220,123 L240,103 Q241,100 238,100"/> 
            <glyph glyph-name="三" unicode="&#x4E09;" horiz-adv-x="239" d=" M53,-11 Q41,-12 28,-14 Q29,-14 26,-14 L18,-6 L202,-3 L217,11 L237,-5 Q239,-7 236,-7 M87,173 Q73,172 60,170 L51,178 L169,179 L184,194 L203,177 Q205,175 202,175 M91,81 Q77,80 64,78 L56,86 L165,87 L180,101 L199,85 Q201,82 198,82"/> 
            <glyph glyph-name="下" unicode="&#x4E0B;" horiz-adv-x="243" d=" M48,184 Q30,183 21,181 L12,190 L204,193 L221,210 L242,190 Q243,189 243,188 Q243,187 241,187 L118,185 L134,179 Q135,179 135,176 L134,164 L134,51 L135,4 Q132,-12 111,-25 Q107,-26 106,-20 L108,46 L109,157 Q108,173 106,185 M154,131 Q214,104 219,90 Q222,72 204,60 Q196,56 194,63 Q181,102 152,129 Q152,132 154,131"/> 
            <glyph glyph-name="不" unicode="&#x4E0D;" horiz-adv-x="249" d=" M68,179 Q52,178 41,176 L32,186 L209,188 L225,205 L243,186 Q244,183 242,183 L162,181 L176,168 Q177,166 173,164 Q177,166 172,163 Q164,151 155,141 L156,2 Q154,-14 135,-24 Q130,-25 130,-20 L131,20 L132,113 Q73,50 6,13 Q4,12 3,13 Q3,14 4,16 Q82,66 127,146 Q127,148 126,152 Q127,150 125,154 Q126,157 129,156 L132,154 Q140,168 146,181 M184,112 Q229,93 242,69 Q249,52 233,39 Q222,37 220,46 Q212,81 183,110 Q182,111 184,112"/> 
            <glyph glyph-name="么" unicode="&#x4E48;" horiz-adv-x="229" d=" M170,71 Q227,21 229,2 Q224,-13 208,-20 Q198,-24 198,-14 Q197,1 190,21 L105,-2 Q72,-11 55,-19 Q51,-21 50,-18 L40,7 Q41,9 41,9 Q62,5 67,16 Q119,79 161,160 L191,140 Q194,137 190,136 L183,132 Q138,73 72,11 L189,26 Q180,52 168,69 Q166,73 170,71 M117,210 L144,197 Q147,195 144,192 L139,188 Q96,122 27,64 Q24,64 25,67 Q84,129 117,210"/> 
            <glyph glyph-name="些" unicode="&#x4E9B;" horiz-adv-x="255" d=" M126,153 Q128,153 128,151 Q128,148 126,148 L102,146 L101,82 L133,89 Q135,90 135,89 Q136,88 135,86 L63,56 Q45,48 34,42 Q31,40 29,42 Q29,41 28,42 L16,60 Q14,63 17,65 Q19,65 22,66 Q30,66 45,69 L45,135 Q45,155 43,172 L67,162 Q69,160 67,158 L62,151 L60,72 L85,78 L84,172 Q84,179 83,190 Q83,204 82,209 L107,198 Q109,197 107,195 L102,187 L102,151 M207,179 L220,164 Q221,163 221,162 Q221,161 219,161 Q209,158 179,151 Q167,148 162,147 L159,96 Q158,78 172,80 Q197,80 213,83 Q226,85 231,107 Q231,109 233,108 Q235,108 235,106 Q233,88 241,83 Q255,69 238,61 Q214,53 175,57 Q142,61 143,103 L143,172 Q143,181 142,195 Q142,206 142,211 L168,199 Q170,198 168,196 L163,190 L162,151 Q190,165 207,179 M55,-18 Q39,-19 26,-21 L18,-13 L199,-11 L215,4 L237,-13 Q238,-15 236,-15 M90,29 Q79,28 65,26 Q67,27 62,26 L53,35 L166,37 L180,50 L197,34 Q199,32 197,31"/> 
            <glyph glyph-name="交" unicode="&#x4EA4;" horiz-adv-x="235" d=" M90,110 Q103,80 124,59 Q143,89 155,132 L176,120 Q179,119 176,113 Q157,70 137,46 Q175,16 233,-5 Q235,-6 235,-7 Q235,-8 233,-9 Q222,-8 197,-28 Q145,2 124,31 Q95,0 19,-33 Q16,-34 18,-31 Q86,6 114,45 Q100,70 88,109 M65,167 Q48,167 37,165 L30,172 L119,173 L118,210 Q118,213 120,212 L147,205 Q150,204 148,201 Q145,198 145,190 L144,173 L201,174 L215,188 L233,172 Q234,170 232,170 M91,162 L109,146 Q111,143 109,142 Q76,94 35,59 Q31,57 33,61 Q72,107 88,161 Q88,163 89,163 Q90,163 91,162 M156,155 Q197,141 213,127 Q220,118 209,101 Q201,91 194,103 Q179,141 154,154 Q152,156 156,155"/> 
            <glyph glyph-name="亲" unicode="&#x4EB2;" horiz-adv-x="249" d=" M155,170 L180,160 Q183,160 180,158 L177,151 L170,116 L212,117 L228,134 L248,115 Q249,113 247,112 L128,110 L144,104 Q146,103 145,101 L142,93 L142,74 L191,75 L205,90 L223,73 Q224,72 224,71 Q224,70 222,70 L142,68 L142,3 Q140,-18 113,-30 Q111,-31 111,-29 Q111,-15 101,-10 Q99,-9 101,-7 Q120,-8 118,0 L118,68 L71,67 Q53,68 42,65 L35,73 L118,74 L119,83 L117,110 L44,109 Q27,108 15,106 L7,114 L84,115 L84,127 Q84,153 83,160 Q83,162 85,161 L106,154 Q108,153 106,152 L104,145 L100,116 L150,116 L152,136 Q152,145 153,159 Q153,167 153,169 Q153,172 155,170 M73,170 Q57,169 45,167 L35,176 L114,177 L115,209 L145,204 Q148,202 146,199 Q141,194 138,177 L188,178 L202,190 L219,175 Q221,174 218,172 M78,61 L100,48 Q102,47 102,47 Q102,46 100,44 Q75,15 8,-32 Q6,-33 5,-32 Q5,-31 6,-29 Q58,9 78,61 M159,57 Q212,31 217,20 Q218,11 207,-1 Q199,-8 195,2 Q183,30 158,55 Q157,57 159,57"/> 
            <glyph glyph-name="什" unicode="&#x4EC0;" horiz-adv-x="248" d=" M186,198 L183,190 L182,126 L216,127 L229,142 L246,125 Q248,124 246,123 L182,121 L182,46 L184,2 Q180,-16 163,-29 Q159,-29 159,-23 L159,22 L160,120 L133,119 Q116,119 106,116 L97,124 L160,126 L160,166 L158,212 L184,201 Q186,201 186,198 M5,72 Q1,70 3,74 Q53,125 85,214 L110,202 Q112,201 110,199 Q111,199 110,198 L106,194 Q97,176 85,160 L88,0 Q87,-16 72,-30 Q70,-32 68,-32 Q67,-32 66,-29 L68,38 L68,136 Q38,99 5,72"/> 
            <glyph glyph-name="从" unicode="&#x4ECE;" horiz-adv-x="253" d=" M146,209 Q146,211 148,210 L174,197 Q177,196 175,193 L170,188 L170,131 Q179,56 251,-6 Q253,-7 252,-9 Q252,-10 250,-10 Q235,-7 215,-24 Q181,23 169,112 Q170,14 54,-33 Q52,-33 52,-32 Q52,-30 54,-29 Q150,11 148,126 L147,173 Q147,200 146,209 M71,208 Q71,211 73,210 L97,198 Q100,196 97,193 L93,187 L92,132 Q92,99 89,84 Q124,68 128,56 Q127,44 114,34 Q108,31 107,37 Q101,60 88,78 Q78,14 4,-28 Q2,-29 2,-27 Q2,-26 4,-25 Q75,15 71,135 L72,172 Q72,200 71,208"/> 
            <glyph glyph-name="你" unicode="&#x4F60;" horiz-adv-x="250" d=" M5,72 Q3,71 2,72 Q2,74 3,75 Q74,134 103,210 L123,197 Q126,196 123,192 Q100,155 82,137 L81,1 Q79,-12 67,-26 Q61,-31 60,-26 L62,41 L63,119 Q39,97 5,72 M182,13 Q183,-11 153,-27 Q151,-28 150,-26 Q150,-11 141,-7 Q139,-7 141,-4 Q161,-5 158,1 L159,111 L157,138 Q157,143 159,141 L184,134 Q187,133 185,130 L183,123 L182,46 M211,168 L221,179 L247,157 Q250,154 246,152 Q229,152 206,138 Q203,137 204,140 L211,163 L144,162 Q126,136 95,107 Q94,106 93,107 Q91,108 92,109 Q130,154 145,210 L168,199 Q170,198 168,196 L165,192 Q163,189 159,183 Q152,172 148,167 M126,102 L148,93 Q150,92 150,91 Q151,91 149,89 Q125,43 92,6 Q90,5 89,5 Q88,6 89,8 Q115,48 126,102 M193,93 Q236,65 242,49 Q243,38 231,29 Q227,25 224,26 Q221,28 220,34 Q213,62 191,91 Q190,94 193,93"/> 
            <glyph glyph-name="佳" unicode="&#x4F73;" horiz-adv-x="251" d=" M5,73 Q3,72 2,73 Q1,74 2,76 Q70,130 101,211 L122,198 Q124,197 121,193 Q102,161 80,136 L80,0 Q78,-13 65,-27 Q62,-30 61,-30 Q59,-30 59,-27 L60,40 L61,118 Q45,102 5,73 M110,45 Q107,45 107,48 Q106,50 109,50 L152,51 L152,52 L151,97 L181,89 Q182,89 183,88 Q182,87 181,86 Q178,83 176,76 L176,52 L205,53 L216,66 L232,52 Q233,50 233,50 Q232,49 231,49 L176,47 L176,-10 L217,-9 L231,5 L249,-11 Q251,-13 248,-14 L118,-17 Q101,-18 89,-20 L82,-13 L152,-11 L152,47 M113,156 Q111,155 110,158 Q110,161 112,161 L153,162 L153,167 L152,211 L181,204 Q184,204 181,200 Q178,199 176,190 L176,163 L199,164 L211,177 L228,162 Q230,159 227,159 L176,158 L176,108 L213,109 L226,122 L242,108 Q243,106 243,106 Q242,105 241,105 L100,102 Q97,102 96,104 Q96,106 99,107 L152,108 L153,157"/> 
            <glyph glyph-name="候" unicode="&#x5019;" horiz-adv-x="251" d=" M145,139 L161,127 Q163,126 161,124 Q157,120 152,112 L193,113 L204,126 L219,112 Q221,110 219,109 L182,108 Q182,85 179,67 L215,68 L228,81 L243,67 Q245,64 242,63 L184,62 Q191,7 249,-6 Q251,-7 251,-8 Q251,-10 249,-10 Q236,-10 220,-28 Q181,-9 181,62 L178,62 Q174,3 82,-34 Q80,-35 79,-33 Q79,-32 81,-31 Q154,6 158,61 L141,61 Q126,60 114,58 L107,65 L159,67 Q161,84 161,108 L148,107 Q144,103 137,95 Q122,78 115,71 Q113,69 114,72 Q137,113 143,138 Q143,140 145,139 M7,67 Q3,66 5,69 Q47,128 77,215 L96,205 Q98,204 96,201 L93,198 Q83,174 69,151 L67,0 Q66,-15 55,-29 Q49,-34 48,-28 L50,40 L52,124 Q31,93 7,67 M182,188 L133,187 Q131,187 131,189 Q131,191 133,192 L181,193 L190,203 L208,192 Q210,191 210,191 Q210,190 208,189 L203,182 L199,149 L212,149 L224,162 L239,147 Q240,146 238,144 L145,143 Q129,143 119,141 L112,148 L177,148 M89,162 L102,154 Q104,154 104,148 L103,58 Q103,42 92,31 Q88,27 86,32 L87,159 Q87,162 89,162"/> 
            <glyph glyph-name="做" unicode="&#x505A;" horiz-adv-x="248" d=" M133,91 L140,101 L155,90 Q156,90 156,88 L152,81 L153,33 L155,27 Q156,24 153,24 Q135,27 101,27 L102,17 Q95,-1 88,3 L87,96 Q87,100 89,98 L100,89 L110,90 L112,147 Q93,146 84,144 L77,150 L112,152 L113,178 Q113,204 113,214 L134,208 Q135,208 135,206 L132,202 L130,153 L143,154 L153,164 L165,152 Q167,150 165,150 L130,148 L127,91 M171,108 Q178,72 186,57 Q198,88 203,134 L175,132 Q166,117 157,99 Q156,98 155,98 Q154,98 154,100 Q178,168 185,209 Q185,211 187,210 L209,196 Q211,195 209,194 Q203,190 199,181 Q195,171 186,154 Q181,143 178,137 L218,141 L228,153 L243,140 Q245,138 242,138 L207,135 L222,127 Q224,126 221,121 Q213,73 194,41 Q210,14 247,-2 Q248,-3 248,-4 Q248,-5 246,-5 Q234,-4 217,-20 Q192,4 184,26 Q166,0 129,-27 Q125,-29 127,-25 Q161,5 179,41 Q174,58 169,98 Q168,103 168,106 M6,66 Q2,65 4,68 Q48,130 73,204 L92,195 Q94,194 91,192 L88,188 Q81,171 70,153 L68,4 Q68,-8 57,-23 Q51,-28 50,-23 L52,44 L54,127 Q32,96 6,66 M101,84 L102,32 L135,34 L134,86"/> 
            <glyph glyph-name="决" unicode="&#x51B3;" horiz-adv-x="249" d=" M125,216 L156,205 Q159,203 156,200 L152,193 L152,158 L182,159 L191,172 L212,160 Q214,159 212,157 L206,148 L205,89 L216,89 L230,104 L246,87 Q248,84 245,84 L149,82 Q148,17 37,-32 Q35,-33 34,-32 Q34,-31 35,-29 Q122,18 125,81 L102,81 Q92,81 79,79 Q80,80 76,79 L67,86 L126,87 Q127,102 127,119 L127,152 L91,151 Q88,151 87,153 Q87,157 90,157 L127,158 L127,177 Q127,192 125,216 M83,163 L47,45 Q45,37 45,28 Q44,18 46,10 Q49,2 44,-1 Q39,-7 26,-8 Q18,-9 19,0 Q21,8 23,19 Q25,28 13,34 Q11,36 14,36 Q24,34 27,42 L80,163 Q81,164 82,165 Q83,164 83,163 M160,77 Q163,35 247,-3 Q249,-4 249,-5 Q248,-7 246,-7 Q229,-6 208,-25 Q163,12 157,76 M182,154 L152,153 L152,116 Q152,101 150,88 L182,88 M24,186 Q56,171 56,158 Q54,146 42,141 Q34,140 32,147 Q30,171 21,184 Q22,187 24,186"/> 
            <glyph glyph-name="准" unicode="&#x51C6;" horiz-adv-x="246" d=" M75,83 Q73,82 72,84 Q71,85 72,86 Q109,135 133,216 L157,205 Q159,204 159,204 Q159,204 157,202 L154,198 Q143,179 131,159 L208,160 L220,173 L237,158 Q239,156 236,156 L189,154 L188,113 L202,114 L214,125 L229,112 Q230,111 230,110 Q230,109 228,109 L188,108 L187,72 L202,73 L214,84 L229,71 Q231,68 228,68 L187,67 L187,25 L215,25 L228,39 L244,24 Q246,23 246,22 Q246,21 244,21 L129,18 L128,-2 Q128,-15 114,-31 Q107,-36 107,-31 L109,36 L112,131 Q109,127 103,119 Q93,106 75,83 M86,160 L55,45 Q49,27 53,10 Q59,1 53,-3 Q45,-12 33,-11 Q24,-10 27,0 Q30,8 30,20 Q31,30 18,35 Q17,37 19,38 Q31,34 35,43 L83,161 Q84,162 85,162 Q87,161 86,160 M129,66 L129,24 L166,24 L166,67 M131,153 L130,112 L166,113 L166,154 M130,106 L130,71 L166,72 L166,107 M31,197 Q65,182 65,169 Q62,157 51,153 Q44,151 40,159 Q39,185 29,195 Q29,198 31,197 M168,199 Q193,190 194,180 Q193,172 183,167 Q175,165 175,171 Q174,187 167,198 Q166,200 168,199"/> 
            <glyph glyph-name="加" unicode="&#x52A0;" horiz-adv-x="237" d=" M213,177 L235,164 Q237,164 235,162 L229,152 L230,50 L231,48 Q232,46 230,46 Q211,46 175,45 L175,16 Q174,0 161,-13 Q155,-16 155,-12 L156,44 L156,151 Q156,167 156,177 Q156,179 158,177 L176,165 L205,166 M65,216 L87,206 Q90,204 88,201 L86,195 L86,162 L111,163 L121,176 L144,163 Q146,162 143,160 L136,150 L135,82 L136,29 Q138,0 106,-16 Q104,-17 103,-17 Q101,-16 102,-14 Q103,-1 94,3 Q92,4 93,5 Q93,6 95,6 Q113,6 111,18 L112,158 L86,157 L86,123 Q90,23 5,-27 Q0,-29 3,-25 Q42,7 53,35 Q66,64 66,123 L66,156 L54,156 Q46,156 31,153 L24,160 L66,162 L66,178 Q66,185 65,202 Q65,213 65,216 M176,161 L175,50 L206,51 L204,162"/> 
            <glyph glyph-name="动" unicode="&#x52A8;" horiz-adv-x="241" d=" M160,212 L183,202 Q186,200 184,197 L182,191 L182,156 L206,157 L217,170 L239,157 Q241,156 239,154 L232,145 L230,80 L231,22 Q229,-3 201,-18 Q198,-20 197,-15 Q198,-3 189,1 Q188,2 188,3 Q188,4 190,4 Q208,4 206,16 L208,152 L182,151 L182,119 Q188,8 73,-32 Q71,-32 71,-30 Q70,-29 72,-28 Q124,-3 141,26 Q160,56 161,119 L161,150 L158,150 Q152,150 139,147 Q138,147 137,147 L129,154 L161,155 L161,174 Q161,205 160,212 M52,113 Q47,113 39,112 Q29,112 25,111 L17,117 L113,120 L125,132 L141,117 Q142,116 140,114 L71,113 L90,104 Q92,102 90,100 Q66,60 40,27 L102,39 Q98,54 90,63 Q89,66 92,65 Q125,42 129,27 Q129,14 114,7 Q106,4 106,13 Q106,25 103,36 Q72,23 30,2 Q26,1 25,0 Q22,-1 21,0 L13,21 Q12,24 14,24 Q26,24 29,27 Q48,52 63,113 M68,174 Q50,174 40,172 L33,178 L96,180 L106,191 L121,178 Q123,177 121,175"/> 
            <glyph glyph-name="匹" unicode="&#x5339;" horiz-adv-x="239" d=" M173,175 Q175,174 173,172 L169,165 L155,80 Q153,68 164,69 Q176,68 198,72 Q207,74 212,88 Q213,90 215,90 Q216,89 216,87 Q214,73 223,70 Q238,53 210,44 Q187,40 166,44 Q139,48 140,83 L146,168 L146,185 L114,184 L129,178 Q132,177 130,175 L128,169 Q127,81 62,25 Q60,24 59,26 Q58,28 60,29 Q107,77 106,184 L65,183 L65,188 L187,191 L202,206 L221,189 Q223,186 220,186 L151,185 M37,200 L61,187 L58,178 L56,2 L202,5 L219,22 L238,4 Q239,2 239,2 Q238,1 237,1 L57,-2 Q51,-16 38,-26 Q35,-27 33,-24 L35,31 L37,154 Q37,180 35,199 Q35,200 37,200"/> 
            <glyph glyph-name="厨" unicode="&#x53A8;" horiz-adv-x="245" d=" M57,200 Q57,203 59,202 L83,191 L208,193 L222,208 L242,191 Q243,189 240,189 L81,186 L80,116 Q80,64 65,37 Q49,6 4,-29 Q2,-29 2,-27 Q1,-26 3,-25 Q38,4 49,36 Q60,64 59,129 L58,170 M220,175 Q222,175 222,174 Q222,174 220,172 L219,166 L218,135 L220,135 L230,146 L243,134 Q245,133 243,132 L218,131 L218,55 L218,14 Q219,-11 190,-26 Q187,-27 188,-24 Q188,-9 181,-6 Q180,-5 180,-4 Q180,-3 182,-3 Q201,-4 198,4 L199,130 L167,129 Q164,128 163,130 Q163,133 166,134 L199,134 L198,184 M141,140 L161,129 Q164,128 162,126 L157,120 L157,82 L158,79 Q159,78 158,77 Q140,79 108,78 Q107,70 96,62 Q90,59 90,63 L90,90 L90,115 L89,137 L108,130 L133,131 M170,23 Q171,23 172,22 Q171,21 170,20 L118,-2 Q98,-10 86,-18 Q84,-21 82,-18 L66,-3 Q65,-2 65,-2 Q65,-1 66,0 Q81,0 104,6 L123,10 Q136,52 138,70 L161,61 Q163,60 161,57 L128,12 M108,126 L108,82 L134,83 L134,126 M86,155 Q83,155 83,158 Q82,160 85,160 L140,161 L152,173 L167,160 Q168,159 168,158 Q168,157 166,157 M95,56 Q118,40 117,32 Q114,22 104,19 Q97,18 98,25 Q100,42 93,54 Q92,57 95,56 M169,104 Q192,90 193,81 Q191,75 181,70 Q175,68 175,74 Q175,92 167,102 Q167,105 169,104"/> 
            <glyph glyph-name="发" unicode="&#x53D1;" horiz-adv-x="243" d=" M109,213 L142,201 Q144,200 142,198 Q143,198 142,197 L136,193 Q132,164 122,132 L202,133 L218,150 L238,131 Q239,130 239,130 Q239,129 237,128 L120,126 Q114,110 106,93 L176,94 L187,108 L210,93 Q212,91 209,90 L202,83 Q181,52 156,30 Q185,9 240,-2 Q243,-4 241,-7 Q220,-9 202,-31 Q166,-10 140,17 Q103,-9 48,-32 Q46,-33 45,-31 Q45,-30 47,-29 Q104,1 131,30 Q115,54 105,88 L104,88 Q74,30 17,-21 Q15,-22 14,-21 Q13,-20 14,-18 Q71,43 94,125 L56,125 Q50,116 39,113 Q33,112 33,116 L38,141 L47,195 Q47,198 50,198 L72,186 Q74,185 72,181 L58,131 L96,131 Q106,171 109,213 M175,90 L109,88 Q121,60 141,41 Q159,62 175,90 M164,194 Q197,183 200,172 Q200,161 187,153 Q179,149 175,157 Q174,180 162,191 Q161,193 161,194 Q162,195 164,194"/> 
            <glyph glyph-name="口" unicode="&#x53E3;" horiz-adv-x="209" d=" M202,38 Q176,40 97,40 Q83,40 78,40 L78,27 Q75,7 62,-2 Q56,-5 55,-1 L56,58 L56,141 L54,179 Q54,184 57,182 L79,167 L170,169 L183,185 L208,170 Q209,169 209,167 L202,158 L203,48 L205,41 Q206,39 205,38 Q204,37 202,38 M77,162 L78,47 L173,48 L172,163"/> 
            <glyph glyph-name="可" unicode="&#x53EF;" horiz-adv-x="242" d=" M124,156 L144,143 Q144,142 144,140 L138,133 L138,71 L140,68 Q140,66 139,66 Q123,68 73,65 L73,59 Q72,41 60,29 Q57,27 56,28 Q55,28 55,30 L55,125 Q55,130 54,143 Q54,149 54,151 Q54,154 56,153 L73,143 L114,145 M55,180 Q43,179 30,177 Q31,178 28,177 L20,185 L203,189 L219,206 L240,187 Q242,185 240,185 L179,183 L200,175 Q200,175 201,174 Q202,174 201,172 L197,163 L197,69 L199,21 Q198,-14 159,-30 Q156,-31 157,-28 Q158,-11 148,-3 Q147,-2 147,-1 Q148,0 150,0 Q175,-3 173,8 L173,134 L171,183 M114,140 L73,138 L73,70 L115,72"/> 
            <glyph glyph-name="同" unicode="&#x540C;" horiz-adv-x="222" d=" M196,206 L220,194 Q222,191 220,190 L213,180 L213,49 L214,13 Q214,-11 181,-27 Q178,-27 178,-25 Q180,-8 168,-4 Q167,-4 167,-3 Q168,-1 169,-1 Q187,-3 187,1 L186,187 L69,186 L70,10 Q68,-7 55,-24 Q52,-27 50,-26 Q47,-26 47,-22 L49,35 L49,166 L48,201 Q48,204 50,202 L71,191 L186,192 M151,124 L173,113 Q175,112 173,111 L168,102 L167,55 L169,51 Q169,49 168,49 Q159,49 108,49 Q108,40 95,27 Q92,25 91,26 Q90,26 90,28 L91,65 L90,95 Q90,111 90,120 Q90,123 92,121 L110,111 L143,113 M109,106 L109,54 L143,55 L144,107 M83,149 Q80,148 79,151 Q79,154 82,154 L148,155 L160,168 L176,154 Q177,153 177,152 Q177,151 175,151"/> 
            <glyph glyph-name="吧" unicode="&#x5427;" horiz-adv-x="258" d=" M107,201 L129,188 L198,190 L206,202 L227,191 Q229,190 227,187 L222,179 L222,112 L224,109 Q225,107 222,107 Q217,107 208,107 Q188,108 173,107 L125,106 L125,27 Q124,12 140,11 Q173,10 207,15 Q227,18 232,40 Q235,44 237,40 Q233,21 241,16 Q258,0 236,-10 Q199,-20 148,-14 Q106,-10 107,40 L106,163 Q106,173 105,189 Q105,196 105,199 Q105,202 107,201 M72,200 L95,188 Q97,187 95,185 L89,175 L90,77 L91,74 Q93,72 91,72 Q73,72 40,72 L40,59 Q39,38 27,23 Q21,20 21,24 L23,84 L23,173 Q23,178 22,191 Q22,197 22,199 Q22,201 25,200 L42,187 L64,188 M41,182 L40,78 L65,78 L65,183 M126,178 L125,112 L152,113 L152,184 L131,183 M172,113 L198,114 L198,185 L173,184"/> 
            <glyph glyph-name="喜" unicode="&#x559C;" horiz-adv-x="247" d=" M48,55 Q30,54 21,51 L14,59 L89,60 Q89,73 86,90 Q86,92 86,92 Q87,93 89,92 L108,83 Q111,82 110,79 L110,61 L145,61 Q155,83 156,98 Q121,99 80,99 Q78,94 68,86 Q64,84 63,84 Q62,84 62,87 L62,111 L62,123 L62,141 L82,133 L172,134 L181,144 L202,132 Q204,132 202,130 L198,123 L198,102 L200,99 Q200,98 199,98 Q183,98 162,98 L181,89 Q182,89 183,88 Q182,87 181,86 L161,61 L213,62 L227,77 L246,60 Q247,59 245,57 M170,36 L181,50 L207,35 Q209,35 207,32 L201,25 L202,1 L204,-1 Q204,-4 202,-4 Q187,-3 162,-3 Q150,-3 133,-3 Q118,-3 84,-3 Q81,-18 68,-28 Q64,-31 62,-27 L63,0 L63,26 L62,47 L85,35 M53,177 Q39,176 26,174 L19,182 L115,183 L115,186 L114,215 L146,202 L141,195 L141,184 L205,185 L218,198 L236,182 Q238,180 236,180 L141,178 L140,155 L180,156 L191,167 L207,154 Q210,152 206,152 L84,150 Q66,149 57,147 L50,154 L115,155 L115,178 M85,30 L84,0 L171,1 L170,31 M82,128 L82,104 L172,104 L172,129"/> 
            <glyph glyph-name="在" unicode="&#x5728;" horiz-adv-x="243" d=" M115,213 L139,198 Q141,196 139,194 Q132,178 121,162 L206,163 L222,179 L241,161 Q242,160 242,159 Q242,158 240,158 L118,156 Q100,129 81,103 L84,101 Q87,100 87,95 L86,-3 Q84,-17 72,-29 Q67,-34 65,-29 L67,28 L67,86 Q38,51 8,24 Q6,23 5,23 Q4,24 5,26 Q50,73 91,156 L52,155 Q34,155 24,153 L17,161 L93,162 Q107,190 112,211 Q114,214 115,213 M109,72 Q106,72 106,75 Q105,78 108,78 L149,80 L149,96 L147,140 L176,132 Q177,132 178,131 Q177,130 176,129 Q173,126 172,119 L171,80 L191,81 L204,95 L220,79 Q222,77 220,76 L171,74 L171,-3 L210,-2 L225,11 L241,-4 Q243,-6 241,-6 L125,-9 Q111,-10 98,-12 L90,-4 L149,-3 L149,74"/> 
            <glyph glyph-name="地" unicode="&#x5730;" horiz-adv-x="261" d=" M171,202 L168,197 L168,138 L194,152 L202,166 L223,156 Q225,155 223,153 L217,142 L217,77 Q218,38 189,21 Q185,20 185,23 Q184,37 176,40 Q174,43 177,43 Q196,40 194,66 L195,145 L168,131 L167,60 Q168,34 156,19 Q152,15 150,15 Q147,15 147,20 L148,121 L123,108 L120,13 Q118,0 131,0 Q176,-4 212,3 Q228,7 235,27 Q236,29 238,29 Q240,29 240,27 Q238,13 246,9 Q261,-9 236,-19 Q194,-29 134,-23 Q103,-20 104,24 L105,99 Q102,97 95,94 Q91,91 89,90 L79,93 L105,106 L106,131 Q106,138 105,149 Q105,163 104,166 Q104,170 106,168 L127,156 Q129,155 127,153 L124,145 L123,115 L148,128 L148,175 Q148,205 147,214 Q147,215 148,215 L170,205 Q173,204 171,202 M21,125 Q19,124 18,126 Q17,129 19,129 L46,131 L46,169 L45,202 L70,192 L67,184 L65,132 L74,133 L85,143 L97,132 Q99,130 97,129 L65,127 L63,51 L97,67 Q100,68 99,66 L36,11 Q33,7 29,10 L13,26 Q13,27 12,27 Q11,28 13,29 Q25,33 45,42 L46,126"/> 
            <glyph glyph-name="域" unicode="&#x57DF;" horiz-adv-x="251" d=" M159,212 L185,201 Q187,200 185,198 L180,192 Q180,179 179,165 L208,166 L222,179 L238,164 Q240,162 237,162 L179,160 Q179,104 190,66 Q206,97 216,130 L236,117 Q239,115 236,112 Q233,111 232,106 Q209,65 195,48 Q207,16 226,4 Q231,0 235,5 L247,20 Q248,22 250,21 Q251,20 250,18 Q241,0 243,-13 Q244,-22 240,-26 Q235,-29 227,-24 Q195,-3 180,31 Q156,4 103,-22 Q100,-23 102,-20 Q149,7 175,43 Q161,83 160,160 L93,158 Q89,158 88,160 Q88,163 92,164 L160,165 Q159,183 159,212 M13,132 Q11,132 10,134 Q10,136 12,137 L42,138 L42,182 L41,212 L68,200 L63,191 L62,139 L70,139 L81,151 L93,138 Q95,137 93,135 L61,134 L59,48 L91,65 Q94,66 93,63 L34,5 Q31,1 27,5 L10,21 Q9,22 9,23 Q9,23 10,24 Q12,25 16,26 Q29,31 39,37 L41,38 L42,133 M138,137 L154,125 Q156,124 154,123 L149,116 L149,76 L150,73 Q151,72 150,72 Q133,72 114,71 L114,67 Q114,50 102,41 Q98,38 97,42 L98,72 L98,109 Q98,125 98,134 Q98,136 100,135 L114,127 L130,128 M161,43 Q165,44 162,41 L113,18 Q112,17 109,16 Q95,10 89,7 Q86,6 85,7 L75,21 Q74,24 77,24 Q83,25 99,28 Q105,29 108,30 M130,124 L114,123 L114,75 L130,76 M192,198 Q210,194 214,188 Q213,180 206,174 Q203,171 200,177 Q196,188 191,196 Q190,198 192,198"/> 
            <glyph glyph-name="大" unicode="&#x5927;" horiz-adv-x="244" d=" M62,112 Q44,112 34,110 L26,118 L113,120 Q116,157 114,211 L143,204 Q145,203 145,203 Q145,202 143,201 L137,194 Q137,152 134,120 L200,122 L216,138 L234,119 Q236,116 233,116 L144,114 Q155,28 242,-7 Q244,-8 244,-9 Q243,-11 241,-11 Q222,-12 209,-27 Q144,4 138,114 L134,114 Q136,2 5,-28 Q3,-29 3,-28 Q3,-26 4,-25 Q111,7 113,113"/> 
            <glyph glyph-name="好" unicode="&#x597D;" horiz-adv-x="252" d=" M102,164 L124,153 Q126,152 124,150 L119,142 Q111,81 89,46 Q111,37 123,25 Q129,10 118,-3 Q111,-8 108,0 Q100,15 81,33 Q61,4 5,-33 Q3,-34 2,-32 Q2,-30 3,-29 Q51,6 69,43 Q55,54 40,59 L52,144 L50,144 Q37,144 26,142 L17,149 L53,150 L57,177 Q58,186 59,202 Q60,211 60,215 L87,204 Q89,203 87,201 L83,196 L73,151 L94,151 M150,95 Q133,94 124,91 L115,99 L167,101 Q167,127 165,143 Q165,145 167,144 L178,140 L207,190 L161,188 Q145,187 137,184 L128,191 L207,196 L218,206 L238,189 Q240,188 240,186 Q239,185 237,184 Q227,179 183,138 L189,136 Q192,136 191,134 Q191,124 191,102 L219,103 L231,119 L250,102 Q252,100 250,99 L191,97 Q192,51 190,10 Q187,-11 158,-29 Q155,-29 155,-26 Q155,-11 146,-7 Q144,-6 144,-5 Q145,-3 147,-3 Q169,-6 166,8 Q167,28 167,95 M53,61 Q62,58 73,53 Q90,89 94,146 L71,145"/> 
            <glyph glyph-name="它" unicode="&#x5B83;" horiz-adv-x="242" d=" M106,131 Q108,130 106,128 L102,122 L97,23 Q93,4 113,3 Q153,0 192,8 Q204,9 212,33 Q213,35 215,34 Q216,34 216,32 Q214,15 220,9 Q235,-3 216,-12 Q201,-17 171,-19 Q136,-21 112,-18 Q76,-14 78,29 L79,105 L78,141 M201,172 L213,180 L239,155 Q242,148 233,147 Q216,149 195,137 Q193,136 192,137 Q191,138 192,139 L202,166 L58,160 Q51,130 27,114 Q22,112 22,116 Q18,129 22,133 Q41,151 43,172 Q42,174 44,175 Q45,175 47,174 Q51,173 58,165 L114,168 L112,211 Q112,213 114,213 L142,205 Q144,204 142,201 Q139,199 139,190 L139,169 M189,118 L208,99 Q211,95 207,93 Q182,87 122,72 Q126,73 114,70 L113,72 Q165,97 185,117 Q187,120 189,118"/> 
            <glyph glyph-name="定" unicode="&#x5B9A;" horiz-adv-x="252" d=" M88,118 Q72,117 60,115 L53,122 L175,127 L190,142 L208,125 Q211,123 207,123 L139,120 L137,6 Q171,3 249,12 Q251,13 251,11 Q252,9 250,8 Q232,5 223,-19 Q200,-20 169,-19 Q137,-17 124,-14 Q96,-9 74,39 Q66,4 9,-33 Q6,-33 7,-30 Q61,2 63,87 L83,78 Q85,78 83,74 L81,70 Q79,56 76,44 Q92,16 116,9 L116,119 M36,122 Q25,121 25,141 Q47,154 51,183 Q51,185 53,185 Q54,185 55,183 Q55,178 56,173 L114,175 L113,210 Q113,213 115,212 L143,204 Q146,204 144,200 Q140,197 140,189 L140,176 L200,178 L212,189 L238,167 Q241,164 236,162 Q215,157 197,147 Q195,146 194,147 Q193,148 194,149 L201,173 L56,167 Q57,136 36,122 M200,95 L210,77 Q211,75 211,75 Q210,74 209,74 Q197,72 169,68 Q156,66 149,65 Q146,66 148,68 Q180,79 200,95"/> 
            <glyph glyph-name="家" unicode="&#x5BB6;" horiz-adv-x="250" d=" M97,134 Q87,134 72,131 Q71,131 70,131 L63,137 L161,142 L174,155 L191,140 Q193,138 191,137 L123,135 L139,125 Q141,123 139,123 L134,121 Q132,120 128,117 Q122,113 120,112 Q135,98 144,80 Q178,104 195,123 L214,106 Q216,104 214,103 Q214,104 213,103 Q198,98 176,89 Q182,50 248,17 Q250,16 249,14 Q249,13 247,13 Q233,12 217,-3 Q173,36 173,88 Q169,86 159,83 Q150,79 145,77 Q158,49 152,7 Q145,-21 114,-31 Q113,-32 112,-31 Q112,-31 112,-28 Q113,-13 102,-7 Q101,-6 101,-5 Q101,-4 103,-4 Q126,-8 127,5 Q133,29 132,49 Q89,11 11,-20 Q9,-21 8,-20 Q8,-18 9,-17 Q72,14 130,75 Q129,80 127,84 Q84,49 22,24 Q19,24 21,26 Q80,60 119,105 Q119,106 118,107 Q117,109 116,109 Q78,87 29,65 Q27,64 26,66 Q25,67 27,68 Q80,98 115,134 M37,121 Q33,117 31,120 Q23,132 25,142 Q47,155 49,184 Q52,187 53,184 L59,173 L115,175 L114,210 Q114,213 116,212 L144,204 Q146,202 144,200 Q141,194 141,189 L141,176 L196,177 L208,188 L234,167 Q237,164 233,162 Q218,161 194,149 Q192,148 191,148 Q190,149 191,151 L198,173 L59,167 Q59,140 37,121"/> 
            <glyph glyph-name="度" unicode="&#x5EA6;" horiz-adv-x="247" d=" M66,192 Q65,195 67,194 L92,183 L140,184 L142,215 L172,209 Q173,209 174,208 Q174,208 173,206 Q167,201 166,184 L204,185 L218,199 L236,184 Q237,183 236,182 Q236,181 234,181 L89,177 L89,141 L121,142 L120,166 Q120,168 122,168 L141,161 Q142,160 142,157 L141,143 L172,144 L172,173 Q171,176 173,175 L195,166 Q196,165 195,163 L194,144 L212,145 L225,158 L240,143 Q243,141 239,141 L193,139 L191,114 L196,109 Q197,106 195,105 Q179,107 139,105 L138,94 Q137,91 136,91 Q135,91 134,92 Q126,96 123,102 L121,136 L113,136 Q107,137 95,134 L89,140 L89,120 Q90,39 4,-22 Q2,-22 2,-20 Q1,-19 3,-18 Q40,14 54,47 Q67,78 67,132 L67,162 M245,-7 Q247,-8 247,-9 Q247,-11 245,-11 Q234,-13 217,-30 Q175,-11 150,17 Q116,-4 54,-31 Q52,-32 52,-31 Q51,-29 53,-28 Q114,3 141,30 Q128,48 118,72 L121,73 Q130,54 148,37 Q166,55 184,79 L122,77 Q113,77 105,74 L96,82 L186,84 L196,95 L219,81 Q221,80 219,78 L210,71 Q184,43 162,27 Q195,5 245,-7 M173,112 L172,138 L141,137 L139,111"/> 
            <glyph glyph-name="开" unicode="&#x5F00;" horiz-adv-x="244" d=" M67,183 Q45,181 40,179 L30,188 L194,190 L209,205 L227,188 Q229,185 226,185 L158,184 L179,177 Q181,176 179,174 L174,167 L174,98 L207,99 L224,117 L243,96 Q244,95 244,94 Q244,93 242,93 L174,92 L174,30 L174,2 Q171,-15 151,-27 Q148,-27 147,-23 L148,18 L148,92 L110,91 Q110,12 10,-33 Q8,-34 8,-32 Q7,-30 9,-29 Q87,12 87,91 L51,90 Q33,89 24,87 L15,96 L87,97 L87,104 L88,150 Q88,156 87,167 Q87,178 86,183 M110,103 L110,98 L148,98 L149,184 L94,183 L114,176 Q116,176 114,173 L110,167"/> 
            <glyph glyph-name="态" unicode="&#x6001;" horiz-adv-x="253" d=" M137,202 Q139,201 137,199 L132,193 L131,174 Q131,173 131,171 L194,173 L209,190 L229,172 Q231,170 229,169 L131,166 Q128,137 113,116 Q135,105 143,96 Q145,86 133,77 Q124,73 123,81 Q119,100 109,112 Q80,76 3,52 Q0,54 3,57 Q104,92 105,165 L61,163 Q43,162 33,160 L26,168 L105,170 Q105,171 106,172 Q106,173 106,173 L106,188 L105,215 M82,64 L99,56 Q101,54 99,52 L96,48 Q93,32 94,16 Q94,8 106,6 Q129,0 160,7 Q168,9 168,16 L168,39 Q168,40 169,41 Q170,40 171,39 Q177,14 196,7 Q204,3 204,-1 Q204,-7 195,-11 Q177,-19 150,-20 Q118,-21 99,-15 Q81,-7 78,12 Q77,24 78,51 Q79,59 79,63 Q79,64 80,65 Q80,65 82,64 M143,158 Q160,112 251,86 Q253,86 253,84 Q253,82 251,82 Q231,81 215,61 Q158,91 141,158 M49,52 Q49,54 50,53 Q51,53 52,51 Q62,16 54,2 Q44,-6 31,-6 Q25,-5 24,-1 Q24,1 29,6 Q45,23 49,52 M185,53 Q226,43 229,31 Q230,22 220,11 Q212,6 209,15 Q198,41 184,50 Q182,51 183,52 Q183,53 185,53 M119,71 Q146,59 147,50 Q149,39 136,33 Q128,29 127,37 Q124,60 115,69 Q115,72 119,71"/> 
            <glyph glyph-name="成" unicode="&#x6210;" horiz-adv-x="252" d=" M61,172 Q61,175 63,174 L88,160 L147,162 Q147,169 147,185 Q148,201 148,209 L173,200 Q175,199 173,197 L168,192 Q167,177 167,162 L209,163 L223,179 L241,162 Q243,159 240,159 L167,157 Q166,112 178,78 Q190,100 199,124 L218,111 Q222,108 218,106 Q218,105 216,103 Q215,101 214,100 Q201,76 187,57 Q201,30 225,15 Q231,11 235,16 L245,26 Q246,27 248,27 Q250,26 249,24 Q239,9 247,-2 Q252,-14 246,-19 Q239,-24 226,-18 Q191,-2 170,38 Q140,4 71,-29 Q70,-30 69,-28 Q69,-27 70,-26 Q130,9 164,55 Q148,99 148,156 L85,155 L85,114 L85,113 L111,114 L119,126 L139,116 Q141,115 139,113 L133,103 L133,75 L134,56 Q132,31 106,15 Q104,14 103,15 Q101,16 102,18 Q104,30 94,32 Q92,36 95,36 Q112,34 110,49 L112,109 L85,108 Q89,37 4,-22 Q2,-23 2,-21 Q1,-20 3,-19 Q39,11 51,42 Q63,71 63,127 L63,142 M189,197 Q208,192 210,187 Q209,180 203,174 Q199,171 197,176 Q195,181 190,190 Q188,194 187,196 Q187,197 189,197"/> 
            <glyph glyph-name="所" unicode="&#x6240;" horiz-adv-x="250" d=" M144,195 L163,184 Q188,198 202,211 Q206,213 207,211 L224,189 Q225,187 224,187 Q224,186 222,186 Q213,185 174,179 Q167,178 164,177 L163,176 L163,130 L218,131 L232,146 L249,130 Q250,129 250,128 Q250,127 248,127 L199,125 L216,115 Q219,114 216,110 L210,103 L211,2 Q211,-13 195,-22 Q189,-25 188,-21 L187,125 L163,125 Q164,56 142,27 Q121,-3 54,-29 Q52,-29 52,-28 Q52,-27 53,-26 Q115,5 128,31 Q143,55 142,132 L142,164 Q142,185 142,193 Q142,196 144,195 M115,201 Q117,203 117,203 Q118,203 119,201 L129,184 Q130,181 127,181 Q88,174 71,172 L71,135 L102,135 L111,146 L130,135 Q132,134 130,131 L125,125 L124,81 L127,77 Q128,73 125,73 Q112,74 68,74 Q64,7 4,-26 Q1,-28 2,-25 Q35,2 43,30 Q53,54 52,124 L52,169 Q52,179 52,185 Q51,187 54,187 L71,178 Q98,187 115,201 M103,130 L71,130 L71,129 Q71,105 69,79 L102,80"/> 
            <glyph glyph-name="扫" unicode="&#x626B;" horiz-adv-x="239" d=" M65,213 L89,205 Q91,205 91,204 Q91,204 89,202 L86,194 L85,153 L96,154 L108,166 L123,153 Q124,151 122,150 L85,148 L84,100 Q102,108 119,115 Q121,114 120,112 Q116,109 108,104 Q101,99 84,87 L84,54 L85,15 Q86,-11 56,-29 Q53,-30 52,-29 Q51,-29 52,-26 Q52,-10 44,-7 Q42,-6 43,-5 Q43,-4 45,-4 Q66,-5 63,5 L63,72 Q36,53 30,46 Q28,44 28,45 Q28,44 27,46 L19,74 Q18,76 19,76 Q19,76 20,77 Q37,81 63,91 L63,147 L24,145 Q22,145 21,147 Q21,149 23,150 L63,152 L64,162 Q64,175 63,196 Q63,207 63,211 Q63,214 65,213 M125,91 Q122,91 122,94 Q122,97 124,97 L203,98 L204,167 L123,165 Q120,166 120,168 Q120,171 122,171 L204,173 L214,188 L236,175 Q239,174 237,172 L229,161 L228,49 L229,8 Q227,-5 212,-21 Q208,-24 206,-21 Q202,-7 196,0 L113,-1 Q110,-1 110,1 Q110,3 113,3 L202,4 L203,92"/> 
            <glyph glyph-name="拔" unicode="&#x62D4;" horiz-adv-x="250" d=" M136,212 Q136,215 138,213 L165,202 Q168,200 165,197 L160,190 L159,155 Q159,152 159,148 L212,150 L225,163 L242,148 Q243,146 240,145 L159,143 Q158,125 155,108 L198,109 L209,119 L229,106 Q231,104 229,103 L221,95 Q205,59 181,32 Q203,7 248,-7 Q250,-8 250,-9 Q250,-10 248,-10 Q230,-11 214,-29 Q184,-5 170,20 Q148,-2 99,-31 Q94,-33 97,-29 Q141,4 164,35 Q156,55 150,82 Q134,20 57,-32 Q54,-33 54,-32 Q53,-31 54,-29 Q139,30 137,143 Q129,142 118,141 Q120,141 114,140 L106,147 L137,148 Q137,151 137,155 L138,176 Q138,195 136,212 M57,212 L80,203 Q83,203 80,199 L76,192 L76,154 L84,154 L95,167 L111,153 Q113,150 110,150 L76,148 L75,105 Q89,111 102,117 Q104,118 104,117 Q104,115 103,114 Q87,104 75,95 L75,71 L76,25 Q77,-2 46,-19 Q44,-20 43,-20 Q42,-19 42,-16 Q42,-3 34,1 Q32,5 35,5 Q58,1 55,15 L55,80 Q43,72 28,59 Q27,58 26,57 Q24,54 22,57 L14,83 Q13,85 15,86 Q31,89 55,98 L55,146 L46,146 Q29,145 20,142 L12,150 L55,153 L55,161 Q55,195 55,210 Q54,213 57,212 M152,84 Q159,62 171,45 Q186,70 199,103 L154,102 Q154,101 154,100 Q153,93 150,83 M183,199 Q209,191 212,180 Q214,171 204,164 Q197,162 195,167 Q193,184 182,197 Q181,200 183,199"/> 
            <glyph glyph-name="挥" unicode="&#x6325;" horiz-adv-x="251" d=" M127,134 Q125,134 119,133 Q109,132 105,131 L98,139 L131,140 Q139,163 141,180 L165,168 Q168,167 166,164 L162,157 Q161,155 159,151 Q155,144 152,140 L200,141 L213,155 L230,139 Q231,137 228,136 L149,134 Q135,111 120,87 L156,88 L156,89 L155,121 L180,111 Q182,111 182,110 Q182,110 180,108 L177,103 L177,88 L200,89 L213,102 L228,87 Q229,85 226,84 L177,83 L177,49 L220,50 L233,64 L249,48 Q251,46 250,45 Q250,46 249,45 L177,43 L177,40 L178,-2 Q179,-13 161,-29 Q155,-32 155,-28 L156,39 L156,43 L121,42 Q103,42 93,39 L86,47 L156,48 L156,82 L106,81 Q104,80 103,84 Q103,86 106,87 Q111,89 113,94 Q123,114 129,134 M56,211 L77,201 Q80,200 78,198 L74,190 L73,157 L77,157 L86,168 L100,155 Q101,153 98,152 L73,151 L73,104 Q86,110 101,116 Q103,116 103,115 Q103,114 102,113 Q85,103 73,92 L72,65 L74,17 Q74,-9 46,-26 Q44,-27 42,-27 Q41,-26 42,-24 Q42,-11 34,-5 Q33,-4 33,-3 Q34,-1 35,-2 Q56,-3 53,7 L54,78 Q36,65 28,57 Q25,55 24,58 L16,83 Q16,85 17,85 Q21,86 31,90 Q46,94 54,97 L54,150 L50,150 Q37,149 24,147 L17,154 L54,156 L54,160 Q54,194 53,209 Q53,212 56,211 M209,194 L219,202 L241,182 Q244,176 237,176 Q221,174 204,161 Q201,160 202,163 L210,188 L128,186 Q124,163 106,150 Q103,148 102,151 Q99,163 103,171 Q116,183 116,197 Q116,198 116,199 Q115,200 117,199 Q118,199 118,199 Q122,198 128,191"/> 
            <glyph glyph-name="据" unicode="&#x636E;" horiz-adv-x="247" d=" M156,98 Q137,98 129,95 L123,101 Q122,27 43,-35 Q41,-36 40,-35 Q39,-33 41,-32 Q79,3 93,39 Q99,57 102,78 Q105,97 104,130 L104,173 L103,203 Q102,206 104,205 L126,194 L204,195 L214,205 L232,193 Q234,192 232,189 L227,183 L227,152 L228,149 Q229,147 227,147 Q219,147 205,148 Q191,148 184,148 L123,147 L123,124 Q123,114 123,103 L166,103 L167,112 L167,147 L192,136 Q194,136 192,134 L189,126 L187,104 L216,104 L229,119 L246,103 Q247,102 247,101 Q246,100 244,100 L187,99 L184,53 L199,54 L209,65 L230,52 Q232,51 230,50 L223,41 L224,-4 L225,-7 Q226,-8 224,-9 Q214,-8 186,-9 Q163,-9 148,-9 Q146,-18 137,-27 Q133,-30 131,-26 L132,14 L132,35 Q132,40 131,53 Q131,59 131,61 Q131,62 133,62 L149,52 L165,53 L166,98 M50,213 L71,205 Q74,205 71,201 L68,194 L67,157 L74,157 L83,168 L96,156 Q98,153 95,153 L67,152 L67,110 Q71,112 80,116 Q87,119 90,121 Q94,122 91,119 Q89,117 85,114 Q78,109 67,100 L66,62 L67,27 Q68,-3 40,-17 Q38,-18 37,-18 Q36,-17 36,-14 Q38,-3 29,2 Q27,6 30,6 Q50,3 48,16 L48,84 Q31,71 25,63 Q23,61 21,63 L14,88 Q13,89 15,89 Q23,91 48,102 L48,151 L43,151 Q40,151 36,150 Q24,150 20,148 L14,155 L48,156 L48,162 Q48,196 47,211 Q47,214 50,213 M123,188 L123,153 L204,154 L205,189 M150,-2 Q150,-3 150,-3 Q149,-4 149,-4 L200,-3 L200,48 L150,47"/> 
            <glyph glyph-name="接" unicode="&#x63A5;" horiz-adv-x="250" d=" M56,211 L79,203 Q82,203 79,199 L76,192 L75,154 L82,154 L93,166 L107,153 Q108,152 108,151 Q108,150 106,150 L75,148 L74,108 Q89,114 104,120 Q106,120 105,117 L100,113 L132,114 Q132,149 130,162 Q130,165 132,164 L149,156 Q149,156 150,155 Q151,155 151,153 L150,115 L178,115 L180,136 Q180,142 181,153 Q182,164 181,168 Q182,170 183,168 L205,159 Q208,157 206,157 L202,150 L195,116 L215,116 L228,131 L245,114 Q247,112 244,112 L154,110 L173,100 Q175,100 173,97 L167,92 L153,73 L219,75 L232,89 L249,73 Q250,71 248,71 L198,69 L210,62 Q211,62 211,60 L207,57 Q191,35 177,22 Q221,11 227,4 Q232,-4 230,-19 Q225,-29 217,-22 Q201,-3 166,12 Q131,-12 65,-34 Q62,-35 61,-33 Q61,-32 63,-29 Q120,-8 151,19 Q142,23 124,27 Q118,29 115,30 Q123,46 132,67 L126,67 Q112,66 101,64 L93,71 L135,72 Q145,100 149,109 L128,109 Q108,108 100,105 L95,110 Q85,102 74,96 L74,64 L75,16 Q75,-11 47,-28 Q45,-29 43,-28 Q42,-27 43,-25 Q43,-12 35,-6 Q34,-5 34,-4 Q34,-3 36,-3 Q56,-3 54,6 L54,81 Q44,74 32,63 Q29,61 28,60 Q25,57 24,60 L15,86 Q15,88 17,88 Q19,89 22,90 Q31,92 54,101 L55,147 L49,146 Q33,146 23,143 L15,151 L55,153 L55,160 Q55,173 54,194 Q54,205 54,209 Q54,212 56,211 M124,33 Q128,32 135,31 Q150,27 158,26 Q176,45 187,69 L149,68 M139,171 Q136,171 131,170 Q119,170 113,168 L104,175 L154,176 L155,211 L181,205 Q184,204 181,200 L178,193 L177,176 L201,177 L213,189 L228,175 Q230,173 227,173"/> 
            <glyph glyph-name="控" unicode="&#x63A7;" horiz-adv-x="253" d=" M54,213 L77,205 Q79,204 79,204 Q79,204 77,202 L74,194 L73,158 L80,159 L92,172 L107,158 Q109,155 106,155 L73,153 L72,104 Q79,107 91,113 Q98,116 101,117 Q103,118 103,117 Q103,115 102,114 Q86,104 72,93 L71,51 L72,15 Q73,-10 44,-28 Q42,-29 41,-28 Q40,-28 41,-25 Q41,-13 33,-7 Q31,-4 34,-3 Q53,-5 51,5 L52,78 Q48,75 40,69 Q25,57 22,54 Q20,52 20,53 Q20,52 19,54 L11,80 Q11,82 13,82 Q26,85 52,96 L52,152 L17,150 Q15,150 14,152 Q14,154 16,155 L52,157 L52,162 Q53,178 52,201 Q52,208 52,211 Q51,214 54,213 M116,69 Q113,69 112,71 Q112,73 115,74 L197,77 L210,90 L227,75 Q228,74 228,74 Q228,73 226,72 L180,71 L179,-8 L219,-7 L234,5 L252,-9 Q253,-11 251,-12 L127,-16 Q108,-16 98,-18 L91,-11 L155,-9 L156,70 M215,170 L225,179 L247,159 Q249,157 248,155 Q247,154 244,154 Q230,153 210,140 Q207,138 208,141 L216,165 L129,161 Q124,136 103,124 Q100,122 99,125 Q94,137 99,140 Q114,155 115,172 Q116,175 119,174 Q125,170 128,165 L158,167 L159,212 L184,205 Q186,204 184,202 L182,196 L181,168 M145,147 L163,133 Q163,132 162,130 Q126,94 92,70 Q90,70 91,72 Q121,99 143,146 Q143,149 145,147 M176,141 Q179,140 185,138 Q213,129 226,120 Q232,111 225,97 Q218,88 212,99 Q196,124 176,139 Q175,140 176,141"/> 
            <glyph glyph-name="文" unicode="&#x6587;" horiz-adv-x="252" d=" M52,155 Q28,154 20,151 L12,160 L115,162 L113,204 Q113,207 115,206 L144,197 Q147,196 145,193 Q142,190 142,180 L142,162 L212,164 L226,179 L246,162 Q247,160 244,159 L176,157 L197,148 Q198,148 199,147 Q199,147 198,145 L193,140 Q174,85 142,48 Q187,13 250,-5 Q252,-6 252,-7 Q251,-9 248,-9 Q232,-6 208,-31 Q155,-5 125,30 Q88,-5 13,-32 Q11,-33 10,-31 Q9,-30 11,-28 Q76,-6 115,44 Q84,86 75,147 L78,147 Q85,100 127,61 Q152,100 168,157"/> 
            <glyph glyph-name="日" unicode="&#x65E5;" horiz-adv-x="213" d=" M187,198 L210,186 Q212,185 212,184 Q213,184 211,182 L204,173 L207,28 Q207,8 185,-15 Q181,-18 179,-16 Q177,-15 176,-10 Q174,0 169,14 Q167,17 167,18 L77,16 L77,10 Q75,-4 60,-18 Q57,-21 56,-21 Q54,-20 53,-17 L54,48 L55,153 Q55,162 54,180 Q54,193 54,198 Q54,200 55,200 L79,186 L79,182 L176,183 M77,176 L77,110 L164,111 Q167,110 168,108 Q168,106 165,105 L77,103 L77,23 L174,25 Q177,26 177,32 L177,177"/> 
            <glyph glyph-name="时" unicode="&#x65F6;" horiz-adv-x="248" d=" M114,177 Q116,176 114,174 L108,166 L108,74 L109,30 Q106,10 93,-2 Q89,-6 87,-5 Q84,-4 84,0 Q82,16 78,25 L50,25 L50,21 Q50,5 36,-10 Q34,-12 32,-12 Q30,-11 30,-8 L31,40 L32,148 Q32,157 31,175 Q31,185 31,188 Q31,189 32,190 Q32,190 34,189 L52,176 L84,177 L93,189 M148,138 Q134,138 121,136 L111,143 L180,145 L181,161 Q181,174 180,195 Q180,206 180,210 Q180,212 180,212 Q181,213 183,212 L208,202 Q210,202 208,199 L205,191 L205,146 L216,146 L229,161 L246,146 Q248,143 245,142 L205,141 L204,62 L205,19 Q207,-10 170,-27 Q166,-28 166,-25 Q167,-10 157,-5 Q155,-1 159,-1 Q183,-3 180,5 L180,140 M50,165 L50,108 L75,109 Q80,107 75,103 L50,103 L50,30 L83,31 L84,172 L52,171 M126,114 Q160,96 161,86 Q161,75 150,69 Q140,65 140,73 Q135,99 124,112 Q124,112 124,113 Q123,114 126,114"/> 
            <glyph glyph-name="智" unicode="&#x667A;" horiz-adv-x="241" d=" M62,136 Q44,135 35,132 L28,139 L94,142 Q98,157 98,177 L79,177 Q63,158 42,143 Q39,142 40,145 Q70,175 80,213 L96,202 Q98,201 96,199 L92,196 Q88,188 82,182 L126,182 L136,194 L150,180 Q152,180 149,178 L116,178 Q116,157 113,142 L129,143 L139,154 L153,141 Q155,139 153,139 L112,137 Q110,134 108,126 Q108,125 108,124 Q136,116 139,108 Q141,99 131,91 Q126,88 123,94 Q118,110 106,121 Q98,102 83,90 L99,82 L175,82 L188,94 L208,78 Q210,77 208,75 L202,67 L202,9 Q202,-8 185,-22 Q181,-27 178,-21 Q171,-6 168,-3 L97,-5 Q93,-13 84,-22 Q80,-25 78,-20 L79,69 L78,86 Q59,71 7,54 Q5,53 4,55 Q4,57 6,58 Q84,85 93,137 M177,1 L178,71 Q178,78 166,78 L98,77 L98,44 L160,46 Q163,46 163,44 Q163,41 160,41 L98,40 L97,0 M221,191 L239,178 Q241,177 239,176 L234,169 L234,129 L235,126 Q236,126 234,125 Q217,125 177,123 L177,115 Q178,105 165,95 Q162,93 161,94 Q160,94 160,96 L160,164 Q160,169 159,181 Q159,187 159,189 Q159,190 160,191 Q160,191 162,190 L177,181 L213,182 M177,178 L177,128 L214,130 L213,179"/> 
            <glyph glyph-name="曲" unicode="&#x66F2;" horiz-adv-x="224" d=" M200,173 L221,162 Q224,161 221,158 L216,149 L216,65 L218,15 Q219,-9 198,-26 Q195,-29 193,-28 Q190,-28 190,-24 Q190,-10 186,0 L65,0 Q63,-14 51,-26 Q48,-29 47,-29 Q45,-28 45,-25 L46,128 Q46,149 44,168 Q44,171 46,170 L67,157 L95,157 L94,208 Q94,211 96,210 L119,201 Q122,199 119,196 Q118,192 116,180 L116,157 L140,158 L140,213 Q140,216 142,215 L167,205 Q170,203 167,200 Q164,196 163,184 L163,158 L190,158 M185,93 Q188,93 188,90 Q188,87 185,87 L163,87 L162,6 L193,6 L191,152 L163,151 L163,92 M65,86 L65,5 L96,6 L95,86 M115,86 L114,6 L140,6 L140,86 M95,146 L95,150 L66,150 L65,91 L95,92 M116,150 L115,92 L140,92 L140,151"/> 
            <glyph glyph-name="最" unicode="&#x6700;" horiz-adv-x="248" d=" M138,48 L139,44 L124,39 L124,35 L125,-1 Q123,-14 110,-27 Q108,-29 105,-29 Q103,-29 103,-26 L103,32 L56,16 Q49,14 41,10 Q40,9 39,9 Q35,6 34,9 L23,27 Q23,29 24,29 Q27,29 32,30 Q42,31 48,32 L52,33 L51,116 L49,116 Q32,116 22,113 L14,120 L208,123 L222,137 L240,121 Q240,119 239,119 L116,117 L126,111 Q127,110 127,108 L125,102 L124,45 M79,129 Q76,127 75,127 Q73,128 73,131 L73,189 Q73,203 72,207 Q72,210 75,209 L91,198 L169,200 L177,210 L197,200 Q198,199 198,197 L193,190 L194,173 L194,156 Q194,146 183,132 Q178,128 175,132 Q172,136 168,144 L90,142 Q88,135 79,129 M137,91 Q133,91 136,96 L198,98 L207,108 L226,95 Q228,94 226,92 L220,86 Q204,49 187,27 Q211,6 246,-6 Q248,-6 246,-9 Q234,-10 218,-26 Q190,-8 174,12 Q152,-8 118,-29 Q115,-31 116,-27 Q156,4 168,23 Q152,50 147,91 M170,196 L91,194 L91,174 L162,176 Q164,176 163,174 Q163,172 161,172 L91,170 L91,147 L170,149 M94,92 L69,91 L68,68 L94,69 Q96,69 96,67 Q96,65 94,64 L68,63 L68,35 L103,41 L104,117 L69,117 L69,96 L94,97 Q97,97 97,95 Q97,92 94,92 M197,93 L150,91 Q158,59 177,38 Q188,59 197,93"/> 
            <glyph glyph-name="根" unicode="&#x6839;" horiz-adv-x="249" d=" M212,98 Q209,98 199,98 Q166,99 141,98 L141,6 L174,24 L176,22 L125,-24 Q122,-27 121,-24 L111,-7 Q110,-6 111,-4 L122,0 L122,175 L121,203 Q121,205 122,205 Q123,205 124,204 L142,191 L189,192 L199,204 L218,191 Q220,190 220,190 Q220,189 218,188 L212,179 L212,103 L214,100 Q215,97 212,98 M64,214 L87,203 Q89,202 87,200 L83,193 L83,150 L93,151 L104,161 L118,148 Q119,146 116,146 L83,145 L83,115 Q103,107 110,99 Q110,91 102,85 Q96,81 95,87 Q90,103 83,111 L82,45 L84,1 Q82,-13 69,-25 Q63,-29 62,-23 L63,47 L63,92 Q39,58 5,22 Q4,20 3,21 Q1,22 2,24 Q38,70 63,144 L56,144 Q41,144 28,142 L20,150 L63,150 L63,179 Q63,188 62,202 Q62,210 62,213 Q62,215 64,214 M183,147 L141,147 L141,102 L188,104 L189,187 L142,186 L141,151 L183,152 Q185,152 185,150 Q185,148 183,147 M168,91 Q174,38 247,-1 Q249,-2 247,-5 Q227,-1 212,-18 Q172,19 165,91 M220,92 L235,76 Q237,73 234,72 Q226,70 207,64 Q193,60 183,57 L183,59 Q209,78 220,92"/> 
            <glyph glyph-name="每" unicode="&#x6BCF;" horiz-adv-x="244" d=" M53,79 Q50,79 43,78 Q30,78 25,76 L17,84 L64,84 L67,130 L69,158 L91,146 L171,148 L180,159 L204,143 Q206,142 204,139 L196,132 L195,87 L209,87 L224,102 L242,86 Q244,83 241,82 L195,81 L193,18 L201,19 L216,32 L232,17 Q234,14 231,14 L193,13 Q191,-18 162,-32 Q158,-33 158,-30 Q157,-18 149,-14 Q147,-14 148,-12 Q148,-11 150,-11 Q167,-12 167,3 L167,13 L78,12 Q74,4 61,-1 Q58,-4 57,-1 L60,33 L63,79 M84,79 L79,17 L167,18 L169,81 M88,140 L84,85 L169,86 L170,142 M78,216 L101,202 Q103,201 100,198 L95,192 Q93,190 90,186 Q86,181 84,179 L193,180 L209,197 L228,178 Q230,177 227,176 L79,173 Q54,144 13,110 Q10,108 11,112 Q57,163 74,214 Q75,217 78,216 M113,70 Q145,55 144,46 Q142,35 130,30 Q123,28 122,35 Q118,55 111,69 Q110,72 113,70 M113,135 Q144,121 142,111 Q140,100 128,97 Q121,96 121,102 Q119,122 111,133 Q111,136 113,135"/> 
            <glyph glyph-name="法" unicode="&#x6CD5;" horiz-adv-x="242" d=" M174,40 Q173,44 177,44 Q214,21 218,1 Q218,-19 197,-26 Q187,-26 187,-16 Q187,-12 186,-6 Q186,0 186,1 Q123,-7 88,-19 Q84,-21 82,-18 L75,-4 Q74,-1 76,0 Q88,0 95,5 Q119,34 133,85 L102,85 Q83,84 75,81 L67,90 L131,91 L133,147 L119,147 Q103,147 92,144 L84,152 L133,153 L134,181 Q134,187 133,197 Q133,208 132,212 L161,205 Q164,205 161,201 Q157,195 156,185 L156,154 L189,155 L202,169 L219,154 Q222,151 218,150 L155,148 L154,91 L209,92 L223,108 L241,91 Q242,89 239,88 L146,86 L161,74 Q163,72 160,69 Q142,49 115,4 L185,7 Q183,25 174,40 M69,125 L49,19 Q47,8 48,2 Q48,-3 51,-9 Q53,-15 49,-20 Q43,-27 34,-28 Q28,-29 28,-22 Q28,-20 28,-14 Q29,-8 29,-5 Q30,3 22,6 Q20,7 22,8 Q30,7 32,15 L66,126 Q67,128 68,127 Q69,127 69,125 M52,192 Q82,179 83,164 Q82,153 70,148 Q63,146 59,154 Q56,179 49,190 Q48,191 49,192 Q50,193 52,192 M21,127 Q50,114 50,100 Q49,89 38,86 Q29,85 28,93 Q27,112 18,125 Q19,128 21,127"/> 
            <glyph glyph-name="海" unicode="&#x6D77;" horiz-adv-x="249" d=" M128,216 L148,200 Q149,199 148,197 Q149,199 147,196 L141,191 Q135,185 129,179 L199,180 L214,197 L233,179 Q235,178 232,176 L123,174 Q112,165 103,156 L121,147 L187,148 L197,157 L217,142 Q219,141 217,138 L210,132 L208,87 L216,87 L229,101 L247,86 Q249,83 246,83 L208,82 L207,20 L216,20 L228,32 L244,18 Q246,16 243,16 L207,15 Q206,-16 177,-31 Q174,-32 174,-29 Q173,-17 165,-14 Q164,-13 164,-12 Q165,-10 166,-11 Q182,-11 182,4 L182,14 L109,13 Q106,7 93,0 Q88,-3 88,0 L91,34 L95,79 Q92,79 87,78 Q76,78 72,76 L65,84 L95,84 L99,131 L100,154 Q86,143 74,134 Q71,133 72,136 Q111,177 124,215 Q125,218 128,216 M114,79 L110,18 L182,20 L184,81 M118,141 L114,85 L184,87 L186,143 M68,138 L46,23 Q45,19 45,7 Q45,2 48,-2 Q49,-3 49,-4 Q51,-12 48,-16 Q42,-22 31,-24 Q25,-24 26,-17 Q26,-14 27,-8 Q28,0 28,9 Q28,19 19,23 Q17,24 19,25 Q28,24 30,32 L65,138 Q66,139 67,140 Q68,139 68,138 M48,204 Q79,191 79,176 Q78,165 66,160 Q58,158 56,166 Q53,190 45,202 Q45,205 48,204 M17,139 Q46,127 46,112 Q45,101 34,98 Q26,97 24,105 Q23,123 15,137 Q14,140 17,139 M136,70 Q166,56 165,46 Q163,35 152,30 Q145,29 144,35 Q144,37 143,40 Q139,60 134,68 Q133,71 136,70 M137,133 Q164,120 163,110 Q162,102 151,97 Q145,95 144,102 Q142,123 135,131 Q135,134 137,133"/> 
            <glyph glyph-name="温" unicode="&#x6E29;" horiz-adv-x="251" d=" M102,-9 Q99,-9 94,-9 Q76,-10 68,-13 L59,-5 L93,-4 L91,65 L90,93 Q90,95 92,94 L110,85 L185,88 L194,100 L214,88 Q217,87 215,84 L209,77 L208,-1 L218,-1 L231,12 L250,-3 Q251,-6 249,-6 M117,119 Q114,113 104,106 Q102,105 101,105 Q100,106 100,108 L100,179 Q100,182 99,190 Q99,195 99,197 Q99,199 101,198 L116,190 L175,192 L183,203 L203,193 Q205,193 203,190 L198,183 L199,132 Q197,120 186,109 Q182,103 178,108 Q172,118 171,120 M175,187 L116,186 L116,157 L164,159 Q167,159 167,157 Q167,155 164,155 L116,153 L116,123 L175,125 M77,140 L49,24 Q47,14 47,7 Q48,3 49,-1 Q51,-3 51,-5 Q55,-12 50,-16 Q46,-22 34,-24 Q27,-24 28,-17 Q28,-16 28,-14 Q30,5 29,9 Q29,21 16,25 Q15,26 15,27 Q15,28 16,28 Q30,26 32,33 L75,141 Q76,144 77,140 M110,80 L110,-3 L127,-3 L125,81 M186,82 L171,82 L170,-2 L186,-2 M141,81 L140,-3 L156,-2 L155,81 M35,200 Q69,191 71,179 Q72,166 61,161 Q54,158 50,165 Q43,188 34,198 Q32,201 35,200 M18,141 Q48,127 48,112 Q47,101 36,98 Q27,97 25,105 Q24,125 15,138 Q15,142 18,141"/> 
            <glyph glyph-name="火" unicode="&#x706B;" horiz-adv-x="251" d=" M209,155 L229,134 Q231,132 230,132 Q230,131 228,130 Q224,130 216,126 L159,93 Q177,38 248,0 Q251,-2 247,-4 Q232,-2 211,-19 Q136,33 141,152 Q141,172 140,183 L138,182 Q134,92 109,53 Q88,15 9,-30 Q8,-31 7,-30 Q6,-29 7,-27 Q75,18 94,63 Q117,108 116,206 Q116,209 116,209 Q117,210 119,209 L149,193 Q152,191 149,189 L144,186 Q147,127 157,97 Q189,131 209,155 M68,156 Q71,160 73,157 Q85,111 76,93 Q65,81 46,80 Q32,86 43,97 Q65,118 68,156"/> 
            <glyph glyph-name="烧" unicode="&#x70E7;" horiz-adv-x="255" d=" M136,67 Q117,66 108,63 L99,71 L205,75 L219,89 L236,73 Q238,71 235,71 L188,69 L179,22 Q176,9 193,8 Q206,7 221,10 Q234,12 237,26 Q238,28 239,27 Q240,27 240,25 Q239,14 246,8 Q255,-2 240,-12 Q223,-18 196,-17 Q164,-13 165,21 L169,68 L143,67 L159,58 Q162,58 160,54 Q132,7 76,-33 Q75,-34 74,-33 Q73,-32 74,-30 Q122,9 138,67 M100,167 L116,153 Q117,152 116,152 Q117,152 115,151 L110,148 Q95,133 81,122 Q80,82 73,55 Q106,37 109,26 Q109,16 99,9 Q93,6 91,12 Q84,35 72,50 Q60,6 4,-27 Q2,-27 1,-26 Q1,-24 3,-23 Q38,0 50,33 Q63,66 63,131 L63,186 L62,215 L85,203 Q86,202 86,200 L82,196 L81,132 L81,131 Q95,154 100,167 M132,213 L154,205 Q156,202 154,201 L152,198 Q154,185 159,174 L198,180 L208,195 L227,181 Q229,180 227,178 L162,168 Q170,154 182,142 Q195,155 204,167 L219,152 Q221,151 220,150 Q220,149 218,148 Q208,139 196,131 Q207,122 221,116 Q225,114 229,117 L235,123 Q238,124 237,121 Q234,114 239,104 Q244,95 236,90 Q229,86 218,92 Q192,105 178,119 Q145,98 103,81 Q100,82 102,83 Q141,104 168,128 Q155,144 145,166 L143,166 Q129,164 116,160 L107,166 L143,172 Q135,190 132,213 M45,163 Q54,130 47,103 Q42,95 34,90 Q26,87 23,90 Q19,93 23,99 Q42,126 42,162 Q42,163 44,164 Q45,164 45,163"/> 
            <glyph glyph-name="热" unicode="&#x70ED;" horiz-adv-x="243" d=" M137,211 L160,203 L158,195 L157,167 L182,168 L191,181 L211,170 Q213,169 211,167 L204,158 Q196,103 223,78 Q227,74 230,78 L238,86 Q239,87 241,87 Q242,87 241,85 Q235,74 237,64 Q243,51 236,45 Q228,40 217,48 Q175,78 183,163 L157,162 L157,141 Q157,128 153,114 Q171,107 174,104 Q178,89 171,79 Q168,76 162,81 Q155,90 145,98 Q125,65 75,37 Q73,36 73,38 Q72,39 74,40 Q120,73 133,109 Q119,120 106,126 Q104,129 107,129 Q113,127 128,122 Q134,121 136,120 Q137,126 138,138 Q139,144 139,147 L139,161 Q133,160 126,158 Q122,157 120,157 L113,164 L139,166 L139,184 M81,205 Q84,205 82,201 L78,194 L78,164 L86,164 L95,176 L110,164 Q111,161 109,160 L78,159 L77,134 Q84,136 99,142 Q105,144 108,145 Q110,144 108,142 Q104,139 96,135 Q83,128 77,124 L79,83 Q79,53 50,38 Q47,37 47,41 Q49,53 40,58 Q39,59 39,61 Q39,62 41,61 Q60,60 58,72 L58,113 Q39,101 31,94 Q29,92 28,93 Q28,93 27,95 L20,117 Q19,119 21,119 Q34,121 58,128 L58,158 L23,157 Q20,156 20,159 Q19,162 22,162 L58,163 L58,173 L57,213 M181,36 Q211,25 222,12 Q233,3 224,-6 Q220,-12 215,-15 Q204,-22 200,-10 Q195,16 182,33 Q181,34 180,35 Q179,37 181,36 M53,34 Q63,14 55,-5 Q47,-22 33,-21 Q24,-10 34,2 Q49,15 50,33 Q50,36 53,34 M138,28 Q138,31 142,30 Q165,14 167,3 Q169,0 166,-3 Q163,-9 157,-11 Q145,-15 145,-6 Q143,14 138,28 M94,27 Q94,29 97,28 Q118,9 118,0 Q118,-4 114,-8 Q112,-13 104,-15 Q92,-18 93,-8 Q97,11 94,27"/> 
            <glyph glyph-name="烹" unicode="&#x70F9;" horiz-adv-x="239" d=" M179,175 L199,162 Q201,162 199,160 L193,152 L193,134 L194,131 Q195,130 194,130 Q192,130 182,130 Q121,131 85,130 Q83,127 76,120 Q70,118 70,121 L70,147 Q71,160 69,172 Q69,174 72,173 L89,165 L169,166 M123,101 L146,92 L169,110 L67,109 Q54,109 47,106 L40,114 L173,115 L185,125 L205,109 Q207,107 206,106 Q206,104 203,104 Q184,103 148,87 Q147,85 145,81 Q144,80 144,79 L144,59 Q144,38 117,20 Q115,19 114,19 Q113,20 113,22 Q115,34 102,42 Q100,46 103,46 Q125,44 122,54 L123,74 L122,99 Q121,102 123,101 M59,180 Q40,179 30,177 L24,185 L119,185 L118,212 Q118,215 120,214 L147,206 Q149,206 147,203 Q144,197 144,191 L144,186 L205,186 L221,201 L237,184 Q239,182 236,182 M89,139 Q89,138 88,135 L171,136 L171,160 L89,159 M187,28 Q213,16 225,4 Q231,0 225,-10 Q221,-16 216,-19 Q206,-26 203,-14 Q198,14 186,27 Q185,29 187,28 M65,28 Q75,9 68,-11 Q61,-26 47,-27 Q38,-16 46,-3 Q62,7 63,27 Q63,29 65,28 M145,24 Q145,26 148,25 Q172,9 175,-1 Q177,-11 164,-18 Q152,-23 152,-12 Q152,6 145,24 M103,20 Q103,22 104,23 Q105,23 106,22 Q126,4 126,-4 Q125,-15 113,-19 Q101,-23 102,-12 Q106,3 103,20"/> 
            <glyph glyph-name="煲" unicode="&#x7172;" horiz-adv-x="248" d=" M127,139 Q108,138 98,135 L91,142 L151,144 L151,165 Q142,165 132,165 Q130,158 122,153 Q120,151 118,152 Q117,152 117,154 L117,174 L117,186 Q117,202 116,207 Q116,208 119,208 L134,199 L184,200 L192,210 L211,200 Q211,199 211,198 L206,191 L206,170 L207,167 Q207,167 206,166 Q193,166 160,165 L168,163 Q173,162 171,158 L171,145 L206,146 L218,158 L233,144 Q235,143 233,142 L171,140 L171,129 L171,99 Q171,89 157,75 Q151,72 150,77 L151,108 L151,122 Q122,96 81,79 Q79,79 80,81 Q113,101 144,139 M196,73 L214,57 Q217,55 213,52 Q204,47 174,34 Q167,31 164,30 Q190,5 245,-3 Q248,-4 245,-7 Q227,-8 213,-28 Q150,-2 141,67 L140,67 Q142,-14 13,-32 Q11,-33 11,-31 Q10,-30 12,-29 Q123,-5 118,68 L118,86 L145,74 L142,70 Q147,48 161,34 Q185,55 196,73 M6,111 Q2,109 4,113 Q55,151 86,214 L105,204 Q108,201 105,200 L102,196 Q90,181 77,168 L79,95 Q78,82 65,65 Q61,62 59,67 L60,119 L61,152 Q37,132 6,111 M133,195 L133,169 L184,171 L184,196 M79,69 Q79,71 81,70 Q82,70 82,68 Q85,36 73,21 Q66,13 52,16 Q45,22 53,29 Q73,41 79,69 M178,133 Q180,132 183,131 Q224,117 226,109 Q227,101 219,92 Q213,87 210,93 Q199,116 177,130 Q176,131 176,132 Q176,133 178,133"/> 
            <glyph glyph-name="状" unicode="&#x72B6;" horiz-adv-x="254" d=" M141,212 L168,201 Q171,201 168,197 L165,190 L164,133 L205,134 L219,150 L237,132 Q240,130 236,130 L173,127 Q180,45 251,0 Q254,-2 250,-3 Q234,-2 217,-19 Q171,23 169,127 L164,127 L164,123 Q168,21 71,-32 Q69,-32 69,-30 Q68,-29 70,-28 Q145,16 143,126 L131,126 Q117,125 104,123 L95,131 L143,132 L143,174 Q141,197 141,212 M90,13 Q88,-1 74,-16 Q70,-20 67,-19 Q65,-19 65,-15 L67,58 L67,102 Q50,82 29,52 Q26,47 25,45 Q20,39 13,40 Q6,43 8,50 Q17,65 13,76 Q17,65 67,111 L67,178 Q67,205 66,214 L90,202 Q94,201 92,198 Q89,197 89,192 L89,62 M19,167 Q50,157 53,146 Q53,134 42,129 Q35,125 32,132 Q31,155 17,165 Q16,167 19,167 M186,185 Q211,176 211,166 Q210,159 200,154 Q194,150 193,158 Q192,172 185,184 Q184,186 186,185"/> 
            <glyph glyph-name="现" unicode="&#x73B0;" horiz-adv-x="250" d=" M151,170 L173,161 Q176,160 174,157 L170,150 Q169,123 166,101 L185,91 Q187,90 185,88 L181,81 L171,18 Q168,5 179,3 Q200,1 217,4 Q226,6 231,23 Q232,25 234,25 Q236,24 235,22 Q233,9 239,2 Q250,-12 231,-20 Q206,-25 179,-21 Q155,-15 158,16 L163,83 L163,86 Q157,20 55,-33 Q53,-34 53,-33 Q53,-31 54,-30 Q118,9 132,45 Q152,82 151,170 M218,186 L218,126 L219,89 Q218,74 201,59 Q196,54 194,60 L194,180 Q195,192 181,191 L134,189 L133,89 Q131,71 119,60 Q117,58 115,58 Q113,58 113,61 L114,115 L115,182 L114,206 L135,195 L187,197 L199,210 L223,198 Q225,197 225,197 Q225,196 223,195 M19,184 Q15,185 18,189 L83,191 L94,202 L109,190 Q111,188 109,187 L72,186 L70,118 L80,119 L91,129 L103,117 Q105,114 102,114 L70,113 L68,40 L106,50 Q109,51 108,48 L58,21 Q39,11 29,5 Q29,5 28,5 Q26,3 25,5 L12,23 Q11,25 11,25 Q12,26 13,26 Q27,28 46,34 L49,34 L50,112 L24,111 Q22,111 21,113 Q21,115 23,116 L50,117 L51,185"/> 
            <glyph glyph-name="电" unicode="&#x7535;" horiz-adv-x="255" d=" M200,144 L200,82 Q200,64 183,44 Q176,39 174,46 Q169,60 164,65 L122,63 L121,13 Q120,1 132,1 Q183,-1 214,6 Q229,7 239,33 Q240,35 241,35 Q242,34 242,32 Q238,11 247,5 Q255,-1 254,-9 Q251,-16 240,-18 Q195,-29 132,-22 Q103,-17 102,25 L102,63 L62,62 L61,54 Q56,42 45,33 Q39,30 38,35 L40,83 L40,136 L39,173 L62,160 L103,161 L103,175 Q103,186 102,202 Q102,209 102,211 Q101,215 104,213 L127,201 Q130,200 128,198 L125,190 L124,161 L169,162 L181,175 L207,157 Q208,156 208,154 M169,70 L171,148 Q171,156 161,156 L124,156 L123,118 L161,119 Q163,119 163,117 Q163,114 161,114 L123,113 L122,69 M62,112 L61,68 L102,69 L103,113 M62,155 L62,117 L103,118 L103,155"/> 
            <glyph glyph-name="的" unicode="&#x7684;" horiz-adv-x="237" d=" M81,213 L98,195 Q98,193 97,193 L89,190 Q67,176 47,166 L49,164 L49,161 L84,162 L94,173 L116,159 Q118,158 118,158 Q118,158 116,156 L109,147 L109,112 Q137,149 154,213 L176,200 Q177,200 178,199 Q177,198 176,197 L172,193 Q165,177 156,165 L201,167 L212,181 L235,166 Q237,165 235,163 L227,152 L225,65 L226,33 Q223,-10 182,-28 Q178,-29 179,-25 Q182,-8 172,-2 Q170,-1 171,0 Q171,0 173,0 Q202,0 200,22 L202,162 L153,159 Q135,132 109,106 L108,64 L110,25 Q108,7 98,-6 Q95,-10 92,-10 Q90,-10 89,-6 Q84,13 81,18 L46,18 L46,4 Q45,-13 32,-26 Q27,-29 27,-25 L29,45 L30,143 L29,173 Q30,176 33,175 L44,168 Q67,191 81,213 M48,155 L47,99 L77,100 Q79,101 79,98 Q79,95 77,95 L47,94 L46,24 L84,24 L86,156 M141,114 Q140,117 142,116 Q182,98 182,89 Q184,77 170,68 Q157,64 156,73 Q155,97 141,114"/> 
            <glyph glyph-name="相" unicode="&#x76F8;" horiz-adv-x="227" d=" M134,184 Q134,186 137,185 L156,173 L196,175 L204,187 L225,176 Q227,176 225,174 L219,165 L218,49 Q219,35 219,13 Q217,-5 204,-18 Q202,-21 200,-21 Q198,-20 198,-17 Q196,2 191,12 L153,10 Q152,-4 139,-22 Q137,-24 135,-24 Q133,-23 133,-20 L134,48 L136,137 Q136,168 134,184 M72,214 L97,203 Q99,201 97,201 L92,193 L92,151 L103,152 L116,164 L130,150 Q132,147 129,147 L91,146 L90,40 L91,-1 Q90,-15 75,-29 Q73,-32 71,-32 Q69,-32 69,-29 L71,42 L71,89 Q53,61 12,14 Q9,11 7,9 Q6,8 5,9 Q4,11 5,12 Q44,67 71,144 L71,145 L63,145 Q50,145 35,143 L28,150 L71,151 L71,179 Q71,202 71,213 Q71,215 72,214 M188,79 Q191,77 187,74 L154,72 L153,16 L190,17 Q196,18 195,24 L196,170 L156,169 L155,163 L154,125 L188,127 Q190,127 189,125 Q189,123 187,123 L154,121 L154,76 M95,115 Q124,106 129,95 Q129,86 118,79 Q112,75 110,82 Q106,103 94,113"/> 
            <glyph glyph-name="码" unicode="&#x7801;" horiz-adv-x="242" d=" M185,194 L123,192 Q120,194 123,197 L185,199 L195,211 L215,198 Q217,197 215,195 L208,186 L198,98 L209,98 L219,111 L240,98 Q242,98 240,95 L234,87 Q229,22 217,-2 Q209,-18 185,-28 Q179,-30 180,-25 Q182,-10 171,-4 Q170,-3 170,-2 Q171,0 172,-1 Q192,-6 193,-1 Q206,21 209,93 L141,91 Q138,84 126,76 Q122,74 121,79 L125,109 L127,137 Q130,166 129,173 L152,163 Q154,162 152,160 L150,156 L142,97 L175,98 M57,181 Q39,181 29,179 L22,185 L91,188 L102,199 L116,185 Q116,183 115,183 L65,182 L80,174 Q83,174 81,170 L78,166 Q77,164 74,159 Q68,149 54,129 L61,125 L80,125 L88,136 L107,126 Q109,125 107,124 L103,117 L103,48 L104,43 Q105,40 102,40 Q100,40 96,40 Q79,42 60,42 L60,29 Q59,12 48,0 Q47,0 46,0 Q44,-1 43,0 L44,40 L45,117 Q27,94 4,70 Q2,68 2,72 Q41,121 57,181 M61,120 L60,47 L81,48 L82,121 M145,42 Q129,42 115,40 L108,47 L170,48 L182,61 L199,46 Q199,44 198,44"/> 
            <glyph glyph-name="硬" unicode="&#x786C;" horiz-adv-x="250" d=" M145,187 Q125,185 118,184 L111,191 L211,194 L222,206 L238,193 Q239,191 239,191 Q238,190 237,190 L164,187 L175,180 L175,157 L203,158 L210,169 L233,158 Q233,158 234,157 Q235,157 234,155 L228,146 L229,99 Q228,84 215,72 Q211,67 207,72 Q203,82 199,88 L174,87 Q173,55 159,29 Q184,11 248,-4 Q250,-5 250,-6 Q250,-8 248,-8 Q232,-9 215,-28 Q172,-9 150,16 Q127,-13 59,-33 Q57,-33 56,-31 Q56,-30 58,-29 Q122,-9 142,28 Q132,46 126,67 L129,68 Q133,52 147,38 Q154,59 157,86 L136,86 Q132,76 125,71 Q123,70 121,70 Q120,71 120,73 L120,141 Q120,157 119,162 Q119,163 122,163 L135,156 L158,157 Q158,173 156,187 M102,41 Q101,41 98,41 Q81,43 62,42 L62,31 Q58,4 45,1 L46,42 L47,121 Q29,97 5,71 Q4,70 3,73 Q45,132 59,181 Q54,181 46,180 Q36,180 32,179 L26,185 L88,187 L100,198 L113,184 Q115,182 113,182 L67,181 L82,174 Q85,173 83,170 L79,166 Q70,151 54,129 L63,124 L81,125 L89,135 L107,125 Q109,125 107,123 L103,116 L103,49 L104,44 Q105,40 102,41 M174,100 Q174,95 174,92 L204,93 L205,153 L175,152 L174,127 L196,127 Q198,128 198,125 Q198,123 196,123 L174,122 M63,119 L62,48 L82,48 L83,120 M135,121 L136,91 L157,91 Q157,95 158,102 Q158,109 158,112 L158,122 M158,146 Q158,149 158,152 L135,151 L135,125 L158,126"/> 
            <glyph glyph-name="碗" unicode="&#x7897;" horiz-adv-x="259" d=" M125,70 Q126,69 129,68 Q131,68 135,65 Q143,92 144,115 L132,114 Q121,81 97,44 Q95,43 94,46 Q117,97 116,141 Q116,144 118,144 L136,134 Q139,133 137,131 Q136,125 133,119 L143,120 L152,130 L166,120 L166,126 Q166,129 168,127 L188,118 L201,119 L212,129 L228,116 Q230,114 228,112 L224,108 L223,59 Q222,43 205,32 Q201,31 201,35 Q199,44 194,48 Q193,49 193,50 Q193,51 194,51 Q208,49 207,56 L205,110 Q206,113 202,115 L187,113 L184,109 L182,12 Q180,0 190,0 Q206,-2 221,0 Q233,0 237,15 Q238,17 239,16 Q241,16 240,14 Q240,6 246,2 Q259,-5 239,-15 Q225,-21 201,-20 Q165,-18 166,16 L166,112 L162,107 Q156,76 148,57 Q153,54 154,49 Q156,42 148,34 Q144,31 141,37 L140,39 Q116,-4 77,-31 Q76,-32 75,-30 Q75,-29 76,-28 Q115,1 132,54 Q131,55 130,57 Q126,64 123,68 Q123,70 125,70 M91,36 Q80,38 52,38 L52,26 Q48,-1 36,-2 L37,37 L38,112 Q23,91 3,67 Q0,66 1,69 Q35,120 51,176 Q35,176 25,174 L19,180 L82,182 L94,194 L108,180 Q109,178 107,178 L59,176 L74,169 Q76,168 74,166 L71,162 Q62,145 46,124 L54,120 L70,120 L78,131 L96,121 Q98,120 96,118 L92,112 L91,44 L92,39 Q93,36 91,36 M106,138 Q102,136 97,147 Q97,150 99,152 Q114,162 120,184 Q121,186 122,186 Q123,187 123,185 L123,175 L156,175 L157,210 L182,204 Q185,202 182,199 L179,191 L178,176 L211,177 L222,187 L244,165 Q246,164 246,162 Q245,161 243,160 Q226,159 210,150 Q208,150 208,150 Q207,151 208,153 L212,172 L123,169 Q121,148 106,138 M54,114 L52,43 L71,44 L72,115"/> 
            <glyph glyph-name="种" unicode="&#x79CD;" horiz-adv-x="243" d=" M193,199 L190,189 L190,150 L210,151 L218,163 L241,151 Q243,149 241,147 L236,139 L236,87 L238,83 Q239,80 237,80 Q218,82 189,80 L189,44 L191,0 Q187,-20 171,-29 Q168,-30 167,-26 L168,22 L168,80 Q165,80 159,80 Q152,79 148,79 L148,74 Q144,59 134,51 Q130,49 128,52 L130,100 L130,133 L129,160 Q129,162 131,161 L149,149 L168,150 L168,171 L166,214 L191,202 Q193,202 193,199 M107,216 L123,199 Q124,197 123,197 Q123,196 121,196 Q116,195 101,192 Q89,190 83,189 L96,185 Q97,184 97,182 L92,175 L92,139 L99,139 L111,152 L126,137 Q128,134 125,134 L92,134 L91,105 Q119,93 122,86 Q124,77 113,69 Q106,66 105,72 Q100,88 91,99 L90,46 L91,0 Q88,-17 75,-28 Q73,-31 70,-31 Q68,-30 68,-27 L70,45 L70,84 Q53,59 5,14 Q3,13 2,14 Q1,15 2,16 Q46,68 71,133 L56,133 Q39,133 27,130 L20,138 L71,139 L72,158 Q72,165 71,176 Q71,184 71,188 Q67,187 57,186 Q35,183 24,182 Q22,183 24,185 Q84,198 107,216 M211,146 L190,145 L189,86 L211,87 M148,144 L148,85 L168,86 L168,144"/> 
            <glyph glyph-name="管" unicode="&#x7BA1;" horiz-adv-x="242" d=" M183,70 Q159,71 94,68 L94,47 L166,49 L178,61 L201,47 Q203,46 201,44 L195,36 L196,9 L198,6 Q197,3 196,4 Q154,4 94,2 L94,-2 Q92,-15 78,-30 Q74,-31 73,-28 L74,39 L74,89 L73,119 L97,108 L156,109 L167,121 L188,107 Q190,106 188,104 L182,97 L183,76 L185,72 Q185,69 183,70 M116,158 L129,155 Q146,187 153,214 L178,199 Q180,198 177,196 Q177,196 176,195 Q172,193 167,188 Q164,185 161,181 L200,183 L213,197 L231,182 Q233,179 231,179 L179,177 Q201,165 199,157 Q199,147 187,143 Q181,140 180,148 Q179,168 173,176 L155,175 Q148,168 133,154 L142,151 Q144,151 142,148 Q139,146 139,139 L138,133 L203,135 L214,144 L239,121 Q242,118 241,116 Q240,114 236,114 Q218,116 200,105 Q198,104 197,107 L204,130 L59,125 Q52,99 31,85 Q27,82 25,87 Q22,100 26,103 Q43,116 43,137 Q42,141 48,139 Q49,138 51,137 Q55,133 58,130 L116,132 L115,156 Q115,159 116,158 M166,44 L94,42 L94,8 L166,9 M62,212 L86,195 Q88,194 85,192 Q79,188 75,183 Q73,181 70,178 L104,180 L116,194 L134,179 Q136,176 134,176 L87,174 Q102,165 102,157 Q98,149 92,147 Q85,146 85,151 Q84,168 80,173 L65,172 Q44,151 26,134 Q25,133 24,133 Q22,134 23,135 Q53,181 62,212 M94,102 L94,74 L156,76 L156,104"/> 
            <glyph glyph-name="米" unicode="&#x7C73;" horiz-adv-x="253" d=" M119,215 L145,203 Q147,202 145,201 L142,193 L141,122 L204,123 L221,141 L241,121 Q242,119 242,119 Q241,118 240,118 L152,115 Q154,63 251,9 Q252,8 253,7 Q252,6 251,6 Q232,7 213,-11 Q155,34 149,115 L141,115 L140,42 L141,-2 Q139,-15 122,-30 Q120,-32 118,-31 Q115,-30 116,-27 L118,45 L118,81 Q85,37 19,-11 Q10,-18 6,-21 Q4,-22 3,-21 Q2,-20 3,-18 Q60,24 108,114 L52,113 Q33,112 24,109 L16,119 L118,121 L118,179 Q118,202 118,214 Q118,215 119,215 M189,192 L209,176 Q212,174 209,171 Q183,148 153,124 L152,125 Q177,158 189,192 M51,186 Q92,166 94,155 Q94,146 81,136 Q74,133 72,140 Q65,169 49,184 Q48,187 51,186"/> 
            <glyph glyph-name="粒" unicode="&#x7C92;" horiz-adv-x="254" d=" M188,136 L211,126 Q213,125 211,124 L208,116 L198,-5 L220,-5 L234,9 L252,-7 Q254,-9 252,-10 L125,-12 Q122,-12 117,-13 Q103,-13 99,-15 L91,-6 L135,-6 L133,96 Q133,105 132,120 Q131,128 131,131 Q131,133 133,132 L155,124 Q157,123 155,122 L153,114 L151,-6 L179,-5 L185,100 Q185,110 186,125 Q186,133 186,135 Q186,138 188,136 M61,210 L84,201 Q86,199 84,199 L79,191 L79,146 Q94,171 99,183 L112,169 Q114,168 111,167 L79,139 L78,128 L94,129 L104,139 L117,126 Q118,125 118,125 Q118,124 116,123 L78,122 L78,42 L79,-2 Q77,-14 65,-28 Q61,-31 60,-31 Q58,-31 59,-28 L60,44 L60,73 Q36,36 7,0 Q5,0 4,0 Q3,0 4,2 Q41,52 59,122 L56,122 Q42,122 27,120 L20,127 L60,128 L60,175 Q60,184 59,198 Q59,206 59,209 Q59,211 61,210 M118,155 Q114,155 114,158 Q114,161 118,161 L156,162 L158,209 L183,203 Q185,203 185,202 Q186,201 184,199 Q180,193 178,162 L202,163 L216,175 L232,161 Q234,158 231,157 M81,108 Q109,94 110,86 Q111,83 102,75 Q101,74 100,73 Q93,71 92,77 Q88,98 80,106 M28,172 Q26,175 30,174 Q48,167 54,159 Q57,152 48,144 Q43,140 40,144 Q40,145 39,148 Q35,164 28,172"/> 
            <glyph glyph-name="精" unicode="&#x7CBE;" horiz-adv-x="248" d=" M64,213 L89,204 Q91,202 89,201 L83,193 L83,148 Q97,173 102,186 L115,172 Q117,169 115,168 L83,141 L83,130 L95,130 L106,140 L119,128 Q120,127 118,125 L83,124 L82,101 Q108,93 111,84 Q112,78 102,70 Q96,67 95,72 Q89,90 82,97 L82,45 L83,-1 Q81,-13 67,-27 Q65,-30 63,-30 Q61,-30 61,-27 L63,47 L63,73 Q40,37 5,0 Q3,0 2,0 Q1,0 2,2 Q36,47 62,124 L54,124 Q36,124 26,121 L18,129 L63,130 L63,176 Q63,186 62,201 Q62,209 62,212 Q62,214 64,213 M145,92 L192,95 L201,106 L222,93 Q224,92 223,90 L216,81 L219,15 Q222,-13 193,-30 Q190,-32 189,-29 Q188,-16 182,-13 Q181,-13 181,-12 Q181,-10 182,-10 Q197,-12 194,0 L193,90 L145,87 L145,67 L185,69 Q188,69 188,67 Q188,64 186,63 L145,61 L144,37 L186,39 Q188,38 189,36 Q189,35 187,34 L144,31 L143,5 Q143,-9 131,-25 Q128,-29 126,-30 Q124,-29 124,-25 L126,16 L127,68 L127,102 M148,170 Q134,171 127,168 L119,175 L154,176 L154,213 L179,206 Q181,205 179,202 Q179,202 178,201 Q177,199 175,192 L175,176 L203,177 L216,189 L230,175 Q232,173 228,173 L175,171 L175,148 L195,148 L208,161 L222,147 Q224,145 221,144 L175,143 L175,118 L217,119 L230,133 L247,118 Q248,116 248,116 Q247,115 246,115 L142,112 Q132,112 119,110 Q120,111 116,110 L107,117 L154,118 L154,142 Q145,142 133,140 Q134,140 131,140 L123,147 L154,148 L155,168 L155,170 M29,174 Q27,176 30,176 Q51,168 56,161 Q57,155 50,146 Q44,140 41,147 Q38,162 29,174"/> 
            <glyph glyph-name="线" unicode="&#x7EBF;" horiz-adv-x="246" d=" M136,214 L163,202 Q166,200 163,198 L158,193 Q158,172 158,154 L191,157 L203,172 L221,157 Q223,154 220,154 L158,148 Q159,127 162,108 L208,113 L220,130 L240,114 Q241,113 238,111 L163,101 Q168,77 175,58 Q194,78 206,98 Q207,99 208,99 L224,83 Q227,81 223,78 Q207,58 184,40 Q198,18 217,8 Q223,4 226,8 L237,21 Q238,23 240,22 Q242,21 241,19 Q235,6 242,-9 Q243,-11 243,-12 Q246,-31 219,-23 Q185,-9 165,26 Q126,-3 66,-26 Q64,-26 63,-25 Q63,-23 64,-22 Q120,5 158,41 Q148,66 143,99 L128,97 Q113,95 102,91 L93,99 L142,105 Q139,125 138,146 Q122,145 111,142 L103,150 L137,152 Q137,159 137,165 Q135,196 136,214 M85,162 L104,142 Q106,142 103,138 Q86,117 41,72 L106,77 Q107,78 108,76 Q107,75 106,74 Q39,53 31,48 Q27,45 27,48 L20,72 Q29,71 37,80 Q50,94 68,127 Q42,120 28,112 Q24,110 24,113 L18,132 Q18,132 19,132 Q28,132 34,141 Q53,171 65,209 L87,194 Q89,192 85,187 Q64,160 38,134 L73,136 Q83,156 85,162 M112,42 Q114,43 115,41 Q116,40 114,39 L68,14 Q46,2 36,-5 Q35,-7 33,-5 L20,20 Q31,21 47,24 Q51,25 54,26 M181,204 Q207,197 206,190 Q206,183 198,178 Q191,175 191,180 Q189,195 180,203 Q179,205 181,204"/> 
            <glyph glyph-name="给" unicode="&#x7ED9;" horiz-adv-x="255" d=" M190,90 L213,77 Q215,76 213,74 L206,65 L207,14 L208,10 Q208,10 207,9 Q192,10 151,9 Q139,8 132,8 L132,0 Q131,-16 118,-28 Q113,-31 112,-27 L113,17 L113,60 Q113,82 112,86 Q112,88 115,87 L132,77 L180,79 M86,160 L108,142 Q109,141 106,138 Q74,99 40,68 L96,72 Q98,71 96,69 Q45,52 29,43 Q27,41 26,42 Q25,42 25,44 L18,67 Q28,66 36,74 Q49,88 71,128 Q46,121 26,111 Q22,109 21,112 L16,131 Q28,130 33,139 Q49,161 62,209 L86,193 Q89,192 85,187 Q66,163 38,133 L74,134 Q83,151 86,160 M89,93 Q85,93 86,96 Q127,143 146,213 L171,202 Q173,202 172,199 L168,197 Q179,152 254,108 Q255,107 255,106 Q254,104 253,105 Q238,107 223,92 Q178,134 166,195 Q135,136 89,93 M180,73 L132,71 L132,13 L181,15 M100,31 Q103,32 103,31 Q104,30 102,28 L64,4 Q39,-8 31,-15 Q30,-17 28,-15 L18,10 Q32,11 49,17 M155,118 Q135,116 129,115 L122,122 L169,124 L179,134 L192,122 Q195,120 191,120"/> 
            <glyph glyph-name="统" unicode="&#x7EDF;" horiz-adv-x="257" d=" M149,210 L174,202 Q177,201 175,198 Q172,196 172,187 L172,170 L216,171 L230,186 L246,170 Q247,169 247,168 Q247,167 245,167 L153,165 L166,153 Q168,152 167,151 Q167,150 164,149 Q142,131 120,117 L206,120 Q204,129 195,141 Q193,143 196,143 Q226,127 232,117 Q234,113 232,107 Q232,106 231,105 Q228,98 224,95 Q213,88 210,98 Q210,109 207,116 Q164,109 105,93 Q102,91 101,94 L95,113 Q95,116 98,116 Q107,117 112,122 Q132,139 145,165 L121,164 Q104,164 94,161 L86,169 L148,170 L147,208 Q147,210 149,210 M82,164 L103,145 Q105,144 102,141 Q70,104 37,73 L92,77 Q94,74 92,74 Q37,54 27,47 Q22,45 22,48 L16,72 Q25,71 33,80 Q50,101 65,128 Q46,122 23,113 Q19,110 18,113 L14,133 Q21,132 29,141 Q48,169 59,210 L83,194 Q85,193 81,188 Q66,167 33,134 L69,136 Q79,153 82,164 M194,91 Q195,90 195,89 L192,83 L186,17 Q184,8 194,7 Q217,7 224,9 Q232,11 237,32 Q238,34 239,34 Q241,33 241,31 Q239,19 246,8 Q257,-6 241,-13 Q221,-19 196,-17 Q171,-12 170,12 L170,80 L170,99 M128,98 L154,91 Q156,90 154,88 L151,81 Q155,-3 44,-35 Q42,-36 41,-35 Q41,-34 42,-32 Q97,-9 113,15 Q131,42 128,98 M97,40 Q99,40 100,39 Q100,38 99,37 L59,14 Q36,1 29,-6 Q27,-8 26,-6 L16,20 Q21,21 34,24 Q41,25 45,26"/> 
            <glyph glyph-name="网" unicode="&#x7F51;" horiz-adv-x="226" d=" M62,196 L62,195 L193,197 L201,210 L224,199 Q226,198 224,196 L218,187 L219,76 L221,31 Q221,-8 184,-28 Q186,-8 175,-4 Q173,-3 174,-1 Q174,0 176,0 Q199,-2 195,18 L194,192 L62,190 L63,12 Q62,-10 49,-25 Q43,-31 41,-24 L42,41 L42,179 L41,207 Q41,210 43,209 M129,147 Q144,133 153,122 Q161,154 164,182 L186,172 Q189,171 187,167 L185,162 Q176,132 166,107 Q190,78 191,68 Q188,54 175,48 Q167,45 167,53 Q163,74 157,88 Q139,51 107,13 Q106,11 104,12 Q103,14 104,15 Q131,52 149,108 Q135,136 127,145 Q126,148 129,147 M71,156 Q91,137 100,125 Q107,152 110,182 L131,171 Q134,171 132,167 L129,162 Q121,132 112,110 Q127,92 130,83 Q129,73 118,63 Q110,59 108,67 Q105,76 102,87 Q89,59 68,31 Q67,29 65,30 Q64,32 65,34 Q83,64 95,106 Q86,127 70,155 Q69,157 71,156"/> 
            <glyph glyph-name="美" unicode="&#x7F8E;" horiz-adv-x="246" d=" M140,88 Q142,87 140,85 L136,80 Q135,67 133,56 L200,57 L214,72 L232,56 Q235,53 231,52 L146,50 Q160,11 244,-4 Q246,-4 246,-6 Q246,-7 244,-8 Q227,-10 213,-28 Q158,-6 142,50 L132,50 Q126,-10 11,-32 Q10,-33 9,-31 Q9,-29 10,-29 Q101,-4 108,49 L65,48 Q49,47 37,45 L30,53 L109,55 Q111,72 111,93 L51,92 Q36,92 24,90 L17,98 L115,99 L115,130 L82,129 Q72,129 60,127 Q57,126 55,126 L46,134 L115,136 L115,164 L58,163 Q40,162 30,159 L22,168 L83,169 L83,195 Q82,200 82,207 Q81,210 84,209 L102,201 Q104,200 104,197 L103,170 L147,171 L160,214 L184,201 Q186,201 184,199 L179,194 L166,171 L202,172 L216,187 L236,170 Q237,168 235,167 L140,165 L140,137 L184,138 L196,150 L212,135 Q214,132 211,132 L140,130 L139,99 L208,100 L222,114 L241,98 Q243,96 241,96 L119,93"/> 
            <glyph glyph-name="联" unicode="&#x8054;" horiz-adv-x="254" d=" M118,67 L119,63 L102,54 L102,37 Q102,20 103,14 Q103,6 100,0 Q96,-7 88,-16 Q85,-18 84,-18 Q82,-17 82,-15 L82,44 L50,26 Q43,23 33,17 Q30,15 28,14 Q26,11 23,13 L9,29 Q9,30 9,30 Q8,32 10,33 Q22,36 36,40 L39,41 L38,177 Q30,177 18,175 Q19,175 16,175 L8,182 L102,184 L115,197 L131,182 Q133,179 131,179 L94,178 L106,171 Q108,170 106,168 L104,162 L102,62 M205,215 L227,204 Q229,202 227,200 L222,195 Q216,188 205,176 Q196,166 190,159 L209,160 L220,172 L235,158 Q237,156 234,156 L185,153 L185,123 Q185,108 184,94 L215,95 L229,110 L246,93 Q248,91 244,91 L184,89 Q182,9 80,-33 Q78,-33 78,-31 Q77,-30 79,-29 Q161,9 164,88 L149,88 Q130,87 121,85 L114,92 L164,94 Q165,109 165,129 L165,152 L156,152 Q139,152 129,149 L122,156 L183,159 Q200,188 205,215 M189,70 Q197,25 252,-8 Q254,-10 252,-11 Q237,-11 219,-25 Q193,0 188,63 Q187,68 187,70 M55,91 L54,46 L83,55 L83,92 M56,178 L55,138 L84,139 L85,178 M55,132 L55,97 L83,98 L84,133 M136,207 Q168,191 167,183 Q166,173 156,168 Q149,166 147,172 Q144,197 134,205 Q133,206 136,207"/> 
            <glyph glyph-name="能" unicode="&#x80FD;" horiz-adv-x="242" d=" M102,121 L118,109 Q120,107 118,105 L114,100 L113,-2 Q112,-17 94,-29 Q92,-31 90,-27 Q89,-16 83,-13 Q81,-11 84,-11 Q98,-12 96,-5 L95,100 Q95,104 91,106 L58,103 L57,69 L87,72 Q90,72 90,70 Q90,68 87,67 L57,64 L56,30 L87,33 Q90,33 90,31 Q90,28 87,28 L56,25 L56,-3 Q57,-20 45,-30 Q42,-32 41,-32 Q39,-31 39,-29 L40,85 Q40,93 39,106 Q39,112 39,114 Q39,117 41,116 L58,108 L92,111 M205,71 L217,59 Q219,57 219,57 Q219,57 217,56 Q184,43 155,36 L154,17 Q154,3 167,3 Q188,0 209,4 Q221,9 226,27 Q227,29 228,28 Q229,28 230,26 Q228,13 234,7 Q242,-5 229,-11 Q206,-20 174,-15 Q138,-11 138,22 L138,73 L138,93 Q138,96 140,94 L160,85 Q162,84 160,82 L156,75 L155,39 Q187,53 202,71 Q204,73 205,71 M138,210 L159,200 Q161,199 159,197 L155,190 L151,129 Q150,120 163,119 Q182,116 203,120 Q213,122 220,137 Q221,138 222,138 Q223,138 223,136 Q221,124 228,120 Q236,112 224,105 Q199,94 165,99 Q133,104 135,136 L137,209 Q137,212 138,210 M90,170 Q89,173 92,172 Q115,158 121,148 Q123,145 121,140 Q118,133 115,129 Q106,122 103,132 Q103,133 103,134 Q102,139 99,145 Q56,137 31,132 Q26,130 26,133 L24,143 Q23,146 26,146 Q35,149 39,155 Q65,181 76,209 Q76,211 77,211 Q77,212 79,210 L97,194 Q100,191 95,188 Q92,186 87,181 Q63,159 49,146 L99,147 Q95,159 90,170 M200,177 L213,164 Q214,163 213,162 Q213,161 211,161 Q200,156 168,147 Q167,147 166,148 Q166,148 167,150 Q187,162 198,176 Q199,177 200,177"/> 
            <glyph glyph-name="自" unicode="&#x81EA;" horiz-adv-x="216" d=" M191,178 L213,166 Q216,164 213,161 L208,154 L211,18 Q213,-2 188,-20 Q184,-22 183,-21 Q181,-20 181,-15 Q180,-2 177,3 L73,2 Q70,-13 57,-26 Q54,-29 52,-29 Q50,-28 50,-25 L51,131 Q51,140 50,158 Q50,171 50,176 Q50,178 51,178 L74,167 L74,162 L180,164 M73,156 L73,114 L162,116 Q165,115 165,113 Q166,110 163,109 L73,108 L73,65 L163,67 Q166,65 166,63 Q166,61 163,60 L73,58 L73,9 L180,10 Q182,13 182,18 L180,157 M132,216 L147,198 Q148,195 145,194 Q114,180 79,167 Q77,167 78,169 Q115,193 132,216"/> 
            <glyph glyph-name="节" unicode="&#x8282;" horiz-adv-x="241" d=" M195,144 L218,131 Q218,131 219,130 Q220,130 219,128 L211,119 L211,79 L211,52 Q209,32 181,17 Q178,16 179,19 Q179,33 170,38 Q169,39 169,40 Q169,41 171,41 Q187,39 186,44 L187,126 L103,125 L116,119 Q119,119 118,114 L117,95 L117,42 L118,7 Q116,-8 101,-26 Q95,-30 92,-25 L94,31 L94,86 Q94,110 93,124 L72,124 Q57,124 41,122 L33,129 L186,132 M150,145 L151,174 L109,173 L109,160 Q104,146 95,140 Q91,139 90,141 L89,173 L55,172 Q46,172 33,170 Q30,169 28,169 L20,177 L89,178 L88,214 L112,206 Q114,206 113,204 L110,199 L110,179 L151,179 L152,214 L180,205 Q182,205 180,202 L177,198 L173,180 L207,181 L221,196 L239,179 Q241,177 238,177 L172,175 L167,153 Q162,144 154,141 Q152,142 150,145"/> 
            <glyph glyph-name="让" unicode="&#x8BA9;" horiz-adv-x="251" d=" M172,196 L169,186 L168,119 L204,120 L218,136 L237,118 Q239,117 237,115 L168,113 L166,-6 L217,-5 L231,9 L250,-7 Q251,-8 251,-9 Q251,-10 249,-10 L121,-14 Q104,-14 94,-17 L86,-9 L144,-7 L145,164 L144,210 L170,199 Q172,199 172,196 M123,59 Q126,60 124,57 L79,2 Q69,-7 59,-21 Q58,-24 56,-22 L38,-4 Q35,-2 37,0 Q47,2 60,10 L60,129 L42,128 Q28,127 19,124 L10,133 L57,135 L68,148 L90,136 Q92,136 90,134 L83,125 L80,26 M45,211 Q74,200 80,190 Q82,178 68,167 Q61,163 59,168 Q52,198 43,209 Q42,211 45,211"/> 
            <glyph glyph-name="识" unicode="&#x8BC6;" horiz-adv-x="239" d=" M218,87 Q187,90 135,90 Q132,79 119,68 Q116,66 114,67 Q113,68 113,71 L114,109 L114,167 L113,194 Q113,196 114,197 Q115,197 116,196 L134,183 L190,185 L201,199 L225,186 Q227,185 225,183 L219,174 L219,97 L221,91 Q222,88 221,88 Q221,87 218,87 M135,177 L135,96 L192,97 L191,179 M105,65 Q108,66 106,63 L72,14 Q62,3 53,-9 Q52,-12 50,-10 L32,6 Q32,6 32,7 Q30,9 32,10 Q42,15 54,25 L53,135 L37,134 Q22,134 16,132 L8,140 L51,142 L61,155 L83,143 Q85,142 83,140 L77,132 L72,39 M143,68 L161,51 Q163,50 160,46 Q134,14 74,-29 Q72,-30 71,-28 Q70,-27 72,-26 Q116,12 140,67 Q140,68 141,69 Q141,69 143,68 M182,63 Q231,27 237,14 Q239,5 224,-9 Q214,-16 211,-4 Q206,28 180,61 Q179,64 182,63 M39,212 Q70,201 74,192 Q76,181 63,170 Q55,168 52,173 Q49,200 37,210 Q36,213 39,212"/> 
            <glyph glyph-name="调" unicode="&#x8C03;" horiz-adv-x="234" d=" M127,144 Q125,144 124,146 Q124,148 126,148 L151,149 Q151,173 148,188 L119,187 L119,112 Q119,59 103,31 Q90,4 42,-33 Q39,-33 41,-29 Q76,0 87,29 Q99,57 100,114 L100,175 L99,204 Q100,205 101,204 L119,192 L202,194 L211,206 L232,195 Q234,194 232,193 L226,184 L228,29 Q230,-6 194,-25 Q196,-5 187,-2 Q184,0 187,1 Q209,-1 206,20 L204,189 L150,188 L168,181 Q171,180 170,178 L168,171 L168,150 L176,151 L185,161 L197,150 Q198,149 198,148 Q198,147 196,147 L168,145 L168,116 L180,116 L190,127 L202,116 Q203,115 203,114 Q203,113 201,113 L125,110 Q122,110 122,112 Q122,114 124,115 L151,116 L151,145 M178,103 L196,92 Q196,92 196,90 L191,84 L192,48 L193,45 Q193,43 193,43 Q182,45 145,42 L145,35 Q145,26 135,15 Q132,13 131,14 Q130,14 130,16 L130,45 L130,74 Q130,90 130,99 Q130,101 132,100 L146,92 L171,93 M91,65 Q94,66 92,63 L64,18 Q62,16 59,9 Q52,0 50,-3 Q50,-3 50,-4 Q49,-6 47,-4 L31,9 Q28,11 30,12 Q32,13 36,17 Q43,22 48,26 L47,133 L34,133 Q30,133 24,132 Q17,132 14,131 L5,138 L45,140 L54,152 L74,140 Q74,139 74,137 L68,130 L64,40 M145,87 L145,47 L172,48 L171,89 M35,210 Q65,200 68,190 Q70,179 57,169 Q50,167 48,172 Q43,198 33,208 Q32,211 35,210"/> 
            <glyph glyph-name="败" unicode="&#x8D25;" horiz-adv-x="252" d=" M94,-31 Q93,-32 92,-30 Q92,-29 93,-28 Q138,5 161,46 Q156,61 151,94 Q149,106 148,112 L152,113 Q157,85 169,63 Q183,94 190,134 L158,131 Q144,108 129,87 Q128,86 127,86 Q126,86 126,88 Q162,166 172,213 Q172,216 174,215 L199,197 Q201,195 198,193 Q192,188 188,182 Q186,179 183,173 Q177,161 162,138 L211,141 L225,157 L244,141 Q246,140 246,139 Q246,138 244,138 L195,134 L210,123 Q214,121 209,114 Q199,78 180,47 Q206,16 250,-2 Q252,-3 252,-4 Q251,-6 249,-6 Q236,-5 213,-22 Q181,0 167,29 Q144,0 94,-31 M42,39 Q40,36 38,36 Q36,37 36,40 L37,153 Q37,184 35,200 Q35,203 38,202 L58,189 L59,189 L102,191 L109,201 L128,191 Q131,190 129,188 L123,180 L122,102 L123,72 Q119,56 107,48 Q104,47 102,50 L102,186 L58,184 L54,178 L53,66 Q51,52 42,39 M68,159 L90,151 Q92,150 91,148 L89,142 L89,94 Q97,23 5,-29 Q3,-31 2,-30 Q0,-29 2,-27 Q43,2 56,27 Q69,51 69,94 L69,138 M86,43 Q116,32 125,20 Q127,12 119,0 Q111,-3 108,2 Q99,30 85,41 Q83,43 86,43"/> 
            <glyph glyph-name="起" unicode="&#x8D77;" horiz-adv-x="245" d=" M81,216 L103,205 Q105,204 103,201 Q100,197 99,188 L99,173 L111,174 L120,184 L133,172 Q135,169 132,169 L99,168 L98,133 L114,134 L125,146 L140,132 Q142,129 139,129 L97,127 L96,18 Q126,7 242,16 Q244,16 245,14 Q245,13 243,12 Q225,9 214,-14 Q178,-15 141,-13 Q109,-11 101,-8 Q73,2 59,42 Q54,6 8,-33 Q5,-34 6,-31 Q33,-4 40,21 Q48,44 47,99 L65,92 Q67,92 65,88 L63,83 Q63,65 60,50 Q61,48 63,45 Q69,35 78,27 L78,127 L63,126 Q44,126 37,123 L30,131 L80,133 L79,168 L70,167 Q56,167 45,165 L37,172 L79,173 L79,214 Q79,216 81,216 M173,182 Q159,182 146,180 L138,186 L188,187 L198,199 L216,188 Q219,187 216,184 L211,177 L210,131 L212,127 Q214,125 211,125 Q201,126 167,126 L166,121 L162,73 Q160,58 174,59 Q193,57 206,61 Q220,63 224,79 Q225,80 226,80 Q227,80 227,78 Q223,64 234,61 Q244,57 241,48 Q238,40 226,38 Q203,32 178,35 Q147,40 147,78 L147,107 Q147,117 146,132 Q146,140 146,143 Q145,146 148,145 L169,131 L189,131 L189,183 M130,108 L137,93 Q139,91 136,90 Q132,90 123,89 Q108,87 100,86 Q99,86 100,88 Q119,97 130,108"/> 
            <glyph glyph-name="软" unicode="&#x8F6F;" horiz-adv-x="254" d=" M78,-20 Q73,-24 72,-19 L72,47 L72,53 L65,49 Q42,35 34,27 Q33,26 31,27 L20,53 L72,68 L72,97 L58,94 Q43,91 34,86 Q30,84 29,87 L22,103 Q21,106 23,106 L35,106 Q45,133 51,159 Q36,159 23,157 L16,164 L52,165 Q54,173 58,189 Q59,192 59,194 L63,216 L88,203 Q91,202 88,199 Q85,195 82,189 Q77,180 71,166 L92,166 L104,179 L121,165 Q122,163 122,163 Q121,162 120,162 L68,160 Q57,134 44,106 L72,108 L72,110 L72,141 L96,132 Q98,131 96,129 L93,123 L93,108 L118,109 Q121,108 119,106 L93,101 L93,74 L121,82 Q124,83 122,80 L93,64 L93,47 L94,3 Q89,-8 78,-20 M85,-32 Q83,-33 82,-32 Q81,-31 82,-29 Q125,-2 137,29 Q150,57 149,133 L177,121 Q179,120 179,120 Q179,119 177,118 L175,116 Q176,39 252,-12 Q254,-13 253,-14 Q253,-15 251,-15 Q239,-11 218,-26 Q175,13 173,115 L171,114 Q168,50 152,25 Q138,0 85,-32 M197,163 L208,174 L234,156 Q236,154 235,152 Q234,151 231,150 Q209,143 194,129 Q190,128 190,131 L198,157 L147,155 Q130,130 116,115 Q115,114 114,115 Q113,116 114,118 Q142,159 148,212 Q148,215 150,214 L172,204 Q175,202 172,199 Q171,197 169,193 Q158,171 151,161"/> 
            <glyph glyph-name="这" unicode="&#x8FD9;" horiz-adv-x="251" d=" M248,17 Q251,17 249,13 Q233,6 222,-22 Q164,-25 111,-18 Q92,-15 74,12 Q71,19 65,13 Q47,0 35,-20 Q34,-23 31,-21 L19,-2 Q19,-2 19,-1 Q18,0 20,0 L57,25 L58,104 L19,103 Q16,103 15,106 Q15,109 18,109 L58,111 L68,122 L88,108 Q91,106 87,103 L79,95 L77,31 Q77,14 98,8 Q150,-4 248,17 M124,152 Q105,151 97,148 L89,157 L207,160 L223,176 L242,158 Q243,156 240,155 L191,154 L210,144 Q213,143 210,140 L204,132 Q192,108 176,89 Q207,66 211,55 Q213,40 201,27 Q193,18 188,32 Q181,49 162,73 Q137,45 92,15 Q91,14 90,16 Q90,17 91,18 Q130,52 151,85 Q138,100 115,121 Q113,122 114,124 Q115,125 117,124 Q122,121 134,114 Q151,104 159,99 Q173,123 182,153 M41,202 Q74,189 76,172 Q75,159 61,154 Q53,152 51,161 Q48,187 39,200 Q37,203 41,202 M138,212 Q173,199 174,183 Q173,171 159,166 Q150,165 148,173 Q145,199 136,210 Q136,210 136,211 Q135,213 138,212"/> 
            <glyph glyph-name="配" unicode="&#x914D;" horiz-adv-x="258" d=" M46,185 Q35,185 20,183 Q22,184 17,183 L10,189 L98,192 L110,205 L127,190 Q128,188 126,187 L84,186 L92,183 Q93,183 93,181 L91,177 L87,148 L95,148 L103,159 L121,148 Q123,147 121,145 L116,138 L115,44 L117,12 Q116,-2 102,-18 Q100,-21 97,-17 Q94,-1 88,6 L45,4 Q42,-6 34,-18 Q31,-21 30,-21 Q28,-21 28,-18 L30,108 Q30,148 29,154 Q29,157 31,156 L51,146 L57,147 Q57,152 57,159 L56,173 L56,186 M165,189 Q150,188 138,186 L130,194 L188,195 L198,209 L220,195 Q222,194 220,191 L212,181 L211,117 L214,113 Q214,110 212,110 Q194,113 154,112 L153,108 L148,18 Q146,3 161,3 Q192,1 212,10 Q226,15 234,36 Q235,38 237,38 Q239,38 238,36 Q232,13 243,8 Q258,-7 235,-15 Q207,-24 167,-20 Q132,-15 132,23 L133,94 Q133,101 132,112 Q132,120 131,130 Q131,133 133,132 L156,118 L188,119 L189,189 M84,54 Q88,52 84,49 L45,46 L44,8 L91,11 Q95,13 95,17 L95,90 Q89,89 83,89 Q74,90 73,104 L75,142 L69,142 Q67,93 45,65 L45,51 M46,136 L45,72 Q58,94 57,141 L50,141 M88,101 Q92,101 95,101 L95,144 L87,143 L82,107 Q81,99 88,101 M69,159 Q69,153 69,147 L75,147 L76,171 L76,186 L62,186 L72,183 Q72,183 72,182 Q73,181 72,181 L70,177"/> 
            <glyph glyph-name="闷" unicode="&#x95F7;" horiz-adv-x="228" d=" M149,183 Q132,182 118,180 L111,187 L193,190 L206,204 L226,189 Q226,189 227,188 Q228,188 227,186 L217,175 L219,76 L221,21 Q221,-6 186,-26 Q185,-27 184,-26 Q183,-26 183,-23 Q182,-4 170,-1 Q168,1 171,0 Q195,0 193,10 L193,184 M61,156 L60,4 Q60,-11 44,-28 Q39,-29 38,-26 L39,47 L40,148 L39,177 L63,168 Q65,168 65,166 Q65,165 65,165 M102,118 L117,111 Q119,111 117,109 L114,106 Q110,84 113,70 Q113,63 122,61 Q137,57 148,60 Q154,62 154,68 L154,89 Q154,91 155,91 Q156,91 157,89 Q163,67 178,62 Q184,59 184,55 Q184,51 177,46 Q148,31 115,41 Q100,49 99,66 Q97,90 100,117 Q100,120 102,118 M66,214 Q101,202 101,194 Q101,182 90,174 Q83,171 81,177 Q73,202 64,211 Q63,214 66,214 M152,125 Q185,112 188,99 Q187,88 178,81 Q170,76 168,86 Q164,108 151,123 Q149,126 152,125 M78,112 Q78,113 79,114 Q80,113 81,112 Q91,77 86,58 Q81,47 71,47 Q63,48 69,60 Q78,82 78,112 M115,156 Q139,144 140,135 Q140,125 131,120 Q123,118 123,125 Q120,143 113,154 Q111,157 115,156"/> 
            <glyph glyph-name="食" unicode="&#x98DF;" horiz-adv-x="254" d=" M119,217 L143,207 Q146,206 143,203 L140,199 Q168,145 252,112 Q254,110 252,109 Q242,109 223,91 Q204,106 191,119 Q191,118 190,116 L184,108 L183,58 L185,55 Q186,53 184,53 Q154,55 93,53 L92,0 L140,17 Q141,18 143,16 Q143,15 142,14 L73,-32 Q71,-34 69,-32 L59,-12 Q58,-10 60,-10 L74,-5 L74,102 L73,124 Q44,97 4,68 Q2,68 1,69 Q1,70 2,71 Q82,131 119,217 M136,196 Q107,159 80,130 L96,120 L156,121 L166,134 L189,120 Q155,153 137,197 M149,88 L94,86 L94,58 L156,59 L158,115 L95,114 L94,91 L149,92 Q151,92 151,90 Q151,88 149,88 M127,40 Q151,31 168,24 Q190,48 197,61 L217,42 Q220,39 216,38 Q204,35 174,21 Q205,6 211,-1 Q215,-16 203,-27 Q197,-33 193,-25 Q166,15 126,38 Q125,40 127,40 M113,157 Q140,148 142,138 Q142,128 131,124 Q124,121 123,127 Q123,145 112,155 Q110,158 113,157"/> 
            <glyph glyph-name="餐" unicode="&#x9910;" horiz-adv-x="251" d=" M141,6 Q143,6 141,4 L96,-18 Q78,-28 72,-32 Q70,-34 69,-32 L55,-15 Q55,-15 56,-14 L76,-8 L76,54 L74,75 Q40,53 5,37 Q1,37 3,39 Q84,82 123,147 L143,136 Q145,135 145,134 Q145,134 143,132 L141,129 Q162,106 234,80 Q244,76 249,74 Q251,72 249,71 Q236,70 221,53 Q170,80 138,127 L137,126 Q116,103 83,81 L96,77 L118,77 L118,86 L118,103 L141,97 Q144,95 141,92 L139,84 L138,78 L156,78 L165,88 L185,76 Q187,75 185,73 L181,67 L180,34 L182,30 Q183,27 180,27 Q179,27 177,27 Q161,29 144,28 L94,28 L93,-4 M55,188 L73,179 Q75,178 73,177 L69,172 Q69,172 68,171 L77,171 L78,216 L101,208 Q103,208 101,205 L98,199 L98,194 L116,195 L126,205 L140,192 Q142,190 140,190 L98,189 L97,172 L101,173 L110,182 L130,171 Q132,170 130,168 L123,162 Q113,149 96,135 Q97,135 98,134 Q99,134 99,133 Q102,123 94,113 Q87,108 85,114 Q82,120 81,123 Q51,101 24,87 Q21,85 22,89 Q56,111 75,133 Q69,143 60,148 Q60,150 61,150 Q65,149 72,146 Q79,144 82,142 Q85,146 91,155 Q96,163 99,167 L65,166 Q53,149 29,125 Q27,124 27,126 Q47,153 55,188 M217,135 Q216,123 209,116 Q205,113 202,118 Q190,136 178,148 Q173,144 162,135 Q154,129 150,126 Q148,125 147,126 Q146,127 147,129 Q162,143 172,155 Q166,161 153,171 Q154,170 150,173 Q148,175 151,175 Q156,172 165,168 Q173,165 177,163 Q187,176 194,192 L150,190 Q146,192 150,195 L193,197 L204,207 L223,195 Q225,194 222,191 L216,186 Q204,170 189,157 Q201,151 214,142 Q217,139 217,135 M94,72 L94,55 L146,57 Q149,57 149,55 Q148,52 145,52 L94,50 L93,33 L156,34 L156,73 M216,-12 Q216,-13 216,-14 Q214,-24 210,-29 Q208,-32 203,-28 Q171,0 138,15 Q136,16 136,17 Q136,18 138,18 Q153,15 168,10 Q170,11 173,14 Q190,30 196,38 L211,26 Q213,25 211,23 Q198,17 175,8 Q194,2 212,-3 Q216,-5 216,-12"/> 
            <glyph glyph-name="饪" unicode="&#x996A;" horiz-adv-x="252" d=" M206,203 L221,183 Q222,180 219,179 Q189,176 159,172 L180,165 Q181,164 181,162 L180,150 L179,97 L215,97 L231,113 L249,96 Q252,93 248,92 L179,91 L178,-3 L207,-2 L220,9 L238,-4 Q239,-6 236,-7 L142,-9 Q126,-9 115,-12 L107,-4 L155,-3 L156,71 L156,90 L131,90 Q113,90 103,87 L96,95 L156,96 L156,138 Q156,144 155,154 Q155,168 154,172 Q135,169 111,166 Q108,166 110,169 Q175,186 206,203 M52,133 L81,124 Q83,123 81,120 L76,113 L71,17 L112,40 Q113,41 114,40 Q115,39 114,37 L52,-20 Q51,-21 49,-21 Q49,-21 48,-21 L33,-3 L52,6 L53,96 Q53,125 52,133 M85,167 L94,176 L113,160 Q116,157 112,155 Q98,154 85,142 Q83,141 82,141 Q81,142 82,143 L86,162 L56,159 Q36,123 7,87 Q6,86 4,86 Q3,87 4,89 Q38,136 53,214 L76,206 Q79,205 77,202 L74,197 Q73,194 70,187 Q63,172 59,165"/> 
            <glyph glyph-name="饭" unicode="&#x996D;" horiz-adv-x="256" d=" M151,118 Q156,87 174,61 Q185,84 193,131 L143,129 Q143,61 124,31 Q111,5 48,-28 Q46,-28 45,-27 Q45,-26 46,-25 Q95,3 108,33 Q124,63 124,134 L124,164 Q124,172 123,186 Q123,192 123,193 Q123,196 125,195 L147,180 L143,176 L143,134 L193,136 L202,148 L224,135 Q226,134 224,132 L217,123 Q209,81 186,45 Q215,11 254,-6 Q256,-9 253,-9 Q236,-10 217,-25 Q189,-2 173,27 Q147,-4 100,-32 Q98,-33 97,-32 Q96,-30 98,-29 Q146,4 166,43 Q156,65 148,118 M49,135 L77,126 Q79,125 77,123 Q78,123 77,122 L72,115 L68,32 L104,59 Q107,62 106,57 L50,-9 Q49,-10 47,-10 Q47,-10 46,-10 L31,4 L50,19 L51,98 Q51,118 49,135 M84,169 L94,178 L113,162 Q116,158 111,156 Q98,155 84,143 Q82,142 82,143 Q81,143 81,145 L85,163 L53,161 Q34,122 5,86 Q3,85 2,85 Q1,86 2,88 Q33,131 49,214 L71,205 Q73,204 72,201 L68,196 Q62,181 56,166 M205,209 L221,191 Q222,189 219,189 Q181,185 151,179 L151,181 Q184,195 202,208 Q204,209 205,209"/> 
            <glyph glyph-name="！" unicode="&#xFF01;" horiz-adv-x="82" d=" M65,18 Q79,17 80,0 Q80,-14 65,-16 Q50,-15 49,0 Q50,17 65,18 M68,36 L62,36 Q60,91 54,120 Q51,132 49,147 Q48,150 48,151 Q49,165 66,165 Q82,165 82,151 Q82,146 79,130 Q78,124 77,120 Q72,97 68,36"/> 
            <glyph glyph-name="，" unicode="&#xFF0C;" horiz-adv-x="83" d=" M48,-33 L45,-32 Q71,-15 68,2 L64,2 Q46,3 45,18 Q46,33 64,34 Q83,34 83,8 Q77,-19 48,-33"/> 
            <glyph glyph-name="？" unicode="&#xFF1F;" horiz-adv-x="109" d=" M63,38 L55,38 L55,44 Q55,64 69,84 Q85,106 84,124 Q83,157 63,158 Q48,157 44,138 Q56,113 34,108 Q20,108 20,125 Q23,164 64,166 Q105,163 108,125 Q109,98 85,83 Q63,67 63,44 M59,19 Q74,18 75,1 Q74,-12 59,-14 Q45,-15 44,1 Q44,18 59,19"/> 
        </font>
</defs>
</svg>
