<?xml version="1.0" standalone="no"?>
<!DOCTYPE svg PUBLIC "-//W3C//DTD SVG 1.1//EN" "http://www.w3.org/Graphics/SVG/1.1/DTD/svg11.dtd" >
<svg xmlns="http://www.w3.org/2000/svg">
    <defs>
        <font id="">
            <font-face font-family=""
                       units-per-em="256"
                       ascent="221"
                       descent="-58"
                       bbox="0 -58 264 221"
                    />
            <missing-glyph horiz-adv-x="0" />
            
            <glyph glyph-name="0" unicode="&#x30;" horiz-adv-x="101" d=" M57,180 Q101,179 101,89 Q101,-1 57,0 Q11,-1 12,89 Q12,180 57,180 M57,172 Q36,173 36,89 Q36,3 57,6 Q78,4 78,89 Q79,175 57,172"/> 
            <glyph glyph-name="2" unicode="&#x32;" horiz-adv-x="103" d=" M96,60 L103,58 L99,3 L13,3 Q16,55 53,88 Q77,109 77,136 Q77,173 56,173 Q41,171 38,153 Q51,130 29,124 Q15,125 15,142 Q18,179 57,181 Q99,179 101,136 Q102,99 63,76 Q35,62 27,30 L78,30 Q91,27 96,60"/> 
            <glyph glyph-name="A" unicode="&#x41;" horiz-adv-x="156" d=" M91,3 L91,10 Q113,10 108,24 L98,60 L48,60 L37,24 Q32,11 56,10 L56,3 L8,3 L8,10 Q23,9 28,25 L76,177 L89,178 L133,33 Q139,10 156,10 L156,3 M51,70 L95,70 L74,144"/> 
            <glyph glyph-name="F" unicode="&#x46;" horiz-adv-x="116" d=" M26,36 L26,144 Q27,171 9,169 L9,177 L112,177 L116,133 L108,131 Q101,173 77,169 L49,169 L49,97 L71,97 Q90,95 91,121 L98,121 L98,63 L91,63 Q89,91 71,89 L49,89 L49,37 Q47,9 68,11 L68,3 L8,3 L8,11 Q27,10 26,36"/> 
            <glyph glyph-name="H" unicode="&#x48;" horiz-adv-x="150" d=" M94,3 L94,11 Q112,8 110,37 L110,91 L49,91 L49,36 Q48,9 66,11 L66,3 L9,3 L9,11 Q28,9 27,36 L27,142 Q29,172 10,169 L10,177 L65,177 L65,169 Q47,172 49,142 L49,99 L110,99 L110,142 Q111,171 94,169 L94,177 L149,177 L149,169 Q131,172 133,142 L133,37 Q131,8 150,11 L150,3"/> 
            <glyph glyph-name="I" unicode="&#x49;" horiz-adv-x="69" d=" M9,177 L69,177 L69,169 Q49,171 50,142 L50,36 Q49,9 69,11 L69,3 L8,3 L8,11 Q28,9 27,36 L27,142 Q28,171 9,169"/> 
            <glyph glyph-name="P" unicode="&#x50;" horiz-adv-x="123" d=" M25,36 L25,144 Q26,171 8,169 L8,177 L67,177 Q122,177 122,129 Q123,75 68,76 L48,76 L48,37 Q47,9 67,11 L67,3 L8,3 L8,11 Q26,9 25,36 M48,83 L61,83 Q97,84 98,128 Q98,169 61,169 L48,169"/> 
            <glyph glyph-name="…" unicode="&#x2026;" horiz-adv-x="226" d=" M43,77 Q31,78 30,90 Q31,101 43,102 Q55,101 56,90 Q55,78 43,77 M214,77 Q202,78 201,90 Q202,101 214,102 Q225,101 226,90 Q225,78 214,77 M128,77 Q116,78 115,90 Q116,101 128,102 Q140,101 141,90 Q140,78 128,77"/> 
            <glyph glyph-name="一" unicode="&#x4E00;" horiz-adv-x="241" d=" M54,95 Q28,93 22,91 L12,101 L202,105 L220,123 L240,103 Q241,100 238,100"/> 
            <glyph glyph-name="上" unicode="&#x4E0A;" horiz-adv-x="241" d=" M59,-16 Q33,-16 23,-20 L12,-11 L107,-8 L108,167 L106,213 L138,204 Q141,204 139,200 Q134,197 133,190 L132,115 L190,116 L205,133 L224,114 Q226,112 223,112 L132,109 L131,-8 L201,-7 L219,9 L240,-8 Q241,-11 238,-11"/> 
            <glyph glyph-name="下" unicode="&#x4E0B;" horiz-adv-x="243" d=" M48,184 Q30,183 21,181 L12,190 L204,193 L221,210 L242,190 Q243,189 243,188 Q243,187 241,187 L118,185 L134,179 Q135,179 135,176 L134,164 L134,51 L135,4 Q132,-12 111,-25 Q107,-26 106,-20 L108,46 L109,157 Q108,173 106,185 M154,131 Q214,104 219,90 Q222,72 204,60 Q196,56 194,63 Q181,102 152,129 Q152,132 154,131"/> 
            <glyph glyph-name="不" unicode="&#x4E0D;" horiz-adv-x="249" d=" M68,179 Q52,178 41,176 L32,186 L209,188 L225,205 L243,186 Q244,183 242,183 L162,181 L176,168 Q177,166 173,164 Q177,166 172,163 Q164,151 155,141 L156,2 Q154,-14 135,-24 Q130,-25 130,-20 L131,20 L132,113 Q73,50 6,13 Q4,12 3,13 Q3,14 4,16 Q82,66 127,146 Q127,148 126,152 Q127,150 125,154 Q126,157 129,156 L132,154 Q140,168 146,181 M184,112 Q229,93 242,69 Q249,52 233,39 Q222,37 220,46 Q212,81 183,110 Q182,111 184,112"/> 
            <glyph glyph-name="也" unicode="&#x4E5F;" horiz-adv-x="255" d=" M131,202 L128,197 L128,135 L163,151 L172,170 L195,157 Q197,156 195,154 L187,142 L187,70 Q193,32 158,16 Q155,15 154,18 Q153,31 146,35 Q145,37 146,38 Q165,35 164,60 L164,145 L128,129 L127,54 Q128,26 114,12 Q110,8 108,8 Q106,8 106,13 L106,119 L71,103 L68,16 Q68,3 79,2 Q145,-6 207,5 Q222,8 232,37 Q233,39 235,39 Q237,38 236,36 Q234,15 240,8 Q255,-9 233,-16 Q211,-23 168,-24 Q123,-25 81,-19 Q49,-15 51,28 L52,94 L45,91 Q30,85 18,76 L7,82 L52,102 L52,133 Q52,144 51,160 Q51,167 51,169 Q50,173 53,171 L75,159 Q77,159 75,156 L72,148 L71,110 L106,126 L106,174 Q106,205 105,214 Q105,216 106,215 L130,205 Q131,205 132,204 Q132,204 131,202"/> 
            <glyph glyph-name="互" unicode="&#x4E92;" horiz-adv-x="244" d=" M177,145 L200,132 Q202,131 200,130 L192,121 L175,-10 L204,-10 L222,6 L242,-12 Q244,-14 242,-15 L53,-18 Q39,-19 26,-21 L19,-13 L149,-11 L156,41 L61,40 Q58,40 57,42 Q57,44 60,45 Q65,47 66,54 L82,151 L86,181 L63,181 Q52,181 40,179 Q37,178 35,178 L26,187 L189,188 L205,204 L225,187 Q226,185 226,185 Q225,184 224,184 L91,182 L110,172 Q112,170 111,169 Q110,168 110,168 L107,163 L101,130 L166,131 M88,46 L157,47 L166,125 L100,124"/> 
            <glyph glyph-name="体" unicode="&#x4F53;" horiz-adv-x="254" d=" M151,215 L176,204 Q177,204 177,202 L172,194 L171,155 L206,156 L219,168 L235,154 Q237,151 234,151 L180,150 Q193,81 253,28 Q254,27 254,26 Q254,25 252,25 Q236,25 221,14 Q185,56 176,150 L171,150 L169,42 L174,42 L184,53 L199,40 Q200,38 198,38 L169,37 L170,-3 Q168,-16 154,-30 Q148,-35 147,-29 L149,37 L141,36 Q140,36 135,36 Q126,35 123,35 L117,41 L149,42 L149,43 L149,104 Q124,62 80,12 Q75,9 78,14 Q113,65 144,150 L132,150 Q122,150 109,148 Q105,147 103,147 L95,154 L150,155 L150,180 Q150,203 149,214 Q149,216 151,215 M7,78 Q5,77 4,78 Q4,80 5,81 Q57,133 89,214 L111,200 Q113,199 113,199 Q113,198 111,197 L108,193 Q97,175 75,148 L77,0 Q74,-13 62,-28 Q59,-30 57,-30 Q56,-30 56,-27 L57,40 L58,127 Q31,98 7,78"/> 
            <glyph glyph-name="作" unicode="&#x4F5C;" horiz-adv-x="239" d=" M143,212 L164,198 Q166,197 164,195 Q165,195 164,194 L158,188 Q147,175 135,161 L205,164 L218,179 L237,163 Q239,162 237,161 L160,157 L160,112 L199,114 L212,127 L228,113 Q230,112 227,110 L160,107 L161,59 L206,61 L219,75 L235,60 Q237,59 234,57 L161,55 L161,1 Q158,-14 144,-27 Q138,-31 137,-26 L139,41 L141,156 L129,155 Q111,137 93,123 Q90,121 91,125 Q126,163 141,211 Q141,215 143,212 M7,78 Q5,77 4,78 Q4,80 5,81 Q57,133 89,214 L111,200 Q113,199 113,199 Q113,198 111,197 L108,193 Q97,175 75,148 L77,0 Q74,-13 62,-28 Q59,-30 57,-30 Q56,-30 56,-27 L57,40 L58,127 Q31,98 7,78"/> 
            <glyph glyph-name="你" unicode="&#x4F60;" horiz-adv-x="250" d=" M5,72 Q3,71 2,72 Q2,74 3,75 Q74,134 103,210 L123,197 Q126,196 123,192 Q100,155 82,137 L81,1 Q79,-12 67,-26 Q61,-31 60,-26 L62,41 L63,119 Q39,97 5,72 M182,13 Q183,-11 153,-27 Q151,-28 150,-26 Q150,-11 141,-7 Q139,-7 141,-4 Q161,-5 158,1 L159,111 L157,138 Q157,143 159,141 L184,134 Q187,133 185,130 L183,123 L182,46 M211,168 L221,179 L247,157 Q250,154 246,152 Q229,152 206,138 Q203,137 204,140 L211,163 L144,162 Q126,136 95,107 Q94,106 93,107 Q91,108 92,109 Q130,154 145,210 L168,199 Q170,198 168,196 L165,192 Q163,189 159,183 Q152,172 148,167 M126,102 L148,93 Q150,92 150,91 Q151,91 149,89 Q125,43 92,6 Q90,5 89,5 Q88,6 89,8 Q115,48 126,102 M193,93 Q236,65 242,49 Q243,38 231,29 Q227,25 224,26 Q221,28 220,34 Q213,62 191,91 Q190,94 193,93"/> 
            <glyph glyph-name="便" unicode="&#x4FBF;" horiz-adv-x="253" d=" M137,187 Q134,187 127,186 Q113,186 109,184 L101,191 L208,195 L220,206 L237,193 Q238,191 238,191 Q237,190 236,190 L158,187 L171,179 L170,158 L198,159 L206,170 L230,158 Q230,158 231,157 Q232,157 231,155 L225,146 L225,99 Q225,86 211,72 Q206,67 202,72 Q198,82 194,88 L168,87 Q165,52 150,28 Q186,8 251,-6 Q253,-7 252,-8 Q252,-10 250,-10 Q234,-11 214,-30 Q167,-12 140,16 Q115,-12 40,-33 Q38,-33 37,-31 Q37,-30 39,-29 Q109,-8 132,26 Q119,43 111,67 L114,68 Q120,50 137,36 Q149,57 151,87 L123,86 Q119,76 111,71 Q109,70 107,70 Q106,71 106,73 L106,141 Q106,157 105,162 Q105,164 108,163 L122,156 L153,157 Q153,177 151,187 M4,67 Q3,66 2,67 Q1,69 2,70 Q50,121 84,215 L106,202 Q108,201 106,199 Q107,199 106,198 L102,194 Q88,168 73,147 L75,14 Q75,3 61,-12 Q59,-14 57,-14 Q56,-14 56,-11 L57,56 L58,126 Q33,94 4,67 M169,105 Q169,98 169,92 L198,93 L199,154 L170,153 L170,127 L188,128 Q191,128 191,126 Q191,123 188,123 L170,122 M122,121 L123,91 L152,92 Q152,101 153,112 L153,122 M153,146 Q153,149 153,152 L122,151 L122,126 L153,126"/> 
            <glyph glyph-name="做" unicode="&#x505A;" horiz-adv-x="248" d=" M133,91 L140,101 L155,90 Q156,90 156,88 L152,81 L153,33 L155,27 Q156,24 153,24 Q135,27 101,27 L102,17 Q95,-1 88,3 L87,96 Q87,100 89,98 L100,89 L110,90 L112,147 Q93,146 84,144 L77,150 L112,152 L113,178 Q113,204 113,214 L134,208 Q135,208 135,206 L132,202 L130,153 L143,154 L153,164 L165,152 Q167,150 165,150 L130,148 L127,91 M171,108 Q178,72 186,57 Q198,88 203,134 L175,132 Q166,117 157,99 Q156,98 155,98 Q154,98 154,100 Q178,168 185,209 Q185,211 187,210 L209,196 Q211,195 209,194 Q203,190 199,181 Q195,171 186,154 Q181,143 178,137 L218,141 L228,153 L243,140 Q245,138 242,138 L207,135 L222,127 Q224,126 221,121 Q213,73 194,41 Q210,14 247,-2 Q248,-3 248,-4 Q248,-5 246,-5 Q234,-4 217,-20 Q192,4 184,26 Q166,0 129,-27 Q125,-29 127,-25 Q161,5 179,41 Q174,58 169,98 Q168,103 168,106 M6,66 Q2,65 4,68 Q48,130 73,204 L92,195 Q94,194 91,192 L88,188 Q81,171 70,153 L68,4 Q68,-8 57,-23 Q51,-28 50,-23 L52,44 L54,127 Q32,96 6,66 M101,84 L102,32 L135,34 L134,86"/> 
            <glyph glyph-name="充" unicode="&#x5145;" horiz-adv-x="256" d=" M58,175 Q55,175 48,174 Q34,174 29,172 L22,179 L114,181 Q114,182 114,182 L115,182 L116,214 L144,208 Q147,208 145,204 L142,197 L141,181 L204,183 L217,195 L233,180 Q235,178 232,178 L122,176 L136,166 Q140,164 136,161 L128,157 Q120,149 96,130 Q83,119 78,114 L180,120 Q172,135 157,146 Q156,149 159,148 Q208,128 210,116 Q211,103 202,94 Q192,86 189,97 Q188,102 184,111 Q183,114 182,115 Q161,112 145,108 L169,97 Q171,96 169,94 L165,88 L159,21 Q156,8 172,8 Q188,7 209,11 Q221,13 228,37 Q229,39 231,38 Q232,38 232,36 Q230,22 238,17 Q256,0 231,-11 Q205,-21 172,-16 Q137,-15 141,32 L142,73 Q142,99 141,108 Q116,102 100,99 L121,90 Q123,89 123,88 Q123,87 121,86 L119,80 L116,60 Q118,-5 6,-34 Q4,-35 3,-33 Q3,-32 5,-31 Q96,-6 95,61 L97,75 Q97,88 95,98 Q66,90 59,88 Q55,85 53,89 L44,113 L68,114 Q97,149 111,176"/> 
            <glyph glyph-name="内" unicode="&#x5185;" horiz-adv-x="229" d=" M116,214 L143,206 Q146,206 144,202 L141,194 Q141,176 139,160 L193,161 L205,174 L227,159 Q229,158 227,156 L219,145 L218,60 L219,27 Q219,-8 180,-27 Q177,-29 176,-26 Q177,-8 166,-3 Q164,-2 165,0 Q165,0 167,0 Q195,-2 192,21 L194,155 L139,154 Q136,129 129,110 Q182,86 185,75 Q187,62 174,49 Q167,44 164,54 Q154,81 127,105 Q113,66 60,27 L60,1 Q59,-12 45,-27 Q42,-30 40,-30 Q38,-29 38,-26 L39,129 Q40,150 38,172 Q38,175 39,173 L62,159 L116,159 Q116,184 116,214 M61,153 L60,33 Q111,78 115,153"/> 
            <glyph glyph-name="出" unicode="&#x51FA;" horiz-adv-x="220" d=" M188,85 L217,73 Q220,72 217,69 L214,62 L214,14 Q214,-4 194,-19 Q190,-22 188,-17 Q184,-2 181,1 L63,0 L63,-2 Q60,-17 49,-24 Q44,-28 42,-23 L43,51 L43,81 L65,72 Q68,71 66,69 L64,63 L63,5 L114,5 L114,112 L72,111 Q69,99 57,89 Q51,85 50,90 L51,159 L50,186 L73,176 Q75,175 74,172 L72,166 L72,116 L114,117 L113,168 L112,213 L142,205 Q145,205 142,201 Q139,200 137,191 L136,117 L183,118 Q183,118 184,120 L185,169 L184,186 L213,174 Q217,173 214,170 L210,163 L210,126 Q210,107 191,93 Q187,90 185,95 Q181,108 177,113 L136,112 L135,6 L186,6 Q187,6 187,8 L188,66"/> 
            <glyph glyph-name="分" unicode="&#x5206;" horiz-adv-x="252" d=" M52,106 L157,110 L169,124 L193,108 Q195,107 193,104 L185,95 Q184,37 182,11 Q175,-12 144,-26 Q142,-27 142,-27 Q141,-26 141,-25 Q143,-9 133,-3 Q131,-2 132,0 Q132,0 134,0 Q156,-1 155,12 Q157,19 158,49 Q159,86 158,104 L95,102 L116,94 Q118,93 118,93 Q118,93 116,91 L114,84 Q111,5 9,-34 Q7,-35 6,-34 Q5,-32 7,-31 Q91,9 91,79 Q91,89 91,102 L80,102 Q78,102 71,101 Q62,100 60,99 M138,212 Q170,154 250,115 Q252,113 250,112 Q237,113 218,95 Q159,139 136,210 M17,84 Q15,83 14,84 Q13,85 15,87 Q68,136 95,209 L122,198 Q122,197 121,195 L115,190 Q79,133 17,84"/> 
            <glyph glyph-name="别" unicode="&#x522B;" horiz-adv-x="239" d=" M68,131 Q62,119 57,115 Q51,112 51,116 L52,146 L52,180 Q52,185 51,194 Q51,199 51,201 Q51,204 53,202 L70,190 L119,192 L127,204 L148,192 Q150,190 148,189 L143,182 L143,145 Q144,136 132,122 Q127,116 123,121 Q122,123 120,127 Q117,131 116,133 M76,126 L100,117 Q103,116 101,114 L98,107 Q98,104 97,98 Q97,93 97,91 L127,92 L139,105 L159,91 Q161,90 161,90 Q161,90 159,88 L152,79 Q152,74 151,59 Q149,18 148,15 Q144,-6 115,-22 Q112,-23 111,-20 Q113,-3 103,0 Q101,0 102,2 Q102,4 104,3 Q126,3 126,16 Q129,29 129,87 L96,85 Q94,13 6,-32 Q4,-33 3,-32 Q2,-30 4,-29 Q73,12 74,84 L55,83 Q54,83 53,83 Q38,81 34,79 L26,87 L75,90 Q75,95 76,101 Q76,102 76,107 Q75,122 76,126 M212,207 L237,196 Q239,195 237,193 L232,184 L232,23 Q234,-9 205,-23 Q203,-24 202,-24 Q201,-23 201,-21 Q202,-7 193,-2 Q192,-1 192,0 Q192,0 194,0 Q212,0 210,10 L211,156 Q210,190 210,205 Q210,208 212,207 M120,187 L69,184 L69,136 L119,139 M178,164 L191,157 Q194,156 193,151 L192,59 Q190,43 180,33 Q176,30 174,34 L175,162 Q175,164 176,164 Q176,165 178,164"/> 
            <glyph glyph-name="力" unicode="&#x529B;" horiz-adv-x="232" d=" M117,213 L143,204 Q146,203 144,201 L141,195 Q140,173 140,153 L193,154 L205,168 L229,153 Q232,152 230,150 L221,139 Q221,129 220,97 Q219,60 219,47 Q219,24 217,16 Q210,-9 178,-23 Q175,-24 175,-21 Q175,-4 167,0 Q165,1 165,2 Q165,4 167,3 Q190,1 190,20 Q194,66 195,148 L139,146 Q137,62 110,29 Q85,-6 8,-30 Q6,-31 6,-29 Q6,-27 7,-26 Q72,-2 93,32 Q116,65 118,145 L93,144 Q69,144 55,140 L46,150 L118,152 Q118,179 117,213"/> 
            <glyph glyph-name="加" unicode="&#x52A0;" horiz-adv-x="237" d=" M213,177 L235,164 Q237,164 235,162 L229,152 L230,50 L231,48 Q232,46 230,46 Q211,46 175,45 L175,16 Q174,0 161,-13 Q155,-16 155,-12 L156,44 L156,151 Q156,167 156,177 Q156,179 158,177 L176,165 L205,166 M65,216 L87,206 Q90,204 88,201 L86,195 L86,162 L111,163 L121,176 L144,163 Q146,162 143,160 L136,150 L135,82 L136,29 Q138,0 106,-16 Q104,-17 103,-17 Q101,-16 102,-14 Q103,-1 94,3 Q92,4 93,5 Q93,6 95,6 Q113,6 111,18 L112,158 L86,157 L86,123 Q90,23 5,-27 Q0,-29 3,-25 Q42,7 53,35 Q66,64 66,123 L66,156 L54,156 Q46,156 31,153 L24,160 L66,162 L66,178 Q66,185 65,202 Q65,213 65,216 M176,161 L175,50 L206,51 L204,162"/> 
            <glyph glyph-name="动" unicode="&#x52A8;" horiz-adv-x="241" d=" M160,212 L183,202 Q186,200 184,197 L182,191 L182,156 L206,157 L217,170 L239,157 Q241,156 239,154 L232,145 L230,80 L231,22 Q229,-3 201,-18 Q198,-20 197,-15 Q198,-3 189,1 Q188,2 188,3 Q188,4 190,4 Q208,4 206,16 L208,152 L182,151 L182,119 Q188,8 73,-32 Q71,-32 71,-30 Q70,-29 72,-28 Q124,-3 141,26 Q160,56 161,119 L161,150 L158,150 Q152,150 139,147 Q138,147 137,147 L129,154 L161,155 L161,174 Q161,205 160,212 M52,113 Q47,113 39,112 Q29,112 25,111 L17,117 L113,120 L125,132 L141,117 Q142,116 140,114 L71,113 L90,104 Q92,102 90,100 Q66,60 40,27 L102,39 Q98,54 90,63 Q89,66 92,65 Q125,42 129,27 Q129,14 114,7 Q106,4 106,13 Q106,25 103,36 Q72,23 30,2 Q26,1 25,0 Q22,-1 21,0 L13,21 Q12,24 14,24 Q26,24 29,27 Q48,52 63,113 M68,174 Q50,174 40,172 L33,178 L96,180 L106,191 L121,178 Q123,177 121,175"/> 
            <glyph glyph-name="勺" unicode="&#x52FA;" horiz-adv-x="238" d=" M11,93 Q8,92 8,93 Q7,94 9,96 Q74,147 104,213 L125,198 Q127,195 124,193 L119,190 Q115,185 106,175 Q101,170 99,167 L202,170 L213,183 L236,168 Q238,167 236,165 L227,155 L225,66 L226,33 Q225,-7 184,-28 Q183,-29 182,-29 Q181,-28 181,-27 Q183,-11 170,-4 Q168,-3 169,-2 Q169,-1 171,-1 Q204,-3 201,33 L203,164 L93,161 Q67,133 11,93 M84,106 Q139,90 143,72 Q144,57 132,48 Q127,44 124,44 Q120,45 119,51 Q108,87 84,104 Q81,106 84,106"/> 
            <glyph glyph-name="匹" unicode="&#x5339;" horiz-adv-x="239" d=" M173,175 Q175,174 173,172 L169,165 L155,80 Q153,68 164,69 Q176,68 198,72 Q207,74 212,88 Q213,90 215,90 Q216,89 216,87 Q214,73 223,70 Q238,53 210,44 Q187,40 166,44 Q139,48 140,83 L146,168 L146,185 L114,184 L129,178 Q132,177 130,175 L128,169 Q127,81 62,25 Q60,24 59,26 Q58,28 60,29 Q107,77 106,184 L65,183 L65,188 L187,191 L202,206 L221,189 Q223,186 220,186 L151,185 M37,200 L61,187 L58,178 L56,2 L202,5 L219,22 L238,4 Q239,2 239,2 Q238,1 237,1 L57,-2 Q51,-16 38,-26 Q35,-27 33,-24 L35,31 L37,154 Q37,180 35,199 Q35,200 37,200"/> 
            <glyph glyph-name="升" unicode="&#x5347;" horiz-adv-x="249" d=" M124,212 L141,194 Q142,192 140,191 L131,189 Q115,183 97,177 L113,172 Q115,172 113,169 L109,163 L109,108 L151,108 L151,170 L149,214 L179,206 Q180,206 181,205 Q180,204 179,203 Q176,200 175,193 L175,109 L211,109 L228,127 L248,106 Q249,105 247,103 L175,102 L175,25 L175,-2 Q172,-18 154,-33 Q149,-32 149,-28 L151,20 L151,102 L109,101 Q115,15 9,-33 Q7,-33 7,-31 Q6,-30 8,-29 Q89,14 86,101 L51,100 Q41,100 27,98 Q25,97 24,97 L15,106 L86,107 L87,145 Q86,161 86,173 Q79,171 63,166 Q48,161 40,158 Q37,159 39,162 Q92,187 124,212"/> 
            <glyph glyph-name="单" unicode="&#x5355;" horiz-adv-x="243" d=" M154,214 L176,200 Q178,200 176,197 L170,193 L138,163 L173,164 L182,176 L204,164 Q206,164 205,162 L200,153 L200,125 L201,98 Q200,86 188,73 Q183,69 180,73 Q174,83 171,86 L138,86 L138,52 L208,53 L225,69 L242,52 Q243,49 241,49 L138,47 L138,42 L139,-1 Q135,-17 124,-28 Q116,-35 115,-28 L116,46 L49,45 Q30,44 21,42 L15,50 L116,51 L116,85 L79,84 Q73,74 66,69 Q60,66 59,71 L60,114 L60,153 L59,172 Q58,175 61,173 L79,162 L131,163 M174,159 L138,158 L138,129 L164,129 Q166,130 166,127 Q165,125 163,125 L138,125 L138,90 L174,91 M79,123 L79,89 L116,90 L116,124 M79,157 L79,127 L116,128 L116,158 M80,207 Q112,196 111,189 Q112,178 102,173 Q96,170 94,176 Q89,196 79,205 Q78,207 80,207"/> 
            <glyph glyph-name="厅" unicode="&#x5385;" horiz-adv-x="246" d=" M60,202 Q60,205 62,204 L86,193 L210,195 L224,211 L244,194 Q246,191 243,191 L83,187 L83,119 Q83,71 67,44 Q51,14 6,-22 Q4,-22 4,-20 Q3,-19 5,-18 Q40,13 51,44 Q63,72 62,132 L61,172 M131,141 Q114,141 104,138 L94,146 L206,148 L221,165 L239,148 Q240,147 240,146 Q240,145 238,145 L160,142 L181,134 Q183,133 181,130 L178,122 L177,64 L178,18 Q179,-12 144,-25 Q141,-26 141,-26 Q140,-26 140,-23 Q141,-8 131,-3 Q130,-2 131,0 Q131,0 133,0 Q158,-1 154,7 L155,142"/> 
            <glyph glyph-name="压" unicode="&#x538B;" horiz-adv-x="244" d=" M122,95 Q102,95 96,93 L87,101 L138,101 L138,126 L137,171 L166,163 Q168,162 166,159 Q163,156 162,149 L162,102 L196,102 L209,115 L226,100 Q228,98 225,98 L162,96 L161,-3 L208,-2 L223,12 L243,-4 Q244,-6 242,-7 Q242,-6 241,-7 L88,-10 Q76,-10 64,-12 Q65,-11 62,-12 L53,-4 L140,-3 L138,96 M60,201 Q60,204 62,203 L87,189 L202,191 L217,206 L236,190 Q238,187 235,187 L83,183 L83,119 Q90,38 3,-21 Q1,-22 1,-20 Q1,-18 2,-17 Q38,14 50,46 Q63,76 62,133 L62,170 M175,70 Q215,54 217,43 Q218,31 205,22 Q199,19 197,26 Q190,55 174,68 Q174,70 175,70"/> 
            <glyph glyph-name="厨" unicode="&#x53A8;" horiz-adv-x="245" d=" M57,200 Q57,203 59,202 L83,191 L208,193 L222,208 L242,191 Q243,189 240,189 L81,186 L80,116 Q80,64 65,37 Q49,6 4,-29 Q2,-29 2,-27 Q1,-26 3,-25 Q38,4 49,36 Q60,64 59,129 L58,170 M220,175 Q222,175 222,174 Q222,174 220,172 L219,166 L218,135 L220,135 L230,146 L243,134 Q245,133 243,132 L218,131 L218,55 L218,14 Q219,-11 190,-26 Q187,-27 188,-24 Q188,-9 181,-6 Q180,-5 180,-4 Q180,-3 182,-3 Q201,-4 198,4 L199,130 L167,129 Q164,128 163,130 Q163,133 166,134 L199,134 L198,184 M141,140 L161,129 Q164,128 162,126 L157,120 L157,82 L158,79 Q159,78 158,77 Q140,79 108,78 Q107,70 96,62 Q90,59 90,63 L90,90 L90,115 L89,137 L108,130 L133,131 M170,23 Q171,23 172,22 Q171,21 170,20 L118,-2 Q98,-10 86,-18 Q84,-21 82,-18 L66,-3 Q65,-2 65,-2 Q65,-1 66,0 Q81,0 104,6 L123,10 Q136,52 138,70 L161,61 Q163,60 161,57 L128,12 M108,126 L108,82 L134,83 L134,126 M86,155 Q83,155 83,158 Q82,160 85,160 L140,161 L152,173 L167,160 Q168,159 168,158 Q168,157 166,157 M95,56 Q118,40 117,32 Q114,22 104,19 Q97,18 98,25 Q100,42 93,54 Q92,57 95,56 M169,104 Q192,90 193,81 Q191,75 181,70 Q175,68 175,74 Q175,92 167,102 Q167,105 169,104"/> 
            <glyph glyph-name="发" unicode="&#x53D1;" horiz-adv-x="243" d=" M109,213 L142,201 Q144,200 142,198 Q143,198 142,197 L136,193 Q132,164 122,132 L202,133 L218,150 L238,131 Q239,130 239,130 Q239,129 237,128 L120,126 Q114,110 106,93 L176,94 L187,108 L210,93 Q212,91 209,90 L202,83 Q181,52 156,30 Q185,9 240,-2 Q243,-4 241,-7 Q220,-9 202,-31 Q166,-10 140,17 Q103,-9 48,-32 Q46,-33 45,-31 Q45,-30 47,-29 Q104,1 131,30 Q115,54 105,88 L104,88 Q74,30 17,-21 Q15,-22 14,-21 Q13,-20 14,-18 Q71,43 94,125 L56,125 Q50,116 39,113 Q33,112 33,116 L38,141 L47,195 Q47,198 50,198 L72,186 Q74,185 72,181 L58,131 L96,131 Q106,171 109,213 M175,90 L109,88 Q121,60 141,41 Q159,62 175,90 M164,194 Q197,183 200,172 Q200,161 187,153 Q179,149 175,157 Q174,180 162,191 Q161,193 161,194 Q162,195 164,194"/> 
            <glyph glyph-name="口" unicode="&#x53E3;" horiz-adv-x="209" d=" M202,38 Q176,40 97,40 Q83,40 78,40 L78,27 Q75,7 62,-2 Q56,-5 55,-1 L56,58 L56,141 L54,179 Q54,184 57,182 L79,167 L170,169 L183,185 L208,170 Q209,169 209,167 L202,158 L203,48 L205,41 Q206,39 205,38 Q204,37 202,38 M77,162 L78,47 L173,48 L172,163"/> 
            <glyph glyph-name="台" unicode="&#x53F0;" horiz-adv-x="219" d=" M164,77 L176,90 L199,76 Q202,75 200,73 L194,66 L195,3 L197,-2 Q198,-4 197,-5 Q196,-6 194,-5 Q144,-1 88,-3 L89,-14 Q78,-31 67,-26 L66,82 Q66,85 67,86 Q68,87 69,85 L88,75 M166,167 Q218,136 219,122 Q217,107 206,100 Q195,93 193,105 Q192,112 188,123 Q187,128 186,130 Q100,114 58,101 Q54,98 52,102 L42,127 Q62,128 70,138 Q97,174 122,214 L144,197 Q149,195 144,191 L136,186 Q109,159 71,128 L185,134 Q178,150 165,165 Q164,168 166,167 M88,69 L88,2 L167,3 L166,71"/> 
            <glyph glyph-name="吃" unicode="&#x5403;" horiz-adv-x="254" d=" M76,190 L100,177 Q100,176 100,174 L92,164 L93,68 L95,66 Q95,64 94,64 Q73,64 45,63 L45,47 Q42,29 30,15 Q26,12 24,16 L26,78 L26,163 Q26,168 25,181 Q25,187 25,189 Q25,191 27,190 L45,177 L66,178 M173,116 L142,114 Q127,113 114,110 L105,117 L171,122 L183,134 L209,116 L198,107 L129,20 Q124,14 127,11 Q129,8 138,7 Q174,4 202,10 Q217,12 225,36 Q226,38 227,38 Q229,37 228,35 Q225,17 235,12 Q254,-3 228,-15 Q195,-23 143,-17 Q102,-10 115,27 M45,172 L45,68 L68,69 L68,173 M139,216 L161,204 Q163,203 161,201 L156,196 Q150,183 141,170 L200,173 L214,189 L233,172 Q235,171 232,169 L136,165 Q120,143 96,120 Q94,118 94,122 Q125,162 139,216"/> 
            <glyph glyph-name="同" unicode="&#x540C;" horiz-adv-x="222" d=" M196,206 L220,194 Q222,191 220,190 L213,180 L213,49 L214,13 Q214,-11 181,-27 Q178,-27 178,-25 Q180,-8 168,-4 Q167,-4 167,-3 Q168,-1 169,-1 Q187,-3 187,1 L186,187 L69,186 L70,10 Q68,-7 55,-24 Q52,-27 50,-26 Q47,-26 47,-22 L49,35 L49,166 L48,201 Q48,204 50,202 L71,191 L186,192 M151,124 L173,113 Q175,112 173,111 L168,102 L167,55 L169,51 Q169,49 168,49 Q159,49 108,49 Q108,40 95,27 Q92,25 91,26 Q90,26 90,28 L91,65 L90,95 Q90,111 90,120 Q90,123 92,121 L110,111 L143,113 M109,106 L109,54 L143,55 L144,107 M83,149 Q80,148 79,151 Q79,154 82,154 L148,155 L160,168 L176,154 Q177,153 177,152 Q177,151 175,151"/> 
            <glyph glyph-name="味" unicode="&#x5473;" horiz-adv-x="251" d=" M152,215 L176,204 Q178,203 176,201 L173,194 L172,163 L196,164 L208,176 L223,163 Q224,161 221,160 L172,158 L172,114 L209,115 L222,127 L238,113 Q240,112 237,110 L179,109 Q193,54 248,11 Q251,8 248,7 Q235,9 218,-2 Q192,26 176,109 L171,109 L170,41 L171,-3 Q168,-19 154,-30 Q149,-34 148,-29 L150,43 L150,75 Q112,23 70,-10 Q68,-12 66,-11 Q65,-10 67,-8 Q106,30 142,108 L130,108 Q114,107 102,105 L95,112 L150,113 L150,157 L108,156 Q104,156 104,159 Q104,161 107,161 L150,163 L151,179 Q151,188 150,203 Q150,211 150,214 Q150,215 152,215 M75,190 L99,177 Q101,176 99,174 L91,164 L93,68 L94,66 Q95,64 93,64 Q77,64 44,63 L44,47 Q44,33 30,16 Q27,14 26,14 Q24,15 24,17 L26,78 L26,163 Q26,168 25,181 Q25,187 25,189 Q25,191 28,190 L45,178 L67,178 M45,173 L44,68 L69,69 L68,174"/> 
            <glyph glyph-name="啦" unicode="&#x5566;" horiz-adv-x="252" d=" M55,193 L74,180 Q74,180 74,178 L68,171 L67,75 L69,72 Q70,70 68,70 Q62,70 31,69 L31,52 Q30,36 20,24 Q16,21 15,25 L16,72 L17,163 Q17,168 16,180 Q16,186 16,188 Q16,191 18,189 L33,181 L47,182 M196,137 L219,127 Q221,126 219,124 L216,117 L206,-4 L220,-4 L233,9 L250,-6 Q252,-8 249,-9 L156,-11 Q151,-11 143,-12 Q134,-12 130,-13 L123,-5 L153,-4 L151,97 Q151,106 150,121 Q149,129 149,132 Q149,134 151,133 L171,125 Q173,124 171,123 L169,115 L167,-4 L188,-4 L193,101 Q194,117 194,136 Q194,139 196,137 M78,149 Q74,149 74,152 Q74,155 78,155 L97,156 L97,162 Q98,177 96,200 Q96,208 96,211 Q95,213 96,214 Q97,214 99,213 L120,203 Q122,202 122,202 Q122,202 120,200 L117,192 L116,156 L118,156 L126,166 L139,155 Q140,152 138,152 L116,151 L116,106 Q121,109 131,115 Q138,118 141,120 Q143,121 142,117 Q141,116 139,114 Q127,104 116,93 L115,59 L115,16 Q115,-12 90,-27 Q88,-28 87,-28 Q86,-27 87,-25 Q87,-12 80,-4 Q79,-3 79,-2 Q79,-1 81,-1 Q100,-3 97,6 L97,75 Q93,72 88,66 Q84,61 82,60 Q81,59 81,59 Q80,59 79,60 L71,83 Q70,84 71,84 Q70,84 72,85 Q82,88 97,96 L97,150 M142,155 Q139,155 138,158 Q139,161 142,161 L172,162 L173,211 L198,205 Q201,205 199,201 Q196,195 193,162 L207,163 L218,175 L233,161 Q234,159 232,158 M32,176 L31,74 L48,75 L48,177"/> 
            <glyph glyph-name="喊" unicode="&#x558A;" horiz-adv-x="251" d=" M87,175 Q87,177 89,176 L110,162 L165,163 Q165,171 164,187 Q164,204 163,212 L187,201 Q189,200 187,198 L182,193 Q182,178 183,164 L211,164 L223,178 L240,163 Q241,161 238,160 L183,158 Q185,117 192,85 Q201,104 210,126 L228,112 Q231,111 228,108 Q227,107 226,105 Q224,103 223,102 Q212,77 200,59 Q212,29 227,17 Q232,12 237,18 L245,27 Q246,28 248,28 Q249,27 248,25 Q238,11 246,-2 Q251,-15 245,-21 Q240,-26 228,-18 Q198,3 185,39 Q162,9 102,-27 Q99,-27 100,-24 Q152,10 178,59 Q168,94 165,158 L107,157 L107,109 Q106,59 92,35 Q77,6 34,-28 Q32,-29 31,-27 Q30,-25 32,-24 Q66,6 78,36 Q89,65 89,122 L89,144 M60,191 L78,179 Q80,179 78,177 L73,170 L72,74 L74,71 Q74,70 73,70 Q66,70 61,70 Q59,70 33,68 L33,52 Q32,37 22,24 Q17,21 16,26 L18,72 L18,162 Q18,167 17,180 Q17,186 17,188 Q17,189 19,189 L34,180 L51,181 M147,103 L163,93 Q165,92 163,91 L159,84 L158,47 L159,44 Q159,42 158,42 Q152,42 123,41 L123,40 Q123,31 114,20 Q112,18 111,19 Q110,19 109,22 L111,74 Q111,91 111,100 Q111,103 113,101 L124,93 L140,94 M33,174 L33,73 L52,75 L53,176 M124,88 L123,47 L140,48 L140,89 M113,121 Q109,123 113,126 L139,127 L148,138 L161,126 Q162,123 160,123 M197,198 Q216,194 218,188 Q217,181 211,175 Q207,172 205,177 Q204,180 201,185 Q197,193 196,197 Q195,198 197,198"/> 
            <glyph glyph-name="喜" unicode="&#x559C;" horiz-adv-x="247" d=" M48,55 Q30,54 21,51 L14,59 L89,60 Q89,73 86,90 Q86,92 86,92 Q87,93 89,92 L108,83 Q111,82 110,79 L110,61 L145,61 Q155,83 156,98 Q121,99 80,99 Q78,94 68,86 Q64,84 63,84 Q62,84 62,87 L62,111 L62,123 L62,141 L82,133 L172,134 L181,144 L202,132 Q204,132 202,130 L198,123 L198,102 L200,99 Q200,98 199,98 Q183,98 162,98 L181,89 Q182,89 183,88 Q182,87 181,86 L161,61 L213,62 L227,77 L246,60 Q247,59 245,57 M170,36 L181,50 L207,35 Q209,35 207,32 L201,25 L202,1 L204,-1 Q204,-4 202,-4 Q187,-3 162,-3 Q150,-3 133,-3 Q118,-3 84,-3 Q81,-18 68,-28 Q64,-31 62,-27 L63,0 L63,26 L62,47 L85,35 M53,177 Q39,176 26,174 L19,182 L115,183 L115,186 L114,215 L146,202 L141,195 L141,184 L205,185 L218,198 L236,182 Q238,180 236,180 L141,178 L140,155 L180,156 L191,167 L207,154 Q210,152 206,152 L84,150 Q66,149 57,147 L50,154 L115,155 L115,178 M85,30 L84,0 L171,1 L170,31 M82,128 L82,104 L172,104 L172,129"/> 
            <glyph glyph-name="在" unicode="&#x5728;" horiz-adv-x="243" d=" M115,213 L139,198 Q141,196 139,194 Q132,178 121,162 L206,163 L222,179 L241,161 Q242,160 242,159 Q242,158 240,158 L118,156 Q100,129 81,103 L84,101 Q87,100 87,95 L86,-3 Q84,-17 72,-29 Q67,-34 65,-29 L67,28 L67,86 Q38,51 8,24 Q6,23 5,23 Q4,24 5,26 Q50,73 91,156 L52,155 Q34,155 24,153 L17,161 L93,162 Q107,190 112,211 Q114,214 115,213 M109,72 Q106,72 106,75 Q105,78 108,78 L149,80 L149,96 L147,140 L176,132 Q177,132 178,131 Q177,130 176,129 Q173,126 172,119 L171,80 L191,81 L204,95 L220,79 Q222,77 220,76 L171,74 L171,-3 L210,-2 L225,11 L241,-4 Q243,-6 241,-6 L125,-9 Q111,-10 98,-12 L90,-4 L149,-3 L149,74"/> 
            <glyph glyph-name="堂" unicode="&#x5802;" horiz-adv-x="243" d=" M186,72 Q142,74 88,73 Q87,70 77,62 Q70,58 70,63 L71,88 L71,109 L71,133 L92,123 L158,125 L168,137 L191,126 Q191,126 191,125 Q192,124 191,124 L187,116 L186,79 L189,75 Q190,72 186,72 M202,155 L214,164 L240,138 Q243,135 237,133 Q219,133 198,122 Q196,121 196,124 L204,150 L58,145 Q52,116 28,101 Q23,99 23,102 Q17,114 23,119 Q41,136 42,157 Q42,161 47,159 Q53,155 57,150 L116,152 L115,214 L144,207 Q146,206 144,204 L142,198 L139,153 L145,153 Q164,180 176,202 L198,188 Q199,187 198,186 Q198,185 198,185 Q173,170 151,153 M83,29 Q65,28 55,26 L48,34 L113,35 L113,71 L143,64 Q146,63 144,60 Q139,55 138,50 L138,36 L173,37 L187,51 L206,35 Q208,32 205,32 L138,30 L138,-10 L207,-10 L222,4 L242,-12 Q243,-14 241,-15 L50,-18 Q40,-18 28,-20 Q25,-21 23,-21 L16,-12 L114,-11 L114,30 M90,118 L89,79 L159,80 L160,120 M71,196 Q107,180 104,170 Q101,160 90,155 Q80,154 80,161 Q80,182 70,194 Q68,197 71,196"/> 
            <glyph glyph-name="备" unicode="&#x5907;" horiz-adv-x="255" d=" M189,-23 Q181,-31 178,-23 Q175,-13 169,-5 L88,-7 L88,-8 Q86,-18 75,-27 Q72,-30 70,-29 Q68,-29 68,-25 L67,61 L66,83 Q66,85 68,84 L89,76 L172,78 L184,91 L207,78 Q209,76 207,75 L200,65 L200,23 L201,0 Q199,-13 189,-23 M100,217 L123,202 Q124,200 121,198 L116,194 Q114,191 109,187 Q106,184 105,183 L169,186 L182,198 L205,184 Q207,182 204,180 L197,175 Q175,150 147,131 Q180,119 253,110 Q254,110 255,109 Q254,108 253,107 Q233,102 223,82 Q162,97 131,121 Q82,91 11,72 Q9,71 9,72 Q8,74 9,75 Q72,97 118,132 Q102,148 91,169 Q68,147 33,123 Q30,122 31,125 Q69,158 100,217 M167,41 Q169,41 169,39 Q169,37 167,36 L141,35 L141,0 L174,0 L173,73 L141,72 L141,41 M168,181 L100,177 Q97,174 94,172 Q106,152 128,140 Q152,159 168,181 M87,34 L88,-1 L119,0 L118,34 M87,70 L87,39 L118,40 L118,71"/> 
            <glyph glyph-name="多" unicode="&#x591A;" horiz-adv-x="226" d=" M125,63 Q136,57 150,47 Q172,67 187,86 L145,84 Q102,52 50,24 Q49,23 48,24 Q47,25 48,27 Q112,72 154,123 L175,110 Q177,109 175,107 Q174,106 172,104 Q166,99 154,90 L188,91 L200,101 L224,85 Q226,84 223,81 L213,75 Q191,53 166,35 Q183,23 184,18 Q186,10 173,-3 Q166,-7 162,1 Q160,5 156,12 Q151,20 149,23 Q105,-5 24,-33 Q21,-34 21,-33 Q20,-30 23,-29 Q93,-2 139,38 Q130,53 123,61 Q120,64 125,63 M100,155 Q104,153 113,148 Q123,144 127,141 Q147,159 165,180 L116,179 Q87,155 52,130 Q49,129 51,132 Q97,177 117,214 L138,201 Q140,200 138,198 Q131,192 124,185 L167,186 L179,195 L200,179 Q202,178 199,176 L191,171 Q166,149 143,132 Q146,129 146,128 Q147,118 135,108 Q131,105 127,113 Q126,116 124,119 Q98,100 28,71 Q26,70 25,71 Q25,72 26,74 Q73,96 115,132 Q103,148 99,153 Q97,156 100,155"/> 
            <glyph glyph-name="大" unicode="&#x5927;" horiz-adv-x="244" d=" M62,112 Q44,112 34,110 L26,118 L113,120 Q116,157 114,211 L143,204 Q145,203 145,203 Q145,202 143,201 L137,194 Q137,152 134,120 L200,122 L216,138 L234,119 Q236,116 233,116 L144,114 Q155,28 242,-7 Q244,-8 244,-9 Q243,-11 241,-11 Q222,-12 209,-27 Q144,4 138,114 L134,114 Q136,2 5,-28 Q3,-29 3,-28 Q3,-26 4,-25 Q111,7 113,113"/> 
            <glyph glyph-name="好" unicode="&#x597D;" horiz-adv-x="252" d=" M102,164 L124,153 Q126,152 124,150 L119,142 Q111,81 89,46 Q111,37 123,25 Q129,10 118,-3 Q111,-8 108,0 Q100,15 81,33 Q61,4 5,-33 Q3,-34 2,-32 Q2,-30 3,-29 Q51,6 69,43 Q55,54 40,59 L52,144 L50,144 Q37,144 26,142 L17,149 L53,150 L57,177 Q58,186 59,202 Q60,211 60,215 L87,204 Q89,203 87,201 L83,196 L73,151 L94,151 M150,95 Q133,94 124,91 L115,99 L167,101 Q167,127 165,143 Q165,145 167,144 L178,140 L207,190 L161,188 Q145,187 137,184 L128,191 L207,196 L218,206 L238,189 Q240,188 240,186 Q239,185 237,184 Q227,179 183,138 L189,136 Q192,136 191,134 Q191,124 191,102 L219,103 L231,119 L250,102 Q252,100 250,99 L191,97 Q192,51 190,10 Q187,-11 158,-29 Q155,-29 155,-26 Q155,-11 146,-7 Q144,-6 144,-5 Q145,-3 147,-3 Q169,-6 166,8 Q167,28 167,95 M53,61 Q62,58 73,53 Q90,89 94,146 L71,145"/> 
            <glyph glyph-name="学" unicode="&#x5B66;" horiz-adv-x="242" d=" M118,90 L134,83 L158,113 L98,110 Q79,109 70,105 L61,114 L161,119 L172,129 L193,111 Q194,110 194,109 Q194,108 191,107 Q172,105 139,82 L145,79 Q147,78 145,76 Q142,73 141,68 L141,62 L201,63 L217,81 L236,62 Q237,61 237,60 Q237,59 235,59 L141,56 L141,43 L141,13 Q142,-13 109,-30 Q107,-31 106,-31 Q105,-30 105,-27 Q108,-12 93,-5 Q91,-2 94,-1 Q120,-3 117,5 L117,41 Q117,49 117,55 L59,53 Q41,52 32,50 L23,58 L117,61 Q116,79 116,89 Q116,91 118,90 M192,215 L214,200 Q217,197 214,196 L209,193 Q196,179 160,152 L204,154 L216,165 L239,145 Q242,141 237,140 Q216,133 202,124 Q200,123 199,124 Q198,125 199,126 L204,148 L54,143 Q54,109 34,97 Q23,96 23,116 Q45,129 49,160 Q49,162 50,162 Q52,163 52,161 Q52,160 53,159 Q54,154 54,148 L155,152 Q182,192 192,215 M63,208 Q94,187 94,176 Q92,165 79,159 Q71,158 71,166 Q72,192 61,206 Q60,209 63,208 M115,212 Q144,196 145,184 Q145,173 133,168 Q124,166 123,173 Q122,199 114,211 Q113,213 115,212"/> 
            <glyph glyph-name="它" unicode="&#x5B83;" horiz-adv-x="242" d=" M106,131 Q108,130 106,128 L102,122 L97,23 Q93,4 113,3 Q153,0 192,8 Q204,9 212,33 Q213,35 215,34 Q216,34 216,32 Q214,15 220,9 Q235,-3 216,-12 Q201,-17 171,-19 Q136,-21 112,-18 Q76,-14 78,29 L79,105 L78,141 M201,172 L213,180 L239,155 Q242,148 233,147 Q216,149 195,137 Q193,136 192,137 Q191,138 192,139 L202,166 L58,160 Q51,130 27,114 Q22,112 22,116 Q18,129 22,133 Q41,151 43,172 Q42,174 44,175 Q45,175 47,174 Q51,173 58,165 L114,168 L112,211 Q112,213 114,213 L142,205 Q144,204 142,201 Q139,199 139,190 L139,169 M189,118 L208,99 Q211,95 207,93 Q182,87 122,72 Q126,73 114,70 L113,72 Q165,97 185,117 Q187,120 189,118"/> 
            <glyph glyph-name="实" unicode="&#x5B9E;" horiz-adv-x="245" d=" M134,158 L164,147 Q167,147 165,143 L159,135 L155,92 Q153,78 150,66 L199,68 L217,86 L237,66 Q239,63 236,63 L148,60 Q132,-2 14,-32 Q12,-32 11,-31 Q11,-29 13,-28 Q106,0 125,59 L54,57 Q40,56 27,54 L19,62 L127,65 Q131,82 132,99 L134,120 Q135,132 134,151 Q134,156 134,158 M205,175 L216,184 L242,159 Q245,154 238,154 Q222,153 199,140 Q197,140 197,142 L206,170 L63,166 Q56,135 31,120 Q28,118 26,121 Q21,134 27,138 Q46,156 48,178 Q47,180 48,180 Q50,181 52,179 Q56,178 62,171 L116,173 L117,214 L147,206 Q148,206 149,205 Q149,205 148,203 L145,197 L144,173 M160,37 Q209,23 222,8 Q226,-1 217,-16 Q210,-25 205,-15 Q186,17 159,35 Q157,37 160,37 M54,113 Q90,105 95,94 Q98,87 89,75 Q81,69 78,77 Q67,101 53,110 Q52,111 52,112 Q52,113 54,113 M74,152 Q109,144 112,136 Q113,126 104,116 Q96,111 94,119 Q87,141 73,149 Q71,150 72,151 Q72,152 74,152"/> 
            <glyph glyph-name="家" unicode="&#x5BB6;" horiz-adv-x="250" d=" M97,134 Q87,134 72,131 Q71,131 70,131 L63,137 L161,142 L174,155 L191,140 Q193,138 191,137 L123,135 L139,125 Q141,123 139,123 L134,121 Q132,120 128,117 Q122,113 120,112 Q135,98 144,80 Q178,104 195,123 L214,106 Q216,104 214,103 Q214,104 213,103 Q198,98 176,89 Q182,50 248,17 Q250,16 249,14 Q249,13 247,13 Q233,12 217,-3 Q173,36 173,88 Q169,86 159,83 Q150,79 145,77 Q158,49 152,7 Q145,-21 114,-31 Q113,-32 112,-31 Q112,-31 112,-28 Q113,-13 102,-7 Q101,-6 101,-5 Q101,-4 103,-4 Q126,-8 127,5 Q133,29 132,49 Q89,11 11,-20 Q9,-21 8,-20 Q8,-18 9,-17 Q72,14 130,75 Q129,80 127,84 Q84,49 22,24 Q19,24 21,26 Q80,60 119,105 Q119,106 118,107 Q117,109 116,109 Q78,87 29,65 Q27,64 26,66 Q25,67 27,68 Q80,98 115,134 M37,121 Q33,117 31,120 Q23,132 25,142 Q47,155 49,184 Q52,187 53,184 L59,173 L115,175 L114,210 Q114,213 116,212 L144,204 Q146,202 144,200 Q141,194 141,189 L141,176 L196,177 L208,188 L234,167 Q237,164 233,162 Q218,161 194,149 Q192,148 191,148 Q190,149 191,151 L198,173 L59,167 Q59,140 37,121"/> 
            <glyph glyph-name="层" unicode="&#x5C42;" horiz-adv-x="245" d=" M63,209 Q63,211 65,210 L89,199 L194,201 L205,213 L226,199 Q228,198 228,198 Q228,197 226,196 L221,189 L220,160 L222,157 Q223,155 221,155 Q214,155 199,156 Q184,156 176,156 L87,154 L87,119 Q89,40 3,-21 Q1,-22 1,-20 Q1,-18 3,-17 Q39,14 52,47 Q65,78 65,133 L65,178 M179,35 Q179,37 181,37 Q222,14 227,0 Q228,-12 212,-24 Q204,-27 204,-19 Q203,-4 198,5 Q113,-12 91,-22 Q89,-24 87,-22 L79,0 Q99,-1 102,3 Q122,30 137,71 L116,70 Q98,70 88,68 L81,75 L211,78 L225,93 L243,76 Q245,75 242,73 L142,71 L164,60 Q166,59 164,56 Q147,35 110,1 L196,9 Q190,24 179,35 M87,193 L87,160 L195,162 L195,195 L87,194 M138,115 Q121,114 112,112 L104,119 L183,121 L196,135 L212,120 Q214,119 212,117"/> 
            <glyph glyph-name="居" unicode="&#x5C45;" horiz-adv-x="243" d=" M125,105 Q115,105 101,102 Q100,102 100,102 L92,111 L149,112 L150,122 L150,155 L178,147 Q181,145 178,143 L172,135 L171,112 L212,113 L225,127 L242,111 Q243,109 243,109 Q242,108 241,108 L171,106 L168,61 L194,61 L205,74 L226,61 Q227,60 227,58 L221,51 L222,0 L224,-4 Q225,-6 224,-6 Q224,-7 221,-7 Q175,-3 125,-5 L125,-15 Q116,-31 106,-26 L105,67 Q105,70 108,69 L125,60 L147,60 L149,106 M194,202 L206,213 L226,199 Q228,198 226,195 L221,189 L220,164 L222,161 Q223,158 221,158 Q199,160 176,159 L91,157 L91,119 Q92,43 5,-18 Q3,-19 3,-17 Q2,-16 4,-15 Q42,18 56,50 Q70,82 70,133 L69,178 L68,209 Q68,211 70,210 L94,199 L93,199 L194,201 M125,54 L125,0 L196,0 L195,56 M91,163 L195,165 L195,196 L91,194 L91,193"/> 
            <glyph glyph-name="己" unicode="&#x5DF1;" horiz-adv-x="252" d=" M72,179 Q55,179 45,176 L37,184 L165,187 L178,201 L203,186 Q206,185 203,182 L195,173 L194,111 L196,107 Q197,105 195,104 Q184,106 132,106 L78,105 L77,101 L73,25 Q70,10 85,10 Q156,4 202,16 Q218,20 227,44 Q228,46 230,46 Q232,45 231,43 Q228,21 235,15 Q252,-2 228,-9 Q171,-23 87,-13 Q52,-6 51,35 L52,87 Q52,97 51,113 Q51,120 51,123 Q51,126 53,125 L79,111 L166,113 L167,180 L167,181"/> 
            <glyph glyph-name="帮" unicode="&#x5E2E;" horiz-adv-x="229" d=" M140,88 L138,78 L138,70 L183,71 L193,83 L217,70 Q219,69 217,67 L210,59 L210,28 Q211,6 181,-4 Q179,-5 179,-2 Q179,8 170,12 Q169,14 170,15 Q186,13 184,19 L183,65 L138,64 L138,30 L139,-1 Q137,-18 121,-34 Q116,-37 115,-31 L116,15 L117,63 L69,62 L70,23 Q70,9 57,-2 Q54,-5 53,-4 Q51,-3 51,0 L50,50 L49,76 Q49,77 52,77 L68,69 L117,70 L117,72 L115,102 L139,92 Q141,92 140,88 M75,212 L101,203 Q102,202 102,200 L98,194 L98,182 L117,182 L129,195 L145,181 Q147,180 144,178 L98,177 L98,158 L113,158 L124,170 L138,157 Q140,156 138,155 L97,153 Q97,141 95,132 L118,133 L131,148 L148,132 Q150,129 147,129 L93,127 Q87,95 13,69 Q10,68 9,70 Q8,71 11,72 Q67,96 73,126 L62,126 Q59,126 52,125 Q38,125 33,123 L26,130 L74,131 Q76,141 76,153 Q54,151 48,150 L40,156 L76,157 L76,160 L76,176 L69,176 Q53,176 39,174 L32,180 L76,181 L76,182 M197,195 L207,205 L226,192 Q229,190 226,188 L217,183 L191,157 Q223,141 222,124 Q220,103 192,94 Q190,93 190,95 Q191,111 184,112 Q183,114 184,115 Q200,114 200,121 Q203,138 185,157 L197,190 L170,189 L170,142 L170,113 Q169,89 157,77 Q150,72 150,77 L152,126 L152,207 L170,195 L170,194"/> 
            <glyph glyph-name="幸" unicode="&#x5E78;" horiz-adv-x="247" d=" M80,167 Q69,167 58,165 Q55,165 54,165 L46,173 L114,174 L113,213 L144,206 Q147,205 144,202 Q141,199 140,192 L140,174 L177,175 L190,187 L207,172 Q208,169 205,169 L140,168 L140,136 L211,137 L226,153 L245,136 Q247,133 244,133 L163,131 L178,120 Q180,118 179,115 Q178,115 178,114 L157,89 L182,90 L195,103 L213,88 Q214,86 213,86 Q213,85 211,85 L138,84 L139,49 L204,50 L218,66 L237,49 Q239,46 236,46 L139,44 L139,34 L140,0 Q137,-15 120,-28 Q113,-32 113,-26 L114,25 L115,43 L59,42 Q41,41 32,39 L23,47 L115,49 L115,83 L72,83 Q62,82 51,81 Q48,80 47,80 L38,88 L86,88 Q86,110 85,115 Q84,118 87,117 L106,109 Q109,108 108,106 L107,89 L137,89 Q157,122 154,131 L51,130 Q42,129 28,127 Q25,126 24,126 L15,135 L115,136 L115,168"/> 
            <glyph glyph-name="度" unicode="&#x5EA6;" horiz-adv-x="247" d=" M66,192 Q65,195 67,194 L92,183 L140,184 L142,215 L172,209 Q173,209 174,208 Q174,208 173,206 Q167,201 166,184 L204,185 L218,199 L236,184 Q237,183 236,182 Q236,181 234,181 L89,177 L89,141 L121,142 L120,166 Q120,168 122,168 L141,161 Q142,160 142,157 L141,143 L172,144 L172,173 Q171,176 173,175 L195,166 Q196,165 195,163 L194,144 L212,145 L225,158 L240,143 Q243,141 239,141 L193,139 L191,114 L196,109 Q197,106 195,105 Q179,107 139,105 L138,94 Q137,91 136,91 Q135,91 134,92 Q126,96 123,102 L121,136 L113,136 Q107,137 95,134 L89,140 L89,120 Q90,39 4,-22 Q2,-22 2,-20 Q1,-19 3,-18 Q40,14 54,47 Q67,78 67,132 L67,162 M245,-7 Q247,-8 247,-9 Q247,-11 245,-11 Q234,-13 217,-30 Q175,-11 150,17 Q116,-4 54,-31 Q52,-32 52,-31 Q51,-29 53,-28 Q114,3 141,30 Q128,48 118,72 L121,73 Q130,54 148,37 Q166,55 184,79 L122,77 Q113,77 105,74 L96,82 L186,84 L196,95 L219,81 Q221,80 219,78 L210,71 Q184,43 162,27 Q195,5 245,-7 M173,112 L172,138 L141,137 L139,111"/> 
            <glyph glyph-name="得" unicode="&#x5F97;" horiz-adv-x="251" d=" M141,136 Q139,130 130,121 Q128,119 126,120 Q125,120 125,122 L126,152 L126,185 Q126,190 125,199 Q125,204 125,206 Q125,209 127,208 L142,200 L195,202 L204,213 L223,202 Q225,202 224,199 L220,192 L220,152 Q221,141 209,129 Q204,123 201,128 Q196,135 193,139 M144,103 Q126,103 116,101 L109,107 L212,109 L222,120 L237,107 Q239,105 237,105 L202,104 L201,71 L221,72 L233,85 L249,69 Q251,67 249,67 L201,66 L200,7 Q199,-15 174,-28 Q171,-28 170,-27 Q170,-13 162,-9 Q159,-7 162,-5 Q180,-7 178,0 L179,65 L136,65 Q133,65 127,64 Q114,64 109,62 L101,69 L179,71 L180,104 M4,41 Q1,40 2,43 Q55,86 88,158 L109,142 Q111,140 108,138 L105,135 Q95,122 86,112 L88,-1 Q85,-17 74,-31 Q68,-34 68,-29 L69,37 L70,94 Q44,69 4,41 M197,197 L141,195 L141,172 L187,174 Q189,174 189,172 Q189,170 187,169 L141,167 L142,142 L196,144 M89,212 L105,197 Q107,195 107,194 Q107,193 104,191 Q78,171 27,146 Q24,145 26,148 Q68,176 89,212 M126,55 Q127,55 128,53 Q155,37 152,29 Q151,19 139,16 Q132,15 131,22 Q131,41 124,53 Q123,56 126,55"/> 
            <glyph glyph-name="循" unicode="&#x5FAA;" horiz-adv-x="248" d=" M168,180 L190,173 Q192,172 190,169 Q188,166 188,158 L188,148 L217,149 L230,163 L246,147 Q248,145 245,145 L188,143 L188,116 L199,117 L209,128 L229,117 Q231,116 229,114 L223,106 L223,42 Q223,36 224,25 Q224,13 225,7 Q224,-4 209,-22 Q203,-26 202,-21 Q200,-4 195,2 L154,0 Q151,-11 141,-24 Q135,-29 135,-24 L137,78 Q137,119 136,125 Q136,127 138,126 L157,115 L168,116 L167,143 L122,142 L122,114 Q126,20 66,-34 Q65,-35 63,-35 Q62,-33 63,-32 Q89,-2 96,27 Q104,58 104,128 L103,160 L102,191 Q102,194 103,193 L125,179 L122,174 L122,146 L167,147 L167,179 Q167,181 168,180 M191,49 Q193,50 194,47 Q194,45 192,45 L154,44 L153,5 L193,6 Q199,7 200,14 L200,113 L158,111 L155,105 L155,81 L191,83 Q195,82 192,78 L155,77 L154,48 M3,44 Q0,43 2,46 Q47,91 77,163 L95,149 Q98,147 95,144 L93,141 Q83,125 71,111 L73,6 Q72,-8 59,-24 Q58,-26 56,-26 Q54,-25 54,-23 L55,44 L55,92 Q40,75 6,47 Q4,45 3,44 M79,214 L94,199 Q96,197 96,196 Q96,194 93,193 Q66,169 24,147 Q22,147 23,149 Q59,178 79,214 M216,209 L229,193 Q230,191 230,191 Q229,190 228,190 Q206,188 131,179 L131,182 Q196,199 216,209"/> 
            <glyph glyph-name="感" unicode="&#x611F;" horiz-adv-x="239" d=" M51,187 Q51,190 53,189 L75,175 L145,176 Q144,194 142,215 L167,203 Q169,202 166,200 L162,195 Q162,186 164,177 L195,177 L209,192 L226,176 Q227,174 224,173 L164,172 Q169,144 178,124 Q189,139 198,155 L216,142 Q218,142 216,138 L211,135 Q199,120 187,108 Q200,89 215,78 Q220,73 224,80 L232,88 Q233,89 235,89 Q236,88 235,86 Q225,72 234,59 Q239,49 233,43 Q227,39 217,45 Q186,64 169,93 Q143,73 106,52 Q103,54 105,56 Q140,80 163,106 Q152,133 146,171 L74,169 L74,130 Q78,84 4,30 Q2,29 2,31 Q1,33 3,34 Q32,60 42,82 Q53,102 53,138 L53,157 M77,52 L95,44 Q97,43 94,40 L92,37 Q87,24 89,8 Q90,0 102,-2 Q131,-7 155,-2 Q164,0 164,4 L164,26 Q165,28 166,28 Q167,29 168,27 Q174,2 192,0 Q200,-1 200,-6 Q200,-12 191,-16 Q174,-23 146,-25 Q115,-26 94,-20 Q76,-12 74,5 Q72,24 75,50 Q75,53 77,52 M122,131 L138,121 Q138,121 138,120 Q139,119 138,119 L133,111 L133,87 L134,84 Q134,82 133,82 Q126,82 94,81 Q91,72 84,64 Q82,62 81,63 Q80,63 80,65 L81,104 Q81,119 81,129 Q81,131 83,129 L95,121 L114,122 M190,36 Q233,28 236,16 Q238,8 228,-1 Q220,-6 216,1 Q204,22 189,34 Q186,37 190,36 M42,41 Q43,45 46,42 Q62,15 57,0 Q49,-7 37,-10 Q31,-10 30,-7 Q29,-4 32,0 Q45,18 42,41 M95,117 L94,86 L114,87 L114,118 M120,49 Q145,39 146,30 Q145,20 135,16 Q127,12 126,19 Q125,38 117,47 Q116,49 117,49 Q118,50 120,49 M81,142 Q79,142 78,144 Q78,147 80,147 L117,148 L127,159 L139,147 Q141,145 139,144 M177,207 Q196,203 197,198 Q195,189 190,186 Q187,183 185,188 Q184,190 182,194 Q177,203 176,206 Q175,207 177,207"/> 
            <glyph glyph-name="房" unicode="&#x623F;" horiz-adv-x="238" d=" M69,192 Q69,195 71,194 L95,183 L134,184 L136,215 L166,208 Q169,208 167,205 Q162,201 161,184 L198,185 L209,197 L230,184 Q233,183 230,180 L225,173 L225,150 L227,146 Q228,144 225,144 Q212,145 176,145 L90,143 L90,119 Q92,41 5,-19 Q3,-19 3,-18 Q3,-16 5,-15 Q43,18 57,50 Q71,81 71,132 L71,162 M197,83 L217,70 Q219,69 217,68 L211,61 L209,22 Q206,-9 174,-23 Q172,-24 172,-21 Q175,-8 167,-3 Q164,-2 167,-1 Q184,-3 185,13 L188,67 L148,65 L147,59 Q145,8 56,-29 Q54,-30 53,-28 Q52,-27 54,-26 Q132,9 129,81 L129,99 L125,99 Q110,99 100,96 L91,104 L209,107 L221,120 L236,105 Q237,104 238,103 Q237,102 236,102 L138,99 L151,94 Q154,93 151,90 L150,84 L148,71 L188,72 M90,177 L90,148 L199,151 L200,180 M145,141 Q170,131 171,122 Q169,111 157,108 Q151,107 150,112 Q150,130 143,139 Q142,142 145,141"/> 
            <glyph glyph-name="手" unicode="&#x624B;" horiz-adv-x="250" d=" M179,207 L197,185 Q199,182 194,181 Q190,181 170,179 Q146,177 130,175 L140,171 Q142,171 142,168 L141,131 L186,133 L201,148 L219,131 Q221,128 219,128 L141,125 L141,81 L210,82 L226,100 L248,80 Q250,78 247,78 L141,75 L141,55 L141,21 Q143,-10 103,-25 Q101,-26 101,-25 Q100,-24 101,-22 Q101,-5 92,0 Q89,3 93,4 Q119,1 117,14 L116,74 L48,72 Q34,71 21,69 L13,78 L116,80 L116,125 L70,124 Q65,123 57,122 Q47,121 43,120 L35,129 L116,131 L115,173 Q103,171 77,169 Q56,166 45,165 Q42,165 42,166 Q42,167 44,169 Q146,192 179,207"/> 
            <glyph glyph-name="扫" unicode="&#x626B;" horiz-adv-x="239" d=" M65,213 L89,205 Q91,205 91,204 Q91,204 89,202 L86,194 L85,153 L96,154 L108,166 L123,153 Q124,151 122,150 L85,148 L84,100 Q102,108 119,115 Q121,114 120,112 Q116,109 108,104 Q101,99 84,87 L84,54 L85,15 Q86,-11 56,-29 Q53,-30 52,-29 Q51,-29 52,-26 Q52,-10 44,-7 Q42,-6 43,-5 Q43,-4 45,-4 Q66,-5 63,5 L63,72 Q36,53 30,46 Q28,44 28,45 Q28,44 27,46 L19,74 Q18,76 19,76 Q19,76 20,77 Q37,81 63,91 L63,147 L24,145 Q22,145 21,147 Q21,149 23,150 L63,152 L64,162 Q64,175 63,196 Q63,207 63,211 Q63,214 65,213 M125,91 Q122,91 122,94 Q122,97 124,97 L203,98 L204,167 L123,165 Q120,166 120,168 Q120,171 122,171 L204,173 L214,188 L236,175 Q239,174 237,172 L229,161 L228,49 L229,8 Q227,-5 212,-21 Q208,-24 206,-21 Q202,-7 196,0 L113,-1 Q110,-1 110,1 Q110,3 113,3 L202,4 L203,92"/> 
            <glyph glyph-name="操" unicode="&#x64CD;" horiz-adv-x="253" d=" M130,67 Q107,66 99,63 L92,71 L148,72 L148,93 Q147,95 148,96 Q148,96 150,96 L168,90 Q172,89 171,85 L170,73 L211,74 L225,88 L243,72 Q244,70 242,69 L179,68 Q183,30 251,5 Q253,5 253,4 Q253,2 251,1 Q239,3 221,-10 Q182,14 176,68 L170,67 L168,3 Q167,-17 146,-28 Q143,-28 143,-27 Q143,-12 136,-9 Q133,-7 136,-5 Q151,-7 149,0 L149,45 Q123,18 76,-10 Q71,-13 68,-15 Q65,-15 66,-12 Q102,9 141,67 M54,214 L76,206 Q78,206 78,205 Q78,205 76,203 L73,195 L72,159 L80,159 L90,171 L104,159 Q105,157 103,156 L72,154 L72,109 Q75,111 82,114 Q88,117 91,118 Q93,119 93,118 Q93,116 92,115 Q87,112 78,105 Q73,102 71,100 L71,52 L72,16 Q72,-7 45,-25 Q43,-27 41,-26 Q40,-25 41,-22 Q42,-9 34,-6 Q32,-3 35,-2 Q53,-3 51,6 L52,83 Q34,66 26,57 Q24,55 23,58 L15,83 Q15,85 17,85 Q27,87 52,100 L52,153 L20,151 Q17,150 16,152 Q16,154 18,156 L52,158 L53,163 Q53,176 52,197 Q52,208 52,212 Q52,215 54,214 M187,211 L206,200 Q208,199 206,198 L200,190 L201,167 L202,164 Q202,163 201,163 Q176,163 138,162 Q136,156 127,149 Q121,146 121,150 L121,183 Q122,189 121,203 Q121,207 121,208 Q121,210 123,209 L139,200 L179,201 M220,152 L237,142 Q239,140 237,140 L232,133 L232,111 L233,108 Q234,108 232,107 Q230,107 226,107 Q209,108 185,106 Q182,100 176,93 Q170,90 170,95 L171,126 Q171,131 170,143 Q170,149 170,151 Q170,153 172,152 L186,143 L212,144 M144,150 L161,140 Q163,140 161,138 L157,131 L157,108 L158,105 Q158,105 157,104 Q144,104 111,103 Q109,94 101,88 Q99,86 97,87 Q96,87 96,89 L96,121 Q97,134 95,147 Q95,149 98,147 L112,138 L136,140 M138,196 L138,166 L180,167 L179,197 M185,111 L185,110 L213,111 L212,140 L185,139 M111,135 L111,107 L137,108 L136,136"/> 
            <glyph glyph-name="放" unicode="&#x653E;" horiz-adv-x="253" d=" M177,214 L201,197 Q203,194 200,193 Q194,188 190,182 Q182,164 170,146 L214,150 L227,165 L246,149 Q248,146 246,146 L167,140 Q159,128 153,117 L155,117 Q160,88 172,67 Q186,98 193,141 L212,127 Q217,126 212,119 Q201,81 183,51 Q209,20 251,1 Q253,0 253,0 Q253,-1 251,-2 Q238,-1 215,-17 Q183,7 170,34 Q148,6 103,-21 Q102,-22 101,-21 Q100,-20 101,-18 Q142,10 164,50 Q158,69 153,108 Q152,113 152,116 Q149,111 142,101 Q136,91 132,86 Q129,85 130,88 Q166,167 175,213 Q175,215 177,214 M54,162 Q36,162 27,159 L20,166 L72,167 L74,211 L98,205 Q101,205 99,200 L96,193 L94,168 L122,168 L133,182 L148,167 Q149,166 149,165 Q149,164 147,164 L70,162 L85,156 Q88,156 86,152 L83,146 L81,120 L105,121 L113,132 L132,120 Q134,119 132,117 L126,111 L121,47 Q119,0 85,-14 Q83,-15 83,-12 Q83,1 77,5 Q75,8 78,8 Q99,4 100,36 L105,116 L81,115 L80,111 Q75,24 4,-31 Q2,-31 1,-30 Q1,-29 2,-28 Q55,18 61,112 L62,137 Q64,153 62,162"/> 
            <glyph glyph-name="料" unicode="&#x6599;" horiz-adv-x="254" d=" M48,124 Q44,124 37,123 Q27,122 23,122 L16,128 L68,130 L68,180 L67,210 Q67,213 69,213 L91,201 Q92,201 92,198 L89,191 L89,131 L101,132 L113,144 L127,131 Q128,130 128,130 Q128,129 126,128 L89,126 L88,34 L88,1 Q86,-16 70,-29 Q68,-31 66,-30 Q65,-29 65,-25 L67,26 L67,85 Q38,42 3,13 Q2,12 1,14 Q1,15 2,16 Q31,48 65,125 M145,64 Q127,58 119,55 L109,61 L180,78 L181,167 L179,212 L205,201 Q206,201 206,198 L203,187 L202,83 L223,88 L232,105 L252,93 Q254,92 254,92 Q254,91 252,90 L202,78 L202,44 L204,0 Q203,-18 184,-31 Q180,-31 180,-25 L180,20 L180,72 M112,186 L129,173 Q131,172 131,172 Q131,171 129,170 Q124,166 113,157 Q101,148 92,140 Q90,140 90,142 Q104,163 112,186 M131,130 Q157,122 163,114 Q167,107 156,97 Q151,93 148,97 Q142,115 130,128 Q129,130 131,130 M138,183 Q166,177 167,166 Q168,158 158,152 Q152,148 149,155 Q145,173 136,181 Q136,183 138,183 M93,107 Q118,98 125,88 Q127,80 119,72 Q117,70 115,70 Q113,70 112,74 Q101,97 92,105 Q91,108 93,107 M38,179 Q59,167 62,156 Q61,148 51,144 Q45,143 44,149 Q44,167 37,177 Q37,179 38,179"/> 
            <glyph glyph-name="方" unicode="&#x65B9;" horiz-adv-x="241" d=" M58,158 Q49,158 36,156 Q33,155 31,155 L22,165 L114,167 L115,213 L145,203 Q148,202 145,198 L142,190 L141,167 L207,168 L222,185 L240,166 Q241,165 241,164 Q241,163 239,163 L119,160 L118,119 L178,121 L190,134 L213,118 Q215,117 212,115 L205,105 L203,47 Q203,23 201,16 Q194,-9 163,-23 Q159,-24 159,-21 Q158,-4 151,0 Q149,0 150,2 Q150,3 152,3 Q175,1 174,20 Q178,58 178,115 L118,113 L118,110 Q125,25 9,-32 Q7,-32 6,-31 Q6,-29 8,-28 Q97,19 94,108 L95,159"/> 
            <glyph glyph-name="日" unicode="&#x65E5;" horiz-adv-x="213" d=" M187,198 L210,186 Q212,185 212,184 Q213,184 211,182 L204,173 L207,28 Q207,8 185,-15 Q181,-18 179,-16 Q177,-15 176,-10 Q174,0 169,14 Q167,17 167,18 L77,16 L77,10 Q75,-4 60,-18 Q57,-21 56,-21 Q54,-20 53,-17 L54,48 L55,153 Q55,162 54,180 Q54,193 54,198 Q54,200 55,200 L79,186 L79,182 L176,183 M77,176 L77,110 L164,111 Q167,110 168,108 Q168,106 165,105 L77,103 L77,23 L174,25 Q177,26 177,32 L177,177"/> 
            <glyph glyph-name="明" unicode="&#x660E;" horiz-adv-x="226" d=" M206,204 L224,193 Q226,192 224,190 L219,183 L220,54 Q226,-1 189,-15 Q190,-2 184,2 Q183,3 183,4 Q183,5 184,5 Q202,-1 199,52 L198,187 L161,186 L158,179 L157,134 L187,135 Q189,135 189,133 Q189,131 187,130 L157,129 L157,109 Q157,91 155,78 L186,79 Q188,79 188,77 Q188,74 186,74 L154,73 Q148,-7 26,-31 Q24,-32 23,-30 Q23,-28 25,-28 Q96,-8 115,19 Q139,47 139,116 L140,156 Q140,182 138,199 Q137,202 140,201 L160,191 L197,192 M118,190 Q120,190 118,188 L113,180 L112,114 L113,85 Q112,66 102,54 Q99,50 96,50 Q94,51 94,55 Q94,63 92,73 Q91,75 91,76 L60,75 Q59,61 49,49 Q47,47 45,47 Q44,48 44,50 L46,158 Q46,182 44,199 Q44,201 47,200 L63,192 L94,192 L101,201 M60,81 L60,80 L90,81 Q92,83 92,87 Q93,88 93,89 L95,188 L64,187 L62,181 L61,139 L86,140 Q88,140 88,138 Q88,135 86,135 L61,134"/> 
            <glyph glyph-name="易" unicode="&#x6613;" horiz-adv-x="220" d=" M91,125 Q89,121 83,115 L102,104 Q104,103 101,101 L97,97 Q96,96 93,94 L186,95 L197,108 L218,94 Q220,93 218,91 L212,83 L211,21 Q211,-7 174,-28 Q170,-29 170,-26 Q173,-9 163,-3 Q161,-2 162,-1 Q162,0 164,0 Q190,-1 186,14 L187,90 L155,89 L170,82 Q173,81 170,77 Q122,8 30,-32 Q27,-34 28,-30 Q107,11 146,89 L112,89 L124,82 Q126,81 126,80 Q126,80 124,78 Q97,42 35,6 Q31,4 33,8 Q73,36 104,89 L88,88 Q73,74 28,41 Q26,41 26,43 Q61,75 77,112 Q75,111 74,111 Q73,112 73,114 L73,187 Q73,191 72,199 Q72,205 72,207 Q72,209 74,208 L92,197 L162,199 L169,210 L192,200 Q194,199 192,197 L188,189 L189,139 Q188,127 177,114 Q173,107 168,113 Q167,117 162,124 Q161,125 161,126 M163,194 L93,192 L92,164 L153,166 Q155,166 155,164 Q155,161 153,161 L92,160 L92,129 L163,131"/> 
            <glyph glyph-name="是" unicode="&#x662F;" horiz-adv-x="246" d=" M56,97 Q37,96 28,94 L22,102 L210,105 L226,119 L242,103 Q243,101 241,100 L145,99 L143,6 Q181,1 244,6 Q246,6 246,5 Q246,4 245,3 Q224,0 216,-22 Q163,-22 133,-16 Q106,-8 84,40 Q61,11 12,-18 Q10,-19 9,-18 Q8,-17 9,-16 Q65,22 85,81 Q87,84 88,83 L103,72 Q106,70 103,67 Q96,55 87,44 L91,39 Q106,18 123,12 L124,98 M96,127 Q93,121 84,114 Q81,112 80,113 Q79,113 79,116 L79,189 Q79,200 79,207 Q78,210 81,209 L97,202 L97,198 L162,200 L169,209 L188,199 Q188,199 189,198 Q190,198 189,196 L185,189 L185,141 Q185,131 175,117 Q170,111 167,116 Q162,124 159,129 M162,196 L97,194 L97,167 L154,168 Q156,168 155,166 Q155,164 153,164 L97,163 L96,131 L162,134 M198,72 L206,55 Q206,52 202,53 L197,53 Q181,52 156,52 Q153,53 155,54 Q180,62 198,72"/> 
            <glyph glyph-name="智" unicode="&#x667A;" horiz-adv-x="241" d=" M62,136 Q44,135 35,132 L28,139 L94,142 Q98,157 98,177 L79,177 Q63,158 42,143 Q39,142 40,145 Q70,175 80,213 L96,202 Q98,201 96,199 L92,196 Q88,188 82,182 L126,182 L136,194 L150,180 Q152,180 149,178 L116,178 Q116,157 113,142 L129,143 L139,154 L153,141 Q155,139 153,139 L112,137 Q110,134 108,126 Q108,125 108,124 Q136,116 139,108 Q141,99 131,91 Q126,88 123,94 Q118,110 106,121 Q98,102 83,90 L99,82 L175,82 L188,94 L208,78 Q210,77 208,75 L202,67 L202,9 Q202,-8 185,-22 Q181,-27 178,-21 Q171,-6 168,-3 L97,-5 Q93,-13 84,-22 Q80,-25 78,-20 L79,69 L78,86 Q59,71 7,54 Q5,53 4,55 Q4,57 6,58 Q84,85 93,137 M177,1 L178,71 Q178,78 166,78 L98,77 L98,44 L160,46 Q163,46 163,44 Q163,41 160,41 L98,40 L97,0 M221,191 L239,178 Q241,177 239,176 L234,169 L234,129 L235,126 Q236,126 234,125 Q217,125 177,123 L177,115 Q178,105 165,95 Q162,93 161,94 Q160,94 160,96 L160,164 Q160,169 159,181 Q159,187 159,189 Q159,190 160,191 Q160,191 162,190 L177,181 L213,182 M177,178 L177,128 L214,130 L213,179"/> 
            <glyph glyph-name="曲" unicode="&#x66F2;" horiz-adv-x="224" d=" M200,173 L221,162 Q224,161 221,158 L216,149 L216,65 L218,15 Q219,-9 198,-26 Q195,-29 193,-28 Q190,-28 190,-24 Q190,-10 186,0 L65,0 Q63,-14 51,-26 Q48,-29 47,-29 Q45,-28 45,-25 L46,128 Q46,149 44,168 Q44,171 46,170 L67,157 L95,157 L94,208 Q94,211 96,210 L119,201 Q122,199 119,196 Q118,192 116,180 L116,157 L140,158 L140,213 Q140,216 142,215 L167,205 Q170,203 167,200 Q164,196 163,184 L163,158 L190,158 M185,93 Q188,93 188,90 Q188,87 185,87 L163,87 L162,6 L193,6 L191,152 L163,151 L163,92 M65,86 L65,5 L96,6 L95,86 M115,86 L114,6 L140,6 L140,86 M95,146 L95,150 L66,150 L65,91 L95,92 M116,150 L115,92 L140,92 L140,151"/> 
            <glyph glyph-name="更" unicode="&#x66F4;" horiz-adv-x="245" d=" M67,184 Q52,185 31,182 L21,189 L196,191 L211,208 L230,189 Q231,188 231,187 Q231,186 229,186 L122,185 L136,172 L136,156 L174,157 L184,169 L205,156 Q206,155 206,153 L199,145 L200,102 Q201,82 186,68 Q181,64 179,68 Q172,79 171,84 L133,83 Q129,41 110,22 Q150,1 243,1 Q245,0 244,0 Q244,-1 242,-1 Q222,-4 204,-28 Q127,-20 97,9 Q76,-6 8,-35 Q4,-35 4,-34 Q4,-33 7,-31 Q69,-3 89,17 Q73,34 61,70 L65,71 Q73,44 98,28 Q111,47 114,83 L73,82 Q65,69 54,72 L54,164 Q54,167 56,165 Q56,166 57,165 L73,155 L114,156 L114,165 L114,185 M166,125 Q169,125 169,123 Q169,121 166,119 L135,119 L135,115 Q135,110 134,102 Q134,93 133,89 L175,90 L174,151 L135,151 L135,124 M115,109 L114,119 L73,118 L73,88 L114,89 Q115,98 115,109 M73,150 L73,124 L114,124 L114,150"/> 
            <glyph glyph-name="有" unicode="&#x6709;" horiz-adv-x="251" d=" M59,161 Q43,161 31,158 L24,167 L113,167 Q123,191 130,216 L156,199 Q160,196 156,194 L147,189 Q142,179 136,168 L215,168 L231,184 L250,167 Q251,165 248,164 L134,162 Q122,141 109,122 L184,124 L193,134 L214,119 Q216,118 213,116 L207,109 L209,16 Q212,-15 184,-30 Q181,-32 180,-29 Q179,-16 172,-13 Q171,-13 171,-12 Q172,-10 173,-10 Q187,-12 185,0 L183,119 L105,116 Q104,115 104,115 L104,80 L170,82 Q173,81 174,80 Q174,78 171,77 L104,74 L103,39 L172,42 Q176,41 176,39 Q176,38 173,37 L103,34 L103,6 Q103,-8 91,-24 Q88,-28 86,-29 Q84,-28 84,-24 L87,93 Q52,52 5,22 Q3,21 3,23 Q2,24 4,25 Q71,73 110,162"/> 
            <glyph glyph-name="本" unicode="&#x672C;" horiz-adv-x="253" d=" M69,151 Q50,151 40,149 L32,157 L115,159 L115,173 L114,215 L145,208 Q148,207 145,204 Q141,200 140,195 L140,159 L193,161 L208,177 L227,158 Q229,155 226,155 L154,153 Q169,80 251,33 Q253,31 252,30 Q252,29 250,29 Q236,30 208,12 Q164,59 150,153 L140,153 L140,48 L151,48 L163,59 L178,46 Q179,45 177,43 L140,42 L140,30 L140,0 Q136,-22 118,-32 Q114,-33 113,-26 L114,15 L114,42 L109,42 Q106,42 100,41 Q86,41 81,39 L74,47 L114,47 L115,111 Q81,65 10,4 Q8,3 7,4 Q6,5 8,7 Q69,71 107,152"/> 
            <glyph glyph-name="机" unicode="&#x673A;" horiz-adv-x="253" d=" M210,184 Q212,184 210,182 L203,171 L189,20 Q188,10 196,10 Q205,9 223,13 Q232,14 239,33 Q240,35 241,34 Q242,34 242,32 Q237,10 246,6 Q253,1 252,-5 Q250,-11 240,-13 Q221,-18 198,-15 Q173,-10 173,22 L177,178 L151,177 L151,146 Q153,56 138,30 Q125,0 63,-33 Q61,-34 60,-32 Q60,-30 61,-29 Q108,-2 119,28 Q132,55 131,140 L131,170 L129,196 Q129,198 131,197 L150,182 L176,183 L186,197 M66,215 L89,204 Q91,203 89,201 L85,194 L85,155 L94,155 L106,167 L120,153 Q121,151 119,151 L85,150 L84,120 Q111,113 114,105 Q115,98 105,89 Q99,86 98,92 Q93,107 84,116 L84,60 L86,17 Q86,3 71,-11 Q65,-15 64,-8 L66,62 L65,98 Q46,68 6,26 Q4,24 4,28 Q40,77 64,150 L58,150 Q48,150 35,148 Q31,147 29,147 L22,155 L65,155 L65,179 Q65,203 65,214 Q65,215 66,215"/> 
            <glyph glyph-name="材" unicode="&#x6750;" horiz-adv-x="248" d=" M164,145 Q153,144 139,142 Q141,143 136,142 L129,149 L182,151 L182,180 L181,214 L210,201 Q212,200 210,198 L205,189 L205,151 L217,152 L230,166 L247,151 Q248,148 246,147 L205,146 L204,61 L205,19 Q206,-12 173,-29 Q171,-30 170,-29 Q169,-28 170,-27 Q171,-9 162,-5 Q161,-5 161,-4 Q162,-2 163,-2 Q182,-3 181,8 L181,90 Q158,61 104,11 Q103,10 101,10 Q100,11 101,13 Q155,77 182,142 L182,145 M68,214 L95,203 Q98,201 96,201 L90,193 L90,150 L101,150 L113,162 L128,147 Q130,146 127,144 L90,144 L89,114 Q120,104 123,94 Q123,86 113,78 Q107,74 104,82 Q99,99 89,109 L89,40 L89,-3 Q87,-17 73,-29 Q71,-32 69,-32 Q67,-32 67,-29 L69,42 L69,84 Q37,45 6,14 Q5,13 3,13 Q2,14 3,16 Q45,74 69,137 L69,144 L61,144 Q43,144 30,141 L23,148 L69,149 L69,178"/> 
            <glyph glyph-name="来" unicode="&#x6765;" horiz-adv-x="244" d=" M71,164 Q68,164 62,163 Q48,163 44,161 L36,169 L114,170 L114,171 L113,215 L141,207 Q144,207 142,204 Q139,201 137,194 L137,170 L184,171 L200,186 L218,168 Q220,167 217,165 L137,164 L137,104 L151,104 Q166,132 173,157 Q173,160 175,158 L198,149 Q200,148 200,148 Q200,147 198,146 L193,141 Q173,119 157,104 L204,104 L218,119 L237,102 Q238,101 238,100 Q238,99 236,99 L148,98 Q159,54 241,19 Q244,18 241,15 Q230,17 207,-2 Q153,36 146,98 L137,98 L138,34 L138,-1 Q134,-19 117,-32 Q113,-31 113,-27 L115,33 L114,69 Q73,24 9,-13 Q7,-14 6,-13 Q6,-12 7,-10 Q60,30 106,98 L53,97 Q36,97 27,95 L18,103 L114,104 L114,164 M65,154 Q96,137 94,128 Q92,117 82,112 Q73,111 72,118 Q71,139 63,152 Q61,155 65,154"/> 
            <glyph glyph-name="样" unicode="&#x6837;" horiz-adv-x="253" d=" M202,212 L226,200 Q228,200 226,197 L220,193 L198,164 L215,164 L227,177 L243,162 Q244,161 244,161 Q244,160 242,159 L170,158 L185,154 Q187,153 186,149 L184,145 L184,116 L204,117 L217,130 L232,116 Q233,115 233,114 Q233,113 231,113 L184,111 L183,68 L220,68 L234,84 L252,68 Q253,65 250,64 L183,62 L183,42 L184,-1 Q181,-14 168,-26 Q160,-32 160,-25 L161,34 L161,62 L136,61 Q133,61 128,60 Q115,60 109,58 L101,66 L161,67 L162,110 L154,110 Q138,109 127,106 L119,114 L162,115 L162,127 L161,158 L150,157 Q134,157 122,154 L115,162 L144,162 L144,186 Q143,196 143,202 Q142,205 145,204 L162,196 Q162,196 163,195 Q164,195 164,193 L163,163 L183,163 M64,214 L89,203 Q91,202 89,201 L84,193 L84,154 L92,154 L104,166 L119,152 Q122,150 118,150 L84,149 L83,117 Q107,107 110,99 Q111,92 102,84 Q95,80 94,88 Q91,100 83,111 L83,46 L84,1 Q80,-15 68,-27 Q62,-31 61,-25 L63,46 L63,91 Q45,62 4,21 Q3,19 2,20 Q0,21 1,23 Q37,69 63,149 L56,149 Q41,149 26,147 L18,154 L63,154 L63,179 Q63,202 62,213 Q62,216 64,214"/> 
            <glyph glyph-name="案" unicode="&#x6848;" horiz-adv-x="245" d=" M57,133 Q54,133 49,132 Q35,132 30,130 L22,138 L91,140 L91,141 Q109,164 112,173 L136,166 Q138,164 136,163 L130,157 L114,141 L207,144 L221,159 L241,143 Q242,141 240,140 L175,137 L186,130 Q189,127 185,126 Q165,114 144,103 Q197,94 199,89 Q205,79 203,68 Q202,64 201,63 Q199,63 195,66 Q172,80 125,95 Q89,79 28,61 Q26,61 26,62 Q25,63 27,64 Q70,78 108,100 Q104,101 96,103 Q77,108 68,109 L87,134 M56,52 Q39,51 25,49 L18,57 L115,58 L114,86 Q114,89 116,88 L136,83 Q141,82 139,78 L139,58 L206,59 L222,76 L242,58 Q243,56 243,56 Q242,55 241,55 L147,53 Q180,13 240,12 Q242,12 242,11 Q242,10 241,9 Q217,5 205,-9 Q157,9 143,53 L139,53 L137,1 Q136,-20 112,-29 Q109,-30 109,-28 Q108,-14 101,-10 Q99,-9 100,-7 Q100,-6 102,-6 Q118,-9 116,0 L115,33 Q83,8 13,-18 Q10,-19 9,-20 Q7,-21 6,-19 Q6,-18 7,-16 Q62,10 108,53 M207,184 L218,194 L242,175 Q245,170 240,169 Q221,168 206,157 Q203,157 204,159 L208,179 L58,176 Q53,155 34,143 Q30,141 28,144 Q26,158 29,161 Q43,171 42,188 Q41,192 47,189 Q54,185 57,181 L117,182 L118,215 L146,208 Q149,207 147,204 L144,198 L143,183 M85,111 Q87,111 90,111 Q110,109 121,107 Q149,124 164,137 L108,135"/> 
            <glyph glyph-name="欢" unicode="&#x6B22;" horiz-adv-x="255" d=" M114,53 Q111,42 102,33 Q97,29 94,36 Q86,56 74,74 Q50,33 5,-8 Q3,-9 3,-8 Q2,-7 3,-5 Q44,40 64,91 Q47,117 33,134 Q31,137 35,136 Q51,124 69,107 Q78,132 85,167 L31,164 Q28,164 27,167 Q27,169 30,170 L84,174 L96,188 L119,173 Q121,171 119,169 L110,159 Q100,122 85,93 Q100,78 112,65 Q116,59 114,53 M62,-34 Q60,-35 59,-34 Q58,-33 59,-32 Q111,0 128,33 Q145,62 147,133 L176,121 Q178,120 176,118 L173,116 Q175,43 254,-13 Q255,-14 254,-15 Q254,-16 252,-16 Q240,-12 219,-27 Q174,14 171,115 L169,114 Q168,13 62,-34 M200,162 L210,173 L236,155 Q238,153 238,151 Q237,150 233,149 Q216,143 196,128 Q193,127 193,130 L200,156 L146,154 Q134,135 107,102 Q104,100 105,103 Q134,148 147,212 Q147,215 148,214 L170,204 Q174,202 171,199 Q162,180 150,159"/> 
            <glyph glyph-name="沸" unicode="&#x6CB8;" horiz-adv-x="238" d=" M89,160 Q86,160 86,163 Q86,165 89,165 L124,166 L124,171 Q124,176 123,186 Q122,203 121,209 L144,200 Q146,200 146,199 Q147,199 146,197 L143,191 L143,166 L159,167 L159,177 Q159,198 157,213 L182,205 Q184,204 183,202 L179,196 L179,167 L195,167 L204,178 L226,165 Q229,164 226,161 L220,155 L220,132 L222,126 Q224,123 221,123 L199,124 L179,124 L179,85 L199,86 L210,100 L235,85 Q238,84 235,81 L230,74 L229,40 Q228,19 202,9 Q200,8 199,9 Q197,9 198,11 Q197,23 191,26 Q190,27 190,28 Q190,29 191,29 Q204,29 203,34 L204,75 Q204,81 197,81 L179,80 L179,24 Q179,8 180,2 Q181,-3 178,-11 Q174,-19 165,-27 Q157,-32 157,-27 L159,31 L159,80 L140,79 Q135,19 60,-33 Q58,-34 57,-33 Q56,-32 58,-30 Q118,21 122,79 L106,79 Q103,72 92,64 Q86,61 86,66 L88,112 Q88,127 87,134 Q87,137 89,135 L109,128 L124,128 L124,161 M81,151 L54,33 Q52,28 52,16 Q52,11 55,2 Q57,-1 57,-2 Q60,-6 56,-14 Q48,-20 39,-22 Q30,-23 31,-15 Q31,-13 32,-4 Q33,7 33,10 Q33,22 21,25 Q19,26 20,27 Q20,28 22,28 Q34,26 36,34 L78,152 Q79,153 80,153 Q81,153 81,151 M31,203 Q68,197 69,184 Q70,170 60,165 Q53,162 49,169 Q42,191 30,200 Q28,203 31,203 M23,140 Q53,129 53,115 Q53,105 42,100 Q33,99 32,106 Q30,127 20,138 Q20,141 23,140 M143,123 Q143,102 141,84 L159,85 L159,123 M108,122 L107,83 L122,84 Q124,101 124,123 M196,129 L196,162 L179,162 L179,129 M143,161 L143,128 L159,129 L159,162"/> 
            <glyph glyph-name="法" unicode="&#x6CD5;" horiz-adv-x="242" d=" M174,40 Q173,44 177,44 Q214,21 218,1 Q218,-19 197,-26 Q187,-26 187,-16 Q187,-12 186,-6 Q186,0 186,1 Q123,-7 88,-19 Q84,-21 82,-18 L75,-4 Q74,-1 76,0 Q88,0 95,5 Q119,34 133,85 L102,85 Q83,84 75,81 L67,90 L131,91 L133,147 L119,147 Q103,147 92,144 L84,152 L133,153 L134,181 Q134,187 133,197 Q133,208 132,212 L161,205 Q164,205 161,201 Q157,195 156,185 L156,154 L189,155 L202,169 L219,154 Q222,151 218,150 L155,148 L154,91 L209,92 L223,108 L241,91 Q242,89 239,88 L146,86 L161,74 Q163,72 160,69 Q142,49 115,4 L185,7 Q183,25 174,40 M69,125 L49,19 Q47,8 48,2 Q48,-3 51,-9 Q53,-15 49,-20 Q43,-27 34,-28 Q28,-29 28,-22 Q28,-20 28,-14 Q29,-8 29,-5 Q30,3 22,6 Q20,7 22,8 Q30,7 32,15 L66,126 Q67,128 68,127 Q69,127 69,125 M52,192 Q82,179 83,164 Q82,153 70,148 Q63,146 59,154 Q56,179 49,190 Q48,191 49,192 Q50,193 52,192 M21,127 Q50,114 50,100 Q49,89 38,86 Q29,85 28,93 Q27,112 18,125 Q19,128 21,127"/> 
            <glyph glyph-name="洗" unicode="&#x6D17;" horiz-adv-x="255" d=" M106,195 L129,188 Q131,187 129,185 L125,180 Q119,168 113,158 L142,159 L142,180 L141,213 L169,206 Q172,206 169,201 Q165,197 165,186 L164,159 L192,160 L206,175 L223,159 Q224,156 221,156 L164,154 L163,104 L211,105 L226,120 L243,104 Q245,101 242,100 L167,99 L184,93 Q184,93 185,92 Q186,92 185,90 L182,84 L174,13 Q173,3 185,4 Q203,5 216,9 Q225,11 229,31 Q229,33 230,33 Q232,33 232,31 Q229,13 242,4 Q255,-8 233,-16 Q215,-21 183,-18 Q160,-13 157,11 L159,82 L158,99 L129,98 L144,92 Q147,92 145,90 L142,83 Q124,12 42,-33 Q40,-34 40,-32 Q40,-30 41,-29 Q107,10 119,98 L106,98 Q87,97 79,94 L72,103 L142,104 L142,153 L109,152 Q95,131 78,112 Q76,111 76,113 Q97,149 106,195 M79,144 L47,31 Q43,18 50,5 Q53,0 49,-4 Q41,-10 33,-12 Q26,-13 27,-5 Q32,19 18,24 Q17,26 18,27 Q29,25 32,33 L77,144 Q78,147 79,144 M45,203 Q80,190 80,178 Q80,168 69,161 Q60,159 58,166 Q54,190 43,200 Q42,201 43,202 Q43,203 45,203 M20,145 Q49,132 49,118 Q48,107 37,104 Q28,103 27,111 Q26,132 18,143 Q16,146 20,145"/> 
            <glyph glyph-name="涂" unicode="&#x6D82;" horiz-adv-x="254" d=" M119,73 Q116,73 109,72 Q95,72 90,70 L83,78 L141,79 L140,119 Q125,118 115,116 L108,123 L170,125 L180,136 L194,124 Q196,122 194,121 L151,119 L162,116 Q166,115 165,111 L164,80 L200,81 L212,92 L228,79 Q229,77 229,77 Q228,76 227,76 L164,74 L162,2 Q162,-18 137,-28 Q135,-28 135,-27 Q134,-12 127,-9 Q124,-7 127,-5 Q144,-7 142,0 L141,73 M77,101 Q74,99 73,100 Q72,101 74,103 Q120,153 143,216 L166,207 Q168,207 167,204 L164,202 Q188,151 252,121 Q254,120 253,118 Q253,117 251,117 Q239,120 223,107 Q187,128 162,200 Q127,142 77,101 M82,140 L54,32 Q52,27 52,14 Q52,7 55,1 Q59,-5 54,-11 Q46,-19 35,-20 Q28,-20 29,-10 Q30,-2 31,14 Q32,23 20,27 Q19,29 21,30 Q32,28 35,37 L79,140 Q80,141 81,142 Q82,141 82,140 M116,65 L133,54 Q136,53 133,49 Q111,20 71,-16 Q66,-19 69,-14 Q100,23 113,63 Q114,65 114,66 Q114,66 116,65 M175,56 Q210,37 218,24 Q223,12 209,2 Q200,0 198,6 Q195,32 174,54 Q173,56 175,56 M42,207 Q80,196 81,183 Q81,172 69,165 Q60,163 57,170 Q54,195 41,204 Q41,204 41,205 Q40,207 42,207 M14,146 Q48,137 49,123 Q49,112 38,107 Q30,105 27,113 Q23,134 13,143 Q12,144 12,146 Q12,147 14,146"/> 
            <glyph glyph-name="清" unicode="&#x6E05;" horiz-adv-x="244" d=" M123,94 L181,97 L191,108 L212,94 Q214,93 212,91 L206,82 L208,15 Q209,-13 182,-31 Q178,-32 178,-29 Q177,-16 170,-14 Q169,-13 169,-11 Q170,-10 171,-11 Q184,-12 183,0 L181,91 L123,89 L123,66 L172,69 Q177,67 173,63 L123,61 L122,37 L172,39 Q175,39 175,37 Q175,35 173,34 L122,31 L122,5 Q120,-10 109,-25 Q103,-30 102,-25 L103,16 L105,70 L104,104 M117,174 Q106,174 95,172 Q92,172 91,172 L83,179 L140,180 L140,215 L165,207 Q166,207 167,206 Q166,205 165,204 Q164,201 162,194 L162,180 L198,181 L211,194 L225,179 Q227,177 223,177 L162,175 L162,152 L185,153 L197,165 L212,151 Q213,150 210,148 L162,147 L162,121 L212,122 L224,136 L242,120 Q244,118 241,118 L116,115 Q101,115 90,112 L82,120 L140,121 L140,146 L132,146 Q121,146 110,144 Q107,144 106,144 L98,151 L140,152 L141,170 L140,175 M83,143 L59,25 Q56,8 61,-3 Q63,-10 59,-14 Q52,-20 42,-24 Q36,-24 36,-17 Q38,-9 38,5 Q39,13 29,17 Q28,19 29,20 Q40,18 42,27 L80,143 Q81,144 82,145 Q83,144 83,143 M20,140 Q51,128 51,113 Q49,102 38,99 Q29,98 27,106 Q26,127 17,138 Q16,139 17,140 Q18,141 20,140 M45,202 Q76,193 77,180 Q77,170 66,165 Q58,163 56,169 Q51,191 42,200 Q42,202 45,202"/> 
            <glyph glyph-name="温" unicode="&#x6E29;" horiz-adv-x="251" d=" M102,-9 Q99,-9 94,-9 Q76,-10 68,-13 L59,-5 L93,-4 L91,65 L90,93 Q90,95 92,94 L110,85 L185,88 L194,100 L214,88 Q217,87 215,84 L209,77 L208,-1 L218,-1 L231,12 L250,-3 Q251,-6 249,-6 M117,119 Q114,113 104,106 Q102,105 101,105 Q100,106 100,108 L100,179 Q100,182 99,190 Q99,195 99,197 Q99,199 101,198 L116,190 L175,192 L183,203 L203,193 Q205,193 203,190 L198,183 L199,132 Q197,120 186,109 Q182,103 178,108 Q172,118 171,120 M175,187 L116,186 L116,157 L164,159 Q167,159 167,157 Q167,155 164,155 L116,153 L116,123 L175,125 M77,140 L49,24 Q47,14 47,7 Q48,3 49,-1 Q51,-3 51,-5 Q55,-12 50,-16 Q46,-22 34,-24 Q27,-24 28,-17 Q28,-16 28,-14 Q30,5 29,9 Q29,21 16,25 Q15,26 15,27 Q15,28 16,28 Q30,26 32,33 L75,141 Q76,144 77,140 M110,80 L110,-3 L127,-3 L125,81 M186,82 L171,82 L170,-2 L186,-2 M141,81 L140,-3 L156,-2 L155,81 M35,200 Q69,191 71,179 Q72,166 61,161 Q54,158 50,165 Q43,188 34,198 Q32,201 35,200 M18,141 Q48,127 48,112 Q47,101 36,98 Q27,97 25,105 Q24,125 15,138 Q15,142 18,141"/> 
            <glyph glyph-name="灰" unicode="&#x7070;" horiz-adv-x="239" d=" M66,-34 Q64,-35 62,-35 Q61,-34 62,-32 Q106,4 122,45 Q138,82 137,152 L165,139 Q167,138 165,136 L162,134 Q164,45 235,-12 Q237,-14 236,-15 Q236,-16 234,-16 Q219,-16 200,-28 Q160,12 159,133 L158,132 Q159,31 66,-34 M94,214 L122,202 Q123,202 124,201 Q124,201 123,199 L120,193 Q119,189 117,180 Q115,172 114,167 L201,169 L218,185 L238,167 Q239,164 237,164 L112,162 Q91,77 25,-1 Q21,-4 23,0 Q72,75 87,161 L58,161 Q51,160 40,158 Q33,157 31,157 L22,166 L88,167 Q93,189 94,214 M105,115 Q105,117 106,117 Q108,118 109,116 Q118,81 112,63 Q106,53 91,51 Q81,54 90,67 Q106,86 105,115 M207,129 L228,115 Q230,114 230,114 Q230,113 228,112 Q211,101 178,75 Q175,73 176,77 Q197,106 207,129"/> 
            <glyph glyph-name="点" unicode="&#x70B9;" horiz-adv-x="232" d=" M198,48 Q170,51 98,51 Q89,51 85,51 L85,48 Q84,31 70,21 Q64,17 63,23 L63,125 Q63,128 66,127 L84,117 L115,118 L115,174 L113,216 L143,209 Q146,209 144,206 Q141,203 139,196 L139,169 L191,170 L206,185 L222,168 Q224,166 222,166 L139,164 L139,118 L168,118 L180,132 L203,118 Q206,117 204,115 L198,107 L199,59 L201,52 Q202,49 201,49 Q201,48 198,48 M85,111 L85,57 L170,58 L170,113 M182,30 Q212,17 222,6 Q232,-1 223,-13 Q221,-16 217,-21 Q215,-22 215,-22 Q203,-30 199,-17 Q192,17 180,28 Q179,30 182,30 M50,22 Q60,6 52,-13 Q45,-30 33,-27 Q25,-19 33,-7 Q47,2 48,21 Q48,23 50,22 M137,23 Q137,25 140,24 Q161,8 163,-1 Q163,-11 153,-17 Q144,-21 143,-12 Q141,7 137,23 M92,21 Q92,23 93,23 Q94,23 95,22 Q112,3 112,-5 Q109,-14 101,-19 Q96,-21 94,-19 Q91,-18 92,-13 Q94,10 92,21"/> 
            <glyph glyph-name="热" unicode="&#x70ED;" horiz-adv-x="243" d=" M137,211 L160,203 L158,195 L157,167 L182,168 L191,181 L211,170 Q213,169 211,167 L204,158 Q196,103 223,78 Q227,74 230,78 L238,86 Q239,87 241,87 Q242,87 241,85 Q235,74 237,64 Q243,51 236,45 Q228,40 217,48 Q175,78 183,163 L157,162 L157,141 Q157,128 153,114 Q171,107 174,104 Q178,89 171,79 Q168,76 162,81 Q155,90 145,98 Q125,65 75,37 Q73,36 73,38 Q72,39 74,40 Q120,73 133,109 Q119,120 106,126 Q104,129 107,129 Q113,127 128,122 Q134,121 136,120 Q137,126 138,138 Q139,144 139,147 L139,161 Q133,160 126,158 Q122,157 120,157 L113,164 L139,166 L139,184 M81,205 Q84,205 82,201 L78,194 L78,164 L86,164 L95,176 L110,164 Q111,161 109,160 L78,159 L77,134 Q84,136 99,142 Q105,144 108,145 Q110,144 108,142 Q104,139 96,135 Q83,128 77,124 L79,83 Q79,53 50,38 Q47,37 47,41 Q49,53 40,58 Q39,59 39,61 Q39,62 41,61 Q60,60 58,72 L58,113 Q39,101 31,94 Q29,92 28,93 Q28,93 27,95 L20,117 Q19,119 21,119 Q34,121 58,128 L58,158 L23,157 Q20,156 20,159 Q19,162 22,162 L58,163 L58,173 L57,213 M181,36 Q211,25 222,12 Q233,3 224,-6 Q220,-12 215,-15 Q204,-22 200,-10 Q195,16 182,33 Q181,34 180,35 Q179,37 181,36 M53,34 Q63,14 55,-5 Q47,-22 33,-21 Q24,-10 34,2 Q49,15 50,33 Q50,36 53,34 M138,28 Q138,31 142,30 Q165,14 167,3 Q169,0 166,-3 Q163,-9 157,-11 Q145,-15 145,-6 Q143,14 138,28 M94,27 Q94,29 97,28 Q118,9 118,0 Q118,-4 114,-8 Q112,-13 104,-15 Q92,-18 93,-8 Q97,11 94,27"/> 
            <glyph glyph-name="烹" unicode="&#x70F9;" horiz-adv-x="239" d=" M179,175 L199,162 Q201,162 199,160 L193,152 L193,134 L194,131 Q195,130 194,130 Q192,130 182,130 Q121,131 85,130 Q83,127 76,120 Q70,118 70,121 L70,147 Q71,160 69,172 Q69,174 72,173 L89,165 L169,166 M123,101 L146,92 L169,110 L67,109 Q54,109 47,106 L40,114 L173,115 L185,125 L205,109 Q207,107 206,106 Q206,104 203,104 Q184,103 148,87 Q147,85 145,81 Q144,80 144,79 L144,59 Q144,38 117,20 Q115,19 114,19 Q113,20 113,22 Q115,34 102,42 Q100,46 103,46 Q125,44 122,54 L123,74 L122,99 Q121,102 123,101 M59,180 Q40,179 30,177 L24,185 L119,185 L118,212 Q118,215 120,214 L147,206 Q149,206 147,203 Q144,197 144,191 L144,186 L205,186 L221,201 L237,184 Q239,182 236,182 M89,139 Q89,138 88,135 L171,136 L171,160 L89,159 M187,28 Q213,16 225,4 Q231,0 225,-10 Q221,-16 216,-19 Q206,-26 203,-14 Q198,14 186,27 Q185,29 187,28 M65,28 Q75,9 68,-11 Q61,-26 47,-27 Q38,-16 46,-3 Q62,7 63,27 Q63,29 65,28 M145,24 Q145,26 148,25 Q172,9 175,-1 Q177,-11 164,-18 Q152,-23 152,-12 Q152,6 145,24 M103,20 Q103,22 104,23 Q105,23 106,22 Q126,4 126,-4 Q125,-15 113,-19 Q101,-23 102,-12 Q106,3 103,20"/> 
            <glyph glyph-name="煮" unicode="&#x716E;" horiz-adv-x="248" d=" M99,176 Q88,175 76,173 Q77,174 73,173 L64,181 L112,181 L112,213 L140,205 Q142,205 140,202 Q137,199 135,192 L135,182 L146,182 L157,193 L172,179 Q173,177 170,177 L135,176 L135,150 L146,150 Q177,174 201,202 L217,183 Q219,182 216,180 L209,175 Q207,174 204,171 Q194,163 177,150 L214,151 L229,166 L247,148 Q248,147 248,147 Q248,146 246,145 L168,144 Q147,129 125,116 L168,118 L178,130 L200,116 Q203,115 200,112 L194,105 L194,56 Q195,37 175,24 Q171,22 169,25 Q165,36 162,41 L102,40 Q99,33 90,27 Q87,25 86,25 Q85,25 85,28 L85,94 Q48,75 4,57 Q2,56 1,57 Q1,59 3,60 Q49,84 85,106 L85,117 Q85,120 88,119 L101,116 Q121,130 139,143 L54,142 Q36,141 27,139 L18,148 L113,149 L113,169 L113,176 M104,45 L167,46 Q167,46 167,47 Q168,49 168,50 L168,113 L116,111 Q114,110 110,108 Q106,105 104,104 L104,83 L158,86 Q161,86 161,84 Q160,81 157,81 L104,79 M192,30 Q220,18 232,6 Q242,-2 233,-14 Q232,-15 231,-16 Q226,-21 224,-22 Q212,-30 209,-17 Q203,15 190,28 Q189,30 192,30 M58,29 Q68,10 61,-10 Q52,-26 40,-27 Q33,-18 39,-3 Q55,8 56,28 Q56,30 58,29 M145,25 Q145,27 147,26 Q171,10 175,0 Q176,-9 164,-16 Q153,-21 152,-11 Q152,10 145,25 M96,24 Q96,25 97,26 Q98,26 99,25 Q118,7 119,-4 Q119,-13 106,-19 Q95,-22 95,-12 Q99,6 96,24"/> 
            <glyph glyph-name="煲" unicode="&#x7172;" horiz-adv-x="248" d=" M127,139 Q108,138 98,135 L91,142 L151,144 L151,165 Q142,165 132,165 Q130,158 122,153 Q120,151 118,152 Q117,152 117,154 L117,174 L117,186 Q117,202 116,207 Q116,208 119,208 L134,199 L184,200 L192,210 L211,200 Q211,199 211,198 L206,191 L206,170 L207,167 Q207,167 206,166 Q193,166 160,165 L168,163 Q173,162 171,158 L171,145 L206,146 L218,158 L233,144 Q235,143 233,142 L171,140 L171,129 L171,99 Q171,89 157,75 Q151,72 150,77 L151,108 L151,122 Q122,96 81,79 Q79,79 80,81 Q113,101 144,139 M196,73 L214,57 Q217,55 213,52 Q204,47 174,34 Q167,31 164,30 Q190,5 245,-3 Q248,-4 245,-7 Q227,-8 213,-28 Q150,-2 141,67 L140,67 Q142,-14 13,-32 Q11,-33 11,-31 Q10,-30 12,-29 Q123,-5 118,68 L118,86 L145,74 L142,70 Q147,48 161,34 Q185,55 196,73 M6,111 Q2,109 4,113 Q55,151 86,214 L105,204 Q108,201 105,200 L102,196 Q90,181 77,168 L79,95 Q78,82 65,65 Q61,62 59,67 L60,119 L61,152 Q37,132 6,111 M133,195 L133,169 L184,171 L184,196 M79,69 Q79,71 81,70 Q82,70 82,68 Q85,36 73,21 Q66,13 52,16 Q45,22 53,29 Q73,41 79,69 M178,133 Q180,132 183,131 Q224,117 226,109 Q227,101 219,92 Q213,87 210,93 Q199,116 177,130 Q176,131 176,132 Q176,133 178,133"/> 
            <glyph glyph-name="环" unicode="&#x73AF;" horiz-adv-x="250" d=" M151,186 Q148,186 143,185 Q129,185 124,183 L116,190 L213,193 L227,207 L244,192 Q245,189 242,189 L181,187 L201,173 Q203,171 198,168 Q187,144 175,125 L176,0 Q174,-18 158,-28 Q153,-29 153,-24 L154,17 L154,92 Q107,28 49,-9 Q47,-10 46,-9 Q46,-7 47,-6 Q111,44 153,129 Q151,143 148,152 Q148,155 152,155 L162,148 Q170,168 176,187 M17,182 Q15,182 15,184 Q15,186 17,187 L85,188 L96,199 L111,186 Q114,184 110,184 L72,183 L71,123 L84,124 L95,135 L108,122 Q110,121 108,120 L71,118 L69,54 L104,63 Q108,64 105,61 L55,34 Q38,25 27,17 Q24,16 23,17 L9,37 Q7,39 10,39 Q12,39 15,40 Q31,44 44,47 L49,48 L50,117 L24,116 Q21,116 20,118 Q20,120 22,121 L50,122 L51,182 M190,111 Q235,90 245,69 Q250,54 237,43 Q226,40 224,49 Q218,82 189,109 Q188,112 190,111"/> 
            <glyph glyph-name="甜" unicode="&#x751C;" horiz-adv-x="250" d=" M189,211 L214,200 Q216,199 214,197 L212,189 L211,151 L222,151 L233,164 L248,150 Q250,148 248,147 L211,146 L211,87 L213,21 Q213,2 200,-15 Q193,-21 191,-14 Q188,6 184,14 L154,12 L154,8 Q153,-7 143,-21 Q137,-26 136,-21 L136,53 L135,143 L117,142 Q114,142 113,144 Q113,147 116,147 L135,148 L135,171 Q135,194 134,205 Q134,206 136,206 L157,196 Q159,195 157,193 L153,186 L153,148 L189,150 L189,180 Q189,185 188,200 Q188,208 188,210 Q188,212 189,211 M83,173 L81,161 L79,136 L93,136 L105,148 L121,133 Q122,131 120,131 L78,130 L73,80 L86,81 L95,94 L116,82 Q119,81 117,79 L111,71 L111,15 L113,10 Q114,8 113,8 Q113,7 111,7 Q91,10 49,7 L49,4 Q47,-8 36,-16 Q32,-17 31,-14 L31,57 L30,88 Q30,89 31,90 Q31,90 33,89 L48,79 L59,80 L59,129 L44,129 Q34,128 23,126 Q24,127 21,126 L14,134 L59,135 L59,180 Q53,179 41,177 Q28,175 22,174 Q20,174 20,175 Q20,176 21,177 Q80,194 96,206 L112,190 Q113,187 110,187 Q105,186 86,183 Q72,181 64,180 M181,92 Q183,92 183,90 Q183,88 181,87 L154,85 L154,17 L189,19 L189,145 L153,144 L154,90 M49,74 L49,13 L88,15 L87,76"/> 
            <glyph glyph-name="用" unicode="&#x7528;" horiz-adv-x="215" d=" M88,193 L182,195 L190,208 L213,196 Q215,196 213,194 L207,185 L208,31 Q212,-11 173,-24 Q174,-5 164,0 Q162,0 163,1 Q163,2 165,2 Q186,0 184,22 L183,80 L145,79 L145,30 Q146,10 132,-6 Q129,-9 127,-9 Q124,-9 124,-5 L125,43 L125,78 L87,77 Q84,14 5,-33 Q3,-34 3,-32 Q3,-30 4,-29 Q73,16 68,111 L68,177 L67,205 Q67,206 69,206 M145,179 L144,159 L144,139 L183,140 L182,190 L127,188 L144,182 Q146,182 145,179 M144,134 L145,84 L183,85 L183,135 M89,111 Q89,106 88,97 Q88,87 87,82 L125,83 L124,133 L88,132 M124,149 Q124,173 123,188 L88,188 L88,137 L124,138"/> 
            <glyph glyph-name="电" unicode="&#x7535;" horiz-adv-x="255" d=" M200,144 L200,82 Q200,64 183,44 Q176,39 174,46 Q169,60 164,65 L122,63 L121,13 Q120,1 132,1 Q183,-1 214,6 Q229,7 239,33 Q240,35 241,35 Q242,34 242,32 Q238,11 247,5 Q255,-1 254,-9 Q251,-16 240,-18 Q195,-29 132,-22 Q103,-17 102,25 L102,63 L62,62 L61,54 Q56,42 45,33 Q39,30 38,35 L40,83 L40,136 L39,173 L62,160 L103,161 L103,175 Q103,186 102,202 Q102,209 102,211 Q101,215 104,213 L127,201 Q130,200 128,198 L125,190 L124,161 L169,162 L181,175 L207,157 Q208,156 208,154 M169,70 L171,148 Q171,156 161,156 L124,156 L123,118 L161,119 Q163,119 163,117 Q163,114 161,114 L123,113 L122,69 M62,112 L61,68 L102,69 L103,113 M62,155 L62,117 L103,118 L103,155"/> 
            <glyph glyph-name="的" unicode="&#x7684;" horiz-adv-x="237" d=" M81,213 L98,195 Q98,193 97,193 L89,190 Q67,176 47,166 L49,164 L49,161 L84,162 L94,173 L116,159 Q118,158 118,158 Q118,158 116,156 L109,147 L109,112 Q137,149 154,213 L176,200 Q177,200 178,199 Q177,198 176,197 L172,193 Q165,177 156,165 L201,167 L212,181 L235,166 Q237,165 235,163 L227,152 L225,65 L226,33 Q223,-10 182,-28 Q178,-29 179,-25 Q182,-8 172,-2 Q170,-1 171,0 Q171,0 173,0 Q202,0 200,22 L202,162 L153,159 Q135,132 109,106 L108,64 L110,25 Q108,7 98,-6 Q95,-10 92,-10 Q90,-10 89,-6 Q84,13 81,18 L46,18 L46,4 Q45,-13 32,-26 Q27,-29 27,-25 L29,45 L30,143 L29,173 Q30,176 33,175 L44,168 Q67,191 81,213 M48,155 L47,99 L77,100 Q79,101 79,98 Q79,95 77,95 L47,94 L46,24 L84,24 L86,156 M141,114 Q140,117 142,116 Q182,98 182,89 Q184,77 170,68 Q157,64 156,73 Q155,97 141,114"/> 
            <glyph glyph-name="真" unicode="&#x771F;" horiz-adv-x="254" d=" M66,178 Q47,178 38,175 L30,184 L114,184 L115,215 L143,208 Q146,207 144,204 L138,198 L137,185 L196,185 L209,198 L227,184 Q230,181 226,180 L137,179 L135,155 L165,156 L173,167 L195,157 Q197,156 195,154 L190,146 L189,36 L218,36 L233,51 L252,34 Q254,31 251,31 L99,29 L100,29 L111,12 Q113,9 109,7 Q65,-19 16,-32 Q14,-33 14,-31 Q13,-30 15,-29 Q66,-9 97,29 L42,29 Q27,28 14,26 L7,34 L70,35 L69,161 Q69,163 71,162 L90,154 L112,155 L113,179 M157,67 Q159,67 159,64 Q159,62 156,62 L89,60 L90,35 L165,36 L166,151 L89,149 L89,124 L156,126 Q158,126 158,124 Q158,121 156,121 L89,119 L89,96 L156,97 Q158,97 158,95 Q158,93 156,92 L89,90 L89,65 M137,20 Q187,13 207,3 Q215,-3 208,-21 Q202,-30 196,-22 Q171,4 136,18 Q134,19 137,20"/> 
            <glyph glyph-name="码" unicode="&#x7801;" horiz-adv-x="242" d=" M185,194 L123,192 Q120,194 123,197 L185,199 L195,211 L215,198 Q217,197 215,195 L208,186 L198,98 L209,98 L219,111 L240,98 Q242,98 240,95 L234,87 Q229,22 217,-2 Q209,-18 185,-28 Q179,-30 180,-25 Q182,-10 171,-4 Q170,-3 170,-2 Q171,0 172,-1 Q192,-6 193,-1 Q206,21 209,93 L141,91 Q138,84 126,76 Q122,74 121,79 L125,109 L127,137 Q130,166 129,173 L152,163 Q154,162 152,160 L150,156 L142,97 L175,98 M57,181 Q39,181 29,179 L22,185 L91,188 L102,199 L116,185 Q116,183 115,183 L65,182 L80,174 Q83,174 81,170 L78,166 Q77,164 74,159 Q68,149 54,129 L61,125 L80,125 L88,136 L107,126 Q109,125 107,124 L103,117 L103,48 L104,43 Q105,40 102,40 Q100,40 96,40 Q79,42 60,42 L60,29 Q59,12 48,0 Q47,0 46,0 Q44,-1 43,0 L44,40 L45,117 Q27,94 4,70 Q2,68 2,72 Q41,121 57,181 M61,120 L60,47 L81,48 L82,121 M145,42 Q129,42 115,40 L108,47 L170,48 L182,61 L199,46 Q199,44 198,44"/> 
            <glyph glyph-name="硬" unicode="&#x786C;" horiz-adv-x="250" d=" M145,187 Q125,185 118,184 L111,191 L211,194 L222,206 L238,193 Q239,191 239,191 Q238,190 237,190 L164,187 L175,180 L175,157 L203,158 L210,169 L233,158 Q233,158 234,157 Q235,157 234,155 L228,146 L229,99 Q228,84 215,72 Q211,67 207,72 Q203,82 199,88 L174,87 Q173,55 159,29 Q184,11 248,-4 Q250,-5 250,-6 Q250,-8 248,-8 Q232,-9 215,-28 Q172,-9 150,16 Q127,-13 59,-33 Q57,-33 56,-31 Q56,-30 58,-29 Q122,-9 142,28 Q132,46 126,67 L129,68 Q133,52 147,38 Q154,59 157,86 L136,86 Q132,76 125,71 Q123,70 121,70 Q120,71 120,73 L120,141 Q120,157 119,162 Q119,163 122,163 L135,156 L158,157 Q158,173 156,187 M102,41 Q101,41 98,41 Q81,43 62,42 L62,31 Q58,4 45,1 L46,42 L47,121 Q29,97 5,71 Q4,70 3,73 Q45,132 59,181 Q54,181 46,180 Q36,180 32,179 L26,185 L88,187 L100,198 L113,184 Q115,182 113,182 L67,181 L82,174 Q85,173 83,170 L79,166 Q70,151 54,129 L63,124 L81,125 L89,135 L107,125 Q109,125 107,123 L103,116 L103,49 L104,44 Q105,40 102,41 M174,100 Q174,95 174,92 L204,93 L205,153 L175,152 L174,127 L196,127 Q198,128 198,125 Q198,123 196,123 L174,122 M63,119 L62,48 L82,48 L83,120 M135,121 L136,91 L157,91 Q157,95 158,102 Q158,109 158,112 L158,122 M158,146 Q158,149 158,152 L135,151 L135,125 L158,126"/> 
            <glyph glyph-name="磁" unicode="&#x78C1;" horiz-adv-x="254" d=" M145,36 Q145,39 147,37 Q161,22 167,4 Q168,-4 160,-12 Q154,-16 151,-15 Q147,-14 148,-8 Q149,2 149,9 Q123,-1 109,-13 Q106,-16 104,-12 L96,9 Q106,10 112,20 Q122,33 143,78 Q122,69 111,63 Q109,61 109,62 Q108,62 108,64 L101,82 Q111,82 114,91 Q130,118 139,162 L135,162 Q132,162 126,161 Q111,161 108,159 L101,166 L145,167 L145,193 Q145,200 144,204 Q144,207 146,206 L163,198 Q166,197 165,195 L164,167 L187,167 L202,213 L224,200 Q226,200 224,198 L220,193 L204,168 L220,168 L234,184 L252,167 Q254,165 252,164 L212,163 L228,152 Q230,151 227,145 Q215,124 186,85 L218,87 Q219,90 221,95 Q225,102 228,113 L246,97 Q248,96 245,93 Q221,54 185,11 L223,15 Q222,28 217,37 Q216,40 219,39 Q239,20 244,7 Q246,-2 237,-9 Q232,-14 228,-13 Q224,-12 225,-7 Q225,2 224,9 Q191,-4 180,-13 Q178,-15 178,-14 Q177,-14 176,-12 L167,9 Q175,10 184,20 Q194,35 214,79 Q191,70 179,63 Q177,61 177,62 Q176,62 176,64 L168,80 Q177,81 183,91 Q199,122 208,163 L142,162 L160,149 Q162,147 160,144 Q142,115 118,85 L147,86 Q156,105 161,119 L178,104 Q180,102 177,99 Q140,42 113,11 L149,14 Q148,27 145,36 M54,175 Q36,175 26,173 L19,179 L86,180 L98,193 L113,178 Q115,176 113,176 L62,175 L79,168 Q81,167 79,165 L76,161 Q74,158 70,151 Q59,131 51,119 L58,115 L76,116 L84,126 L103,117 Q105,116 103,114 L99,108 L98,33 L99,28 Q100,25 98,25 Q86,27 57,27 L57,13 Q51,-15 39,-13 L40,25 L41,105 Q25,81 4,57 Q1,56 2,59 Q40,116 55,175 M58,110 L57,32 L76,33 L77,111"/> 
            <glyph glyph-name="福" unicode="&#x798F;" horiz-adv-x="242" d=" M211,84 L220,95 L240,83 Q242,83 240,80 L235,72 L235,32 L236,9 Q237,-4 221,-23 Q215,-27 214,-22 Q210,-6 207,0 L139,0 L139,-6 Q137,-19 126,-27 Q121,-31 120,-26 L121,18 L121,66 L121,90 Q121,93 123,92 L140,82 M26,171 L66,173 L66,212 L90,206 Q92,205 90,202 Q86,196 86,174 L93,174 L101,183 L120,169 Q122,168 120,166 L113,159 Q99,138 84,120 L84,118 Q85,117 88,116 Q113,104 115,98 Q115,88 105,81 Q99,77 97,84 Q94,102 84,113 L84,39 L85,5 Q82,-13 68,-27 Q66,-29 64,-29 Q62,-28 62,-25 L64,41 L65,100 Q40,75 4,49 Q2,49 3,52 Q58,101 92,168 L54,166 Q43,166 34,163 M149,112 Q147,106 138,100 Q134,97 133,101 L133,130 L133,148 Q134,153 133,163 Q133,166 133,167 Q133,170 135,168 L149,161 L200,162 L208,174 L229,162 Q231,162 229,159 L225,152 L225,126 Q225,115 213,103 Q208,99 206,102 Q205,103 203,106 Q200,110 197,113 M201,157 L149,156 L149,116 L200,119 M185,4 L211,5 L211,43 L185,42 M139,42 L139,3 L164,4 L164,42 M212,79 L185,78 L185,48 L211,48 M139,78 L139,47 L164,47 L164,78 M158,190 Q155,190 148,189 Q133,189 129,187 L121,194 L207,197 L219,208 L235,195 Q237,194 237,194 Q237,193 235,192"/> 
            <glyph glyph-name="种" unicode="&#x79CD;" horiz-adv-x="243" d=" M193,199 L190,189 L190,150 L210,151 L218,163 L241,151 Q243,149 241,147 L236,139 L236,87 L238,83 Q239,80 237,80 Q218,82 189,80 L189,44 L191,0 Q187,-20 171,-29 Q168,-30 167,-26 L168,22 L168,80 Q165,80 159,80 Q152,79 148,79 L148,74 Q144,59 134,51 Q130,49 128,52 L130,100 L130,133 L129,160 Q129,162 131,161 L149,149 L168,150 L168,171 L166,214 L191,202 Q193,202 193,199 M107,216 L123,199 Q124,197 123,197 Q123,196 121,196 Q116,195 101,192 Q89,190 83,189 L96,185 Q97,184 97,182 L92,175 L92,139 L99,139 L111,152 L126,137 Q128,134 125,134 L92,134 L91,105 Q119,93 122,86 Q124,77 113,69 Q106,66 105,72 Q100,88 91,99 L90,46 L91,0 Q88,-17 75,-28 Q73,-31 70,-31 Q68,-30 68,-27 L70,45 L70,84 Q53,59 5,14 Q3,13 2,14 Q1,15 2,16 Q46,68 71,133 L56,133 Q39,133 27,130 L20,138 L71,139 L72,158 Q72,165 71,176 Q71,184 71,188 Q67,187 57,186 Q35,183 24,182 Q22,183 24,185 Q84,198 107,216 M211,146 L190,145 L189,86 L211,87 M148,144 L148,85 L168,86 L168,144"/> 
            <glyph glyph-name="简" unicode="&#x7B80;" horiz-adv-x="238" d=" M103,28 Q100,19 92,13 Q88,10 87,15 L87,81 Q87,93 87,101 Q86,104 89,102 L103,93 L149,95 L157,106 L177,95 Q178,95 178,93 L172,84 L173,41 Q172,31 161,17 Q156,13 153,17 Q152,20 149,24 Q147,28 146,30 M154,122 Q135,122 123,119 L116,126 L194,130 L204,141 L225,128 Q225,127 226,127 Q227,126 225,125 L217,115 L218,58 L219,18 Q221,-10 189,-31 Q187,-32 186,-31 Q185,-30 186,-28 Q185,-14 176,-7 Q175,-6 175,-5 Q175,-4 176,-4 Q197,-5 195,6 L194,124 M64,99 L62,0 Q61,-14 47,-29 Q43,-32 42,-29 L44,44 L44,84 L43,120 L66,111 Q67,111 68,110 Q68,110 67,108 M150,90 L102,89 L102,64 L143,66 Q145,66 145,64 Q145,62 142,62 L102,60 L103,32 L150,34 M61,211 L87,194 Q89,192 86,190 Q81,188 75,182 L71,177 L105,179 L118,193 L136,178 Q137,176 137,176 Q136,175 135,175 L91,173 Q104,165 104,156 Q103,148 95,146 Q87,145 87,150 Q86,167 82,172 L65,171 Q41,149 14,126 Q12,124 12,128 Q46,171 61,211 M154,213 L179,198 Q181,197 178,195 Q172,193 168,187 Q167,186 166,184 Q164,181 162,179 L205,181 L218,195 L236,180 Q238,178 236,178 L181,175 Q201,164 201,155 Q199,146 189,141 Q181,140 181,146 Q180,167 174,175 L158,174 Q155,171 149,164 Q137,149 128,140 Q126,139 125,139 Q124,139 125,141 Q145,183 154,213 M73,147 Q102,138 102,131 Q100,119 93,115 Q88,112 85,118 Q77,140 71,145 Q70,148 73,147"/> 
            <glyph glyph-name="米" unicode="&#x7C73;" horiz-adv-x="253" d=" M119,215 L145,203 Q147,202 145,201 L142,193 L141,122 L204,123 L221,141 L241,121 Q242,119 242,119 Q241,118 240,118 L152,115 Q154,63 251,9 Q252,8 253,7 Q252,6 251,6 Q232,7 213,-11 Q155,34 149,115 L141,115 L140,42 L141,-2 Q139,-15 122,-30 Q120,-32 118,-31 Q115,-30 116,-27 L118,45 L118,81 Q85,37 19,-11 Q10,-18 6,-21 Q4,-22 3,-21 Q2,-20 3,-18 Q60,24 108,114 L52,113 Q33,112 24,109 L16,119 L118,121 L118,179 Q118,202 118,214 Q118,215 119,215 M189,192 L209,176 Q212,174 209,171 Q183,148 153,124 L152,125 Q177,158 189,192 M51,186 Q92,166 94,155 Q94,146 81,136 Q74,133 72,140 Q65,169 49,184 Q48,187 51,186"/> 
            <glyph glyph-name="粉" unicode="&#x7C89;" horiz-adv-x="255" d=" M177,209 L179,210 Q198,148 253,110 Q255,109 254,107 Q254,105 252,106 Q241,107 224,91 Q218,99 212,106 L206,98 L203,20 Q201,-5 174,-21 Q170,-23 169,-18 Q171,-5 162,0 Q160,2 163,2 Q180,1 180,13 L184,105 L145,104 L158,98 Q162,98 160,91 Q164,5 64,-30 Q62,-31 61,-29 Q60,-28 62,-27 Q113,-1 126,23 Q142,47 141,104 L140,104 Q136,104 129,103 Q122,103 119,102 L114,107 Q113,105 110,102 Q108,99 101,91 Q101,91 102,90 Q108,87 108,84 Q110,77 100,70 Q94,66 93,72 Q89,86 78,97 L78,54 L78,8 Q77,-1 65,-16 Q58,-21 59,-16 L60,56 L60,73 Q40,42 5,1 Q2,0 3,3 Q41,54 60,122 L60,124 L54,124 Q36,124 26,121 L19,129 L60,130 L60,175 Q60,202 59,209 Q59,210 61,210 L83,201 Q84,200 84,198 L79,191 L78,150 Q93,173 99,186 L114,175 Q115,174 113,172 L78,142 L78,130 L92,131 L102,141 L115,129 Q116,126 113,126 L78,124 L78,101 Q89,98 98,93 Q128,143 144,200 L166,188 Q166,188 167,188 Q168,187 166,185 L162,180 Q147,151 115,108 L183,111 L193,123 L208,113 Q186,145 177,209 M27,173 Q25,176 28,175 Q45,169 52,160 Q55,154 47,146 Q40,140 38,146 Q36,160 27,173"/> 
            <glyph glyph-name="粒" unicode="&#x7C92;" horiz-adv-x="254" d=" M188,136 L211,126 Q213,125 211,124 L208,116 L198,-5 L220,-5 L234,9 L252,-7 Q254,-9 252,-10 L125,-12 Q122,-12 117,-13 Q103,-13 99,-15 L91,-6 L135,-6 L133,96 Q133,105 132,120 Q131,128 131,131 Q131,133 133,132 L155,124 Q157,123 155,122 L153,114 L151,-6 L179,-5 L185,100 Q185,110 186,125 Q186,133 186,135 Q186,138 188,136 M61,210 L84,201 Q86,199 84,199 L79,191 L79,146 Q94,171 99,183 L112,169 Q114,168 111,167 L79,139 L78,128 L94,129 L104,139 L117,126 Q118,125 118,125 Q118,124 116,123 L78,122 L78,42 L79,-2 Q77,-14 65,-28 Q61,-31 60,-31 Q58,-31 59,-28 L60,44 L60,73 Q36,36 7,0 Q5,0 4,0 Q3,0 4,2 Q41,52 59,122 L56,122 Q42,122 27,120 L20,127 L60,128 L60,175 Q60,184 59,198 Q59,206 59,209 Q59,211 61,210 M118,155 Q114,155 114,158 Q114,161 118,161 L156,162 L158,209 L183,203 Q185,203 185,202 Q186,201 184,199 Q180,193 178,162 L202,163 L216,175 L232,161 Q234,158 231,157 M81,108 Q109,94 110,86 Q111,83 102,75 Q101,74 100,73 Q93,71 92,77 Q88,98 80,106 M28,172 Q26,175 30,174 Q48,167 54,159 Q57,152 48,144 Q43,140 40,144 Q40,145 39,148 Q35,164 28,172"/> 
            <glyph glyph-name="粘" unicode="&#x7C98;" horiz-adv-x="240" d=" M220,-6 Q189,-3 134,-3 L134,-14 Q124,-32 114,-26 L114,76 Q114,81 116,79 L133,69 L154,69 L156,172 L156,210 L184,203 Q186,202 184,199 L177,191 L176,142 L207,143 L221,159 L238,140 Q240,137 237,137 L176,135 L175,70 L192,70 L203,84 L224,70 Q227,69 225,67 L220,59 L220,2 L223,-3 Q225,-6 220,-6 M64,210 L88,201 Q90,200 88,198 L82,190 L82,150 Q93,166 101,184 L114,170 Q116,169 113,168 L82,142 L82,130 L99,130 L109,141 L123,128 Q125,125 122,125 L82,124 L82,104 Q109,95 110,88 Q112,84 102,74 Q96,71 94,77 Q91,90 82,101 L81,42 L82,-2 Q80,-14 68,-28 Q62,-33 61,-28 L63,44 L63,73 Q40,40 6,0 Q4,0 3,0 Q2,0 3,1 Q41,50 63,124 L57,124 Q47,124 34,122 Q30,121 28,121 L21,128 L63,129 L63,174 Q63,202 62,209 Q62,210 64,210 M134,62 L134,1 L194,2 L194,65 M29,172 Q28,173 28,174 Q29,175 31,175 Q49,168 55,160 Q58,153 49,145 Q44,141 41,145 Q41,146 40,149 Q36,165 29,172"/> 
            <glyph glyph-name="精" unicode="&#x7CBE;" horiz-adv-x="248" d=" M64,213 L89,204 Q91,202 89,201 L83,193 L83,148 Q97,173 102,186 L115,172 Q117,169 115,168 L83,141 L83,130 L95,130 L106,140 L119,128 Q120,127 118,125 L83,124 L82,101 Q108,93 111,84 Q112,78 102,70 Q96,67 95,72 Q89,90 82,97 L82,45 L83,-1 Q81,-13 67,-27 Q65,-30 63,-30 Q61,-30 61,-27 L63,47 L63,73 Q40,37 5,0 Q3,0 2,0 Q1,0 2,2 Q36,47 62,124 L54,124 Q36,124 26,121 L18,129 L63,130 L63,176 Q63,186 62,201 Q62,209 62,212 Q62,214 64,213 M145,92 L192,95 L201,106 L222,93 Q224,92 223,90 L216,81 L219,15 Q222,-13 193,-30 Q190,-32 189,-29 Q188,-16 182,-13 Q181,-13 181,-12 Q181,-10 182,-10 Q197,-12 194,0 L193,90 L145,87 L145,67 L185,69 Q188,69 188,67 Q188,64 186,63 L145,61 L144,37 L186,39 Q188,38 189,36 Q189,35 187,34 L144,31 L143,5 Q143,-9 131,-25 Q128,-29 126,-30 Q124,-29 124,-25 L126,16 L127,68 L127,102 M148,170 Q134,171 127,168 L119,175 L154,176 L154,213 L179,206 Q181,205 179,202 Q179,202 178,201 Q177,199 175,192 L175,176 L203,177 L216,189 L230,175 Q232,173 228,173 L175,171 L175,148 L195,148 L208,161 L222,147 Q224,145 221,144 L175,143 L175,118 L217,119 L230,133 L247,118 Q248,116 248,116 Q247,115 246,115 L142,112 Q132,112 119,110 Q120,111 116,110 L107,117 L154,118 L154,142 Q145,142 133,140 Q134,140 131,140 L123,147 L154,148 L155,168 L155,170 M29,174 Q27,176 30,176 Q51,168 56,161 Q57,155 50,146 Q44,140 41,147 Q38,162 29,174"/> 
            <glyph glyph-name="约" unicode="&#x7EA6;" horiz-adv-x="236" d=" M92,95 Q88,93 90,97 Q129,144 150,215 L172,202 Q174,201 172,199 L168,195 Q164,186 154,170 Q153,168 152,167 L201,169 L212,183 L234,168 Q236,167 236,167 Q236,166 234,165 L226,154 L224,67 L225,35 Q222,-9 182,-26 Q178,-27 178,-23 Q181,-7 172,0 Q169,2 173,1 Q202,2 199,24 L202,164 L148,161 Q128,130 92,95 M90,163 L110,145 Q112,144 109,141 Q92,121 43,72 L105,78 Q107,78 107,77 Q108,76 106,75 Q45,55 33,48 Q28,45 27,48 L22,72 Q31,72 39,80 Q50,93 72,130 Q44,122 29,115 Q27,114 26,114 Q25,114 25,116 L20,135 Q28,134 35,143 Q53,170 66,211 L89,197 Q92,195 88,192 Q78,179 45,143 Q41,139 39,137 L77,138 Q78,139 79,141 Q87,155 90,163 M115,43 Q119,44 116,41 L69,13 Q42,-1 35,-6 Q34,-8 34,-8 Q34,-8 32,-6 L22,20 Q34,21 54,27 M136,115 Q135,117 136,118 Q137,119 138,118 Q177,100 177,91 Q179,79 165,70 Q154,65 152,74 Q151,99 136,115"/> 
            <glyph glyph-name="级" unicode="&#x7EA7;" horiz-adv-x="252" d=" M148,113 Q152,80 173,50 Q190,78 204,122 L181,120 Q176,113 166,109 Q162,107 160,111 L172,187 L119,185 L135,179 L132,174 L132,130 Q138,23 45,-30 Q43,-30 42,-28 Q41,-27 43,-26 Q82,1 98,36 Q113,69 112,132 L112,161 Q112,178 112,185 L96,184 Q94,184 94,186 Q94,188 96,189 L172,192 L179,203 L200,192 Q202,192 200,190 L193,180 L183,125 L204,127 L214,138 L235,124 Q237,123 234,121 L227,114 Q211,71 184,38 Q211,8 249,-6 Q252,-8 249,-10 Q236,-10 219,-25 Q185,-4 170,22 Q145,-3 102,-32 Q101,-33 100,-32 Q99,-30 100,-29 Q138,-1 163,34 Q149,63 144,112 M81,164 L101,147 Q103,146 100,143 Q76,116 35,80 L94,84 Q95,82 94,81 Q46,65 28,56 Q24,53 23,56 L18,78 Q18,78 19,78 Q25,78 33,86 Q48,104 65,133 Q37,125 24,119 Q21,116 20,119 L16,137 Q17,137 18,137 Q23,136 29,143 Q46,166 59,208 L82,194 Q84,193 80,188 Q62,168 32,139 L69,140 Q76,152 81,164 M93,50 Q95,50 95,49 Q95,48 94,47 L59,25 Q37,12 30,5 Q29,4 27,5 L18,30 Q31,32 46,36"/> 
            <glyph glyph-name="线" unicode="&#x7EBF;" horiz-adv-x="246" d=" M136,214 L163,202 Q166,200 163,198 L158,193 Q158,172 158,154 L191,157 L203,172 L221,157 Q223,154 220,154 L158,148 Q159,127 162,108 L208,113 L220,130 L240,114 Q241,113 238,111 L163,101 Q168,77 175,58 Q194,78 206,98 Q207,99 208,99 L224,83 Q227,81 223,78 Q207,58 184,40 Q198,18 217,8 Q223,4 226,8 L237,21 Q238,23 240,22 Q242,21 241,19 Q235,6 242,-9 Q243,-11 243,-12 Q246,-31 219,-23 Q185,-9 165,26 Q126,-3 66,-26 Q64,-26 63,-25 Q63,-23 64,-22 Q120,5 158,41 Q148,66 143,99 L128,97 Q113,95 102,91 L93,99 L142,105 Q139,125 138,146 Q122,145 111,142 L103,150 L137,152 Q137,159 137,165 Q135,196 136,214 M85,162 L104,142 Q106,142 103,138 Q86,117 41,72 L106,77 Q107,78 108,76 Q107,75 106,74 Q39,53 31,48 Q27,45 27,48 L20,72 Q29,71 37,80 Q50,94 68,127 Q42,120 28,112 Q24,110 24,113 L18,132 Q18,132 19,132 Q28,132 34,141 Q53,171 65,209 L87,194 Q89,192 85,187 Q64,160 38,134 L73,136 Q83,156 85,162 M112,42 Q114,43 115,41 Q116,40 114,39 L68,14 Q46,2 36,-5 Q35,-7 33,-5 L20,20 Q31,21 47,24 Q51,25 54,26 M181,204 Q207,197 206,190 Q206,183 198,178 Q191,175 191,180 Q189,195 180,203 Q179,205 181,204"/> 
            <glyph glyph-name="绕" unicode="&#x7ED5;" horiz-adv-x="253" d=" M132,67 Q113,66 103,63 L94,71 L202,75 L216,89 L233,73 Q236,71 232,71 L184,69 L175,22 Q172,9 189,9 Q204,7 218,10 Q231,13 234,26 Q235,28 236,28 Q238,28 238,26 Q237,16 244,8 Q253,-2 238,-12 Q219,-18 193,-17 Q159,-14 160,22 L165,68 L139,67 L156,58 Q158,58 156,54 Q129,9 71,-33 Q70,-34 69,-33 Q68,-32 69,-30 Q119,11 134,67 M128,213 L150,205 Q152,202 150,201 L148,198 Q151,184 156,174 L195,180 L205,195 L225,181 Q227,180 224,178 L158,169 Q168,151 179,142 Q192,155 201,167 L216,152 Q218,151 217,150 Q217,149 215,148 Q205,139 193,131 Q204,122 218,116 Q222,114 227,117 L232,123 Q234,124 235,123 Q236,122 235,121 Q232,113 236,104 Q241,95 234,90 Q227,86 215,92 Q189,105 174,119 Q141,98 99,81 Q96,82 97,83 Q137,104 165,128 Q148,149 141,166 L135,165 Q134,165 132,165 Q114,162 108,160 L99,166 L139,172 Q131,190 128,213 M85,164 L106,145 Q108,144 105,141 Q81,113 39,72 L95,77 Q97,74 95,74 Q41,54 29,47 Q25,45 24,48 L19,72 Q28,71 35,80 Q49,96 67,128 Q56,124 39,118 Q29,114 25,113 Q22,110 21,113 L17,133 Q24,132 31,141 Q50,168 62,210 L86,194 Q88,193 84,188 Q61,160 37,135 L72,136 Q81,153 85,164 M100,40 Q103,39 102,37 L61,14 Q41,2 31,-6 Q30,-8 28,-6 L19,20 Q24,21 37,24 Q44,25 48,26"/> 
            <glyph glyph-name="美" unicode="&#x7F8E;" horiz-adv-x="246" d=" M140,88 Q142,87 140,85 L136,80 Q135,67 133,56 L200,57 L214,72 L232,56 Q235,53 231,52 L146,50 Q160,11 244,-4 Q246,-4 246,-6 Q246,-7 244,-8 Q227,-10 213,-28 Q158,-6 142,50 L132,50 Q126,-10 11,-32 Q10,-33 9,-31 Q9,-29 10,-29 Q101,-4 108,49 L65,48 Q49,47 37,45 L30,53 L109,55 Q111,72 111,93 L51,92 Q36,92 24,90 L17,98 L115,99 L115,130 L82,129 Q72,129 60,127 Q57,126 55,126 L46,134 L115,136 L115,164 L58,163 Q40,162 30,159 L22,168 L83,169 L83,195 Q82,200 82,207 Q81,210 84,209 L102,201 Q104,200 104,197 L103,170 L147,171 L160,214 L184,201 Q186,201 184,199 L179,194 L166,171 L202,172 L216,187 L236,170 Q237,168 235,167 L140,165 L140,137 L184,138 L196,150 L212,135 Q214,132 211,132 L140,130 L139,99 L208,100 L222,114 L241,98 Q243,96 241,96 L119,93"/> 
            <glyph glyph-name="者" unicode="&#x8005;" horiz-adv-x="249" d=" M98,165 Q95,165 91,165 Q78,164 72,162 L64,170 L113,170 L112,213 L139,206 Q142,205 140,202 Q137,199 135,192 L135,171 L146,171 L156,182 L171,169 Q172,167 172,167 Q171,167 169,166 L135,166 L135,127 L140,128 Q176,164 201,202 L222,182 Q224,179 220,178 L214,174 Q190,150 166,128 L213,129 L229,144 L247,126 Q249,125 246,123 L159,122 Q146,111 117,89 Q113,86 111,84 L176,87 L186,100 L209,85 Q211,84 208,81 L202,74 L202,3 Q202,-17 183,-30 Q179,-33 177,-28 Q176,-27 175,-23 Q172,-15 170,-11 L107,-12 Q104,-21 95,-29 Q92,-32 91,-32 Q89,-32 89,-29 L89,69 Q50,42 5,20 Q3,19 2,21 Q2,22 4,24 Q51,52 89,83 L89,85 Q89,87 90,88 Q91,88 93,87 L94,87 Q116,104 134,121 L54,120 Q36,119 27,117 L17,126 L113,127 L113,165 M108,79 L108,40 L165,42 Q168,42 168,40 Q168,38 165,38 L108,36 L108,-8 L169,-7 Q170,-6 172,-6 Q175,-5 176,-2 L177,82"/> 
            </font>
</defs>
</svg>
