<?xml version="1.0" standalone="no"?>
<!DOCTYPE svg PUBLIC "-//W3C//DTD SVG 1.1//EN" "http://www.w3.org/Graphics/SVG/1.1/DTD/svg11.dtd" >
<svg xmlns="http://www.w3.org/2000/svg">
    <defs>
        <font id="">
            <font-face font-family=""
                       units-per-em="256"
                       ascent="267"
                       descent="-72"
                       bbox="-23 -72 256 267"
                    />
            <missing-glyph horiz-adv-x="0" />
            
            <glyph glyph-name="&quot;" unicode="&#x22;" horiz-adv-x="62" d=" M48,184 L62,184 Q62,160 61,137 L49,137 Q48,160 48,184 M22,184 L36,184 Q36,160 35,137 L23,137 Q22,160 22,184"/> 
            <glyph glyph-name="," unicode="&#x2C;" horiz-adv-x="45" d=" M27,8 L45,8 L45,-10 Q45,-36 36,-56 L27,-56 Q35,-36 35,-10 L27,-10"/> 
            <glyph glyph-name="-" unicode="&#x2D;" horiz-adv-x="106" d=" M106,92 L106,79 L23,79 L23,92"/> 
            <glyph glyph-name="." unicode="&#x2E;" horiz-adv-x="45" d=" M45,10 L45,-8 L27,-8 L27,10"/> 
            <glyph glyph-name="1" unicode="&#x31;" horiz-adv-x="77" d=" M77,182 L77,-10 L63,-10 L63,166 L15,140 L15,155 L66,182"/> 
            <glyph glyph-name="2" unicode="&#x32;" horiz-adv-x="131" d=" M72,184 Q97,183 112,168 Q127,153 127,129 Q126,101 102,78 Q85,59 60.5,32.5 Q36,6 33,3 L131,3 L131,-10 L13,-10 L13,1 Q14,2 28,17.5 Q42,33 59.5,51.5 Q77,70 88,81 Q112,105 114,129 Q112,169 72,170 Q29,168 27,127 L14,127 Q14,150 28.5,166.5 Q43,183 72,184"/> 
            <glyph glyph-name="3" unicode="&#x33;" horiz-adv-x="133" d=" M95,93 Q132,82 133,44 Q133,19 116.5,3.5 Q100,-12 71,-12 Q30,-13 11,25 L22,32 Q39,0 71,0 Q118,3 119,44 Q119,61 106,73.5 Q93,86 70,86 L54,86 L54,99 L71,99 Q111,100 114,136 Q113,168 73,171 Q36,169 29,141 L16,141 Q19,160 34.5,171.5 Q50,183 73,184 Q97,183 112,169.5 Q127,156 128,136 Q127,105 95,93"/> 
            <glyph glyph-name="4" unicode="&#x34;" horiz-adv-x="146" d=" M111,182 L111,44 L146,44 L146,32 L111,32 L111,-10 L98,-10 L98,32 L5,32 L5,42 L101,182 M22,44 L98,44 L98,156"/> 
            <glyph glyph-name="5" unicode="&#x35;" horiz-adv-x="130" d=" M71,112 Q97,111 113.5,95 Q130,79 130,51 Q130,21 113,4.5 Q96,-12 68,-12 Q30,-12 13,19 L24,25 Q38,0 68,0 Q114,1 116,51 Q114,97 71,99 Q43,98 29,76 L18,76 L29,181 L123,181 L123,168 L41,168 L34,97 Q48,111 71,112"/> 
            <glyph glyph-name="9" unicode="&#x39;" horiz-adv-x="133" d=" M73,171 Q52,170 39.5,156.5 Q27,143 27,122 Q29,75 71,74 Q102,74 114,103 Q117,111 117,121 Q117,142 105,156 Q93,170 73,171 M73,184 Q99,183 114,166 Q129,149 132,122 Q133,106 132,87 Q132,47 119,18 Q106,-11 67.5,-12 Q29,-13 13,24 L24,30 Q38,0 68,0 Q98,2 108.5,27 Q119,52 119,84 L119,88 Q118,86 117,85 Q100,61 71,61 Q44,61 28.5,78 Q13,95 13,123 Q13,148 29,165.5 Q45,183 73,184"/> 
            <glyph glyph-name="A" unicode="&#x41;" horiz-adv-x="156" d=" M79,157 L44,65 L113,65 M15,-10 L1,-10 L74,181 L85,181 L156,-10 L141,-10 L118,52 L39,52"/> 
            <glyph glyph-name="B" unicode="&#x42;" horiz-adv-x="141" d=" M33,98 L63,98 Q112,101 113,133 Q111,168 64,169 Q46,169 33,168 M33,85 L33,3 Q43,2 64,2 Q90,2 108,12 Q126,22 127,46 Q128,84 65,85 M19,-9 L19,180 Q31,182 64,182 Q125,179 127,133 Q127,119 117.5,107.5 Q108,96 94,94 L94,93 Q115,91 127.5,78 Q140,65 141,46 Q140,16 118,2.5 Q96,-11 64,-10 Q36,-11 19,-9"/> 
            <glyph glyph-name="C" unicode="&#x43;" horiz-adv-x="149" d=" M94,-12 Q53,-12 31,14 Q9,40 9,83 Q9,124 32,153 Q55,182 95,184 Q123,184 149,169 L142,158 Q120,171 95,171 Q64,170 43.5,144.5 Q23,119 23,83 Q23,47 41,24 Q59,1 94,0 Q119,0 142,14 L148,3 Q123,-13 94,-12"/> 
            <glyph glyph-name="G" unicode="&#x47;" horiz-adv-x="150" d=" M92,-12 Q53,-12 31,14 Q9,40 9,84 Q10,125 33.5,153.5 Q57,182 95,184 Q126,184 149,169 L142,157 Q122,171 95,171 Q61,170 42,144.5 Q23,119 23,84 Q23,47 41,24 Q59,1 92,0 Q116,0 137,11 L137,78 L94,78 L94,90 L150,90 L150,4 Q125,-12 92,-12"/> 
            <glyph glyph-name="K" unicode="&#x4B;" horiz-adv-x="140" d=" M140,-10 L121,-10 L33,91 L33,-10 L19,-10 L19,181 L33,181 L33,94 L119,181 L138,181 L49,92"/> 
            <glyph glyph-name="S" unicode="&#x53;" horiz-adv-x="138" d=" M72,-12 Q34,-13 8,9 L16,20 Q40,0 72,0 Q95,1 109.5,12 Q124,23 124,43 Q124,58 109.5,67.5 Q95,77 72,84 Q19,99 17,138 Q18,158 33,170.5 Q48,183 72,184 Q109,183 134,163 L127,152 Q103,172 72,171 Q55,171 43,162 Q31,153 31,138 Q31,109 76,96 Q104,88 121,75.5 Q138,63 138,43 Q138,18 120,3 Q102,-12 72,-12"/> 
            <glyph glyph-name="U" unicode="&#x55;" horiz-adv-x="150" d=" M137,181 L150,181 L150,70 Q150,-14 85,-12 Q19,-14 19,70 L19,181 L33,181 L33,70 Q32,0 85,0 Q138,0 137,70"/> 
            <glyph glyph-name="i" unicode="&#x69;" horiz-adv-x="36" d=" M36,174 L36,157 L18,157 L18,174 M34,124 L34,-10 L20,-10 L20,124"/> 
            <glyph glyph-name="r" unicode="&#x72;" horiz-adv-x="84" d=" M33,57 L33,-10 L19,-10 L19,106 Q19,115 18,124 L30,124 Q33,115 33,106 L33,93 L34,93 Q40,106 51.5,116 Q63,126 82,126 L84,126 L84,113 L82,113 Q55,110 44,89 Q33,68 33,57"/> 
            <glyph glyph-name="、" unicode="&#x3001;" horiz-adv-x="92" d=" M81,-5 L39,44 L49,53 L92,4"/> 
            <glyph glyph-name="一" unicode="&#x4E00;" horiz-adv-x="241" d=" M16,90 L16,104 L241,104 L241,90"/> 
            <glyph glyph-name="不" unicode="&#x4E0D;" horiz-adv-x="239" d=" M229,45 Q210,59 189,74 Q168,89 151,100 L160,111 Q202,83 239,58 M119,-26 L119,124 L134,124 L134,-26 M23,171 L23,185 L236,185 L236,171 L151,171 Q127,131 97,100 Q67,69 25,39 Q21,46 16,51 Q58,80 85.5,108 Q113,136 134,171"/> 
            <glyph glyph-name="与" unicode="&#x4E0E;" horiz-adv-x="239" d=" M16,42 L16,55 L182,55 L182,42 M119,-21 Q118,-12 116,-4 Q137,-6 166,-6 Q200,-7 202,22 Q206,60 207,97 L53,97 L63,205 L78,205 L74,168 L239,168 L239,154 L73,154 L69,111 L222,111 Q220,61 216,20 Q215,-21 169,-21 Q140,-21 119,-21"/> 
            <glyph glyph-name="个" unicode="&#x4E2A;" horiz-adv-x="240" d=" M121,-25 L121,118 L136,118 L136,-25 M230,92 Q195,112 172,132.5 Q149,153 130,180 Q93,125 26,88 Q19,97 16,100 Q96,144 128,204 L143,201 Q140,196 137,192 Q175,137 240,105 Q235,100 230,92"/> 
            <glyph glyph-name="中" unicode="&#x4E2D;" horiz-adv-x="225" d=" M45,140 L45,76 L121,76 L121,140 M211,140 L135,140 L135,76 L211,76 M31,48 L31,154 L121,154 L121,206 L135,206 L135,154 L225,154 L225,49 L211,49 L211,62 L135,62 L135,-27 L121,-27 L121,62 L45,62 L45,48"/> 
            <glyph glyph-name="丰" unicode="&#x4E30;" horiz-adv-x="238" d=" M25,153 L25,167 L121,167 L121,205 L135,205 L135,167 L231,167 L231,153 L135,153 L135,109 L216,109 L216,96 L135,96 L135,51 L238,51 L238,37 L135,37 L135,-26 L121,-26 L121,37 L18,37 L18,51 L121,51 L121,96 L40,96 L40,109 L121,109 L121,153"/> 
            <glyph glyph-name="么" unicode="&#x4E48;" horiz-adv-x="233" d=" M26,70 Q21,77 16,83 Q81,134 120,204 L134,196 Q90,123 26,70 M45,-14 L37,3 Q50,10 63,22 Q90,50 119.5,86.5 Q149,123 172,159 L187,150 Q131,72 66,4 Q139,9 198,12 Q178,40 156,69 L168,78 Q201,34 233,-12 L220,-21 L208,-3 Q136,-6 72,-10 Q56,-12 45,-14"/> 
            <glyph glyph-name="之" unicode="&#x4E4B;" horiz-adv-x="240" d=" M131,162 Q122,180 110,198 L124,204 Q135,186 145,168 M235,-15 Q177,-16 135,-14 Q109,-13 92,-6 Q75,1 60,18 Q55,22 50,18 Q37,5 22,-14 L14,1 Q27,15 37,25.5 Q47,36 54,36 Q57,36 59,35 Q148,91 199,146 L32,146 L32,160 L217,160 L217,145 Q158,80 73,26 Q86,13 99.5,7.5 Q113,2 136,0 Q183,-2 240,1 Q237,-9 235,-15"/> 
            <glyph glyph-name="也" unicode="&#x4E5F;" horiz-adv-x="241" d=" M122,27 L122,125 L64,110 L64,22 Q62,-4 87,-2 L191,-2 Q220,-4 221,17 Q224,32 225,50 Q234,47 241,46 Q239,27 235,10 Q231,-18 195,-16 L83,-16 Q48,-18 49,18 L49,107 L18,99 L16,112 L49,121 L49,177 L64,177 L64,125 L122,139 L122,204 L136,204 L136,143 L217,164 Q216,122 214,85.5 Q212,49 181,51 Q168,51 157,51 Q156,59 154,67 Q165,66 179,66 Q199,64 200,88 Q202,116 202,146 L136,129 L136,27"/> 
            <glyph glyph-name="了" unicode="&#x4E86;" horiz-adv-x="226" d=" M67,-20 Q66,-10 64,-3 Q81,-3 100,-3 Q127,-5 125,21 L125,117 L206,173 L25,173 L25,187 L226,187 L226,169 L140,110 L140,20 Q142,-21 104,-20 Q85,-20 67,-20"/> 
            <glyph glyph-name="亮" unicode="&#x4EAE;" horiz-adv-x="240" d=" M70,138 L70,116 L185,116 L185,138 M21,170 L21,182 L122,182 L116,203 L130,206 L137,182 L235,182 L235,170 M25,50 L25,84 L231,84 L231,50 L217,50 L217,72 L39,72 L39,50 M25,-27 Q23,-20 19,-13 Q54,-7 65.5,4 Q77,15 76,36 L76,51 L170,51 L170,8 Q169,-7 184,-6 L207,-6 Q222,-7 224,8 Q226,17 227,33 Q234,30 240,28 Q239,15 237,4 Q233,-20 209,-18 L181,-18 Q154,-19 156,7 L156,39 L90,39 L90,35 Q91,9 77,-5 Q63,-19 25,-27 M56,105 L56,150 L199,150 L199,105"/> 
            <glyph glyph-name="代" unicode="&#x4EE3;" horiz-adv-x="241" d=" M210,149 Q194,164 171,184 L181,193 Q203,175 220,159 M48,-26 L48,122 Q35,98 20,77 Q18,85 14,92 Q48,138 70,203 L84,199 Q74,172 62,148 L62,-26 M83,108 L81,122 L135,128 Q133,161 132,204 L147,204 Q147,161 149,130 L235,139 L236,126 L150,116 Q155,55 172,22 Q187,-10 204,-9 Q216,-9 220.5,7.5 Q225,24 227,39 Q234,36 241,34 Q238,20 234,3 Q227,-24 205,-24 Q179,-25 159,15 Q142,49 136,114"/> 
            <glyph glyph-name="体" unicode="&#x4F53;" horiz-adv-x="241" d=" M45,-25 L45,116 Q33,94 20,76 Q17,87 15,92 Q48,140 67,204 L81,200 Q71,169 58,143 L58,-25 M81,142 L81,155 L147,155 L147,204 L160,204 L160,155 L231,155 L231,142 L171,142 Q183,105 199,80.5 Q215,56 241,33 Q236,27 231,20 Q203,48 187,75 Q171,102 160,141 L160,38 L198,38 L198,25 L160,25 L160,-25 L147,-25 L147,25 L108,25 L108,38 L147,38 L147,141 Q135,102 119,73.5 Q103,45 75,16 Q70,22 65,28 Q115,74 136,142"/> 
            <glyph glyph-name="你" unicode="&#x4F60;" horiz-adv-x="240" d=" M227,15 Q210,57 192,93 L205,98 Q224,58 240,21 M98,13 Q92,16 85,19 Q107,62 118,98 L132,93 Q118,56 98,13 M116,-23 Q115,-14 113,-7 Q124,-8 138,-8 Q157,-8 156,10 L156,131 L171,131 L171,9 Q172,-22 141,-22 Q126,-23 116,-23 M221,111 Q214,113 207,115 L222,154 L122,154 Q111,131 97,109 Q92,113 85,117 Q112,159 128,204 L143,199 Q136,183 129,167 L237,167 L237,153 M22,73 Q17,86 16,90 Q32,112 46.5,142.5 Q61,173 70,205 L85,200 Q75,172 63,146 L63,-25 L49,-25 L49,118 Q36,92 22,73"/> 
            <glyph glyph-name="做" unicode="&#x505A;" horiz-adv-x="241" d=" M195,50 Q211,86 214,147 L180,147 L176,137 Q181,81 195,50 M91,81 L91,21 L132,21 L132,81 M43,-25 L43,122 Q32,100 21,82 Q18,87 14,95 Q41,139 58,204 L71,201 Q64,175 55,152 L55,-25 M69,143 L69,155 L105,155 L105,203 L118,203 L118,155 L154,155 L154,143 L118,143 L118,93 L145,93 L145,9 L91,9 L91,-7 L79,-7 L79,93 L105,93 L105,143 M232,-21 Q209,1 195,22 Q180,-3 153,-26 Q149,-21 143,-15 Q172,9 187,35 Q171,67 167,116 Q161,104 155,94 L147,105 Q172,147 183,204 L197,203 Q191,179 184,159 L239,159 L239,147 L227,147 Q223,75 203,35 Q216,12 241,-8"/> 
            <glyph glyph-name="像" unicode="&#x50CF;" horiz-adv-x="237" d=" M103,113 L145,113 Q151,124 154,140 L103,140 M167,140 Q164,124 159,113 L212,113 L212,140 M179,174 L121,174 Q110,162 99,150 L159,150 M21,79 Q18,86 14,92 Q31,117 42.5,143.5 Q54,170 64,204 L77,200 Q68,172 57,147 L57,-25 L44,-25 L44,120 Q33,99 21,79 M80,134 Q76,139 71,144 Q107,169 128,205 L141,202 Q136,193 129,185 L195,185 L195,174 L174,150 L225,150 L225,102 L153,102 Q150,98 147,95 Q160,82 167,68 Q196,83 216,98 L223,88 Q210,79 195,70 Q201,47 210.5,32 Q220,17 237,5 Q232,0 228,-7 Q210,8 200,24 Q190,40 184,64 Q178,61 172,57 Q177,40 177,16 Q177,-22 141,-22 Q133,-22 122,-22 Q121,-15 119,-8 Q131,-9 140,-9 Q165,-10 164,17 Q164,28 162,39 Q146,22 126.5,9 Q107,-4 78,-16 Q75,-10 70,-4 Q102,7 122,20 Q142,33 160,52 Q157,60 153,68 Q138,52 121,41.5 Q104,31 79,21 Q75,27 71,32 Q98,41 115,51.5 Q132,62 147,77 Q143,82 138,86 Q119,70 78,54 Q75,60 70,65 Q120,82 138,102 L90,102 L90,143 Q85,138 80,134"/> 
            <glyph glyph-name="元" unicode="&#x5143;" horiz-adv-x="240" d=" M41,175 L41,189 L216,189 L216,175 M19,106 L19,119 L238,119 L238,106 L165,106 L165,17 Q163,-4 183,-3 L199,-3 Q220,-4 223,17 Q224,29 226,47 Q233,44 240,42 Q238,27 237,14 Q233,-18 200,-17 L180,-17 Q149,-18 150,14 L150,106 L99,106 L98,90 Q97,46 82.5,21.5 Q68,-3 29,-25 Q25,-19 19,-13 Q56,7 69.5,28 Q83,49 84,90 L85,106"/> 
            <glyph glyph-name="免" unicode="&#x514D;" horiz-adv-x="240" d=" M165,168 L80,168 Q67,153 51,137 L135,137 M159,-19 Q129,-19 130,8 L130,54 L143,54 L143,11 Q142,-6 164,-6 L201,-6 Q220,-7 223,11 Q224,23 226,42 Q233,39 240,38 Q238,20 235,6 Q230,-20 204,-19 M57,125 L57,76 L115,76 Q116,81 117,86 Q121,104 121,125 M198,125 L135,125 Q135,103 131,85 L129,76 L198,76 M25,115 Q21,121 17,126 Q65,164 89,205 L103,200 Q97,190 90,180 L182,180 L182,167 L153,137 L212,137 L212,63 L125,63 Q106,5 27,-27 Q23,-20 18,-14 Q90,13 110,63 L43,63 L43,130"/> 
            <glyph glyph-name="全" unicode="&#x5168;" horiz-adv-x="240" d=" M231,106 Q194,125 170.5,144 Q147,163 129,188 Q89,138 25,104 Q20,111 15,116 Q92,158 125,207 L141,204 L137,198 Q157,172 180.5,154 Q204,136 240,119 Q236,115 231,106 M55,101 L55,115 L201,115 L201,101 L135,101 L135,60 L210,60 L210,46 L135,46 L135,1 L231,1 L231,-13 L25,-13 L25,1 L121,1 L121,46 L46,46 L46,60 L121,60 L121,101"/> 
            <glyph glyph-name="六" unicode="&#x516D;" horiz-adv-x="238" d=" M219,-16 Q184,39 150,87 L163,94 Q202,38 233,-8 M33,-20 Q26,-13 21,-9 Q42,16 58,40 Q74,64 89,94 L104,88 Q72,28 33,-20 M135,145 Q130,156 121.5,170 Q113,184 107,194 L120,202 Q126,192 134,178.5 Q142,165 149,153 M18,123 L18,137 L238,137 L238,123"/> 
            <glyph glyph-name="利" unicode="&#x5229;" horiz-adv-x="227" d=" M155,32 L155,177 L168,177 L168,32 M168,-21 Q167,-10 165,-6 Q170,-6 181,-6 Q192,-6 198,-6 Q213,-7 213,10 L213,203 L226,203 L226,8 Q227,-20 201,-21 Q196,-21 185,-21 Q174,-21 168,-21 M18,117 L18,130 L71,130 L71,175 Q45,172 24,171 Q23,179 21,184 Q47,186 76,188.5 Q105,191 129,195 L132,182 Q110,179 85,176 L85,130 L138,130 L138,117 L85,117 L85,86 L92,93 Q100,86 115,73 Q130,60 139,52 L129,41 Q120,49 107.5,61.5 Q95,74 85,82 L85,-25 L71,-25 L71,92 Q55,50 22,16 Q19,25 15,33 Q52,67 71,117"/> 
            <glyph glyph-name="功" unicode="&#x529F;" horiz-adv-x="229" d=" M18,161 L18,175 L105,175 L105,161 L70,161 L70,46 Q90,51 106,56 Q106,51 107,42 Q90,38 64.5,31 Q39,24 20,18 L16,33 Q33,37 56,43 L56,161 M153,-20 Q152,-12 150,-4 Q167,-5 185,-5 Q211,-7 210,19 Q212,42 213,77 Q214,112 215,141 L155,141 Q154,131 153,119 Q150,67 135,34.5 Q120,2 85,-25 Q78,-19 73,-14 Q108,12 122,40.5 Q136,69 139,120 L140,141 L110,141 L110,154 L141,154 Q142,180 142,204 L157,204 Q157,177 156,154 L229,154 Q228,113 227,77.5 Q226,42 225,19 Q225,-21 187,-20 Q179,-20 169,-20 Q159,-20 153,-20"/> 
            <glyph glyph-name="加" unicode="&#x52A0;" horiz-adv-x="231" d=" M25,-25 Q19,-19 13,-15 Q34,16 42.5,46.5 Q51,77 53,136 Q53,141 53,147 L21,147 L21,161 L53,161 Q54,183 54,204 L68,204 L67,161 L120,161 Q120,122 119,83 Q118,44 117,17 Q116,-19 86,-19 Q74,-20 63,-19 Q62,-12 60,-3 Q71,-4 83,-4 Q103,-6 103.5,18.5 Q104,43 105,79.5 Q106,116 106,147 L67,147 Q67,141 66,135 Q65,75 56,41 Q47,7 25,-25 M162,160 L162,18 L217,18 L217,160 M148,-19 L148,174 L231,174 L231,-19 L217,-19 L217,5 L162,5 L162,-19"/> 
            <glyph glyph-name="卡" unicode="&#x5361;" horiz-adv-x="238" d=" M216,13 Q193,26 169,38.5 Q145,51 126,60 L126,-26 L111,-26 L111,91 L126,91 L126,63 L132,72 Q177,50 223,26 M19,100 L19,113 L111,113 L111,205 L126,205 L126,169 L223,169 L223,156 L126,156 L126,113 L238,113 L238,100"/> 
            <glyph glyph-name="口" unicode="&#x53E3;" horiz-adv-x="218" d=" M53,167 L53,21 L203,21 L203,167 M38,-16 L38,181 L218,181 L218,-16 L203,-16 L203,7 L53,7 L53,-16"/> 
            <glyph glyph-name="合" unicode="&#x5408;" horiz-adv-x="239" d=" M67,109 L67,122 L190,122 L190,109 M230,105 Q162,139 129,184 Q92,138 25,102 Q22,108 17,115 Q94,154 127,206 L143,204 L137,195 Q172,147 239,119 Q235,113 230,105 M63,63 L63,3 L192,3 L192,63 M49,-26 L49,76 L206,76 L206,-26 L192,-26 L192,-10 L63,-10 L63,-26"/> 
            <glyph glyph-name="喜" unicode="&#x559C;" horiz-adv-x="239" d=" M104,62 L95,57 L149,57 Q162,71 170,83 L86,83 Q96,73 104,62 M60,114 L60,94 L196,94 L196,114 M57,17 L57,-5 L199,-5 L199,17 M23,173 L23,184 L121,184 L121,204 L135,204 L135,184 L233,184 L233,173 L135,173 L135,153 L218,153 L218,142 L38,142 L38,153 L121,153 L121,173 M44,-26 L44,27 L212,27 L212,-26 L199,-26 L199,-16 L57,-16 L57,-26 M18,46 L18,57 L92,57 Q85,66 75,77 L85,83 L46,83 L46,125 L209,125 L209,83 L171,83 L183,77 Q175,68 166,57 L239,57 L239,46"/> 
            <glyph glyph-name="器" unicode="&#x5668;" horiz-adv-x="240" d=" M48,180 L48,144 L99,144 L99,180 M154,180 L154,144 L206,144 L206,180 M48,36 L48,-2 L100,-2 L100,36 M155,36 L155,-2 L207,-2 L207,36 M35,133 L35,192 L112,192 L112,133 M142,133 L142,192 L219,192 L219,133 M35,-25 L35,47 L113,47 L113,-25 L100,-25 L100,-13 L48,-13 L48,-25 M207,-25 L207,-13 L155,-13 L155,-25 L142,-25 L142,47 L220,47 L220,-25 M23,98 L23,109 L117,109 Q119,117 120,128 L134,128 Q132,118 131,109 L176,109 Q172,116 167,125 L179,129 Q183,121 190,109 L235,109 L235,98 L144,98 Q157,82 178.5,75.5 Q200,69 240,67 Q235,60 233,54 Q187,58 164.5,68 Q142,78 130,98 L126,98 Q119,80 95.5,70 Q72,60 22,52 Q19,60 16,65 Q60,71 82,78 Q104,85 112,98"/> 
            <glyph glyph-name="在" unicode="&#x5728;" horiz-adv-x="239" d=" M91,79 L91,93 L151,93 L151,140 L166,140 L166,93 L226,93 L226,79 L166,79 L166,7 L239,7 L239,-7 L79,-7 L79,7 L151,7 L151,79 M26,158 L26,172 L92,172 Q98,187 105,205 L119,203 Q113,186 107,172 L239,172 L239,158 L101,158 Q87,128 69,103 L69,-25 L54,-25 L54,85 Q41,70 25,55 Q22,60 16,67 Q62,109 85,158"/> 
            <glyph glyph-name="地" unicode="&#x5730;" horiz-adv-x="241" d=" M21,124 L21,137 L47,137 L47,204 L60,204 L60,137 L85,137 L85,124 L60,124 L60,30 Q75,34 91,40 Q91,37 93,27 Q80,23 58.5,16 Q37,9 18,3 L14,17 Q30,21 47,26 L47,124 M183,57 Q182,62 180,70 Q188,69 197,70 Q211,68 212,90 Q214,118 214,144 L172,129 L172,26 L158,26 L158,124 L119,110 L119,20 Q117,-6 144,-3 L193,-3 Q221,-4 223,16 Q226,31 228,48 Q234,45 241,43 Q239,23 236,10 Q232,-18 198,-17 L139,-17 Q104,-18 105,16 L105,105 L86,98 L82,111 L105,119 L105,175 L119,175 L119,123 L158,137 L158,204 L172,204 L172,142 L228,162 Q228,141 227,121 Q226,101 225,90 Q224,55 200,57 Q191,57 183,57"/> 
            <glyph glyph-name="声" unicode="&#x58F0;" horiz-adv-x="240" d=" M200,91 L138,91 L138,53 L200,53 M60,77 Q60,64 60,53 L124,53 L124,91 L60,91 M21,168 L21,180 L124,180 L124,205 L138,205 L138,180 L240,180 L240,168 L138,168 L138,140 L222,140 L222,127 L40,127 L40,140 L124,140 L124,168 M27,-25 Q20,-18 16,-14 Q34,3 40.5,22.5 Q47,42 46,77 L46,103 L214,103 L214,30 L200,30 L200,41 L58,41 Q56,20 48.5,5 Q41,-10 27,-25"/> 
            <glyph glyph-name="处" unicode="&#x5904;" horiz-adv-x="241" d=" M108,143 L55,143 Q53,136 50,128 Q59,80 78,51 Q103,90 108,143 M226,81 Q198,104 172,124 L172,14 L158,14 L158,203 L172,203 L172,128 L179,136 Q207,115 236,93 M236,-17 Q168,-18 141,-12 Q104,-5 79,26 Q58,0 25,-26 Q20,-20 15,-14 Q49,11 70,38 Q52,66 42,107 Q33,87 24,67 Q19,73 13,78 Q44,136 57,203 L71,201 Q66,177 60,157 L122,157 L122,142 Q115,80 87,38 Q110,9 143,3 Q184,-5 241,-2 Q239,-9 236,-17"/> 
            <glyph glyph-name="多" unicode="&#x591A;" horiz-adv-x="230" d=" M40,133 Q36,140 31,145 Q93,173 126,208 L141,204 Q129,192 117,182 L220,182 L220,169 Q184,136 137.5,113.5 Q91,91 27,75 Q24,81 20,88 Q137,114 200,169 L100,169 L88,161 Q106,149 125,135 L115,125 Q96,141 77,154 Q60,143 40,133 M44,32 Q36,43 35,45 Q108,72 153,114 L166,107 Q155,98 144,89 L230,89 L230,75 Q191,33 144.5,10 Q98,-13 30,-26 Q27,-19 24,-12 Q88,-2 132.5,19.5 Q177,41 212,77 L127,77 Q117,69 106,63 Q124,50 142,36 L131,26 Q112,43 94,56 Q71,43 44,32"/> 
            <glyph glyph-name="大" unicode="&#x5927;" horiz-adv-x="239" d=" M19,124 L19,139 L120,139 Q122,171 122,204 L137,204 Q137,172 135,139 L237,139 L237,124 L136,124 Q144,77 167.5,46.5 Q191,16 239,-6 Q231,-17 229,-21 Q183,3 160,31.5 Q137,60 128,102 Q121,61 98,31 Q75,1 29,-25 Q23,-17 18,-11 Q69,17 92,48.5 Q115,80 119,124"/> 
            <glyph glyph-name="天" unicode="&#x5929;" horiz-adv-x="239" d=" M31,175 L31,189 L226,189 L226,175 L136,175 Q135,143 134,112 L238,112 L238,98 L138,98 Q148,56 171.5,31.5 Q195,7 239,-8 Q232,-17 230,-22 Q184,-3 160.5,21.5 Q137,46 128,87 Q121,51 97.5,24.5 Q74,-2 28,-25 Q23,-18 18,-11 Q66,12 89,38 Q112,64 117,98 L18,98 L18,112 L119,112 Q121,140 121,175"/> 
            <glyph glyph-name="奥" unicode="&#x5965;" horiz-adv-x="237" d=" M153,123 L146,133 Q151,137 159.5,143.5 Q168,150 174,154 L182,146 Q168,134 153,123 M102,123 Q96,128 88,135 Q80,142 74,147 L82,155 Q87,151 95.5,144.5 Q104,138 110,132 M68,107 L68,119 L121,119 L121,159 L134,159 L134,119 L188,119 L188,107 L134,107 L134,90 L140,98 Q165,86 190,72 L182,61 Q159,76 134,89 L134,68 L121,68 L121,96 Q103,76 73,61 Q69,66 65,72 Q98,85 119,107 M40,59 L40,180 L109,180 Q114,193 116,206 L131,204 Q127,192 123,180 L216,180 L216,59 L203,59 L203,168 L53,168 L53,59 M22,32 L22,44 L118,44 Q120,50 121,59 L135,59 Q134,50 132,44 L232,44 L232,32 L143,32 Q154,14 175.5,4.5 Q197,-5 237,-10 Q234,-17 231,-24 Q185,-17 162.5,-4.5 Q140,8 129,32 L128,32 Q120,9 96.5,-4 Q73,-17 24,-27 Q21,-20 17,-14 Q62,-6 84,4.5 Q106,15 114,32"/> 
            <glyph glyph-name="密" unicode="&#x5BC6;" horiz-adv-x="239" d=" M134,127 Q120,140 108,151 L117,160 Q130,148 143,135 M39,88 L28,95 Q42,117 51,136 L62,131 Q53,111 39,88 M227,83 Q214,103 199,121 L210,128 Q224,111 239,91 M24,142 L24,180 L123,180 Q120,191 115,202 L130,205 Q134,194 138,180 L232,180 L232,142 L219,142 L219,167 L38,167 L38,142 M43,-15 L43,43 L57,43 L57,-2 L121,-2 L121,52 L135,52 L135,-2 L199,-2 L199,43 L213,43 L213,-25 L199,-25 L199,-15 M22,52 Q19,59 16,65 Q47,74 78,87 L78,92 L78,141 L91,141 L91,96 L91,93 Q143,116 188,150 L197,139 Q147,104 94,81 Q99,73 113,73 L157,73 Q174,73 177,87 Q178,94 180,106 Q186,103 193,101 Q191,89 188,79 Q184,60 159,61 L108,61 Q87,60 81,75 Q52,62 22,52"/> 
            <glyph glyph-name="富" unicode="&#x5BCC;" horiz-adv-x="231" d=" M54,141 L54,151 L202,151 L202,141 M52,55 L52,31 L121,31 L121,55 M52,21 L52,-2 L121,-2 L121,21 M204,55 L135,55 L135,31 L204,31 M135,21 L135,-2 L204,-2 L204,21 M73,114 L73,92 L183,92 L183,114 M25,137 L25,180 L123,180 Q121,191 118,204 L133,205 Q135,192 137,180 L231,180 L231,137 L217,137 L217,169 L39,169 L39,137 M59,82 L59,125 L197,125 L197,82 M39,-26 L39,66 L217,66 L217,-26 L204,-26 L204,-14 L52,-14 L52,-26"/> 
            <glyph glyph-name="小" unicode="&#x5C0F;" horiz-adv-x="240" d=" M76,-23 Q75,-15 73,-7 Q88,-7 102,-7 Q125,-9 123,14 L123,202 L138,202 L138,9 Q140,-22 108,-22 Q94,-23 76,-23 M225,30 Q201,84 172,143 L186,149 Q198,124 213,93 Q228,62 240,37 M32,26 Q24,31 17,34 Q33,63 44.5,90.5 Q56,118 66,150 L82,145 Q61,84 32,26"/> 
            <glyph glyph-name="尔" unicode="&#x5C14;" horiz-adv-x="238" d=" M224,5 Q194,56 169,95 L181,102 Q211,57 238,14 M32,0 Q26,5 19,9 Q54,55 75,103 L90,97 Q64,45 32,0 M83,-23 Q82,-14 80,-7 Q92,-7 105,-7 Q126,-8 124,10 L124,141 L139,141 L139,9 Q141,-23 108,-22 Q107,-23 98,-23 Q89,-23 83,-23 M211,114 Q205,118 197,121 L219,158 L73,158 Q54,129 29,102 Q24,107 18,112 Q62,157 81,204 L96,200 Q88,185 81,172 L235,172 L235,156"/> 
            <glyph glyph-name="屏" unicode="&#x5C4F;" horiz-adv-x="240" d=" M118,100 Q110,113 99,127 L110,133 Q120,120 130,106 M121,59 Q121,55 120,51 L175,51 L175,87 L121,87 M55,179 L55,148 L215,148 L215,179 M72,87 L72,99 L162,99 Q174,118 183,133 L196,127 Q187,114 176,99 L227,99 L227,87 L188,87 L188,51 L240,51 L240,38 L188,38 L188,-25 L175,-25 L175,38 L120,38 Q118,17 109,2.5 Q100,-12 81,-26 Q76,-21 71,-16 Q88,-4 96.5,8 Q105,20 106,38 L61,38 L61,51 L107,51 Q107,55 107,60 L107,87 M25,-24 Q20,-20 14,-15 Q30,8 35.5,32.5 Q41,57 41,101 L41,192 L228,192 L228,136 L55,136 L55,100 Q55,53 49,26.5 Q43,0 25,-24"/> 
            <glyph glyph-name="属" unicode="&#x5C5E;" horiz-adv-x="234" d=" M93,95 L93,75 L142,75 L142,95 M205,95 L155,95 L155,75 L205,75 M55,182 L55,160 L215,160 L215,182 M26,-25 Q21,-20 15,-16 Q31,8 36.5,34.5 Q42,61 42,109 L42,193 L228,193 L228,150 L55,150 L55,110 Q55,58 50,30 Q43,3 26,-25 M97,-1 L95,12 Q116,12 142,13 L142,37 L82,37 L82,-26 L70,-26 L70,47 L142,47 L142,66 L80,66 L80,105 L142,105 L142,122 L70,121 L68,132 Q100,132 143.5,133 Q187,134 225,136 L227,125 Q198,124 155,123 L155,105 L218,105 L218,66 L155,66 L155,47 L232,47 L232,2 Q234,-24 209,-23 Q198,-24 185,-24 Q184,-17 182,-12 Q189,-13 205,-12 Q220,-14 219,3 L219,37 L155,37 L155,14 Q171,15 186,16 L181,27 L191,31 Q199,15 204,1 L194,-4 L190,6 Q149,3 97,-1"/> 
            <glyph glyph-name="带" unicode="&#x5E26;" horiz-adv-x="240" d=" M24,83 L24,122 L232,122 L232,83 L219,83 L219,110 L38,110 L38,83 M17,162 L17,174 L64,174 L64,204 L77,204 L77,174 L122,174 L122,204 L134,204 L134,174 L179,174 L179,204 L192,204 L192,174 L240,174 L240,162 L192,162 L192,134 L179,134 L179,162 L134,162 L134,134 L122,134 L122,162 L77,162 L77,134 L64,134 L64,162 M50,-6 L50,76 L121,76 L121,98 L135,98 L135,76 L207,76 L207,22 Q209,-3 183,-3 Q173,-4 159,-4 Q158,3 156,10 Q170,9 180,9 Q195,8 194,23 L194,64 L135,64 L135,-25 L121,-25 L121,64 L63,64 L63,-6"/> 
            <glyph glyph-name="度" unicode="&#x5EA6;" horiz-adv-x="238" d=" M110,125 L110,101 L180,101 L180,125 M192,55 L101,55 Q119,32 144,18 Q171,33 192,55 M26,-26 Q21,-20 15,-16 Q30,8 34.5,31 Q39,54 39,99 L39,179 L135,179 L130,204 L144,206 Q147,193 150,179 L237,179 L237,166 L52,166 L52,98 Q53,52 47,26 Q41,0 26,-26 M63,125 L63,138 L97,138 L97,158 L110,158 L110,138 L180,138 L180,158 L192,158 L192,138 L235,138 L235,125 L192,125 L192,89 L97,89 L97,125 M231,-24 Q177,-14 144,3 Q110,-15 58,-26 Q55,-19 51,-12 Q97,-4 130,11 Q104,28 85,55 L69,55 L69,67 L209,67 L209,54 Q185,27 158,11 Q189,-2 238,-9 Q234,-16 231,-24"/> 
            <glyph glyph-name="强" unicode="&#x5F3A;" horiz-adv-x="241" d=" M215,91 L172,91 L172,50 L215,50 M116,91 L116,50 L159,50 L159,91 M124,180 L124,145 L206,145 L206,180 M39,122 L35,78 L83,78 Q82,37 80,13 Q78,-7 70,-14 Q62,-21 46,-21 Q35,-21 27,-21 Q26,-14 23,-6 Q34,-7 44,-7 Q66,-9 66,14 Q68,36 69,66 L21,66 L27,134 L72,134 L72,179 L22,179 L22,191 L85,191 L85,122 M102,38 L102,103 L159,103 L159,133 L111,133 L111,193 L219,193 L219,133 L172,133 L172,103 L228,103 L228,38 L172,38 L172,1 Q193,2 212,3 Q206,13 199,24 L211,30 Q226,7 241,-18 L229,-25 L220,-10 Q151,-13 91,-18 L89,-2 Q123,-1 159,0 L159,38"/> 
            <glyph glyph-name="志" unicode="&#x5FD7;" horiz-adv-x="240" d=" M140,35 Q126,56 109,76 L120,83 Q141,58 152,44 M227,10 Q212,38 197,60 L209,67 Q225,44 240,17 M32,2 Q25,5 19,7 Q31,37 40,66 L53,61 Q43,29 32,2 M102,-18 Q71,-20 72,12 L72,71 L86,71 L86,14 Q85,-7 107,-5 L151,-5 Q170,-5 173,10 Q175,22 178,39 Q185,36 191,34 Q189,15 185,3 Q181,-18 154,-18 M19,153 L19,166 L121,166 L121,206 L135,206 L135,166 L237,166 L237,153 L135,153 L135,109 L219,109 L219,96 L37,96 L37,109 L121,109 L121,153"/> 
            <glyph glyph-name="性" unicode="&#x6027;" horiz-adv-x="240" d=" M83,126 Q73,143 63,157 L73,164 Q83,151 93,135 M28,92 Q23,93 16,94 Q22,123 25,150 L38,148 Q34,121 28,92 M49,-26 L49,205 L62,205 L62,-26 M101,98 Q95,102 88,105 Q109,144 118,188 L132,185 Q128,168 123,152 L160,152 L160,205 L174,205 L174,152 L234,152 L234,139 L174,139 L174,79 L230,79 L230,65 L174,65 L174,-1 L240,-1 L240,-15 L85,-15 L85,-1 L160,-1 L160,65 L100,65 L100,79 L160,79 L160,139 L119,139 Q111,118 101,98"/> 
            <glyph glyph-name="成" unicode="&#x6210;" horiz-adv-x="240" d=" M210,165 Q194,177 176,189 L184,198 Q203,186 219,175 M207,-24 Q184,-26 167,20 Q148,-1 123,-20 Q118,-16 113,-9 Q141,12 162,36 Q149,76 145,145 L54,145 L54,104 L119,104 Q119,87 118.5,72.5 Q118,58 117,40 Q117,4 86,5 Q75,5 65,5 Q64,14 62,20 Q74,19 84,19 Q103,18 103,39 Q105,65 106,92 L54,92 Q54,48 48,24 Q42,0 26,-26 L15,-16 Q30,9 35,32.5 Q40,56 40,104 L40,157 L144,157 Q144,179 143,205 L157,205 Q157,179 158,157 L238,157 L238,145 L159,145 Q163,82 172,49 Q193,78 210,119 L223,113 Q202,65 177,33 Q192,-11 207,-9 Q217,-10 222,6 Q225,20 227,37 Q234,34 240,32 Q238,13 234,0 Q226,-25 207,-24"/> 
            <glyph glyph-name="所" unicode="&#x6240;" horiz-adv-x="241" d=" M96,122 L49,122 L49,91 Q49,80 49,70 L96,70 M108,-26 Q105,-22 97,-15 Q118,8 126,35 Q134,62 134,112 L134,185 Q186,188 231,196 L236,183 Q189,176 148,174 L148,117 L241,117 L241,104 L206,104 L206,-25 L192,-25 L192,104 L148,104 Q148,57 139,29 Q130,1 108,-26 M25,-24 Q20,-19 14,-14 Q26,6 30.5,27.5 Q35,49 35,92 L35,187 Q70,188 112,196 L117,182 Q86,177 49,175 L49,134 L109,134 L109,58 L48,58 Q47,31 41.5,12.5 Q36,-6 25,-24"/> 
            <glyph glyph-name="手" unicode="&#x624B;" horiz-adv-x="240" d=" M32,173 Q32,180 30,187 Q132,188 216,194 L218,180 Q179,178 136,176 L136,128 L220,128 L220,115 L136,115 L136,66 L240,66 L240,53 L136,53 L136,9 Q138,-21 106,-21 Q98,-21 87,-21 Q76,-21 70,-21 Q70,-14 67,-6 Q85,-7 102,-7 Q123,-8 122,13 L122,53 L17,53 L17,66 L122,66 L122,115 L33,115 L33,128 L122,128 L122,175 Q74,173 32,173"/> 
            <glyph glyph-name="扬" unicode="&#x626C;" horiz-adv-x="232" d=" M19,141 L19,154 L48,154 L48,203 L61,203 L61,154 L91,154 L91,141 L61,141 L61,94 Q75,98 89,103 Q89,98 90,89 L61,79 L61,6 Q63,-23 38,-22 Q32,-23 21,-23 Q20,-14 19,-8 Q28,-8 35,-8 Q49,-10 48,8 L48,75 Q32,69 18,64 L14,79 L48,89 L48,141 M81,4 Q76,11 71,15 Q96,34 108.5,53 Q121,72 129,101 L96,101 L96,116 L195,177 L102,177 L102,190 L218,190 L218,176 L118,113 L232,113 Q231,88 230,62.5 Q229,37 228,21 Q227,-21 193,-20 Q179,-20 168,-20 Q167,-12 165,-5 Q174,-6 190,-6 Q214,-8 214,20 Q215,36 216,58 Q217,80 217,101 L187,101 Q180,57 165.5,29.5 Q151,2 119,-25 Q115,-20 108,-14 Q139,12 153.5,36.5 Q168,61 174,101 L142,101 Q134,67 120.5,45.5 Q107,24 81,4"/> 
            <glyph glyph-name="挑" unicode="&#x6311;" horiz-adv-x="240" d=" M109,110 Q100,139 88,165 L100,169 Q112,141 122,115 M201,110 L190,117 Q206,143 218,169 L230,163 Q217,137 201,110 M88,47 L81,60 Q106,77 129,93 Q129,102 129,114 L129,201 L142,201 L142,114 Q143,58 131.5,29 Q120,0 87,-26 Q83,-21 77,-15 Q103,5 114,25 Q125,45 128,77 Q110,64 88,47 M229,50 Q205,66 184,78 L184,7 Q184,-6 198,-5 L209,-5 Q223,-6 224,8 Q226,20 227,35 Q234,32 240,30 Q239,15 237,3 Q231,-20 211,-19 L195,-19 Q170,-19 171,5 L171,202 L184,202 L184,93 Q211,78 236,62 M18,143 L18,156 L48,156 L48,204 L61,204 L61,156 L85,156 L85,143 L61,143 L61,90 Q75,94 87,98 Q87,90 88,84 L61,76 L61,4 Q62,-23 38,-23 Q28,-23 19,-23 Q18,-16 17,-8 Q27,-9 35,-9 Q48,-10 48,5 L48,71 L18,61 L16,76 Q30,80 48,86 L48,143"/> 
            <glyph glyph-name="接" unicode="&#x63A5;" horiz-adv-x="239" d=" M137,121 Q133,127 126.5,136 Q120,145 115,152 L126,158 Q138,143 149,128 M120,38 Q141,30 163,21 Q182,36 193,62 L137,62 Q128,48 120,38 M94,163 L94,175 L163,175 Q158,187 150,200 L164,205 Q172,191 177,179 L167,175 L232,175 L232,163 M86,107 L86,120 L174,120 Q188,139 200,159 L212,152 Q202,136 189,120 L239,120 L239,107 M18,145 L18,158 L47,158 L47,205 L60,205 L60,158 L84,158 L84,145 L60,145 L60,91 Q74,94 85,98 Q85,90 86,84 L60,77 L60,4 Q62,-23 38,-23 Q27,-23 17,-23 Q16,-16 14,-8 Q25,-9 34,-9 Q47,-9 47,5 L47,73 Q32,69 18,64 L15,79 Q29,83 47,87 L47,145 M86,62 L86,74 L129,74 Q137,87 143,99 L157,95 Q152,84 145,74 L239,74 L239,62 L208,62 Q196,33 177,15 Q206,3 237,-11 L228,-24 Q193,-7 166,5 Q138,-15 81,-26 Q78,-18 74,-12 Q125,-3 150,12 Q128,22 101,34 Q111,47 121,62"/> 
            <glyph glyph-name="携" unicode="&#x643A;" horiz-adv-x="236" d=" M172,173 Q169,178 164,186 Q159,194 155,200 L167,206 Q176,192 183,180 M115,163 Q114,162 114,161 L114,144 L164,144 L164,163 M114,133 L114,114 L164,114 L164,133 M114,104 L114,84 L164,84 L164,104 M79,-25 Q76,-21 70,-14 Q99,-3 110,9.5 Q121,22 122,44 L89,44 L89,56 L201,56 L193,28 L233,28 L230,1 Q229,-21 203,-22 Q190,-23 170,-22 Q170,-17 167,-9 Q185,-10 200.5,-10.5 Q216,-11 217,3 L218,17 L176,17 L184,44 L135,44 Q134,17 122,2 Q110,-13 79,-25 M18,146 L18,159 L45,159 L45,204 L58,204 L58,159 L82,159 L82,146 L58,146 L58,93 L82,101 Q82,94 83,87 L58,79 L58,3 Q60,-23 34,-23 Q25,-23 20,-23 Q20,-16 18,-8 Q24,-9 30,-9 Q47,-10 45,3 L45,75 Q31,70 18,65 L16,80 Q29,84 45,89 L45,146 M101,66 L101,141 Q93,131 84,121 Q80,126 75,131 Q104,162 121,204 L134,200 Q127,186 121,173 L234,173 L234,163 L177,163 L177,144 L228,144 L228,133 L177,133 L177,114 L228,114 L228,104 L177,104 L177,84 L236,84 L236,74 L114,74 L114,66"/> 
            <glyph glyph-name="旗" unicode="&#x65D7;" horiz-adv-x="239" d=" M229,-25 Q206,-7 184,8 L192,17 Q214,2 237,-14 M111,-26 Q108,-21 103,-15 Q128,-1 150,17 L159,7 Q135,-11 111,-26 M140,91 L140,69 L200,69 L200,91 M140,57 L140,35 L200,35 L200,57 M140,124 L140,102 L200,102 L200,124 M110,143 Q106,147 100,152 Q121,178 132,206 L145,202 Q141,192 135,182 L239,182 L239,170 L128,170 Q120,157 110,143 M18,154 L18,167 L59,167 Q53,185 46,202 L59,205 Q66,189 72,171 L62,167 L97,167 L97,154 L53,154 L52,115 L92,115 Q91,57 90,17 Q89,-18 63,-17 Q53,-17 45,-17 Q45,-11 43,-3 Q50,-4 59,-4 Q76,-6 76,17 Q77,34 78,57.5 Q79,81 79,102 L52,102 Q52,93 51,87 Q50,48 44,24 Q38,0 25,-22 Q20,-17 14,-13 Q26,6 31,28 Q36,50 38,86 Q39,114 40,154 M105,124 L105,136 L127,136 L127,155 L140,155 L140,136 L200,136 L200,155 L213,155 L213,136 L235,136 L235,124 L213,124 L213,35 L239,35 L239,23 L103,23 L103,35 L127,35 L127,124"/> 
            <glyph glyph-name="明" unicode="&#x660E;" horiz-adv-x="229" d=" M42,173 L42,113 L86,113 L86,173 M42,40 L86,40 L86,101 L42,101 M143,180 L143,131 L213,131 L213,180 M143,110 Q143,87 141,68 L213,68 L213,118 L143,118 M29,6 L29,186 L99,186 L99,26 L42,26 L42,6 M97,-26 Q90,-20 84,-15 Q111,9 120,35.5 Q129,62 129,111 L129,193 L227,193 L227,7 Q229,-23 197,-23 Q177,-24 166,-24 Q165,-17 163,-8 Q176,-9 194.5,-9.5 Q213,-10 213,8 L213,55 L139,55 Q136,30 126,11.5 Q116,-7 97,-26"/> 
            <glyph glyph-name="是" unicode="&#x662F;" horiz-adv-x="240" d=" M65,182 L65,157 L191,157 L191,182 M65,146 L65,121 L191,121 L191,146 M20,72 L20,85 L238,85 L238,72 L140,72 L140,43 L222,43 L222,31 L140,31 L140,-2 Q141,-2 142,-2 Q192,-3 240,-2 Q238,-8 236,-16 Q184,-16 142,-15 Q86,-15 64,26 Q54,-3 24,-26 Q20,-22 15,-16 Q36,1 46,18 Q56,35 60,64 L74,61 Q72,50 69,41 Q88,3 125,0 L125,72 M51,109 L51,194 L205,194 L205,109"/> 
            <glyph glyph-name="显" unicode="&#x663E;" horiz-adv-x="239" d=" M64,19 Q47,47 31,70 L42,78 Q60,54 76,27 M193,19 L181,28 Q197,50 215,78 L227,70 Q209,42 193,19 M58,182 L58,152 L198,152 L198,182 M58,140 L58,109 L198,109 L198,140 M18,-17 L18,-4 L94,-4 L94,86 L109,86 L109,-4 L146,-4 L146,86 L160,86 L160,-4 L239,-4 L239,-17 M44,97 L44,194 L212,194 L212,97"/> 
            <glyph glyph-name="更" unicode="&#x66F4;" horiz-adv-x="239" d=" M201,142 L136,142 L135,112 L201,112 M120,70 Q121,83 121,100 L55,100 L55,70 M55,142 L55,112 L122,112 L122,142 M135,100 Q134,83 134,70 L201,70 L201,100 M201,46 L201,58 L132,58 Q128,30 113,14 Q134,5 164,1 Q194,-3 239,-5 Q235,-13 233,-20 Q185,-17 154.5,-12 Q124,-7 103,3 Q86,-13 25,-27 Q22,-20 18,-14 Q74,-2 89,10 Q68,22 49,43 L58,51 Q79,31 100,20 Q114,33 118,58 L41,58 L41,154 L122,154 Q122,168 122,180 L24,180 L24,193 L232,193 L232,180 L136,180 Q136,169 136,154 L215,154 L215,46"/> 
            <glyph glyph-name="有" unicode="&#x6709;" horiz-adv-x="237" d=" M76,116 L76,86 L196,86 L196,116 M76,73 L76,42 L196,42 L196,73 M23,160 L23,173 L96,173 Q104,188 111,205 L126,202 Q119,187 111,173 L237,173 L237,160 L104,160 Q95,144 84,129 L210,129 L210,7 Q211,-21 182,-21 Q161,-21 149,-21 Q148,-14 146,-7 Q158,-7 177.5,-7.5 Q197,-8 196,10 L196,30 L76,30 L76,-25 L62,-25 L62,101 Q45,81 24,62 Q19,70 15,74 Q60,112 88,160"/> 
            <glyph glyph-name="本" unicode="&#x672C;" horiz-adv-x="240" d=" M25,149 L25,163 L121,163 L121,205 L135,205 L135,163 L232,163 L232,149 L146,149 Q164,111 184.5,85 Q205,59 240,35 Q234,27 230,22 Q192,50 171.5,78 Q151,106 135,147 L135,36 L188,36 L188,23 L135,23 L135,-25 L121,-25 L121,23 L67,23 L67,36 L121,36 L121,147 Q105,105 84,75.5 Q63,46 27,18 Q22,25 17,30 Q51,56 72,83 Q93,110 109,149"/> 
            <glyph glyph-name="术" unicode="&#x672F;" horiz-adv-x="240" d=" M200,154 Q192,161 181,170.5 Q170,180 161,188 L170,197 Q191,180 210,164 M21,133 L21,147 L121,147 L121,205 L135,205 L135,147 L236,147 L236,133 L146,133 Q163,95 184,70 Q205,45 240,21 Q234,13 230,8 Q192,35 171,62.5 Q150,90 135,130 L135,-25 L121,-25 L121,129 Q106,88 85,59 Q64,30 26,3 Q21,11 17,17 Q51,41 72.5,67.5 Q94,94 110,133"/> 
            <glyph glyph-name="机" unicode="&#x673A;" horiz-adv-x="241" d=" M20,145 L20,157 L53,157 L53,204 L66,204 L66,157 L98,157 L98,145 L66,145 L66,106 L72,114 Q89,98 102,84 L93,75 Q78,91 66,103 L66,-25 L53,-25 L53,116 Q40,67 21,41 Q18,49 14,56 Q39,90 52,145 M91,-25 Q85,-20 79,-14 Q103,10 111,34.5 Q119,59 118,109 L118,189 L198,189 L198,10 Q197,-4 207,-3 L212,-3 Q223,-4 225,12 Q227,28 228,50 Q235,48 241,46 Q239,21 237,7 Q234,-18 213,-17 L204,-17 Q183,-17 184,8 L184,176 L132,176 L132,109 Q133,57 124.5,29 Q116,1 91,-25"/> 
            <glyph glyph-name="杂" unicode="&#x6742;" horiz-adv-x="240" d=" M229,-10 Q198,13 167,34 L175,44 Q205,26 238,3 M25,-12 Q21,-6 16,0 Q48,21 76,48 L86,38 Q56,11 25,-12 M18,64 L18,77 L122,77 L122,107 L136,107 L136,77 L231,77 L231,64 L136,64 L136,8 Q138,-21 107,-22 Q94,-23 84,-23 Q83,-15 81,-7 Q92,-8 104,-8 Q123,-9 122,11 L122,64 M195,97 Q170,96 170,122 L170,163 L110,163 Q106,135 88,118.5 Q70,102 28,90 Q22,99 19,103 Q58,113 75,126.5 Q92,140 96,163 L33,163 L33,176 L98,176 Q100,192 100,206 L114,206 Q114,191 112,176 L184,176 L184,126 Q184,109 198,111 L207,111 Q222,110 224,125 Q226,135 226,149 Q234,146 240,144 Q239,131 237,120 Q234,96 210,97"/> 
            <glyph glyph-name="来" unicode="&#x6765;" horiz-adv-x="241" d=" M80,103 Q66,122 52,139 L63,147 Q77,131 91,112 M173,101 L163,110 Q180,128 194,147 L206,138 Q192,121 173,101 M32,158 L32,171 L121,171 L121,205 L135,205 L135,171 L225,171 L225,158 L135,158 L135,91 L238,91 L238,78 L142,78 Q162,54 185.5,38 Q209,22 241,9 Q236,2 231,-6 Q168,23 135,68 L135,-26 L121,-26 L121,69 Q87,24 24,-9 Q21,-3 15,4 Q74,32 114,78 L19,78 L19,91 L121,91 L121,158"/> 
            <glyph glyph-name="样" unicode="&#x6837;" horiz-adv-x="239" d=" M141,165 Q128,184 117,198 L128,205 Q140,190 153,172 M19,142 L19,155 L52,155 L52,204 L65,204 L65,155 L92,155 L92,142 L65,142 L65,104 L71,110 Q85,96 99,80 L90,71 Q77,87 65,100 L65,-25 L52,-25 L52,113 Q42,75 21,41 Q18,50 14,57 Q39,93 51,142 M104,146 L104,159 L173,159 Q189,183 202,205 L215,198 Q203,179 187,159 L232,159 L232,146 L173,146 L173,105 L225,105 L225,92 L173,92 L173,49 L239,49 L239,35 L173,35 L173,-25 L159,-25 L159,35 L92,35 L92,49 L159,49 L159,92 L109,92 L109,105 L159,105 L159,146"/> 
            <glyph glyph-name="池" unicode="&#x6C60;" horiz-adv-x="242" d=" M53,98 Q35,115 18,128 L27,138 Q45,124 63,109 M64,158 Q45,175 28,189 L38,199 Q56,184 74,170 M40,-22 L24,-16 Q40,26 50,68 Q57,65 64,62 Q50,17 40,-22 M153,25 L153,124 L109,110 L109,19 Q108,-4 134,-3 L195,-3 Q221,-4 223,15 Q226,31 228,48 Q235,46 242,44 Q239,21 236,7 Q231,-18 199,-18 L128,-18 Q94,-18 95,15 L95,105 L77,100 L74,113 L95,120 L95,177 L109,177 L109,124 L153,137 L153,204 L167,204 L167,142 L228,160 Q228,119 226.5,86.5 Q225,54 202,55 Q193,55 183,55 L181,70 Q189,69 198,69 Q211,68 212,88 Q214,116 214,143 L167,128 L167,25"/> 
            <glyph glyph-name="清" unicode="&#x6E05;" horiz-adv-x="240" d=" M60,158 Q43,175 26,189 L35,199 Q52,185 70,169 M50,97 Q34,112 15,128 L24,137 Q44,122 61,108 M37,-24 L22,-18 Q28,0 35,24 Q42,48 47,68 Q54,64 61,62 Q54,40 47.5,16.5 Q41,-7 37,-24 M102,50 L102,29 L208,29 L208,50 M102,81 L102,60 L208,60 L208,81 M79,173 L79,184 L148,184 L148,205 L162,205 L162,184 L237,184 L237,173 L162,173 L162,153 L229,153 L229,142 L162,142 L162,122 L240,122 L240,111 L74,111 L74,122 L148,122 L148,142 L85,142 L85,153 L148,153 L148,173 M88,-25 L88,92 L222,92 L222,4 Q223,-23 195,-23 Q180,-23 163,-23 Q162,-17 159,-9 Q173,-10 191.5,-10.5 Q210,-11 208,5 L208,18 L102,18 L102,-25"/> 
            <glyph glyph-name="点" unicode="&#x70B9;" horiz-adv-x="236" d=" M98,-19 Q92,3 83,28 L96,31 Q99,23 104,8.5 Q109,-6 112,-15 M157,-17 Q149,4 139,29 L151,33 Q156,24 161.5,11 Q167,-2 171,-13 M223,-19 Q213,2 198,28 L210,34 Q216,24 224,9.5 Q232,-5 236,-13 M29,-23 L17,-16 Q31,6 45,34 L58,28 Q52,16 44,2 Q36,-12 29,-23 M59,116 L59,65 L200,65 L200,116 M45,51 L45,129 L118,129 L118,205 L132,205 L132,175 L236,175 L236,162 L132,162 L132,129 L214,129 L214,51"/> 
            <glyph glyph-name="爱" unicode="&#x7231;" horiz-adv-x="239" d=" M70,143 Q62,157 54,169 L65,175 Q74,163 82,150 M133,144 Q126,159 118,173 L130,177 Q138,164 145,150 M193,52 L89,52 Q112,30 142,16 Q171,31 193,52 M33,179 Q32,186 30,192 Q79,192 129.5,193.5 Q180,195 226,198 L229,185 Q136,181 33,179 M27,111 L27,142 L173,142 Q186,162 197,178 L209,172 Q200,158 188,142 L232,142 L232,111 L218,111 L218,130 L40,130 L40,111 M20,87 L20,100 L85,100 Q89,111 93,123 L107,121 Q104,110 101,100 L239,100 L239,87 L96,87 Q91,75 86,65 L211,65 L211,51 Q187,26 157,9 Q191,-4 239,-9 Q235,-16 232,-23 Q178,-15 141,1 Q105,-16 49,-26 Q46,-20 42,-13 Q92,-6 126,9 Q98,24 76,48 Q56,14 23,-14 Q20,-7 15,-1 Q60,34 81,87"/> 
            <glyph glyph-name="版" unicode="&#x7248;" horiz-adv-x="241" d=" M215,117 L159,117 Q167,73 186,44 Q206,73 215,117 M26,-24 Q20,-19 15,-15 Q25,2 28.5,21 Q32,40 32,78 L32,197 L44,197 L44,132 L72,132 L72,203 L85,203 L85,132 L103,132 L103,120 L44,120 L44,79 L86,79 L86,-23 L74,-23 L74,67 L44,67 Q44,34 40,14.5 Q36,-5 26,-24 M134,-25 Q130,-19 125,-13 Q159,10 178,33 Q155,66 147,117 L133,117 L133,101 Q134,57 128,30.5 Q122,4 105,-22 Q100,-18 95,-15 Q110,8 115,32.5 Q120,57 120,101 L120,186 Q148,186 177.5,188 Q207,190 233,194 L237,181 Q189,175 133,173 L133,130 L228,130 L228,117 Q218,66 195,32 Q212,11 241,-9 Q237,-16 232,-22 Q204,-1 186,21 Q167,-2 134,-25"/> 
            <glyph glyph-name="特" unicode="&#x7279;" horiz-adv-x="240" d=" M141,9 Q128,26 113,41 L122,49 Q138,34 152,18 M103,60 L103,72 L193,72 L193,97 L207,97 L207,72 L240,72 L240,60 L207,60 L207,3 Q208,-22 178,-23 Q166,-24 150,-24 Q150,-16 148,-8 Q162,-9 175,-9 Q194,-10 193,7 L193,60 M111,160 L111,172 L163,172 L163,205 L177,205 L177,172 L230,172 L230,160 L177,160 L177,121 L240,121 L240,108 L102,108 L102,121 L163,121 L163,160 M24,99 Q19,103 13,106 Q25,141 29,182 L41,180 Q39,163 36,148 L57,148 L57,204 L71,204 L71,148 L97,148 L97,136 L71,136 L71,82 L96,91 Q97,83 98,78 L71,68 L71,-26 L57,-26 L57,63 L18,49 L15,63 Q35,69 57,77 L57,136 L34,136 Q30,117 24,99"/> 
            <glyph glyph-name="独" unicode="&#x72EC;" horiz-adv-x="239" d=" M117,146 L117,82 L157,82 L157,146 M211,146 L170,146 L170,82 L211,82 M24,41 Q20,48 16,54 Q41,73 63,104 Q60,124 53,140 Q40,127 25,115 Q22,121 17,126 Q33,138 47,152 Q38,171 21,189 L31,197 Q47,180 57,163 Q70,177 81,194 L92,187 Q78,166 64,151 Q82,113 81,40 Q82,-19 46,-18 Q34,-18 24,-18 Q23,-10 21,-3 Q32,-4 45,-4 Q67,-7 67,40 Q67,66 65,87 Q49,62 24,41 M105,59 L105,159 L157,159 L157,204 L170,204 L170,159 L224,159 L224,69 L170,69 L170,9 Q194,11 213,13 Q205,30 199,42 L211,47 Q218,32 226,14 Q234,-4 239,-17 L227,-22 L218,0 Q182,-3 149,-6 Q116,-9 94,-12 L91,2 Q119,4 157,7 L157,69 L117,69 L117,59"/> 
            <glyph glyph-name="环" unicode="&#x73AF;" horiz-adv-x="238" d=" M226,31 Q201,73 178,105 L190,112 Q215,76 238,40 M156,-25 L156,120 L170,120 L170,-25 M108,175 L108,188 L231,188 L231,175 L176,175 Q161,129 145,98 Q129,67 102,33 Q97,38 91,42 Q118,74 133.5,104 Q149,134 162,175 M19,168 L19,181 L95,181 L95,168 L64,168 L64,107 L94,107 L94,94 L64,94 L64,22 L95,29 Q95,22 95,15 Q58,8 18,-3 L16,13 Q32,15 50,19 L50,94 L21,94 L21,107 L50,107 L50,168"/> 
            <glyph glyph-name="现" unicode="&#x73B0;" horiz-adv-x="241" d=" M195,-18 Q169,-19 169,11 L169,69 L182,69 L182,12 Q181,-7 198,-5 L206,-5 Q223,-6 225,10 Q226,20 227,39 Q234,36 241,34 Q240,21 238,7 Q235,-18 206,-18 M91,-25 Q87,-20 81,-14 Q126,12 142,38.5 Q158,65 159,113 Q159,137 159,158 L173,158 Q173,150 172.5,137.5 Q172,125 172,118 Q170,62 153.5,32.5 Q137,3 91,-25 M18,171 L18,183 L97,183 L97,171 L64,171 L64,106 L94,106 L94,93 L64,93 L64,27 L99,32 Q99,25 99,19 Q86,17 59,12.5 Q32,8 18,5 L15,19 Q26,21 51,25 L51,93 L20,93 L20,106 L51,106 L51,171 M110,52 L110,193 L223,193 L223,54 L209,54 L209,179 L123,179 L123,52"/> 
            <glyph glyph-name="理" unicode="&#x7406;" horiz-adv-x="241" d=" M213,180 L172,180 L172,142 L213,142 M118,180 L118,142 L159,142 L159,180 M172,130 L172,92 L213,92 L213,130 M118,130 L118,92 L159,92 L159,130 M17,171 L17,184 L91,184 L91,171 L61,171 L61,104 L90,104 L90,91 L61,91 L61,21 L91,28 Q91,21 92,14 Q56,7 18,-3 L15,12 Q31,15 48,18 L48,91 L19,91 L19,104 L48,104 L48,171 M100,35 L100,47 L159,47 L159,79 L105,79 L105,192 L226,192 L226,79 L172,79 L172,47 L231,47 L231,35 L172,35 L172,-4 L241,-4 L241,-17 L87,-17 L87,-4 L159,-4 L159,35"/> 
            <glyph glyph-name="用" unicode="&#x7528;" horiz-adv-x="229" d=" M57,104 Q57,82 56,67 L126,67 L126,115 L57,115 M57,177 L57,128 L126,128 L126,177 M140,115 L140,67 L212,67 L212,115 M212,177 L140,177 L140,128 L212,128 M28,-25 Q21,-21 15,-17 Q31,7 37,32 Q43,57 42,105 L42,191 L227,191 L227,8 Q229,-22 197,-23 Q182,-24 170,-23 Q169,-16 167,-8 Q179,-8 194,-8 Q213,-9 212,9 L212,54 L140,54 L140,-22 L126,-22 L126,54 L55,54 Q52,29 46,11.5 Q40,-6 28,-25"/> 
            <glyph glyph-name="电" unicode="&#x7535;" horiz-adv-x="239" d=" M198,160 L126,160 L126,115 L198,115 M41,160 L41,115 L113,115 L113,160 M126,57 L198,57 L198,102 L126,102 M41,102 L41,57 L113,57 L113,102 M145,-18 Q111,-19 113,16 L113,44 L41,44 L41,27 L28,27 L28,173 L113,173 L113,205 L126,205 L126,173 L211,173 L211,44 L126,44 L126,18 Q125,-5 149,-4 L195,-4 Q217,-4 220,13 Q224,27 225,40 Q233,37 239,35 Q236,15 233,4 Q230,-18 198,-18"/> 
            <glyph glyph-name="的" unicode="&#x7684;" horiz-adv-x="231" d=" M175,50 Q158,77 139,101 L149,109 Q168,85 187,59 M38,152 L38,89 L96,89 L96,152 M38,76 L38,12 L96,12 L96,76 M150,-21 Q149,-13 147,-6 Q163,-6 184,-6 Q213,-8 213,22 Q214,47 215,84.5 Q216,122 217,152 L150,152 Q141,130 131,112 Q125,116 119,120 Q141,158 154,204 L168,200 Q163,183 156,166 L231,166 Q231,133 229.5,95 Q228,57 227,20 Q227,-20 187,-20 Q168,-21 150,-21 M25,-22 L25,165 L50,165 Q57,188 60,204 L75,201 Q70,184 64,165 L110,165 L110,-21 L96,-21 L96,-1 L38,-1 L38,-22"/> 
            <glyph glyph-name="睿" unicode="&#x777F;" horiz-adv-x="240" d=" M218,83 Q210,88 194,96.5 Q178,105 166,111 L173,120 Q199,108 225,94 M32,82 L25,93 Q52,105 76,120 L84,111 Q59,95 32,82 M128,106 Q109,89 87,77 L171,77 Q148,89 128,106 M61,121 L61,132 L195,132 L195,121 M67,39 L67,22 L189,22 L189,39 M67,66 L67,49 L189,49 L189,66 M67,12 L67,-6 L189,-6 L189,12 M25,120 L25,160 L114,160 L114,205 L128,205 L128,188 L217,188 L217,177 L128,177 L128,160 L232,160 L232,120 L218,120 L218,149 L38,149 L38,120 M54,-26 L54,60 L24,47 Q21,53 17,59 Q87,84 125,118 L141,118 Q138,115 136,113 Q176,82 240,61 Q236,55 233,49 Q216,56 202,62 L202,-26 L189,-26 L189,-17 L67,-17 L67,-26"/> 
            <glyph glyph-name="码" unicode="&#x7801;" horiz-adv-x="232" d=" M109,33 L109,46 L201,46 L201,33 M51,100 L51,15 L84,15 L84,100 M164,-21 Q163,-14 161,-6 Q174,-7 192,-7 Q214,-7 215,14 Q217,46 218,82 L122,82 L128,164 L142,164 L136,95 L194,95 L202,177 L117,177 L117,191 L217,191 L207,95 L232,95 Q231,50 228,13 Q228,-19 194,-20 Q179,-21 164,-21 M22,171 L22,183 L105,183 L105,171 L71,171 Q63,139 50,112 L97,112 L97,-14 L84,-14 L84,3 L51,3 L51,-17 L38,-17 L38,90 Q31,78 23,66 Q19,72 15,79 Q46,122 57,171"/> 
            <glyph glyph-name="窄" unicode="&#x7A84;" horiz-adv-x="237" d=" M211,118 Q183,129 146,143 L152,154 Q188,142 218,130 M44,114 Q41,120 36,127 Q57,134 72,140.5 Q87,147 102,154 L110,143 Q92,135 77,128 Q62,121 44,114 M24,138 L24,181 L124,181 Q121,194 118,204 L132,207 Q135,197 138,181 L232,181 L232,138 L218,138 L218,167 L39,167 L39,138 M28,45 L18,56 Q64,87 95,129 L107,123 Q102,115 96,108 L237,108 L237,96 L114,96 L114,68 L218,68 L218,56 L114,56 L114,27 L223,27 L223,14 L114,14 L114,-26 L100,-26 L100,96 L85,96 Q58,67 28,45"/> 
            <glyph glyph-name="立" unicode="&#x7ACB;" horiz-adv-x="238" d=" M129,161 Q122,182 114,201 L128,205 Q136,188 144,166 M89,24 Q70,82 53,122 L67,128 Q85,83 104,30 M25,144 L25,159 L232,159 L232,144 M18,-11 L18,3 L138,3 Q166,61 188,130 L204,124 Q180,61 154,3 L238,3 L238,-11"/> 
            <glyph glyph-name="端" unicode="&#x7AEF;" horiz-adv-x="240" d=" M56,163 Q49,182 42,200 L54,204 Q61,187 68,167 M19,145 L19,157 L91,157 L91,145 M38,41 Q30,88 22,122 L33,124 Q42,89 50,44 M18,0 L16,14 Q33,17 54,21 Q68,89 75,126 L87,124 Q79,84 66,23 L93,29 Q92,23 92,16 Q54,8 18,0 M110,142 L110,191 L123,191 L123,154 L161,154 L161,205 L174,205 L174,154 L212,154 L212,191 L225,191 L225,142 M99,103 L99,116 L240,116 L240,103 L172,103 L165,77 L231,77 L231,1 Q232,-23 209,-24 Q200,-24 191,-24 Q190,-18 188,-10 Q196,-11 205,-11 Q219,-11 218,2 L218,65 L192,65 L192,-6 L180,-6 L180,65 L155,65 L155,-12 L142,-12 L142,65 L117,65 L117,-25 L105,-25 L105,77 L151,77 L158,103"/> 
            <glyph glyph-name="笔" unicode="&#x7B14;" horiz-adv-x="240" d=" M190,135 Q179,148 168,159 L178,166 Q190,155 200,143 M89,133 Q79,145 68,158 L79,165 Q90,152 100,140 M134,134 Q128,139 122,142 Q147,170 159,205 L173,202 Q167,189 162,179 L236,179 L236,166 L156,166 Q146,150 134,134 M26,131 L16,141 Q44,168 58,206 L72,203 Q66,189 61,179 L129,179 L129,166 L54,166 Q43,148 26,131 M33,67 L32,79 L109,83 L109,112 Q68,109 35,108 Q34,115 32,121 Q75,122 123,125 Q171,128 213,131 L215,119 Q171,115 123,112 L123,84 L215,89 L216,77 L123,72 L123,43 L239,50 L240,37 L123,31 L123,15 Q121,-8 146,-7 L191,-7 Q211,-8 212,7 Q214,15 215,27 Q223,25 229,23 Q228,11 225,1 Q222,-20 193,-19 L141,-19 Q108,-20 109,13 L109,30 L18,25 L17,37 L109,42 L109,71"/> 
            <glyph glyph-name="第" unicode="&#x7B2C;" horiz-adv-x="238" d=" M88,142 Q78,155 68,165 L78,172 Q88,162 98,150 M192,142 Q181,154 171,165 L180,172 Q191,162 203,150 M134,144 Q129,149 123,153 Q147,177 158,207 L173,205 Q168,194 163,184 L238,184 L238,173 L156,173 Q147,157 134,144 M26,141 Q21,146 16,150 Q45,174 60,207 L75,205 Q70,194 63,184 L130,184 L130,173 L55,173 Q43,155 26,141 M54,85 L49,58 L121,58 L121,85 M202,125 L134,125 L134,98 L202,98 M23,-21 Q19,-14 15,-7 Q47,3 68,15.5 Q89,28 107,46 L33,46 L43,98 L121,98 L121,125 L39,125 L39,137 L215,137 L215,85 L134,85 L134,58 L228,58 Q227,37 225,20 Q224,-8 193,-8 Q179,-8 165,-8 Q164,-1 162,6 Q176,5 191,5 Q211,4 212,23 Q213,32 214,46 L134,46 L134,-26 L121,-26 L121,45 Q102,22 79.5,6.5 Q57,-9 23,-21"/> 
            <glyph glyph-name="米" unicode="&#x7C73;" horiz-adv-x="240" d=" M177,126 L166,135 Q189,161 206,187 L218,179 Q201,155 177,126 M79,128 Q58,155 38,179 L49,187 Q72,162 91,137 M18,95 L18,109 L122,109 L122,202 L136,202 L136,109 L238,109 L238,95 L149,95 Q178,41 240,10 Q235,3 231,-4 Q195,16 173,39.5 Q151,63 137,95 L136,95 L136,-26 L122,-26 L122,95 L121,95 Q107,64 85,39.5 Q63,15 25,-9 Q21,-3 15,4 Q52,26 73,47 Q94,68 108,95"/> 
            <glyph glyph-name="级" unicode="&#x7EA7;" horiz-adv-x="240" d=" M20,1 L17,15 Q48,21 86,29 Q86,22 86,16 Q53,9 20,1 M25,55 L19,69 Q26,74 35.5,86.5 Q45,99 58,118 Q33,117 21,116 L15,130 Q21,134 29,147 Q34,156 42.5,171.5 Q51,187 58,202 L72,197 Q54,164 33,130 Q47,130 66,131 Q76,146 84,161 L97,155 Q85,134 69.5,111.5 Q54,89 40,70 Q63,73 87,75 Q86,66 85,62 Q62,60 49,58.5 Q36,57 25,55 M131,156 L131,143 Q149,78 179,42 Q199,70 211,111 L171,111 L171,126 L194,178 L131,178 M124,-26 Q120,-19 114,-13 Q149,7 170,31 Q143,64 129,112 Q128,67 118,37.5 Q108,8 86,-22 Q79,-16 74,-12 Q99,19 108,54.5 Q117,90 117,155 L117,178 L97,178 L97,191 L208,191 L208,177 L185,124 L225,124 L225,111 Q212,64 188,31 Q209,9 240,-8 Q235,-15 231,-22 Q200,-2 179,20 Q158,-6 124,-26"/> 
            <glyph glyph-name="绕" unicode="&#x7ED5;" horiz-adv-x="240" d=" M19,1 L16,15 Q54,20 91,26 Q91,20 91,13 Q73,10 53.5,7 Q34,4 19,1 M24,49 L19,62 Q25,67 33,77 Q46,94 59,114 Q37,113 21,111 L16,125 Q21,130 28.5,141.5 Q36,153 46.5,171.5 Q57,190 63,205 L77,199 Q67,180 55,160 Q43,140 33,125 L67,126 Q76,140 83,153 L95,147 Q84,128 67.5,104 Q51,80 40,65 Q63,67 82,68 Q81,63 81,56 Q57,54 43,52 Q31,51 24,49 M94,58 L94,70 L233,70 L233,58 L187,58 L187,7 Q186,-8 202,-7 L210,-7 Q223,-8 225,7 Q227,16 228,32 L240,27 Q240,16 238,3 Q234,-21 212,-20 L198,-20 Q173,-21 174,5 L174,58 L141,58 Q140,24 128.5,6 Q117,-12 86,-26 Q82,-19 77,-14 Q107,-1 117.5,13.5 Q128,28 128,58 M99,152 L98,164 L130,168 Q126,183 123,203 L136,205 Q139,185 144,170 L224,181 L226,168 L148,158 Q155,140 165,126 Q186,138 208,156 L217,148 Q196,128 173,115 Q189,96 205,97 Q216,97 221,109 Q224,119 227,131 L239,126 Q236,112 232,103 Q225,84 205,84 Q181,83 161,108 Q138,97 105,87 Q103,93 98,99 Q129,108 153,119 Q142,134 134,156"/> 
            <glyph glyph-name="置" unicode="&#x7F6E;" horiz-adv-x="240" d=" M106,184 L106,161 L150,161 L150,184 M49,184 L49,161 L93,161 L93,184 M207,184 L163,184 L163,161 L207,161 M62,38 L62,21 L194,21 L194,38 M62,93 L62,76 L194,76 L194,93 M62,66 L62,48 L194,48 L194,66 M62,11 L62,-7 L194,-7 L194,11 M35,151 L35,195 L221,195 L221,151 M21,121 L21,131 L121,131 L121,144 L134,144 L134,131 L235,131 L235,121 L134,121 L134,103 L207,103 L207,-7 L240,-7 L240,-18 L17,-18 L17,-7 L49,-7 L49,103 L121,103 L121,121"/> 
            <glyph glyph-name="聪" unicode="&#x806A;" horiz-adv-x="243" d=" M176,36 Q168,53 158,70 L169,76 Q179,60 188,42 M148,166 Q137,182 123,198 L134,205 Q147,190 159,173 M191,163 L181,171 Q196,189 207,205 L218,198 Q208,183 191,163 M112,-5 L99,1 Q109,24 116,48 L128,44 Q120,19 112,-5 M231,2 Q220,29 210,50 L222,55 Q233,32 243,8 M43,127 L43,86 L76,86 L76,127 M43,179 L43,139 L76,139 L76,179 M43,28 L76,37 L76,74 L43,74 M161,-21 Q135,-21 136,6 L136,57 L149,57 L149,8 Q148,-8 164,-8 L180,-8 Q194,-8 197,7 Q198,15 200,28 Q206,25 213,23 Q211,10 208,-1 Q204,-21 182,-21 M129,148 L129,96 L212,96 L212,148 M116,83 L116,161 L225,161 L225,83 M17,179 L17,192 L103,192 L103,179 L89,179 L89,41 L102,45 Q102,38 103,32 Q96,29 89,28 L89,-25 L76,-25 L76,24 Q50,16 19,6 L15,20 Q23,22 30,24 L30,179"/> 
            <glyph glyph-name="能" unicode="&#x80FD;" horiz-adv-x="239" d=" M42,102 L42,76 L105,76 L105,102 M42,65 L42,39 L105,39 L105,65 M125,125 L114,140 Q74,138 38,136 Q29,135 21,133 L16,147 Q23,150 30,159 Q50,180 67,207 L81,200 Q60,173 37,148 Q68,149 104,152 L84,174 L95,182 Q115,160 137,135 M174,102 Q146,102 146,129 L146,204 L160,204 L160,160 Q195,174 224,191 L232,179 Q199,162 160,146 L160,131 Q159,114 177,115 L202,115 Q220,115 222,129 Q224,138 225,155 Q232,152 239,150 Q237,134 234,125 Q230,102 204,102 M174,-19 Q146,-20 146,8 L146,88 L160,88 L160,47 Q196,61 228,80 L236,68 Q199,47 160,33 L160,11 Q159,-7 177,-6 L203,-6 Q221,-6 223,8 Q224,16 225,33 Q233,30 239,29 Q237,13 235,3 Q231,-20 205,-19 M29,-24 L29,113 L118,113 L118,2 Q119,-21 96,-21 Q86,-22 74,-22 Q73,-15 71,-8 Q82,-8 92,-8 Q105,-9 105,2 L105,27 L42,27 L42,-24"/> 
            <glyph glyph-name="脑" unicode="&#x8111;" horiz-adv-x="241" d=" M171,170 Q166,187 160,202 L173,206 Q179,191 184,174 M43,178 L43,130 L76,130 L76,178 M43,118 L43,70 L76,70 L76,118 M105,156 L105,169 L241,169 L241,156 M133,139 L144,144 Q155,125 172,94 Q183,117 194,146 L206,141 Q192,107 179,80 L208,25 L197,19 Q186,40 172,67 Q159,41 143,19 L133,26 Q151,52 165,80 Q148,112 133,139 M113,-14 L113,126 L125,126 L125,-1 L217,-1 L217,126 L230,126 L230,-25 L217,-25 L217,-14 M26,-24 L15,-15 Q23,2 26.5,20 Q30,38 30,69 L30,190 L88,190 L88,2 Q88,-21 67,-22 Q59,-23 50,-23 Q49,-15 47,-9 Q53,-9 63,-9 Q77,-10 76,5 L76,58 L42,58 Q42,29 38,11 Q34,-7 26,-24"/> 
            <glyph glyph-name="自" unicode="&#x81EA;" horiz-adv-x="215" d=" M55,47 L55,4 L201,4 L201,47 M55,103 L55,60 L201,60 L201,103 M55,160 L55,116 L201,116 L201,160 M41,-25 L41,173 L103,173 Q109,192 111,205 L127,203 Q123,189 118,173 L215,173 L215,-25 L201,-25 L201,-10 L55,-10 L55,-25"/> 
            <glyph glyph-name="舰" unicode="&#x8230;" horiz-adv-x="240" d=" M68,115 Q62,133 55,148 L65,152 Q72,136 78,120 M70,31 Q64,51 57,69 L67,73 Q74,55 81,35 M201,-17 Q178,-19 178,11 L178,68 L191,68 L191,12 Q190,-6 204,-5 L210,-5 Q224,-6 225,10 Q227,20 228,39 Q234,36 240,35 Q239,21 238,7 Q235,-18 210,-17 M112,-25 Q108,-20 102,-14 Q139,9 152.5,34 Q166,59 167,106 Q168,133 168,156 L181,156 Q181,128 180,111 Q178,56 164,27.5 Q150,-1 112,-25 M47,166 L47,100 L89,100 L89,166 M126,52 L126,190 L223,190 L223,56 L210,56 L210,177 L139,177 L139,52 M17,88 L17,100 L35,100 L35,178 L57,178 Q61,194 62,206 L76,204 Q73,191 70,178 L101,178 L101,3 Q102,-21 81,-21 Q70,-21 59,-21 L57,-8 Q67,-8 75,-8 Q90,-9 89,4 L89,88 L47,88 L47,76 Q48,42 43.5,20 Q39,-2 26,-24 Q20,-20 14,-16 Q25,3 30,23.5 Q35,44 35,76 L35,88"/> 
            <glyph glyph-name="艺" unicode="&#x827A;" horiz-adv-x="239" d=" M17,160 L17,174 L81,174 L81,205 L95,205 L95,174 L161,174 L161,205 L175,205 L175,174 L239,174 L239,160 L175,160 L175,135 L161,135 L161,160 L95,160 L95,135 L81,135 L81,160 M75,-17 Q37,-16 38,8 Q38,25 55,37 Q94,65 171,104 L49,104 L49,117 L198,117 L198,102 Q162,85 124,63.5 Q86,42 66,28 Q53,18 53,10 Q53,-3 80,-3 L171,-3 Q195,-3 205,1.5 Q215,6 217,17 Q220,32 222,52 L235,46 Q233,23 230,9.5 Q227,-4 215.5,-10.5 Q204,-17 176,-17"/> 
            <glyph glyph-name="英" unicode="&#x82F1;" horiz-adv-x="239" d=" M136,112 Q136,81 134,62 L196,62 L196,112 M120,62 Q121,74 122,112 L60,112 L60,62 M18,164 L18,177 L78,177 L78,205 L92,205 L92,177 L164,177 L164,205 L178,205 L178,177 L239,177 L239,164 L178,164 L178,143 L164,143 L164,164 L92,164 L92,143 L78,143 L78,164 M232,-24 Q189,-15 164.5,0.5 Q140,16 128,41 Q111,-4 25,-27 Q22,-20 18,-12 Q104,9 117,49 L17,49 L17,62 L46,62 L46,124 L122,124 L122,148 L136,148 L136,124 L210,124 L210,62 L239,62 L239,49 L139,49 Q163,1 239,-9 Q235,-16 232,-24"/> 
            <glyph glyph-name="薄" unicode="&#x8584;" horiz-adv-x="240" d=" M123,-14 Q111,-2 96,12 L105,19 Q119,7 133,-5 M49,75 Q33,89 17,101 L25,110 Q43,97 58,85 M60,120 Q44,134 28,145 L36,155 Q55,142 70,130 M208,108 L157,108 L157,92 L208,92 M157,82 L157,65 L208,65 L208,82 M94,108 L94,92 L145,92 L145,108 M94,82 L94,65 L145,65 L145,82 M35,-25 L22,-19 Q35,19 45,58 L58,52 Q46,15 35,-25 M66,21 L66,32 L191,32 L191,43 L204,43 L204,32 L240,32 L240,21 L204,21 L204,6 Q206,-21 176,-21 Q171,-22 161.5,-22 Q152,-22 148,-22 Q147,-16 145,-8 Q149,-9 158.5,-9 Q168,-9 174,-9 Q192,-9 191,6 L191,21 M17,173 L17,184 L86,184 L86,204 L99,204 L99,184 L159,184 L159,204 L172,204 L172,184 L240,184 L240,173 L172,173 L172,162 L159,162 L159,173 L99,173 L99,158 L86,158 L86,173 M74,135 L74,146 L145,146 L145,160 L157,160 L157,146 L195,146 Q192,154 189,162 L201,165 Q204,157 207,146 L235,146 L235,135 L157,135 L157,118 L221,118 L221,46 L208,46 L208,55 L157,55 L157,43 L145,43 L145,55 L94,55 L94,43 L82,43 L82,118 L145,118 L145,135"/> 
            <glyph glyph-name="解" unicode="&#x89E3;" horiz-adv-x="240" d=" M44,129 L44,97 L68,97 L68,129 M44,58 L44,52 L68,52 L68,85 L44,85 M105,129 L81,129 L81,97 L105,97 M81,85 L81,52 L105,52 L105,85 M54,168 Q45,153 34,141 L73,141 L93,168 M131,111 L123,122 Q143,133 150.5,144.5 Q158,156 159,176 L132,176 L132,189 L228,189 Q228,169 226,148 Q225,121 198,121 Q186,121 176,121 Q176,125 174,134 Q185,133 196,134 Q212,133 213,150 Q214,163 214,176 L172,176 Q171,152 162.5,138 Q154,124 131,111 M137,49 Q131,52 125,55 Q139,78 147,109 L159,106 Q156,95 153,85 L181,85 L181,112 L193,112 L193,85 L234,85 L234,73 L193,73 L193,36 L240,36 L240,24 L193,24 L193,-26 L181,-26 L181,24 L124,24 L124,36 L181,36 L181,73 L148,73 Q143,59 137,49 M68,3 L68,41 L44,41 Q43,19 38.5,4.5 Q34,-10 26,-25 Q20,-19 15,-17 Q25,-2 28.5,14 Q32,30 32,59 L32,139 L24,130 Q20,136 15,140 Q43,168 60,205 L73,200 Q67,189 61,179 L107,179 L107,167 L89,141 L117,141 L117,2 Q118,-22 95,-22 Q87,-22 77,-22 Q77,-15 75,-9 Q82,-9 91,-9 Q106,-11 105,5 L105,41 L81,41 L81,3"/> 
            <glyph glyph-name="让" unicode="&#x8BA9;" horiz-adv-x="240" d=" M75,149 Q56,171 38,187 L49,197 Q68,179 87,159 M51,-13 L40,0 Q49,8 48,23 L48,109 L16,109 L16,123 L62,123 L62,17 Q83,33 100,48 Q102,39 104,32 Q86,19 63,-1 Q57,-6 51,-13 M91,-11 L91,3 L149,3 L149,202 L164,202 L164,132 L229,132 L229,118 L164,118 L164,3 L240,3 L240,-11"/> 
            <glyph glyph-name="记" unicode="&#x8BB0;" horiz-adv-x="240" d=" M65,151 Q51,169 31,191 L42,199 Q49,192 59.5,180.5 Q70,169 77,160 M48,-19 L38,-6 Q45,3 44,17 L44,109 L17,109 L17,123 L58,123 L58,11 Q64,16 72.5,23.5 Q81,31 86,36 Q88,26 89,20 Q71,5 60,-6 Q53,-14 48,-19 M141,-17 Q104,-18 104,16 L104,110 L210,110 L210,179 L102,179 L102,193 L224,193 L224,96 L118,96 L118,20 Q117,-5 144,-3 L190,-3 Q217,-4 221,17 Q224,31 226,49 Q234,46 240,45 Q239,32 234,12 Q230,-18 192,-17"/> 
            <glyph glyph-name="贴" unicode="&#x8D34;" horiz-adv-x="240" d=" M108,-13 Q88,10 69,30 Q59,2 25,-25 Q20,-19 15,-13 Q44,7 54,28.5 Q64,50 64,89 L64,156 L76,156 L76,88 Q76,62 73,44 Q99,18 119,-3 M28,47 L28,193 L113,193 L113,48 L100,48 L100,180 L40,180 L40,47 M145,72 L145,3 L215,3 L215,72 M132,-25 L132,85 L168,85 L168,206 L182,206 L182,156 L240,156 L240,143 L182,143 L182,85 L228,85 L228,-25 L215,-25 L215,-10 L145,-10 L145,-25"/> 
            <glyph glyph-name="超" unicode="&#x8D85;" horiz-adv-x="239" d=" M142,82 L142,33 L212,33 L212,82 M173,115 L170,129 Q180,128 193,128 Q212,127 213,147 Q214,169 214,181 L167,181 Q166,153 158,137.5 Q150,122 128,109 Q125,115 120,120 Q139,131 146,143.5 Q153,156 154,181 L122,181 L122,193 L228,193 Q228,175 226,147 Q225,114 197,116 Q182,115 173,115 M130,20 L130,94 L225,94 L225,20 M25,157 L25,170 L63,170 L63,204 L76,204 L76,170 L110,170 L110,157 L76,157 L76,118 L115,118 L115,106 L83,106 L83,64 L114,64 L114,51 L83,51 L83,3 Q102,-5 134,-4 Q158,-5 188,-4.5 Q218,-4 239,-4 Q236,-12 235,-18 Q215,-18 183,-18 Q151,-18 130,-18 Q93,-17 74,-6.5 Q55,4 43,28 Q38,0 24,-25 Q20,-20 14,-16 Q26,6 30,28 Q34,50 34,88 L47,88 Q47,65 45,47 Q56,23 70,12 L70,106 L17,106 L17,118 L63,118 L63,157"/> 
            <glyph glyph-name="越" unicode="&#x8D8A;" horiz-adv-x="239" d=" M214,167 Q205,179 193,193 L202,199 Q219,182 224,174 M128,36 L118,48 Q125,54 124,68 L124,160 L167,160 Q167,179 167,205 L180,205 Q179,184 180,160 L236,160 L236,147 L181,147 Q184,102 190,78 Q202,99 212,126 L224,121 Q210,88 194,63 Q199,50 205,38 Q209,31 214,31 Q219,31 221,41 Q224,56 225,75 Q232,72 237,70 Q236,56 233,38 Q229,16 215,17 Q203,16 192,35 Q188,42 185,49 Q170,27 149,7 Q143,12 138,16 Q164,40 180,63 Q171,92 168,147 L137,147 L137,67 Q140,69 148,77 Q156,85 159,89 Q163,80 165,77 Q150,63 137,48 Q132,43 128,36 M25,157 L25,170 L63,170 L63,204 L76,204 L76,170 L110,170 L110,157 L76,157 L76,118 L115,118 L115,106 L83,106 L83,64 L111,64 L111,51 L83,51 L83,3 Q102,-5 134,-4 Q158,-5 188,-4.5 Q218,-4 239,-4 Q236,-12 235,-18 Q215,-18 183,-18 Q151,-18 130,-18 Q93,-17 74,-6.5 Q55,4 43,28 Q38,0 24,-25 Q20,-20 14,-16 Q26,6 30,28 Q34,50 34,88 L47,88 Q47,65 45,47 Q56,23 70,12 L70,106 L17,106 L17,118 L63,118 L63,157"/> 
            <glyph glyph-name="身" unicode="&#x8EAB;" horiz-adv-x="240" d=" M63,167 L63,142 L187,142 L187,167 M63,130 L63,104 L187,104 L187,130 M181,66 Q184,68 187,71 L187,92 L63,92 L63,66 M129,-21 Q128,-13 126,-7 Q142,-7 164,-7 Q188,-9 187,14 L187,53 L184,53 Q149,29 111,10 Q73,-9 26,-24 Q24,-18 18,-11 Q64,4 98,19 Q132,34 162,53 L18,53 L18,66 L49,66 L49,179 L104,179 Q108,194 111,205 L126,203 Q122,192 118,179 L201,179 L201,82 Q215,93 231,106 L240,96 Q220,79 201,65 L201,13 Q201,-21 170,-21 Q160,-21 148,-21 Q136,-21 129,-21"/> 
            <glyph glyph-name="轻" unicode="&#x8F7B;" horiz-adv-x="241" d=" M232,87 Q207,106 178,125 Q155,104 114,85 Q111,91 106,98 Q142,113 163,130.5 Q184,148 202,176 L117,176 L117,188 L217,188 L217,174 Q203,151 187,134 Q216,116 241,100 M116,62 L116,75 L228,75 L228,62 L179,62 L179,-1 L240,-1 L240,-14 L101,-14 L101,-1 L166,-1 L166,62 M18,158 L18,171 L45,171 Q50,189 55,206 L69,203 L59,171 L107,171 L107,158 L55,158 Q43,122 33,96 L64,96 L64,139 L76,139 L76,96 L101,96 L101,83 L76,83 L76,45 Q93,47 108,49 Q107,44 107,36 Q91,34 76,32 L76,-25 L63,-25 L63,31 Q39,28 17,25 L16,39 L63,44 L63,83 L20,83 L20,97 Q29,121 41,158"/> 
            <glyph glyph-name="边" unicode="&#x8FB9;" horiz-adv-x="239" d=" M61,152 Q55,160 46.5,172.5 Q38,185 31,195 L42,202 Q58,181 74,160 M26,-21 L16,-10 Q32,11 47,27 L47,108 L18,108 L18,122 L61,122 L61,28 Q86,-4 125,-3 Q147,-3 180,-3 Q213,-3 239,-2 Q236,-9 234,-17 Q214,-17 181,-17 Q148,-17 122,-16 Q100,-16 84,-9 Q68,-2 54,16 Q49,9 40.5,-1.5 Q32,-12 26,-21 M154,22 Q152,31 150,38 Q167,37 184,37 Q207,35 209,61.5 Q211,88 211.5,110.5 Q212,133 212,145 L147,145 Q144,96 131.5,68.5 Q119,41 88,17 Q81,25 77,28 Q107,50 118.5,75 Q130,100 132,145 L87,145 L87,159 L133,159 Q134,186 134,204 L149,204 Q149,185 147,159 L227,159 Q226,135 225,108.5 Q224,82 223,61 Q222,22 186,23 Q171,22 154,22"/> 
            <glyph glyph-name="这" unicode="&#x8FD9;" horiz-adv-x="239" d=" M159,167 Q150,183 139,199 L151,205 Q162,190 171,173 M57,150 Q41,174 27,192 L39,199 Q55,179 70,157 M24,-21 L15,-9 Q33,11 47,25 L47,107 L17,107 L17,121 L61,121 L61,25 Q82,-5 117,-4 Q142,-5 179,-5 Q216,-5 239,-4 Q236,-13 235,-19 Q204,-19 168,-18.5 Q132,-18 111,-17 Q75,-17 53,13 Q38,-2 24,-21 M84,151 L84,164 L234,164 L234,151 L212,151 Q197,107 172,76 L226,28 L215,16 Q187,42 162,65 Q134,36 89,14 Q84,21 80,27 Q124,47 151,75 Q125,98 97,122 L107,132 Q132,110 161,85 Q184,114 197,151"/> 
            <glyph glyph-name="适" unicode="&#x9002;" horiz-adv-x="240" d=" M59,149 Q44,172 29,192 L41,199 Q48,189 57,177 Q66,165 71,157 M115,82 L115,34 L206,34 L206,82 M24,-24 L15,-11 Q31,7 48,22 L48,106 L17,106 L17,120 L61,120 L61,21 Q81,-5 119,-4 Q141,-5 174.5,-5 Q208,-5 240,-4 Q237,-12 235,-18 Q214,-18 179,-18 Q144,-18 116,-18 Q94,-17 80.5,-11 Q67,-5 54,10 Q48,4 39.5,-5.5 Q31,-15 24,-24 M82,130 L82,142 L153,142 L153,177 Q126,176 94,175 L92,188 Q164,189 223,193 L226,180 Q198,178 167,177 L167,142 L239,142 L239,130 L167,130 L167,95 L220,95 L220,21 L101,21 L101,95 L153,95 L153,130"/> 
            <glyph glyph-name="选" unicode="&#x9009;" horiz-adv-x="240" d=" M60,153 Q47,169 28,189 L39,198 Q55,182 72,163 M24,-19 L15,-7 Q30,8 46,24 L46,107 L18,107 L18,121 L60,121 L60,25 Q81,-5 116,-4 Q141,-4 179,-4 Q217,-4 240,-4 Q237,-12 235,-18 Q205,-18 168,-18 Q131,-18 110,-17 Q74,-17 52,13 Q36,-5 24,-19 M96,120 Q89,123 83,126 Q102,161 111,195 L124,192 Q120,178 115,163 L152,163 L152,205 L166,205 L166,163 L226,163 L226,151 L166,151 L166,107 L237,107 L237,95 L183,95 L183,45 Q182,27 198,28 L206,28 Q219,27 222,43 Q223,52 224,66 Q232,62 237,60 Q236,49 234,39 Q231,15 210,16 L192,16 Q170,15 169,43 L169,95 L134,95 Q134,62 124.5,44.5 Q115,27 89,12 L80,23 Q103,36 112,51.5 Q121,67 121,95 L77,95 L77,107 L152,107 L152,151 L110,151 Q103,134 96,120"/> 
            <glyph glyph-name="都" unicode="&#x90FD;" horiz-adv-x="240" d=" M55,74 L55,46 L117,46 L117,74 M55,34 L55,5 L117,5 L117,34 M159,-25 L159,191 L235,191 L235,177 L207,107 Q240,77 239,46 Q239,7 207,6 Q196,6 185,6 Q183,14 181,21 Q191,20 203,20 Q225,20 224,46 Q226,71 192,104 L220,178 L173,178 L173,-25 M28,160 L28,172 L67,172 L67,204 L81,204 L81,172 L113,172 L113,160 L81,160 L81,128 L96,128 Q118,152 134,179 L146,173 Q130,148 114,128 L146,128 L146,116 L102,116 Q87,100 69,86 L130,86 L130,-22 L117,-22 L117,-8 L55,-8 L55,-22 L42,-22 L42,67 Q32,60 21,53 Q18,59 13,66 Q53,87 83,116 L17,116 L17,128 L67,128 L67,160"/> 
            <glyph glyph-name="配" unicode="&#x914D;" horiz-adv-x="240" d=" M68,178 L68,143 L86,143 L86,178 M117,132 L98,132 L98,97 Q97,84 110,84 L117,84 M37,36 L37,4 L117,4 L117,36 M48,61 Q43,66 38,68 Q49,79 52.5,90 Q56,101 56,122 L56,132 L37,132 L37,47 L117,47 L117,74 L105,74 Q86,73 86,94 L86,132 L68,132 L68,123 Q68,99 64,86 Q60,73 48,61 M166,97 L166,15 Q164,-7 187,-5 L201,-5 Q222,-6 224,14 Q227,29 228,46 Q234,44 240,42 Q239,23 237,11 Q233,-20 202,-18 L183,-18 Q152,-19 153,13 L153,110 L214,110 L214,178 L149,178 L149,190 L227,190 L227,97 M20,178 L20,190 L134,190 L134,178 L98,178 L98,143 L129,143 L129,-23 L117,-23 L117,-8 L37,-8 L37,-23 L25,-23 L25,143 L56,143 L56,178"/> 
            <glyph glyph-name="酷" unicode="&#x9177;" horiz-adv-x="240" d=" M63,178 L63,143 L79,143 L79,178 M107,132 L90,132 L90,97 Q90,84 101,84 L107,84 M36,37 L36,3 L107,3 L107,37 M156,56 L156,4 L216,4 L216,56 M45,61 Q40,66 36,68 Q46,79 49,90 Q52,101 52,122 L52,132 L36,132 L36,48 L107,48 L107,74 L97,74 Q79,73 79,94 L79,132 L63,132 L63,123 Q63,99 59.5,86 Q56,73 45,61 M142,119 Q137,122 130,124 Q144,156 150,192 L163,190 Q160,176 157,165 L183,165 L183,204 L196,204 L196,165 L232,165 L232,153 L196,153 L196,107 L240,107 L240,95 L129,95 L129,107 L183,107 L183,153 L153,153 Q149,136 142,119 M143,-26 L143,68 L228,68 L228,-26 L216,-26 L216,-8 L156,-8 L156,-26 M20,178 L20,190 L123,190 L123,178 L91,178 L91,143 L118,143 L118,-23 L107,-23 L107,-8 L36,-8 L36,-23 L25,-23 L25,143 L51,143 L51,178"/> 
            <glyph glyph-name="量" unicode="&#x91CF;" horiz-adv-x="240" d=" M56,88 L56,71 L121,71 L121,88 M199,88 L134,88 L134,71 L199,71 M56,61 L56,44 L121,44 L121,61 M134,61 L134,44 L199,44 L199,61 M18,112 L18,122 L239,122 L239,112 M55,185 L55,169 L201,169 L201,185 M55,160 L55,145 L201,145 L201,160 M42,136 L42,194 L214,194 L214,136 M43,34 L43,98 L213,98 L213,34 L134,34 L134,18 L222,18 L222,8 L134,8 L134,-8 L240,-8 L240,-18 L17,-18 L17,-8 L121,-8 L121,8 L34,8 L34,18 L121,18 L121,34"/> 
            <glyph glyph-name="金" unicode="&#x91D1;" horiz-adv-x="239" d=" M80,9 Q68,24 50,43 L61,52 Q77,35 91,18 M173,9 L162,18 Q178,33 194,52 L206,43 Q190,26 173,9 M232,118 Q166,143 129,188 Q92,145 25,115 Q21,121 17,128 Q96,163 126,207 L142,204 L137,198 Q179,152 239,132 Q235,124 232,118 M55,114 L55,127 L198,127 L198,114 L135,114 L135,76 L218,76 L218,63 L135,63 L135,-2 L233,-2 L233,-16 L23,-16 L23,-2 L121,-2 L121,63 L38,63 L38,76 L121,76 L121,114"/> 
            <glyph glyph-name="锁" unicode="&#x9501;" horiz-adv-x="240" d=" M128,148 Q115,168 102,185 L113,192 Q126,175 139,156 M205,147 L194,155 Q210,174 221,193 L232,186 Q220,167 205,147 M24,121 Q20,127 15,132 Q39,163 52,205 L65,201 Q59,184 52,169 L93,169 L93,157 L46,157 Q36,139 24,121 M231,-24 Q197,4 165,28 Q150,-7 96,-26 Q93,-19 89,-13 Q125,0 141.5,17.5 Q158,35 160,64 Q161,78 161,107 L174,107 Q174,77 173,63.5 Q172,50 169,40 Q207,14 240,-11 M33,115 L33,128 L87,128 L87,115 L61,115 L61,78 L91,78 L91,66 L61,66 L61,8 L92,32 Q94,24 96,18 Q80,7 61,-7 Q56,-11 51,-16 L42,-6 Q49,1 49,11 L49,66 L17,66 L17,78 L49,78 L49,115 M106,32 L106,136 L160,136 L160,204 L174,204 L174,136 L229,136 L229,32 L215,32 L215,123 L119,123 L119,32"/> 
            <glyph glyph-name="随" unicode="&#x968F;" horiz-adv-x="242" d=" M109,149 Q106,160 101.5,173.5 Q97,187 93,198 L105,201 Q108,191 113,177.5 Q118,164 121,153 M159,93 L159,68 L209,68 L209,93 M159,129 L159,104 L209,104 L209,129 M79,-24 L70,-13 Q87,7 102,21 L102,110 L84,110 L84,122 L115,122 L115,21 Q124,6 136.5,0 Q149,-6 170,-6 Q204,-7 242,-6 Q239,-13 237,-20 Q215,-20 199,-19.5 Q183,-19 168,-19 Q145,-19 132,-13 Q119,-7 107,9 Q95,-4 79,-24 M26,-26 L26,188 L85,188 L85,175 L66,111 Q85,87 85,54 Q85,25 65,23 Q57,22 50,22 Q49,28 46,36 Q54,35 59,36 Q73,36 73,55 Q74,81 53,108 L73,176 L39,176 L39,-26 M146,11 L146,115 Q137,102 126,90 Q123,95 119,102 Q143,128 161,166 L132,166 L132,177 L166,177 Q171,190 175,205 L188,202 Q184,189 179,177 L236,177 L236,166 L174,166 Q168,152 161,140 L222,140 L222,37 Q224,12 199,12 Q189,12 181,12 Q181,19 179,25 Q189,24 197,25 Q210,23 209,39 L209,57 L159,57 L159,11"/> 
            <glyph glyph-name="集" unicode="&#x96C6;" horiz-adv-x="239" d=" M63,165 L63,144 L130,144 L130,165 M63,133 L63,113 L130,113 L130,133 M63,102 L63,82 L130,82 L130,102 M21,35 L21,46 L121,46 L121,62 L135,62 L135,46 L237,46 L237,35 L147,35 Q164,21 185,12 Q206,3 239,-4 Q235,-12 232,-17 Q198,-8 175.5,3.5 Q153,15 135,32 L135,-26 L121,-26 L121,32 Q103,15 80.5,2.5 Q58,-10 24,-19 Q22,-13 17,-6 Q48,2 70,11.5 Q92,21 109,35 M50,62 L50,149 Q38,135 24,122 Q20,129 17,134 Q51,164 72,204 L84,199 Q77,187 70,176 L140,176 Q134,187 126,199 L138,205 Q146,193 153,181 L143,176 L230,176 L230,165 L144,165 L144,144 L219,144 L219,133 L144,133 L144,113 L219,113 L219,102 L144,102 L144,82 L230,82 L230,70 L63,70 L63,62"/> 
            <glyph glyph-name="高" unicode="&#x9AD8;" horiz-adv-x="239" d=" M91,41 L91,16 L165,16 L165,41 M68,138 L68,115 L188,115 L188,138 M17,169 L17,181 L123,181 Q121,192 117,203 L132,205 L138,181 L239,181 L239,169 M78,4 L78,53 L178,53 L178,4 M29,-24 L29,84 L226,84 L226,5 Q228,-22 201,-23 Q189,-23 172,-23 L170,-8 Q182,-9 196,-9 Q214,-10 213,6 L213,72 L43,72 L43,-24 M55,104 L55,150 L201,150 L201,104"/> 
            <glyph glyph-name="，" unicode="&#xFF0C;" horiz-adv-x="73" d=" M55,13 L73,13 L73,-5 Q73,-31 64,-51 L55,-51 Q63,-31 63,-5 L55,-5"/> 
        </font>
</defs>
</svg>
