<?xml version="1.0" standalone="no"?>
<!DOCTYPE svg PUBLIC "-//W3C//DTD SVG 1.1//EN" "http://www.w3.org/Graphics/SVG/1.1/DTD/svg11.dtd" >
<svg xmlns="http://www.w3.org/2000/svg">
    <defs>
        <font id="">
            <font-face font-family=""
                       units-per-em="256"
                       ascent="243"
                       descent="-69"
                       bbox="-18 -69 270 243"
                    />
            <missing-glyph horiz-adv-x="0" />
            
            <glyph glyph-name="!" unicode="&#x21;" horiz-adv-x="90" d=" M65,30 Q87,28 88,8 Q87,-11 65,-13 Q43,-11 42,8 Q43,28 65,30 M71,50 L60,50 Q57,105 47,141 Q41,166 41,176 Q41,194 66,194 Q90,194 90,176 Q90,169 84,141 Q76,110 71,50"/> 
            <glyph glyph-name="," unicode="&#x2C;" horiz-adv-x="64" d=" M22,-46 L15,-37 Q39,-24 39,-14 Q39,-8 32,-7 Q14,-4 14,10 Q16,31 38,33 Q62,32 63,4 Q64,-27 22,-46"/> 
            <glyph glyph-name="/" unicode="&#x2F;" horiz-adv-x="127" d=" M127,190 L34,-9 L12,-9 L105,190"/> 
            <glyph glyph-name="T" unicode="&#x54;" horiz-adv-x="172" d=" M42,-9 L42,2 Q70,0 68,30 L68,177 L57,177 Q27,179 14,116 L2,118 L6,190 L168,190 L172,119 L160,117 Q145,180 117,177 L105,177 L105,29 Q103,0 132,2 L132,-9"/> 
            <glyph glyph-name="a" unicode="&#x61;" horiz-adv-x="142" d=" M125,89 L125,16 Q124,0 142,1 L142,-8 Q138,-8 130,-9 Q109,-12 104,-12 Q90,-12 90,3 Q75,-13 50,-13 Q12,-12 11,25 Q10,73 89,76 L89,90 Q89,123 70,122 Q60,122 55,118 Q49,114 53,108 Q56,106 56,99 Q56,84 37,83 Q20,84 19,101 Q21,133 72,134 Q125,134 125,89 M89,41 L89,63 Q48,62 48,27 Q49,3 64,2 Q87,4 89,41"/> 
            <glyph glyph-name="、" unicode="&#x3001;" horiz-adv-x="100" d=" M20,48 L23,54 Q100,39 99,6 Q97,-16 83,-18 Q78,-18 75,-13 Q54,21 20,48"/> 
            <glyph glyph-name="一" unicode="&#x4E00;" horiz-adv-x="247" d=" M12,86 L12,93 L184,93 L207,123 L244,94 Q247,93 247,91 Q245,87 239,86"/> 
            <glyph glyph-name="万" unicode="&#x4E07;" horiz-adv-x="248" d=" M8,175 L8,181 L196,181 L215,206 L246,183 Q248,181 248,179 Q248,176 240,175 L115,175 Q115,137 113,121 L176,121 L187,141 L223,127 Q228,126 228,121 Q228,116 216,107 Q216,67 211,26 Q210,-21 148,-24 Q150,4 107,12 L108,16 L154,13 Q175,13 177,33 Q180,72 182,114 L112,114 Q108,27 13,-26 L10,-23 Q51,20 64,61 Q79,103 79,175"/> 
            <glyph glyph-name="不" unicode="&#x4E0D;" horiz-adv-x="244" d=" M14,171 L14,177 L195,177 L212,201 L243,179 Q244,178 244,176 Q243,171 236,171 L164,171 Q158,159 144,136 Q141,132 140,130 L148,129 Q153,129 153,126 Q153,121 143,117 L143,88 Q143,71 145,-6 Q145,-3 145,-12 Q145,-21 138,-22 Q122,-24 108,-24 Q108,-15 109,2 Q110,69 110,80 L110,93 Q67,48 12,25 L9,29 Q89,99 120,171 M161,110 Q200,99 221,85 Q242,71 242,55 Q241,36 223,35 Q213,35 208,45 Q191,79 159,107"/> 
            <glyph glyph-name="专" unicode="&#x4E13;" horiz-adv-x="246" d=" M28,155 L28,161 L87,161 L90,174 Q93,190 93,205 L137,197 Q141,196 141,193 Q140,187 128,185 L122,161 L181,161 L197,182 L226,162 Q228,162 228,159 Q227,155 219,155 L120,155 L110,116 L197,116 L214,138 L244,118 Q246,116 246,114 Q245,111 238,110 L109,110 L99,74 L160,74 L173,90 L208,68 Q212,67 212,64 Q213,58 198,56 Q178,40 147,24 Q192,12 193,-6 Q192,-23 175,-26 Q167,-26 158,-19 Q116,13 61,31 L62,35 Q105,33 133,27 L160,68 L101,68 L92,54 Q91,54 89,55 Q68,63 58,69 Q55,71 58,75 Q66,79 69,89 L74,110 L11,110 L11,116 L76,116 L85,155"/> 
            <glyph glyph-name="个" unicode="&#x4E2A;" horiz-adv-x="254" d=" M9,81 L7,84 Q61,129 91,180 Q100,195 103,208 L147,200 Q152,198 152,196 Q152,190 139,188 Q188,142 254,132 L253,128 Q241,124 233,93 Q163,121 136,182 Q89,111 9,81 M111,84 Q111,119 110,135 L151,132 Q155,132 155,129 Q156,123 144,119 L144,61 Q144,55 145,23 Q145,-8 145,-14 Q145,-21 141,-21 Q126,-24 109,-24 Q111,18 111,61"/> 
            <glyph glyph-name="乎" unicode="&#x4E4E;" horiz-adv-x="249" d=" M10,74 L10,81 L112,81 L112,168 Q93,167 50,166 Q31,165 20,165 L19,171 Q110,183 166,198 Q167,198 169,199 Q187,204 199,209 L226,185 Q229,183 229,180 Q230,176 221,176 Q218,176 211,178 Q178,173 144,170 L144,81 L196,81 L214,105 L246,82 Q249,81 248,79 Q248,74 241,74 L144,74 L144,58 Q144,29 145,5 Q148,-23 97,-26 Q98,-1 52,7 L52,10 L101,8 Q112,7 112,18 L112,74 M42,154 L45,156 Q95,132 93,109 Q91,91 72,89 Q62,89 60,100 Q57,127 42,154 M159,86 L155,88 Q177,135 180,160 L216,145 Q220,143 220,140 Q220,135 211,134 L207,134 Q188,108 159,86"/> 
            <glyph glyph-name="争" unicode="&#x4E89;" horiz-adv-x="249" d=" M8,88 L8,94 L105,94 L105,129 L50,129 L50,132 Q44,127 29,117 Q23,112 20,110 L17,113 Q39,141 54,179 Q61,196 62,208 L104,199 Q109,199 109,196 Q109,190 96,188 Q93,184 90,178 L131,178 L143,195 L178,175 Q182,173 182,170 Q183,165 167,162 Q154,150 133,135 L174,135 L183,153 L216,140 Q220,138 220,135 Q220,131 210,123 L210,97 L223,113 L247,95 Q249,94 249,92 Q249,89 240,88 L210,88 Q210,82 210,66 Q211,46 211,38 Q211,32 207,32 Q195,30 179,30 L179,46 L138,46 Q138,22 139,7 Q138,-21 91,-25 Q94,1 49,6 L50,10 L92,9 Q106,8 105,21 L105,46 L29,46 L29,52 L105,52 L105,88 M134,172 L87,172 Q72,151 54,135 L114,135 M138,79 L138,52 L179,52 L179,88 L138,88 M179,129 L138,129 L138,94 L179,94"/> 
            <glyph glyph-name="人" unicode="&#x4EBA;" horiz-adv-x="251" d=" M97,201 L143,196 Q148,196 148,193 Q148,187 135,182 Q135,178 135,174 Q161,57 251,16 L248,10 Q227,10 208,-22 Q143,28 132,141 Q128,18 8,-25 L6,-21 Q95,46 98,162 Q98,179 97,201"/> 
            <glyph glyph-name="亿" unicode="&#x4EBF;" horiz-adv-x="249" d=" M130,28 Q130,16 150,15 L187,15 Q210,14 214,28 L231,80 L235,80 L237,33 Q237,23 243,18 Q249,16 249,6 Q246,-12 210,-13 L148,-13 Q96,-13 95,20 Q93,59 172,167 L90,167 L90,173 L169,173 L185,193 L221,171 Q224,169 224,166 Q225,158 205,156 Q130,62 130,28 M5,69 L3,72 Q34,126 49,183 Q51,192 54,207 L97,197 Q102,197 102,193 Q102,188 88,185 Q78,160 64,137 L77,135 Q81,135 81,132 Q80,126 71,123 L71,-12 Q72,-20 63,-21 Q51,-23 37,-23 Q38,11 39,70 L39,102 Q24,84 5,69"/> 
            <glyph glyph-name="会" unicode="&#x4F1A;" horiz-adv-x="251" d=" M76,15 L171,17 Q161,36 147,55 L150,58 Q215,28 216,0 Q214,-20 195,-22 Q188,-23 183,-11 Q180,-2 177,4 Q99,-11 59,-16 Q58,-28 52,-28 Q48,-28 47,-22 L36,14 Q55,14 59,21 Q73,40 84,68 L16,68 L16,74 L188,74 L206,98 L237,75 Q239,74 239,72 Q239,68 231,68 L131,68 Q98,31 76,15 M9,86 L6,91 Q66,136 91,180 Q99,194 103,206 L148,196 Q154,195 153,191 Q153,187 138,185 Q185,144 251,136 L250,130 Q233,126 222,97 Q164,124 133,178 Q88,117 9,86 M69,109 L69,115 L138,115 L153,135 L181,115 Q183,115 183,113 Q183,110 175,109"/> 
            <glyph glyph-name="伦" unicode="&#x4F26;" horiz-adv-x="253" d=" M140,21 Q139,8 152,9 L195,9 Q205,8 209,20 L223,58 L227,57 L228,23 Q227,14 233,11 Q240,5 240,0 Q239,-17 204,-17 L136,-17 Q108,-18 109,10 L109,76 Q109,80 109,89 Q108,101 108,107 Q93,95 75,83 L72,86 Q107,131 124,172 Q133,189 135,206 L175,198 Q179,197 179,194 Q180,189 168,187 Q200,148 253,133 L252,128 Q238,125 227,97 Q182,125 164,179 Q144,142 122,120 L145,118 Q151,118 151,114 Q152,111 140,105 L140,58 Q176,85 194,110 L223,86 Q226,84 226,81 Q225,74 210,78 Q185,63 140,48 M8,73 L5,76 Q33,128 48,180 Q53,197 54,207 L94,198 Q94,198 95,198 Q99,196 99,194 Q99,189 87,186 Q77,163 63,138 L73,137 Q78,137 78,134 Q78,129 67,124 L67,-12 Q67,-21 60,-22 Q48,-24 35,-24 Q35,0 36,40 Q36,62 36,69 L36,101 Q23,86 8,73"/> 
            <glyph glyph-name="体" unicode="&#x4F53;" horiz-adv-x="253" d=" M95,26 L95,32 L136,32 Q136,50 136,61 L136,94 Q116,59 65,22 L65,-12 Q66,-20 57,-22 Q45,-24 33,-24 Q34,-1 34,19 Q34,39 34,61 L34,101 Q21,86 7,74 L4,76 Q31,128 44,172 Q50,195 51,208 L92,197 Q96,196 96,193 Q97,189 84,186 Q74,162 61,140 L70,138 Q76,138 75,134 Q76,130 65,126 L65,29 Q111,89 126,140 L77,140 L77,146 L136,146 L136,151 Q136,188 135,204 L173,201 Q177,201 177,197 Q177,192 167,189 L167,146 L199,146 L215,168 L245,147 Q247,146 247,144 Q246,140 238,140 L177,140 Q202,87 253,59 L252,55 Q236,48 223,26 Q181,69 171,140 L167,140 L167,66 Q167,55 167,32 L176,32 L189,51 L214,33 Q216,32 216,30 Q215,27 208,26 L167,26 Q167,20 167,8 Q168,-6 168,-14 Q169,-21 162,-22 Q146,-24 135,-24 Q135,12 136,26"/> 
            <glyph glyph-name="值" unicode="&#x503C;" horiz-adv-x="251" d=" M72,-11 L72,-4 L95,-4 L95,90 Q95,124 94,147 L131,138 L141,138 L142,165 L82,165 L82,171 L142,171 L142,172 Q144,182 142,205 L178,202 Q182,202 183,199 Q183,193 173,190 L172,171 L208,171 L222,190 L248,172 Q250,172 250,169 Q249,166 242,165 L172,165 L170,138 L186,138 L195,154 L227,141 Q231,139 231,136 Q231,130 222,125 L222,-2 L233,11 L250,-3 Q251,-5 251,-6 Q251,-11 243,-11 M8,73 L6,76 Q32,123 42,170 Q42,171 43,174 Q48,198 48,206 L88,197 Q92,197 93,194 Q94,189 82,185 Q72,158 60,137 L71,135 Q77,135 76,132 Q77,128 66,121 L66,-12 Q67,-20 59,-21 Q47,-24 34,-23 Q34,-11 35,10 Q36,52 36,62 L36,101 Q23,85 8,73 M125,24 L125,-4 L191,-4 L191,24 M191,132 L125,132 L125,102 L191,102 M125,60 L125,30 L191,30 L191,60 M125,96 L125,66 L191,66 L191,96"/> 
            <glyph glyph-name="全" unicode="&#x5168;" horiz-adv-x="252" d=" M66,106 L66,112 L145,112 L161,133 L189,113 Q191,112 191,110 Q191,107 183,106 L142,106 L142,55 L167,55 L185,78 L215,56 Q216,55 216,53 Q217,50 208,49 L142,49 L142,-6 L192,-6 L210,17 L243,-5 Q244,-5 244,-7 Q244,-12 237,-12 L12,-12 L12,-6 L110,-6 L110,49 L42,49 L42,55 L110,55 L110,106 M10,83 L8,87 Q59,127 88,175 Q99,191 103,206 L147,198 Q152,197 152,194 Q152,188 139,186 Q182,145 252,134 L251,130 Q234,123 225,97 Q159,125 135,180 Q94,119 10,83"/> 
            <glyph glyph-name="内" unicode="&#x5185;" horiz-adv-x="240" d=" M109,205 L151,202 Q154,202 154,198 Q153,192 143,189 L143,179 Q143,167 142,157 L192,157 L202,175 L236,162 Q240,160 240,157 Q240,151 230,145 L230,88 Q230,79 230,55 Q231,25 231,10 Q233,-18 181,-24 Q182,1 144,9 L145,13 L184,11 Q198,11 198,24 L198,151 L142,151 Q141,127 136,109 Q194,89 192,64 Q191,43 171,42 Q163,42 160,51 Q152,82 134,102 Q123,58 66,26 L62,29 Q111,83 109,151 L59,151 L59,-13 Q59,-21 52,-22 Q34,-24 25,-24 Q25,0 26,52 Q26,66 26,68 L26,119 Q26,154 25,170 L66,157 L110,157 L110,167 Q110,174 109,189 Q109,201 109,205"/> 
            <glyph glyph-name="几" unicode="&#x51E0;" horiz-adv-x="249" d=" M184,19 Q184,11 192,11 L203,11 Q215,10 220,28 L232,72 L235,71 L238,30 Q239,15 244,11 Q249,7 249,0 Q247,-17 217,-18 L176,-18 Q150,-18 150,8 L150,180 L94,180 L94,125 Q99,13 9,-25 L7,-22 Q64,32 61,126 L61,140 Q61,144 60,160 Q59,181 59,197 L98,186 L144,186 L154,206 L191,191 Q194,189 194,186 Q194,180 184,173"/> 
            <glyph glyph-name="剧" unicode="&#x5267;" horiz-adv-x="250" d=" M31,152 Q31,171 31,192 L65,184 L113,184 L121,198 L150,186 Q153,185 153,183 Q154,177 145,172 L145,166 Q145,155 146,136 Q147,130 141,130 Q130,127 116,126 L116,136 L60,136 Q60,112 57,93 L85,93 L85,94 Q85,100 85,111 Q84,121 84,127 L118,124 Q123,123 123,120 Q123,116 113,111 L113,93 L121,93 L134,111 L160,94 Q161,93 161,91 Q161,88 153,87 L113,87 L113,54 L115,54 L122,68 L151,58 Q155,57 155,54 Q155,48 146,43 L146,35 Q146,21 146,-2 Q147,-9 141,-10 Q132,-13 117,-13 L117,0 L81,0 L81,-10 Q81,-17 75,-18 Q63,-21 52,-21 Q53,10 53,19 L53,62 L84,54 L85,54 L85,87 L56,87 Q48,32 11,-8 L8,-5 Q32,61 31,145 M208,22 L208,153 Q208,193 207,205 L243,201 Q249,201 249,198 Q250,192 238,188 L238,107 Q238,100 238,65 Q239,19 239,6 Q241,-19 196,-24 Q198,1 165,5 L166,9 L195,8 Q209,7 208,22 M161,175 L196,172 Q200,172 201,169 Q201,165 190,160 L190,46 Q190,38 184,37 Q174,34 161,34 Q162,67 162,117 L162,131 Q162,158 161,175 M116,177 L61,177 L61,151 Q61,150 61,147 Q60,144 60,142 L116,142 M117,48 L81,48 L81,5 L117,5"/> 
            <glyph glyph-name="动" unicode="&#x52A8;" horiz-adv-x="246" d=" M148,205 L188,202 Q193,201 193,198 Q193,193 182,188 L182,164 Q182,152 182,141 L199,141 L209,159 L242,145 Q246,144 246,140 Q246,134 234,129 Q234,71 230,21 Q230,-19 179,-23 Q181,0 150,9 L151,13 L180,11 Q197,9 198,29 Q203,94 203,135 L181,135 Q184,12 79,-27 L76,-23 Q149,27 149,135 L125,135 L125,141 L149,141 Q149,147 149,152 L149,167 Q149,192 148,205 M10,113 L10,120 L93,120 L108,140 L134,120 Q135,120 135,118 Q135,113 128,113 L85,113 Q64,74 41,49 L90,54 Q86,66 77,84 L79,86 Q127,64 125,45 Q124,25 106,22 Q96,22 95,32 Q95,33 94,34 Q93,38 93,42 Q71,31 36,18 Q33,6 28,6 Q25,6 24,10 L11,47 Q26,49 31,62 Q40,82 47,113 M24,166 L24,173 L81,173 L95,192 L120,173 Q122,173 122,170 Q122,167 114,166"/> 
            <glyph glyph-name="区" unicode="&#x533A;" horiz-adv-x="247" d=" M65,-4 L49,-22 Q36,-14 21,-2 Q19,-1 19,0 Q19,1 21,2 Q27,7 27,14 L27,135 Q27,177 26,192 L69,182 L192,182 L210,204 L238,183 Q241,182 241,180 Q241,177 233,176 L61,176 L61,0 L195,0 L213,24 L244,1 Q247,0 246,0 Q246,-4 239,-4 M76,144 L79,148 Q106,136 143,113 L152,129 Q161,149 166,167 L206,155 Q209,154 209,150 Q210,145 195,143 Q184,117 169,96 Q171,94 175,92 Q181,87 190,80 Q213,61 213,46 Q212,24 195,22 Q188,22 179,35 Q167,54 151,72 Q117,33 66,9 L64,13 Q102,48 132,94 Q106,120 76,144"/> 
            <glyph glyph-name="合" unicode="&#x5408;" horiz-adv-x="252" d=" M46,85 L88,75 L165,75 L176,93 L208,78 Q212,77 212,74 Q213,68 202,62 L202,33 Q202,7 203,-12 Q204,-19 197,-20 Q192,-21 180,-22 Q173,-23 170,-23 L170,-1 L79,-1 L79,-13 Q80,-21 71,-22 Q63,-24 46,-24 Q46,-7 47,17 Q47,25 47,27 L47,40 Q47,69 46,85 M9,83 L7,88 Q61,128 92,180 Q100,194 103,206 L146,196 Q150,196 150,193 Q150,187 137,185 Q137,184 137,184 Q181,142 252,134 L252,130 Q237,124 228,96 Q160,119 132,175 Q105,135 66,112 L141,112 L158,133 L186,113 Q187,112 187,110 Q187,107 179,106 L56,106 Q36,94 9,83 M170,69 L79,69 L79,3 L170,3"/> 
            <glyph glyph-name="员" unicode="&#x5458;" horiz-adv-x="231" d=" M196,171 Q196,168 196,163 Q197,152 197,142 Q198,136 192,135 Q182,132 165,132 L165,142 L91,142 L91,136 Q92,130 86,129 Q73,126 60,126 Q60,137 61,152 Q61,157 61,159 L61,170 Q61,180 60,197 L97,189 L160,189 L170,205 L201,193 Q205,191 205,188 Q205,184 196,177 M214,74 Q214,71 214,63 Q215,48 215,36 Q217,30 209,29 Q199,26 182,26 L182,109 L73,109 L73,28 Q73,21 67,19 Q55,16 41,16 Q41,31 42,52 Q42,58 42,60 L42,80 Q42,82 42,93 Q41,114 41,124 L81,115 L177,115 L187,131 L219,119 Q223,116 223,114 Q223,107 214,102 M111,97 L152,91 Q156,91 156,87 Q157,83 145,78 Q144,50 136,30 Q231,18 230,-6 Q229,-26 214,-28 Q206,-29 200,-22 Q178,3 133,23 Q116,-19 13,-25 L12,-21 Q106,-3 110,58 Q114,83 111,97 M165,183 L91,183 L91,148 L165,148"/> 
            <glyph glyph-name="唱" unicode="&#x5531;" horiz-adv-x="249" d=" M238,38 Q238,35 238,24 Q239,-1 239,-14 Q239,-20 233,-21 Q232,-21 229,-22 Q213,-24 206,-24 L206,-7 L133,-7 L133,-13 Q133,-19 127,-21 Q123,-22 114,-23 Q104,-24 100,-24 Q101,-10 101,24 L101,51 Q101,66 101,91 L141,81 L200,81 L211,99 L244,86 Q248,84 248,81 Q249,76 238,70 M91,119 Q91,88 91,75 Q91,59 92,37 Q92,30 86,30 Q76,27 63,27 L63,46 L46,46 L46,29 Q47,22 38,21 Q26,18 17,18 Q18,48 18,96 L18,126 Q18,154 18,184 L50,175 L59,175 L67,191 L97,179 Q101,177 101,174 Q101,169 91,163 M228,160 Q228,158 228,148 Q229,125 229,110 Q230,104 223,103 Q212,100 197,100 L197,110 L140,110 L140,108 Q140,101 134,100 Q118,98 109,98 Q109,114 110,136 Q110,142 110,144 L110,160 Q110,169 109,195 L147,187 L193,187 L204,204 L234,191 Q238,189 238,186 Q238,181 228,175 M133,34 L133,-1 L206,-1 L206,34 M206,75 L133,75 L133,40 L206,40 M63,169 L46,169 L46,52 L63,52 M140,145 L140,116 L197,116 L197,145 M197,181 L140,181 L140,152 L197,152"/> 
            <glyph glyph-name="喜" unicode="&#x559C;" horiz-adv-x="248" d=" M46,134 L84,126 L167,126 L176,141 L207,130 Q211,128 211,125 Q211,122 203,115 L203,110 Q203,109 203,103 Q204,95 204,92 Q204,85 198,84 Q187,81 173,81 L179,80 Q185,79 184,76 Q184,72 174,70 Q166,62 155,56 L197,56 L215,80 L247,57 Q248,56 248,54 Q248,51 240,50 L8,50 L8,56 L82,56 Q81,58 79,62 Q76,72 70,81 Q62,80 45,80 Q45,84 46,97 Q46,106 46,108 L46,111 Q46,122 46,134 M41,39 L81,32 L172,32 L181,47 L214,35 Q217,35 217,31 Q218,26 209,20 L209,15 Q209,10 210,-13 Q210,-20 204,-21 Q193,-24 176,-24 L176,-8 L75,-8 L75,-13 Q75,-22 68,-22 Q60,-24 41,-24 Q41,-19 42,-6 Q42,5 42,9 L42,15 Q42,17 42,25 Q41,35 41,39 M107,204 L146,201 Q152,201 151,198 Q151,194 141,188 L141,177 L190,177 L206,199 L237,178 Q239,178 239,175 Q239,172 231,172 L141,172 L141,149 L182,149 L198,169 L226,150 Q228,149 228,147 Q227,144 220,143 L28,143 L28,149 L108,149 L108,168 L108,172 L14,172 L14,177 L107,177 Q107,187 107,204 M176,26 L75,26 L75,-2 L176,-2 M171,120 L78,120 L78,94 L171,94 M78,89 Q78,88 77,86 Q77,85 77,85 Q107,82 108,69 Q108,61 100,56 L141,56 Q147,72 148,87 L171,82 L171,89"/> 
            <glyph glyph-name="在" unicode="&#x5728;" horiz-adv-x="249" d=" M13,158 L13,164 L81,164 Q82,166 83,168 Q84,171 84,172 Q89,187 90,204 L135,194 Q139,194 139,190 Q139,185 125,182 Q124,179 122,173 Q119,167 118,164 L197,164 L215,188 L246,166 Q248,165 248,162 Q247,159 240,158 L115,158 Q98,120 79,98 L79,-12 Q79,-21 72,-22 Q56,-24 46,-24 Q48,38 48,61 L48,67 Q29,52 5,39 L3,42 Q30,72 48,98 L48,116 L58,115 Q66,127 77,153 Q78,156 79,158 M138,144 L179,141 Q183,141 183,138 Q184,132 172,128 L172,84 L194,84 L210,104 L238,85 Q239,84 239,82 Q240,78 231,78 L172,78 L172,-2 L198,-2 L216,20 L247,-1 Q248,-3 248,-4 Q249,-8 240,-8 L84,-8 L84,-2 L139,-2 L139,78 L93,78 L93,84 L139,84 L139,93 Q139,128 138,144"/> 
            <glyph glyph-name="坞" unicode="&#x575E;" horiz-adv-x="251" d=" M139,85 L205,85 L215,101 L248,89 Q251,89 251,85 Q251,81 242,73 Q242,70 241,62 Q240,25 238,13 Q235,-19 188,-24 Q187,0 153,5 L154,9 L192,8 Q204,8 206,20 Q207,33 209,79 L144,79 L133,64 Q112,73 102,80 Q98,83 102,87 Q108,91 108,98 L108,132 Q108,168 107,182 L142,173 Q145,190 144,208 L179,204 Q183,204 183,201 Q182,196 173,194 Q162,180 153,173 L190,173 L200,189 L231,177 Q235,175 235,173 Q234,167 226,162 Q226,158 225,149 Q224,136 223,127 Q223,101 181,97 Q182,116 153,123 L154,127 L182,126 Q191,124 193,136 Q193,142 194,150 Q195,160 195,166 L139,166 M8,128 L8,134 L37,134 L37,152 Q37,158 36,179 Q36,198 36,203 L71,200 Q76,200 77,196 Q77,191 66,186 L66,134 L71,134 L82,150 L102,135 Q104,134 104,132 Q104,129 96,128 L66,128 L66,57 Q82,60 101,66 L103,62 Q65,34 32,15 Q29,4 25,4 Q23,4 20,9 L7,45 Q8,45 10,45 Q19,46 37,50 L37,128 M84,33 L84,39 L156,39 L172,60 L200,40 Q202,39 202,37 Q202,34 194,33"/> 
            <glyph glyph-name="大" unicode="&#x5927;" horiz-adv-x="252" d=" M11,130 L11,136 L102,136 Q103,148 103,162 Q103,172 102,191 Q102,202 102,205 L148,202 Q152,202 152,199 Q152,192 141,188 L141,167 Q141,161 140,151 Q140,141 140,136 L194,136 L213,162 L245,138 Q248,136 247,134 Q246,131 239,130 L149,130 Q178,45 252,15 L249,8 Q229,7 209,-21 Q149,23 141,130 L139,130 Q135,9 7,-26 L5,-22 Q98,33 102,130"/> 
            <glyph glyph-name="奇" unicode="&#x5947;" horiz-adv-x="249" d=" M145,46 Q145,33 145,16 Q145,12 141,10 Q130,7 116,7 L116,17 L68,17 L68,6 Q68,1 63,0 Q51,-3 37,-2 Q38,6 38,36 L38,56 Q38,67 38,81 L75,73 L111,73 L120,90 L150,78 Q154,76 154,73 Q154,68 145,62 M22,165 L22,172 L97,172 Q101,186 102,204 L141,199 Q145,199 145,196 Q146,190 134,188 Q133,179 131,172 L189,172 L205,192 L233,173 Q234,172 234,170 Q233,165 227,165 L129,165 Q127,160 124,154 Q204,152 203,130 Q202,114 190,112 Q184,112 178,118 Q153,138 122,150 Q101,116 25,110 L24,114 Q81,133 95,165 M8,99 L8,105 L199,105 L216,127 L248,106 Q249,105 249,103 Q249,100 241,99 L208,99 L208,77 Q209,42 210,9 Q209,-21 166,-24 Q165,-2 133,2 L134,6 L167,5 Q177,4 177,14 L177,99 M116,67 L68,67 L68,24 L116,24"/> 
            <glyph glyph-name="好" unicode="&#x597D;" horiz-adv-x="250" d=" M16,66 Q26,108 31,143 L7,143 L7,149 L32,149 Q34,156 34,162 Q36,178 39,205 L77,199 Q82,199 82,195 Q81,190 70,186 Q67,168 63,149 L76,149 L87,166 L118,152 Q122,150 122,147 Q123,143 110,136 Q103,80 89,50 Q117,38 117,20 Q116,1 100,0 Q94,0 90,4 Q89,5 88,7 Q82,14 73,23 Q52,-5 9,-28 L7,-25 Q41,10 55,40 Q46,48 24,61 Q19,64 16,66 M108,90 L108,96 L155,96 L155,101 Q155,125 154,145 L179,143 L198,183 L110,183 L110,189 L195,189 L209,207 L244,186 Q248,184 248,181 Q249,175 235,174 Q218,157 194,141 L195,141 Q200,141 200,138 Q201,133 189,127 L189,96 L202,96 L219,118 L249,97 Q250,97 250,94 Q250,91 243,90 L189,90 L189,60 Q189,28 190,5 Q190,-18 147,-24 Q146,0 115,3 L116,7 L142,6 Q156,5 155,19 L155,90 M80,143 L62,143 Q59,124 51,89 Q47,71 46,63 Q49,62 56,61 Q61,59 63,59 Q76,90 80,143"/> 
            <glyph glyph-name="子" unicode="&#x5B50;" horiz-adv-x="250" d=" M7,89 L7,95 L110,95 Q109,101 109,116 Q108,130 108,138 L137,135 L172,180 L33,180 L33,186 L167,186 L186,206 L220,180 Q224,178 224,175 Q223,166 208,168 Q178,147 153,133 Q156,133 156,130 Q157,125 145,120 L145,95 L197,95 L215,120 L248,97 Q250,95 250,93 Q250,90 242,89 L145,89 L145,71 Q145,34 146,5 Q147,-21 93,-25 Q96,0 47,10 L48,14 L94,11 Q110,9 110,24 L110,81 L110,89"/> 
            <glyph glyph-name="完" unicode="&#x5B8C;" horiz-adv-x="246" d=" M15,82 L15,88 L191,88 L208,110 L239,89 Q239,89 240,88 Q241,88 241,86 Q240,83 233,82 L167,82 L167,20 Q166,8 177,9 L201,9 Q211,9 215,19 L229,58 L233,57 L232,21 Q232,14 237,9 Q246,4 245,-1 Q245,-19 210,-19 L163,-19 Q133,-20 135,7 L135,82 L108,82 Q113,-7 8,-26 L7,-23 Q78,7 74,82 M99,204 L101,206 Q145,204 144,185 Q144,173 131,169 L196,169 L210,187 L242,164 Q246,161 246,157 Q246,152 231,152 Q215,142 196,136 L205,130 Q207,129 207,126 Q207,123 199,123 L52,123 L52,129 L160,129 L176,150 L191,139 L200,163 L52,163 Q52,161 53,157 Q53,153 53,151 Q51,124 28,121 Q13,122 12,140 Q12,149 20,155 Q37,167 43,187 L45,187 Q47,183 49,176 Q50,171 51,169 L113,169 Q109,171 108,177 Q105,193 99,204"/> 
            <glyph glyph-name="宫" unicode="&#x5BAB;" horiz-adv-x="248" d=" M60,145 L99,135 L159,135 L168,150 L194,140 L200,164 L48,164 Q49,159 49,149 Q48,124 25,122 Q11,123 9,139 Q9,150 19,156 Q33,163 38,185 L41,185 Q42,183 43,179 Q45,173 46,170 L113,170 Q110,173 110,178 Q108,193 100,205 L102,207 Q146,205 145,186 Q145,176 135,170 L198,170 L211,188 L244,166 Q248,164 248,161 Q247,155 233,155 Q220,146 201,137 Q205,136 205,133 Q205,128 195,122 L195,110 Q195,98 196,82 Q196,76 189,75 Q178,72 163,72 L163,82 L91,82 L91,77 Q91,71 85,70 Q73,67 59,67 Q60,93 60,97 L60,109 Q60,123 60,145 M40,63 L78,54 L177,54 L187,71 L220,57 Q224,56 224,53 Q224,47 214,40 L214,27 Q214,26 214,16 Q215,-6 215,-14 Q215,-20 210,-21 Q208,-21 204,-22 Q188,-24 180,-23 L180,-7 L73,-7 L73,-14 Q73,-20 67,-21 Q55,-24 39,-24 Q40,0 40,15 L40,32 Q40,41 40,63 M180,47 L73,47 L73,-1 L180,-1 M163,129 L91,129 L91,89 L163,89"/> 
            <glyph glyph-name="家" unicode="&#x5BB6;" horiz-adv-x="249" d=" M98,204 L99,206 Q143,205 143,186 Q143,177 136,172 L198,172 L211,190 L243,168 Q249,166 248,163 Q247,157 232,158 Q217,149 202,145 L211,139 Q213,137 213,137 Q213,134 206,133 L138,133 Q124,122 109,114 Q135,97 145,76 Q181,103 196,125 L227,101 Q230,100 230,97 Q230,91 214,94 Q195,84 174,76 Q197,32 245,19 L243,15 Q224,10 209,-12 Q171,21 166,73 Q157,70 148,67 Q153,55 153,34 Q155,-22 100,-24 Q100,0 68,5 L69,9 L97,7 Q122,7 122,35 L122,42 Q73,8 8,-5 L7,-2 Q76,30 119,74 Q119,76 118,79 Q118,82 117,83 Q72,54 10,35 L9,39 Q67,70 104,106 Q103,108 101,109 Q70,92 13,76 L11,80 Q67,109 89,133 L48,133 L48,139 L170,139 L185,157 L196,150 L203,166 L50,166 Q50,162 50,157 Q47,128 25,124 Q9,126 8,140 Q7,153 18,158 Q36,169 42,189 L44,189 Q47,181 49,172 L111,172 Q110,175 108,178 Q106,192 98,204"/> 
            <glyph glyph-name="容" unicode="&#x5BB9;" horiz-adv-x="249" d=" M9,31 L7,35 Q64,70 94,102 Q106,118 111,127 L148,116 Q152,116 152,112 Q152,108 140,106 Q183,81 249,77 L248,71 Q233,66 226,39 Q216,42 207,46 Q204,43 199,40 L199,33 Q199,31 199,24 Q200,5 200,-13 Q201,-20 195,-21 Q184,-24 167,-24 L167,-6 L85,-6 L85,-13 Q86,-21 78,-22 Q70,-24 52,-24 Q53,3 53,22 L53,46 Q34,39 9,31 M100,205 L101,207 Q145,205 144,187 Q144,177 133,172 L191,172 L206,191 L238,170 Q244,167 243,164 Q241,157 229,158 Q214,148 193,140 Q220,130 219,114 Q218,96 204,95 Q195,94 189,103 Q168,128 136,150 L137,154 Q170,148 187,142 L196,166 L52,166 Q54,160 54,153 Q52,128 30,125 Q15,127 13,143 Q12,154 23,159 Q38,169 42,189 L44,189 Q46,185 49,176 Q50,173 51,172 L112,172 Q109,174 108,179 Q105,197 100,205 M167,44 L85,44 L85,0 L167,0 M91,50 L163,50 L170,65 Q149,79 134,100 Q107,72 75,56 M28,84 L26,88 Q51,112 63,129 Q74,143 79,158 L114,144 Q118,143 118,141 Q118,135 105,135 Q77,107 28,84"/> 
            <glyph glyph-name="小" unicode="&#x5C0F;" horiz-adv-x="251" d=" M114,27 L114,132 Q114,141 113,177 Q112,195 112,205 L155,201 Q160,201 160,198 Q161,192 149,188 L149,111 Q149,103 149,72 Q150,26 150,9 Q153,-19 99,-24 Q101,2 51,12 L51,16 L101,15 Q114,14 114,27 M8,11 L5,14 Q30,58 46,114 Q51,132 51,149 L94,138 Q100,136 99,133 Q99,128 86,125 Q66,55 8,11 M166,148 L169,151 Q251,98 248,50 Q246,25 222,23 Q210,24 207,37 Q196,96 166,148"/> 
            <glyph glyph-name="年" unicode="&#x5E74;" horiz-adv-x="246" d=" M47,123 L82,115 L125,115 L125,163 L79,163 Q57,133 14,104 L12,108 Q36,140 52,178 Q57,190 61,209 L103,198 Q106,198 106,195 Q106,189 93,186 Q89,178 83,169 L189,169 L206,191 L237,170 Q239,169 239,167 Q239,164 231,163 L157,163 L157,115 L187,115 L202,136 L230,116 Q232,115 232,113 Q232,110 225,109 L157,109 L157,95 Q157,69 158,46 L195,46 L213,70 L244,47 Q246,47 246,44 Q246,41 238,40 L158,40 Q158,8 158,-11 Q158,-19 152,-20 Q136,-22 123,-22 Q124,-2 124,40 L9,40 L9,46 L48,46 L48,68 Q48,73 48,94 Q47,117 47,123 M124,46 Q125,57 125,70 L125,109 L80,109 L80,46"/> 
            <glyph glyph-name="庭" unicode="&#x5EAD;" horiz-adv-x="250" d=" M129,34 L129,40 L162,40 L162,89 L138,89 Q141,89 141,86 Q141,83 132,78 Q125,50 110,27 Q134,12 179,12 Q198,12 250,17 L249,13 Q238,8 233,-18 L179,-18 Q125,-18 97,10 Q77,-10 41,-24 L39,-21 Q70,4 84,27 Q72,45 65,71 L68,73 Q81,51 92,42 Q101,60 105,83 L97,83 L90,73 Q84,75 69,81 Q68,82 67,82 Q63,86 67,88 Q71,90 74,97 L87,140 L65,140 L65,146 L85,146 L96,161 L120,145 Q124,143 124,140 Q124,136 112,131 L96,89 L102,89 L111,102 L137,90 L137,95 L162,95 L162,129 Q146,127 127,127 L126,131 Q185,149 207,165 L232,146 Q235,143 235,142 Q235,138 229,138 Q227,138 221,139 Q216,138 207,136 Q197,134 192,133 L192,95 L199,95 L211,112 L236,96 Q237,95 237,93 Q237,90 230,89 L192,89 L192,40 L201,40 L215,58 L240,41 Q241,40 241,38 Q241,35 234,34 M115,206 L117,208 Q158,208 158,189 Q158,181 150,176 L196,176 L212,198 L241,177 Q244,176 244,174 Q244,170 236,170 L61,170 L61,128 Q64,20 8,-25 L5,-23 Q31,35 30,123 L30,139 Q30,151 29,185 L67,176 L127,176 Q125,179 125,182 Q124,197 115,206"/> 
            <glyph glyph-name="廷" unicode="&#x5EF7;" horiz-adv-x="249" d=" M51,113 L65,113 L75,129 L104,114 Q107,113 107,110 Q106,106 96,101 Q90,57 74,31 Q105,14 159,14 Q191,14 244,20 Q247,20 249,20 L249,15 Q233,12 227,-16 Q215,-16 199,-16 Q177,-17 160,-16 Q92,-15 59,12 Q39,-7 8,-24 L6,-21 Q31,5 44,29 Q28,53 20,92 L24,93 Q34,65 52,48 Q63,75 67,107 L52,107 L41,95 Q27,104 17,113 Q14,117 18,120 Q26,123 29,132 L51,177 L10,177 L10,183 L50,183 L61,200 L91,183 Q95,181 95,178 Q94,172 81,169 M95,160 L94,164 Q137,175 172,191 Q194,202 199,208 L232,184 Q234,183 234,180 Q234,177 228,176 Q225,176 219,178 Q200,174 180,169 L180,118 L194,118 L210,138 L238,119 Q240,118 240,115 Q238,112 231,112 L180,112 L180,46 L201,46 L217,68 L243,47 Q245,47 245,44 Q245,41 237,40 L98,40 L98,46 L149,46 L149,112 L109,112 L109,118 L149,118 L149,164 Q130,162 95,160"/> 
            <glyph glyph-name="开" unicode="&#x5F00;" horiz-adv-x="248" d=" M20,178 L20,184 L191,184 L208,206 L238,185 Q239,184 239,182 Q239,179 231,178 L185,178 L185,106 L198,106 L216,130 L247,107 Q248,106 248,104 Q248,101 240,100 L185,100 L185,65 Q185,63 185,46 Q186,4 186,-11 Q187,-18 181,-18 Q168,-21 154,-21 L154,100 L99,100 Q102,6 15,-23 L13,-19 Q44,8 55,33 Q67,57 67,100 L8,100 L8,106 L68,106 L68,113 L68,178 M99,114 Q99,110 99,106 L154,106 L154,178 L99,178"/> 
            <glyph glyph-name="录" unicode="&#x5F55;" horiz-adv-x="249" d=" M160,183 L40,183 L40,189 L155,189 L165,206 L195,193 Q201,191 200,188 Q201,184 189,176 L185,116 L199,116 L214,137 L242,118 Q245,116 244,114 Q244,111 236,110 L141,110 L141,108 Q155,83 174,65 Q190,83 196,101 L226,84 Q230,82 230,79 Q230,74 220,74 Q219,74 216,74 Q198,64 182,58 Q207,37 249,25 L247,20 Q229,17 216,-9 Q159,24 141,90 L141,80 Q141,74 141,52 Q142,21 142,9 Q143,-18 96,-23 Q96,1 62,7 L64,13 L96,10 Q111,10 110,24 L110,53 Q80,31 38,6 Q38,-5 33,-4 Q31,-4 28,0 L13,33 Q47,40 110,61 L110,110 L14,110 L14,116 L155,116 L157,146 L46,146 L46,153 L157,153 M40,98 L41,100 Q88,94 87,76 Q85,59 68,57 Q58,56 56,66 Q52,81 40,98"/> 
            <glyph glyph-name="影" unicode="&#x5F71;" horiz-adv-x="253" d=" M11,106 L11,112 L73,112 Q73,112 72,113 Q71,115 71,118 Q71,126 67,136 L56,136 L56,133 Q57,127 51,126 Q37,124 25,124 Q25,131 26,144 Q26,158 26,164 L26,167 Q26,185 26,201 L61,193 L109,193 L118,209 L147,197 Q153,196 152,193 Q152,188 143,182 L143,177 Q143,173 143,162 Q144,146 144,136 Q145,132 139,130 Q139,130 138,130 L163,113 Q163,113 164,112 Q165,112 165,111 Q164,106 157,106 M139,76 Q139,74 139,67 Q140,55 140,50 Q140,44 135,44 Q122,41 110,41 L110,49 L99,49 L99,39 Q99,21 99,2 Q102,-22 64,-24 Q62,-4 41,0 L42,3 L61,2 Q71,2 71,12 L71,49 L59,49 Q59,43 54,42 Q40,40 28,40 Q28,44 28,55 Q29,66 29,71 L29,78 Q29,89 28,97 L64,90 L106,90 L114,105 L143,93 Q147,93 147,90 Q148,85 139,79 M123,-26 L121,-22 Q167,11 194,44 Q206,60 214,75 L249,56 Q253,54 253,51 Q252,45 239,45 Q197,-2 123,-26 M147,58 L145,61 Q187,103 208,143 L243,126 Q247,124 247,121 Q246,115 233,115 Q199,81 147,58 M151,127 L148,130 Q185,172 198,204 L235,187 Q239,185 239,182 Q239,177 225,177 Q195,147 151,127 M110,84 L59,84 L59,55 L110,55 M7,-16 L5,-13 Q27,18 33,37 L62,26 Q65,25 65,22 Q65,18 55,16 Q41,1 7,-16 M56,162 L56,142 L113,142 L113,162 M113,187 L56,187 L56,167 L113,167 M105,34 L106,36 Q147,31 147,13 Q146,0 131,-1 Q124,-2 120,6 Q114,22 105,34 M136,129 Q132,128 124,128 Q117,127 113,127 L113,136 L86,136 Q100,132 100,123 Q100,117 94,112 L123,112"/> 
            <glyph glyph-name="心" unicode="&#x5FC3;" horiz-adv-x="248" d=" M107,30 Q106,16 120,17 L146,17 Q162,17 168,32 L186,76 L189,76 L189,33 Q189,24 195,19 Q202,14 201,7 Q197,-11 163,-12 L103,-12 Q74,-13 74,16 L74,88 Q74,122 73,152 L113,148 Q119,147 118,144 Q119,140 107,134 M185,119 L187,121 Q247,87 248,58 Q247,31 224,30 Q213,29 209,48 Q205,83 185,119 M45,120 L48,120 Q58,86 57,70 Q56,27 27,23 Q9,24 8,45 Q7,57 17,63 Q37,81 45,120 M89,199 L90,201 Q169,185 168,155 Q167,130 146,129 Q135,129 131,139 Q117,171 89,199"/> 
            <glyph glyph-name="想" unicode="&#x60F3;" horiz-adv-x="250" d=" M232,138 Q232,137 232,124 Q233,85 233,74 Q233,70 228,68 Q226,68 221,67 Q208,65 202,65 L202,78 L156,78 L156,74 Q156,67 150,66 Q148,66 145,65 Q141,65 139,64 Q159,56 159,41 Q157,24 140,22 Q132,22 128,31 Q122,53 110,70 L111,72 Q119,71 125,69 Q126,89 126,133 L126,167 Q126,190 126,199 L164,189 L198,189 L206,205 L237,194 Q241,192 241,189 Q242,184 232,177 M52,205 L85,202 Q90,202 90,199 Q91,195 82,190 L82,166 L89,166 L102,183 L122,166 Q125,165 124,163 Q124,160 116,159 L82,159 L82,144 Q122,132 120,116 Q119,100 104,98 Q95,98 93,108 Q89,129 82,138 L82,120 Q82,105 82,69 Q83,62 77,61 Q65,59 52,59 Q53,93 53,115 Q32,91 7,75 L4,79 Q34,120 48,159 L9,159 L9,166 L53,166 Q53,190 52,205 M99,18 Q98,7 111,8 L157,8 Q168,8 173,18 L186,44 L190,44 L190,19 Q190,12 196,8 Q202,3 202,-1 Q200,-18 164,-19 L98,-19 Q69,-19 69,8 L69,24 Q69,28 69,37 Q68,48 68,53 L103,50 Q108,50 108,47 Q108,41 99,37 M46,56 L49,56 Q53,46 53,26 Q50,-6 25,-10 Q8,-10 8,7 Q8,18 20,25 Q39,35 46,56 M191,53 L193,56 Q250,40 248,18 Q247,-1 228,-2 Q220,-3 216,8 Q209,31 191,53 M156,114 L156,84 L202,84 L202,114 M156,149 L156,120 L202,120 L202,149 M202,183 L156,183 L156,155 L202,155"/> 
            <glyph glyph-name="战" unicode="&#x6218;" horiz-adv-x="250" d=" M188,191 L189,193 Q231,188 230,170 Q230,160 222,155 L246,143 Q249,142 248,141 Q248,137 241,135 L177,126 Q180,91 186,67 Q187,69 189,72 Q190,73 190,74 Q204,98 208,118 L243,105 Q247,103 247,101 Q247,96 234,94 Q223,65 199,38 Q207,27 217,18 Q222,14 224,19 L239,55 L242,54 L242,18 Q242,8 245,2 Q250,-2 250,-9 Q249,-21 230,-23 Q218,-23 212,-20 Q188,-5 174,15 Q141,-10 92,-24 L89,-20 Q139,10 163,37 Q150,71 147,122 L101,116 L100,122 L146,129 Q146,146 146,165 Q146,180 144,204 L181,201 Q187,201 187,197 Q187,193 177,187 L177,161 Q177,146 177,133 L206,137 L215,152 L213,152 Q204,152 201,161 Q198,178 188,191 M16,97 L52,87 L52,151 Q52,153 52,164 Q51,189 51,205 L88,202 Q92,202 92,198 Q91,192 82,189 L82,144 L88,144 L103,166 L128,146 Q130,145 130,143 Q128,139 122,138 L82,138 L82,87 L87,87 L95,102 L125,89 Q128,89 128,86 Q129,81 120,74 L120,56 Q120,49 121,8 Q121,1 115,0 Q101,-1 89,-1 L89,10 L46,10 L46,-1 Q46,-9 38,-10 Q26,-12 14,-12 Q14,-1 15,15 Q16,34 16,39 M89,80 L46,80 L46,16 L89,16"/> 
            <glyph glyph-name="房" unicode="&#x623F;" horiz-adv-x="247" d=" M38,131 Q38,138 38,153 Q37,171 37,181 L77,171 L127,171 Q124,174 124,178 Q122,192 112,204 L114,205 Q159,204 158,186 Q158,177 149,171 L189,171 L199,188 L231,175 Q235,174 235,170 Q235,165 226,159 L226,154 Q226,149 226,125 Q227,118 220,117 Q206,114 194,114 L194,125 L70,125 Q70,106 68,89 L132,89 Q129,91 128,97 Q124,109 117,121 L118,123 Q163,122 162,104 Q162,94 152,89 L201,89 L217,109 L245,90 Q247,89 247,87 Q246,84 239,83 L139,83 Q139,68 137,56 L185,56 L194,73 L229,60 Q235,58 234,55 Q234,50 222,44 Q220,31 220,17 Q219,-22 168,-24 Q170,-1 135,3 L136,7 L170,5 Q187,2 188,19 Q190,34 190,50 L136,50 Q127,-4 47,-26 L46,-23 Q82,0 94,21 Q107,42 107,83 L68,83 Q62,11 8,-25 L6,-23 Q26,13 32,41 Q38,70 38,119 M194,165 L70,165 L70,132 L194,132"/> 
            <glyph glyph-name="技" unicode="&#x6280;" horiz-adv-x="251" d=" M40,151 Q40,169 39,204 L77,201 Q81,201 81,198 Q81,191 71,189 L71,149 L74,149 L87,166 L97,157 L144,157 Q143,168 143,205 L180,201 Q185,201 185,198 Q184,192 175,189 L175,157 L199,157 L215,179 L244,158 Q247,158 247,155 Q246,151 238,151 L175,151 L175,106 L185,106 L197,124 L230,108 Q235,106 235,103 Q236,97 223,92 Q203,50 186,31 Q213,17 251,14 L250,9 Q234,5 224,-23 Q185,-8 163,9 Q131,-14 71,-26 L69,-21 Q120,1 145,27 Q126,53 115,100 L101,100 L101,105 Q94,100 80,91 Q74,87 71,85 L71,6 Q72,-20 30,-24 Q32,0 5,6 L5,9 L30,8 Q40,8 40,18 L40,66 Q38,65 34,62 Q29,59 27,57 Q24,46 21,46 Q18,47 16,50 L6,86 Q21,87 40,93 L40,143 L8,143 L8,149 L40,149 M106,109 L102,106 L144,106 L144,150 L144,151 L105,151 L108,150 Q109,149 109,147 Q110,144 101,143 L71,143 L71,101 Q76,103 87,106 Q99,110 105,112 M188,100 L121,100 Q138,66 162,46 Q180,72 188,100"/> 
            <glyph glyph-name="探" unicode="&#x63A2;" horiz-adv-x="251" d=" M145,126 L181,123 Q185,123 186,120 Q186,114 176,110 L176,86 L205,86 L220,106 L247,87 Q248,86 248,84 Q248,81 241,80 L179,80 Q209,43 251,30 L250,25 Q235,24 222,0 Q187,27 176,71 L176,43 Q176,4 177,-12 Q178,-20 169,-21 Q163,-23 145,-23 Q145,-12 146,14 Q146,37 146,44 L146,47 Q117,15 74,-5 L72,-2 Q114,38 134,80 L88,80 L88,86 L146,86 Q145,106 145,126 M38,151 Q38,153 38,163 Q37,191 37,206 L75,204 Q79,203 79,200 Q79,195 68,190 L68,146 L69,146 L80,161 L100,146 Q101,145 101,143 Q101,140 93,140 L68,140 L68,98 Q71,99 78,101 Q91,104 98,105 L100,101 Q97,99 92,96 Q81,90 68,81 L68,9 Q70,-20 28,-23 Q29,-2 5,2 L6,6 L29,5 Q38,5 38,15 L38,65 Q36,64 33,62 Q29,60 27,59 Q26,49 20,49 Q19,49 16,54 L6,88 Q21,89 38,92 L38,140 L9,140 L9,146 L38,146 M169,163 L170,165 Q193,161 200,158 L208,180 L119,180 Q119,177 119,173 Q118,153 100,152 Q88,153 87,165 Q87,172 94,178 Q105,188 108,201 L111,201 Q116,191 117,186 L205,186 L216,202 L248,182 Q249,181 250,181 Q251,180 251,178 Q251,173 238,173 Q218,158 210,154 Q229,144 229,132 Q227,116 214,114 Q207,114 201,122 Q189,147 169,163 M94,106 L91,109 Q119,141 130,168 L161,152 Q164,150 164,147 Q166,142 152,143 Q131,124 94,106"/> 
            <glyph glyph-name="播" unicode="&#x64AD;" horiz-adv-x="251" d=" M88,173 L87,177 Q131,185 174,196 Q194,202 206,207 L228,188 Q231,186 231,183 Q232,180 226,179 Q223,179 217,182 Q195,178 175,177 L175,132 L180,132 Q190,157 194,176 L222,165 Q227,164 226,161 Q226,158 217,157 Q205,145 189,132 L212,132 L224,150 L247,133 Q249,132 249,130 Q249,126 241,126 L185,126 Q207,109 251,105 L250,102 Q239,97 232,73 Q190,91 178,126 L175,126 Q175,105 175,83 Q175,76 169,75 Q157,73 145,73 Q146,89 146,107 Q127,88 102,73 L126,67 L196,67 L205,81 L233,69 Q237,67 237,64 Q237,60 228,54 L228,31 Q228,28 228,13 Q229,-8 229,-15 Q229,-21 225,-21 Q214,-24 199,-24 L199,-7 L122,-7 L122,-15 Q123,-21 116,-22 Q103,-25 93,-25 Q93,-19 93,-5 Q94,12 94,21 L94,41 Q94,43 94,51 Q93,63 93,68 Q83,62 69,57 L67,59 Q105,91 128,126 L85,126 L85,132 L114,132 Q111,135 111,138 Q109,154 99,169 L101,171 Q139,160 137,146 Q137,137 129,132 L146,132 L146,175 Q119,173 88,173 M8,139 L8,145 L36,145 L36,155 Q36,190 35,206 L71,203 Q76,202 76,199 Q76,195 66,190 L66,145 L77,162 L99,145 Q101,145 101,143 Q101,140 94,139 L66,139 L66,100 Q80,103 96,109 L97,106 Q81,94 66,84 L66,4 Q68,-22 28,-24 Q28,-1 6,3 L6,7 L26,6 Q37,4 36,16 L36,66 Q31,62 26,60 Q26,47 20,47 Q17,47 16,52 L6,87 Q7,87 9,87 Q17,88 30,91 Q31,92 33,92 Q35,93 36,93 L36,139 M175,26 L175,-1 L199,-1 L199,26 M122,26 L122,-1 L146,-1 L146,26 M199,60 L175,60 L175,32 L199,32 M122,60 L122,32 L146,32 L146,60"/> 
            <glyph glyph-name="放" unicode="&#x653E;" horiz-adv-x="250" d=" M123,70 L120,72 Q137,117 144,175 Q145,191 145,206 L187,198 Q191,197 191,195 Q192,189 180,186 Q174,165 167,144 L200,144 L217,166 L246,145 Q249,144 248,142 Q248,139 240,138 L226,138 Q219,78 194,42 Q216,25 250,16 L248,10 Q232,8 219,-20 Q186,1 175,18 Q144,-9 93,-25 L92,-22 Q139,11 160,42 Q150,65 145,99 Q135,84 123,70 M7,149 L7,155 L90,155 L106,176 L134,156 Q136,155 136,153 Q135,149 127,149 L66,149 L66,129 Q66,126 65,119 Q65,113 65,111 L83,111 L92,126 L122,114 Q126,112 126,109 Q126,105 116,98 Q114,49 112,20 Q110,-9 68,-14 Q69,5 47,11 L48,15 L68,14 Q82,13 83,26 Q87,56 87,104 L65,104 Q66,22 7,-23 L4,-21 Q23,19 28,45 Q34,71 34,119 L34,149 M150,109 Q159,82 173,64 Q188,94 193,138 L164,138 Q158,123 150,109 M41,204 L43,205 Q86,196 86,177 Q83,160 65,158 Q55,158 54,167 Q51,188 41,204"/> 
            <glyph glyph-name="断" unicode="&#x65AD;" horiz-adv-x="252" d=" M152,185 L184,176 Q216,191 226,204 L249,179 Q251,177 251,175 Q251,172 247,172 Q240,172 235,175 Q209,169 180,167 L180,116 L180,114 L207,114 L222,136 L250,115 Q250,115 251,114 Q252,114 252,113 Q251,108 244,108 L227,108 L227,83 Q227,75 227,47 Q228,4 228,-13 Q230,-21 222,-22 Q210,-24 197,-24 Q199,48 199,67 L199,108 L180,108 Q184,17 120,-26 L116,-23 Q126,-9 132,2 L50,2 L39,-10 Q33,-7 22,-1 Q18,1 16,2 Q12,6 15,9 Q22,13 22,22 L22,150 Q21,180 20,196 L54,193 Q57,193 58,190 Q58,186 48,181 L48,124 L84,124 L84,160 Q84,192 83,204 L115,201 Q119,201 119,198 Q119,194 109,189 L109,136 Q121,167 123,185 L150,174 Q152,172 152,172 Q152,179 152,185 M48,8 L106,8 L118,23 L136,10 Q154,44 153,110 L153,129 Q153,134 153,146 Q152,161 152,168 Q150,166 145,166 Q135,153 109,127 L109,124 L118,124 L129,139 L149,125 Q152,124 151,122 Q151,119 144,118 L109,118 L109,107 Q145,93 144,77 Q143,65 130,63 Q121,64 120,73 Q116,88 109,101 L109,99 Q109,90 110,62 Q110,36 110,29 Q111,22 104,21 Q92,19 84,19 Q84,47 84,82 Q71,60 48,41 M48,50 Q68,85 76,118 L48,118 M50,180 L52,182 Q82,164 81,147 Q80,132 66,131 Q58,131 58,139 Q57,163 50,180"/> 
            <glyph glyph-name="新" unicode="&#x65B0;" horiz-adv-x="252" d=" M140,142 Q140,153 138,181 L173,172 Q201,188 214,204 L244,180 Q247,179 247,177 Q247,172 241,172 Q240,172 235,173 Q238,172 232,174 Q205,166 169,163 L169,126 Q169,117 169,108 L207,108 L224,129 L249,109 Q252,108 251,106 Q251,102 243,102 L222,102 L222,43 Q222,19 222,-14 Q222,-21 217,-22 Q203,-24 191,-24 Q192,-2 193,38 L193,102 L169,102 Q172,5 106,-24 L102,-20 Q127,8 133,34 Q140,58 140,123 M7,103 L7,109 L72,109 Q80,135 82,160 L116,151 Q120,150 120,147 Q121,142 109,140 Q98,123 83,109 L98,109 L113,127 L136,110 Q137,109 137,107 Q137,103 129,103 L82,103 L82,73 L94,73 L108,90 L130,74 Q131,73 131,71 Q131,67 123,67 L82,67 L82,56 Q125,47 125,27 Q124,11 110,9 Q102,9 99,18 Q93,36 82,51 L82,46 Q82,18 83,5 Q85,-19 48,-23 Q49,-2 26,0 L26,4 L44,3 Q55,2 54,14 L54,42 Q51,40 48,40 Q34,12 8,-11 L5,-9 Q14,10 20,33 Q20,34 21,36 Q24,46 24,58 L54,51 L54,67 L10,67 L10,73 L54,73 L54,103 M42,202 L43,204 Q81,204 83,185 Q82,172 69,168 L94,168 L107,185 L129,168 Q129,168 130,167 Q131,167 131,165 Q131,162 123,162 L12,162 L12,168 L60,168 Q54,169 53,178 Q51,189 42,202 M23,154 L25,156 Q61,147 60,130 Q58,115 42,113 Q33,113 32,125 Q29,142 23,154"/> 
            <glyph glyph-name="明" unicode="&#x660E;" horiz-adv-x="243" d=" M130,146 Q130,178 129,196 L168,186 L197,186 L207,204 L239,190 Q243,188 243,185 Q243,179 234,173 L234,118 Q234,100 235,49 Q235,14 235,5 Q237,-19 188,-24 Q187,0 152,7 L153,11 L189,9 Q202,9 202,22 L202,66 L157,66 Q151,10 81,-27 L78,-24 Q111,13 120,41 Q130,68 130,125 M107,109 Q107,66 108,34 Q108,28 102,27 Q91,24 77,24 L77,39 L52,39 L52,25 Q52,19 45,16 Q42,16 35,15 Q25,13 21,13 Q22,40 22,91 L22,149 Q22,177 21,190 L58,180 L72,180 L82,197 L111,184 Q115,182 115,179 Q116,174 107,168 M162,123 Q162,95 158,72 L202,72 L202,123 M202,179 L162,179 L162,130 L202,130 M52,108 L52,45 L77,45 L77,108 M77,174 L52,174 L52,114 L77,114"/> 
            <glyph glyph-name="星" unicode="&#x661F;" horiz-adv-x="247" d=" M41,198 L83,188 L177,188 L187,205 L218,192 Q222,190 222,188 Q222,182 212,176 L212,154 Q212,130 214,112 Q214,107 209,106 Q191,103 182,103 L182,115 L73,115 L73,111 Q73,107 67,105 Q66,105 64,105 Q62,104 60,104 L89,98 Q94,96 94,94 Q94,89 83,87 Q79,78 73,71 L113,71 Q113,79 113,107 L152,104 Q157,103 157,100 Q158,96 146,90 L146,71 L184,71 L201,93 L230,72 Q231,71 231,70 Q231,65 223,65 L146,65 L146,33 L175,33 L191,54 L219,34 Q220,33 220,31 Q220,28 212,27 L146,27 L146,-10 L198,-10 L216,10 L246,-8 Q247,-10 247,-11 Q247,-16 239,-16 L11,-16 L11,-10 L113,-10 L113,27 L45,27 L45,33 L113,33 L113,65 L70,65 Q52,40 21,17 L18,21 Q46,70 51,103 Q45,102 41,102 Q42,119 42,150 L42,167 Q42,169 42,178 Q41,192 41,198 M182,182 L73,182 L73,155 L182,155 M73,148 L73,121 L182,121 L182,148"/> 
            <glyph glyph-name="更" unicode="&#x66F4;" horiz-adv-x="250" d=" M215,122 Q215,81 216,65 Q216,58 210,57 Q198,54 183,54 L183,69 L139,69 Q136,44 124,26 Q166,15 250,15 L249,10 Q235,4 229,-22 Q146,-15 105,7 Q75,-13 9,-25 L7,-21 Q67,3 85,22 Q70,38 60,59 Q44,57 35,57 Q36,79 36,111 L36,125 Q36,132 35,163 L74,153 L110,153 L110,182 L10,182 L10,188 L197,188 L213,209 L243,190 Q246,188 246,186 Q245,182 237,182 L141,182 L141,153 L178,153 L188,169 L220,156 Q226,154 225,152 Q226,147 215,140 M141,102 Q141,88 140,76 L183,76 L183,108 L141,108 M109,76 Q110,85 110,96 L110,108 L68,108 L68,76 M183,146 L141,146 L141,114 L183,114 M68,146 L68,114 L110,114 L110,146 M65,61 Q78,48 97,37 Q105,52 108,69 L68,69 L68,67 Q68,62 65,61"/> 
            <glyph glyph-name="有" unicode="&#x6709;" horiz-adv-x="247" d=" M10,161 L10,167 L79,167 Q82,173 84,179 Q90,193 91,207 L134,197 Q138,197 138,193 Q139,188 124,185 Q123,182 120,176 Q118,170 116,167 L196,167 L214,191 L245,168 Q247,167 247,165 Q247,161 238,161 L113,161 Q103,142 91,126 L100,124 L170,124 L180,143 L215,129 Q219,129 220,125 Q220,120 208,112 L208,78 Q208,76 208,52 Q209,13 209,6 Q210,-19 165,-25 Q163,0 128,5 L129,9 L163,8 Q176,8 176,21 L176,44 L95,44 L95,-14 Q95,-21 89,-22 Q87,-22 83,-23 Q67,-25 61,-25 Q62,-7 62,43 L62,94 Q40,73 10,56 L8,59 Q50,103 77,161 M95,81 L95,50 L176,50 L176,81 M176,118 L95,118 L95,87 L176,87"/> 
            <glyph glyph-name="未" unicode="&#x672A;" horiz-adv-x="251" d=" M29,151 L29,157 L109,157 Q109,172 108,205 L146,201 Q151,201 151,198 Q151,194 142,189 L142,157 L184,157 L200,179 L228,158 Q231,157 230,155 Q229,152 222,151 L142,151 L142,98 L195,98 L212,120 L243,99 Q244,98 244,95 Q244,92 236,91 L150,91 Q189,39 251,23 L250,19 Q233,13 220,-12 Q164,20 144,91 L142,91 L142,76 Q142,23 143,-12 Q144,-20 135,-21 Q123,-24 108,-24 Q108,-8 109,16 Q109,48 110,60 Q73,7 7,-16 L5,-13 Q63,34 92,91 L12,91 L12,98 L110,98 L110,144 L110,151"/> 
            <glyph glyph-name="样" unicode="&#x6837;" horiz-adv-x="249" d=" M90,47 L90,53 L153,53 Q153,66 153,71 L153,99 L112,99 L112,105 L153,105 L153,151 L103,151 L103,157 L176,157 Q187,186 188,207 L224,198 Q230,198 229,194 Q230,190 217,187 Q203,167 189,157 L207,157 L221,175 L246,157 Q247,157 247,155 Q247,152 239,151 L185,151 L185,105 L197,105 L211,123 L236,106 Q237,105 237,103 Q237,100 230,99 L185,99 L185,70 L185,53 L203,53 L219,74 L248,53 Q249,52 249,50 Q247,47 241,47 L185,47 Q185,3 186,-15 Q186,-21 180,-23 Q172,-24 151,-24 Q151,-13 152,11 Q152,36 153,47 M44,204 L80,201 Q84,201 84,198 Q82,191 73,189 L73,146 L74,146 L84,161 L103,147 Q106,146 105,144 Q105,141 97,140 L73,140 L73,116 Q114,103 113,87 Q111,70 95,68 Q86,68 84,77 Q80,102 73,110 L73,-13 Q74,-22 67,-22 Q54,-25 43,-24 Q44,11 45,66 L45,75 Q32,53 8,33 L5,35 Q34,93 42,140 L10,140 L10,146 L45,146 L45,158 Q45,163 45,180 Q44,198 44,204 M125,202 L128,205 Q167,196 166,177 Q164,161 147,159 Q138,160 136,169 Q134,188 125,202"/> 
            <glyph glyph-name="每" unicode="&#x6BCF;" horiz-adv-x="252" d=" M8,79 L8,85 L50,85 L55,119 Q55,121 55,126 Q56,134 56,138 Q35,119 22,111 L18,114 Q54,168 62,208 L102,198 Q107,197 107,194 Q106,188 94,186 Q92,184 91,181 Q90,179 90,179 L183,179 L198,200 L230,180 Q232,179 232,177 Q232,174 225,173 L86,173 Q85,171 82,168 Q76,160 66,148 L92,142 L170,142 L180,159 L212,145 Q218,143 217,140 Q218,136 206,129 Q206,121 205,106 Q205,92 205,85 L209,85 L224,105 L249,86 Q252,83 251,82 Q251,79 243,79 L205,79 Q204,51 202,27 L204,27 L219,47 L243,28 Q245,27 245,25 Q245,22 237,21 L202,21 Q202,20 202,18 Q201,16 201,15 Q203,-22 154,-25 Q154,-3 121,3 L122,7 L155,5 Q170,4 169,19 L169,21 L75,21 L63,7 Q49,15 36,27 Q32,31 36,34 Q44,37 45,45 L49,79 M170,27 Q172,52 173,79 L78,79 L72,27 M175,135 L85,135 L79,85 L173,85 Q175,109 175,135 M104,72 L105,74 Q145,67 144,50 Q143,33 126,32 Q117,32 115,41 Q111,62 104,72 M106,129 L108,131 Q147,123 147,106 Q146,90 130,89 Q121,89 118,99 Q115,118 106,129"/> 
            <glyph glyph-name="比" unicode="&#x6BD4;" horiz-adv-x="248" d=" M133,200 L174,197 Q178,197 178,194 Q179,188 167,184 L167,105 Q185,123 197,140 Q198,142 201,146 Q205,152 210,162 L244,141 Q248,140 248,135 Q248,129 233,131 Q204,110 167,93 L167,25 Q166,12 179,13 L193,13 Q207,12 210,27 L226,73 L230,72 L231,29 Q232,19 238,15 Q246,10 246,4 Q243,-15 202,-16 L165,-16 Q133,-17 134,11 L134,149 Q134,184 133,200 M32,199 L73,196 Q77,196 77,193 Q77,187 66,183 L66,117 L84,117 L100,140 L128,119 Q130,117 130,115 Q130,112 122,111 L66,111 L66,30 L123,45 L124,40 Q90,13 49,-9 Q48,-22 42,-22 Q39,-23 37,-17 L18,19 Q34,24 33,37 L33,148 Q33,177 32,199"/> 
            <glyph glyph-name="海" unicode="&#x6D77;" horiz-adv-x="252" d=" M77,114 L73,117 Q102,170 105,205 L145,197 Q145,197 146,197 Q150,195 150,193 Q150,188 137,185 Q135,181 130,172 Q128,169 127,168 L198,168 L213,189 L243,169 Q244,167 244,166 Q245,163 237,162 L123,162 Q121,160 118,156 Q116,153 109,145 L129,139 L190,139 L200,156 L231,143 Q234,141 234,138 Q235,133 224,127 Q224,120 223,106 Q223,92 222,86 L232,100 L250,85 Q252,84 252,82 Q252,79 244,78 L221,78 Q220,51 218,29 L228,42 L248,26 Q251,25 250,23 Q250,20 242,19 L218,19 Q218,18 218,16 Q217,14 217,13 Q218,-22 169,-24 Q171,-4 138,2 L139,6 L172,4 Q187,2 187,15 Q187,18 187,19 L116,19 L105,7 Q94,13 78,26 Q75,31 79,33 Q87,37 86,43 Q89,60 90,78 L65,78 L65,84 L91,84 Q92,89 92,98 Q93,107 93,112 Q93,117 94,126 Q95,129 95,130 Q86,123 77,114 M54,62 Q51,50 51,36 Q51,22 55,12 Q58,3 58,-5 Q57,-22 37,-23 Q21,-22 20,-6 Q20,-2 22,7 Q23,12 23,14 Q26,23 26,32 Q28,46 8,53 L9,58 Q14,57 21,57 Q33,57 35,65 L80,171 L83,170 M188,26 Q190,50 191,78 L119,78 Q118,54 113,26 M194,133 L124,133 Q123,122 122,103 Q120,90 120,84 L192,84 Q193,92 193,109 Q194,124 194,133 M22,199 L23,201 Q71,194 69,173 Q67,155 49,153 Q40,153 39,162 Q33,183 22,199 M6,142 L7,144 Q51,136 50,117 Q49,97 32,95 Q22,95 21,105 Q16,125 6,142 M137,70 L139,73 Q175,64 174,48 Q173,32 156,30 Q149,30 147,39 Q144,61 137,70 M138,126 L140,129 Q175,122 175,106 Q174,89 157,88 Q150,88 148,96 Q146,113 138,126"/> 
            <glyph glyph-name="满" unicode="&#x6EE1;" horiz-adv-x="250" d=" M77,125 L77,131 L210,131 L223,149 L248,132 Q250,131 250,129 Q250,126 242,125 L194,125 L194,112 Q194,103 193,95 L203,95 L212,111 L241,99 Q245,97 245,94 Q245,90 236,82 L236,58 Q236,53 236,41 Q237,19 237,4 Q237,-19 195,-24 Q195,-1 167,2 L168,7 L194,6 Q207,4 207,17 L207,31 Q204,24 197,24 Q188,24 188,33 Q188,47 187,57 Q178,30 147,3 L143,6 Q151,18 155,28 Q152,26 148,26 Q142,25 142,36 Q142,47 141,56 Q134,35 109,8 L109,-15 Q110,-22 105,-22 Q97,-24 79,-24 Q79,-8 80,19 Q80,33 80,37 L80,70 Q80,75 80,85 Q79,98 79,104 L114,95 L124,95 L124,105 L124,125 M169,204 L201,201 Q207,200 206,197 Q206,192 197,189 L197,173 L209,173 L223,192 L248,174 Q250,173 250,171 Q250,168 242,167 L197,167 Q197,156 197,148 Q198,143 192,143 Q187,141 169,141 L169,167 L140,167 L140,148 Q140,142 134,141 Q126,139 111,139 Q112,146 112,167 L73,167 L73,173 L112,173 L112,204 L145,201 Q149,201 150,198 Q150,194 140,189 L140,173 L169,173 M58,73 Q52,52 53,41 Q53,32 57,18 Q60,7 60,-1 Q59,-18 39,-19 Q22,-19 22,-2 Q23,9 25,17 Q25,20 26,27 Q28,37 28,39 Q30,51 13,57 L14,61 Q19,61 22,61 Q32,60 37,73 L78,157 L82,156 M23,196 L24,198 Q67,193 69,173 Q68,155 51,153 Q42,153 39,162 Q34,181 23,196 M4,142 L6,144 Q48,139 50,119 Q49,102 32,99 Q23,99 20,108 Q15,127 4,142 M149,89 Q147,76 144,65 Q159,52 161,40 Q167,61 167,89 M109,18 Q124,55 124,89 L109,89 M150,114 Q150,104 149,95 L167,95 Q167,97 168,100 Q168,104 168,105 L168,125 L150,125 M207,89 L193,89 Q192,76 189,65 Q204,54 207,46"/> 
            <glyph glyph-name="演" unicode="&#x6F14;" horiz-adv-x="251" d=" M57,70 Q52,51 52,39 Q52,30 56,14 Q59,4 59,-3 Q58,-21 38,-22 Q21,-21 20,-4 Q20,-2 22,2 Q23,8 24,12 Q27,21 27,30 Q28,46 8,54 L9,57 Q12,57 16,56 Q19,56 20,56 Q30,56 34,65 L73,136 Q68,141 68,148 Q68,156 76,163 Q88,173 91,189 L93,189 Q98,182 101,173 L145,173 Q142,176 141,181 Q136,198 131,206 L132,208 Q174,206 174,188 Q173,179 163,173 L208,173 L219,187 L247,169 Q250,167 250,164 Q251,159 239,159 Q230,153 215,146 L219,143 Q221,142 221,140 Q221,137 214,137 L171,137 L171,113 L194,113 L204,129 L234,116 Q238,114 238,111 Q238,106 229,101 L229,80 Q229,51 230,33 Q230,26 224,25 Q220,24 212,24 Q203,23 199,23 L199,34 L113,34 L113,32 Q113,23 106,23 Q94,20 83,20 Q84,44 84,65 L84,86 Q84,96 84,122 L122,113 L141,113 L141,137 L103,137 L103,143 L182,143 L195,159 L208,151 L211,167 L102,167 Q104,161 104,155 Q103,134 83,132 Q80,132 77,133 M57,-26 L56,-23 Q112,7 126,28 L153,11 Q156,8 156,7 Q155,2 148,2 Q146,1 143,2 Q109,-15 57,-26 M164,19 L166,23 Q245,15 243,-7 Q242,-22 229,-23 Q221,-23 216,-16 Q197,2 164,19 M20,198 L22,199 Q70,194 70,171 Q68,153 52,151 Q43,151 39,161 Q34,182 20,198 M7,142 L8,144 Q52,136 51,115 Q49,97 33,95 Q23,96 20,105 Q17,127 7,142 M171,70 L171,40 L199,40 L199,70 M199,107 L171,107 L171,77 L199,77 M113,70 L113,40 L141,40 L141,70 M113,107 L113,77 L141,77 L141,107"/> 
            <glyph glyph-name="漫" unicode="&#x6F2B;" horiz-adv-x="251" d=" M238,72 Q238,65 232,64 Q220,62 209,62 L209,69 L105,69 Q106,62 100,62 Q85,60 76,60 Q76,78 76,93 L76,101 Q76,116 76,124 L108,118 L205,118 L211,129 Q201,127 186,127 L186,133 L127,133 L127,132 Q127,127 123,127 Q114,124 98,124 Q98,130 98,144 Q99,158 99,165 L99,172 Q99,186 98,199 L132,191 L181,191 L190,207 L220,195 Q223,193 223,190 Q224,186 215,179 L215,171 Q215,144 216,135 Q216,134 215,132 L242,121 Q246,119 246,116 Q246,111 237,106 L237,98 Q237,95 238,85 Q238,75 238,72 M218,36 Q207,24 195,14 Q219,11 251,13 L250,7 Q233,0 228,-25 Q182,-18 155,-6 Q118,-21 63,-26 L61,-21 Q104,-8 132,5 Q110,22 100,47 L80,47 L80,53 L183,53 L194,66 L228,49 Q232,47 232,45 Q232,38 218,36 M57,72 Q52,51 52,40 Q52,30 56,16 Q59,6 59,-2 Q58,-19 37,-20 Q21,-19 20,-2 Q21,4 24,15 Q26,25 26,32 Q27,47 8,54 L9,59 Q14,59 18,59 Q28,58 34,72 L81,173 L84,172 M18,197 L19,199 Q65,195 66,175 Q64,157 47,154 Q37,154 34,163 Q29,182 18,197 M8,142 L9,144 Q51,141 51,122 Q49,104 33,101 Q22,101 20,110 Q17,128 8,142 M127,159 L127,139 L186,139 L186,159 M186,185 L127,185 L127,165 L186,165 M110,47 Q129,30 157,21 Q173,33 185,47 M209,112 L191,112 L191,75 L209,75 M105,112 L105,75 L122,75 L122,112 M148,112 L148,75 L165,75 L165,112"/> 
            <glyph glyph-name="热" unicode="&#x70ED;" horiz-adv-x="250" d=" M51,165 Q51,184 51,205 L86,203 Q90,203 90,200 Q90,196 81,190 L81,159 L93,176 L116,159 L134,159 L134,163 L134,171 Q134,196 133,205 L169,202 Q174,202 174,199 Q175,195 164,189 L164,169 Q164,163 164,159 L181,159 L190,176 L220,163 Q223,162 223,158 Q223,153 215,147 L215,133 Q215,92 221,79 Q225,74 228,81 L241,112 L245,111 L243,74 Q241,66 246,62 Q250,58 250,50 Q249,37 234,36 Q217,36 205,49 Q186,70 186,123 L186,153 L164,153 Q163,130 157,112 Q182,95 182,77 Q180,61 166,59 Q160,59 156,66 Q151,78 145,87 Q129,61 86,35 L82,38 Q119,82 127,111 Q118,122 104,134 L106,137 Q120,132 131,126 Q132,132 133,144 Q134,150 134,153 L81,153 L81,124 Q94,126 110,127 L111,123 Q106,121 96,116 Q86,111 81,109 L81,65 Q83,36 39,33 Q39,54 15,59 L16,63 L40,62 Q52,60 51,72 L51,97 Q41,93 27,90 Q25,79 20,79 Q18,79 16,84 L8,116 Q20,116 44,119 Q49,120 51,120 L51,153 L8,153 L8,159 L51,159 M189,32 L191,35 Q240,18 240,-2 Q238,-20 220,-23 Q209,-23 206,-11 Q202,12 189,32 M42,30 L44,30 Q51,17 51,3 Q48,-24 23,-26 Q7,-25 6,-8 Q6,2 16,5 Q37,14 42,30 M131,33 L133,35 Q174,19 174,-1 Q173,-20 155,-21 Q145,-21 143,-7 Q141,13 131,33 M79,31 L81,33 Q116,18 119,-2 Q118,-20 99,-21 Q89,-20 88,-8 Q88,8 79,31"/> 
            <glyph glyph-name="爱" unicode="&#x7231;" horiz-adv-x="249" d=" M38,142 L40,142 Q41,139 44,132 Q45,129 46,127 L158,127 Q171,154 174,177 L210,164 Q214,162 214,159 Q214,154 201,154 Q186,137 170,127 L203,127 L217,142 L246,123 Q249,121 249,118 Q249,114 236,112 Q227,106 208,101 L220,92 Q220,92 221,91 Q222,91 222,90 Q221,87 214,86 L108,86 Q107,83 105,76 Q102,67 100,63 L162,63 L174,77 L208,61 Q211,59 211,56 Q211,50 199,48 Q187,30 172,17 Q200,9 242,9 L241,3 Q223,0 215,-24 Q166,-15 143,-1 Q105,-21 46,-25 L45,-21 Q101,-2 123,14 Q108,31 98,58 L97,58 Q76,6 11,-22 L8,-18 Q61,24 74,86 L40,86 L40,91 Q33,84 25,84 Q11,86 9,101 Q9,114 18,118 Q33,125 38,142 M206,121 L47,121 Q47,118 47,115 Q47,99 40,92 L76,92 Q76,94 77,99 Q79,112 79,119 L117,112 Q123,111 122,108 Q123,102 111,100 Q111,95 109,92 L177,92 L192,112 L200,106 M27,175 L27,179 Q155,196 198,209 L220,189 Q223,186 223,184 Q223,181 219,181 Q216,181 208,183 Q166,178 128,177 Q93,175 27,175 M106,173 L108,175 Q147,167 146,152 Q144,134 125,132 Q117,132 115,142 Q114,160 106,173 M52,169 L54,171 Q94,164 92,147 Q90,131 73,129 Q64,129 63,138 Q60,158 52,169 M165,58 L104,58 Q120,40 142,28 Q155,41 165,58"/> 
            <glyph glyph-name="片" unicode="&#x7247;" horiz-adv-x="250" d=" M185,33 Q185,32 185,24 Q186,-3 186,-14 Q186,-19 180,-21 Q167,-23 152,-23 L152,76 L79,76 Q72,10 11,-24 L8,-21 Q48,30 48,120 L48,158 Q48,190 47,202 L89,199 Q93,198 93,195 Q94,190 82,185 L82,136 L137,136 L137,162 Q137,165 137,176 Q136,196 136,206 L176,203 Q182,202 181,199 Q182,193 170,189 L170,136 L200,136 L218,159 L248,137 Q250,136 250,134 Q250,131 242,130 L82,130 L82,120 Q82,100 80,82 L147,82 L156,102 L193,87 Q197,85 197,82 Q197,77 185,70"/> 
            <glyph glyph-name="理" unicode="&#x7406;" horiz-adv-x="250" d=" M91,35 L91,41 L147,41 L147,82 L124,82 L124,76 Q124,70 120,69 Q107,66 93,66 Q94,93 95,122 L95,167 Q95,171 94,187 Q94,197 94,199 L131,189 L198,189 L207,206 L238,193 Q242,192 242,189 Q243,184 232,177 L232,130 Q232,128 232,114 Q233,87 233,78 Q233,73 229,72 Q219,69 202,69 L202,82 L179,82 L179,41 L199,41 L213,61 L240,42 Q243,42 242,40 Q241,35 234,35 L179,35 L179,-8 L203,-8 L220,11 L248,-7 Q250,-9 250,-10 Q250,-14 242,-14 L64,-14 L64,-8 L147,-8 L147,35 M8,178 L8,184 L57,184 L69,201 L93,184 Q94,182 94,181 Q94,178 87,178 L63,178 L63,118 L73,132 L92,117 Q94,116 94,114 Q94,111 87,111 L63,111 L63,53 Q66,54 72,55 Q80,57 99,63 L100,59 Q61,32 26,11 Q26,0 22,0 Q19,0 18,3 L5,40 Q13,40 30,45 Q31,45 32,45 L32,111 L9,111 L9,117 L32,117 L32,178 M179,133 L179,88 L202,88 L202,133 M202,183 L179,183 L179,139 L202,139 M124,133 L124,88 L147,88 L147,133 M124,183 L124,139 L147,139 L147,183"/> 
            <glyph glyph-name="电" unicode="&#x7535;" horiz-adv-x="246" d=" M134,19 Q133,6 146,7 L192,7 Q208,6 216,26 L228,62 L232,61 L233,23 Q234,14 240,10 Q246,4 246,0 Q244,-17 206,-18 L131,-18 Q102,-19 103,9 L103,48 L60,48 L60,37 Q61,31 55,30 Q43,27 29,27 Q29,34 30,61 Q30,87 30,93 L30,122 Q30,156 29,169 L67,159 L103,159 L103,160 Q103,195 102,205 L140,202 Q146,202 145,199 Q146,194 134,189 L134,159 L173,159 L183,176 L214,163 Q218,161 218,158 Q219,154 209,146 L209,110 Q209,104 209,83 Q210,57 210,48 Q210,42 206,42 Q199,40 182,38 Q179,38 178,38 L178,48 L134,48 M178,153 L134,153 L134,106 L178,106 M134,100 L134,54 L178,54 L178,100 M60,100 L60,54 L103,54 L103,100 M60,153 L60,106 L103,106 L103,153"/> 
            <glyph glyph-name="登" unicode="&#x767B;" horiz-adv-x="250" d=" M138,205 Q150,185 162,170 Q176,189 180,204 L207,188 Q211,186 210,183 Q210,178 200,179 Q185,169 169,162 Q178,152 189,144 Q205,163 212,180 L239,164 Q243,162 243,159 Q243,154 232,155 Q213,144 199,138 Q216,128 250,120 L248,113 Q233,109 221,84 Q215,89 209,92 Q210,88 200,81 L200,74 Q200,69 201,59 Q201,49 201,45 Q202,38 196,37 Q184,34 169,34 L169,44 L84,44 L84,41 Q84,35 79,34 Q117,25 117,8 Q117,-3 104,-8 L141,-8 Q152,15 154,37 L190,27 Q194,25 194,22 Q194,16 183,16 Q175,6 159,-5 Q156,-7 155,-8 L192,-8 L209,13 L241,-7 Q243,-9 243,-10 Q243,-14 236,-14 L15,-14 L15,-8 L90,-8 Q86,-6 84,0 Q80,18 71,33 Q59,31 52,31 Q53,46 53,69 L53,81 Q53,86 53,90 Q35,80 11,69 L8,73 Q42,100 60,123 Q57,121 52,121 Q43,121 40,129 Q34,148 24,162 L26,164 Q69,156 69,140 Q69,137 68,135 Q82,154 89,178 L22,178 L22,185 L86,185 L99,202 L131,185 Q135,183 135,180 Q135,175 124,172 Q108,142 92,123 L132,123 L146,142 L172,124 Q147,153 133,203 M169,87 L84,87 L84,50 L169,50 M165,93 L174,109 L199,99 Q185,110 173,123 Q175,117 165,117 L86,117 Q73,104 66,99 L90,93"/> 
            <glyph glyph-name="的" unicode="&#x7684;" horiz-adv-x="248" d=" M114,81 Q114,75 114,47 Q115,11 115,1 Q116,-3 110,-4 Q98,-6 85,-6 L85,10 L51,10 L51,-6 Q51,-13 41,-14 Q36,-15 27,-16 Q22,-17 20,-17 Q20,-5 21,28 Q21,55 21,63 L21,101 Q21,133 20,163 L48,156 Q51,174 49,206 L90,201 Q95,201 95,197 Q95,192 83,189 Q71,167 60,153 L80,153 L89,169 L118,157 Q122,155 122,152 Q123,146 114,141 M207,151 L161,151 Q144,119 121,94 L118,96 Q134,137 141,180 Q144,192 144,204 L185,198 Q189,197 189,194 Q189,189 177,185 Q170,170 164,157 L202,157 L212,174 L243,161 Q247,159 247,157 Q248,152 238,144 Q238,125 236,66 Q235,34 235,20 Q235,-21 181,-24 Q184,2 141,9 L142,13 L183,11 Q202,9 203,27 Q205,59 206,127 Q207,144 207,151 M51,84 L51,16 L85,16 L85,84 M85,147 L51,147 L51,90 L85,90 M141,116 L143,118 Q192,95 189,74 Q188,55 168,53 Q158,53 156,66 Q151,96 141,116"/> 
            <glyph glyph-name="目" unicode="&#x76EE;" horiz-adv-x="226" d=" M216,88 Q216,80 216,46 Q217,1 217,-11 Q217,-18 210,-19 Q194,-23 180,-23 L180,0 L76,0 L76,-11 Q77,-18 69,-20 Q52,-24 39,-24 Q39,-11 40,10 Q41,51 41,59 L41,135 Q41,170 40,198 L85,186 L174,186 L186,205 L223,190 Q226,188 226,185 Q226,179 216,173 M76,119 L76,65 L180,65 L180,119 M180,180 L76,180 L76,125 L180,125 M76,59 L76,5 L180,5 L180,59"/> 
            <glyph glyph-name="直" unicode="&#x76F4;" horiz-adv-x="249" d=" M8,-11 L8,-4 L48,-4 L48,90 Q48,124 47,147 L84,138 L111,138 L112,168 L14,168 L14,174 L112,174 Q113,178 112,192 Q112,200 112,205 L149,202 Q153,202 154,199 Q154,193 143,190 L143,174 L195,174 L212,195 L242,175 Q244,175 244,172 Q244,169 236,168 L142,168 L141,138 L173,138 L182,156 L214,143 Q218,141 218,139 Q218,133 208,126 L208,-4 L209,-4 L222,13 L248,-3 Q249,-5 249,-6 Q249,-11 241,-11 M79,24 L79,-4 L177,-4 L177,24 M177,132 L79,132 L79,102 L177,102 M79,96 L79,66 L177,66 L177,96 M79,60 L79,30 L177,30 L177,60"/> 
            <glyph glyph-name="看" unicode="&#x770B;" horiz-adv-x="248" d=" M26,174 L26,179 Q101,185 146,198 Q166,203 185,210 L217,188 Q220,185 220,183 Q220,179 213,179 Q208,179 202,182 Q186,179 153,176 Q142,176 136,175 Q134,169 131,158 Q130,153 129,151 L172,151 L187,171 L218,152 Q221,151 220,148 Q220,145 213,144 L126,144 Q121,131 115,119 L198,119 L215,141 L246,120 Q248,119 248,117 Q247,114 240,113 L111,113 Q104,100 95,89 L105,85 L172,85 L182,101 L215,88 Q220,86 220,83 Q221,80 209,72 L209,49 Q209,43 209,28 Q210,3 210,-12 Q212,-19 204,-20 Q192,-23 177,-23 L177,-7 L97,-7 L97,-12 Q97,-20 90,-21 Q87,-21 82,-22 Q68,-23 64,-24 Q65,-1 65,28 L65,60 Q41,41 9,26 L7,30 Q56,70 77,113 L12,113 L12,119 L80,119 Q86,131 91,144 L30,144 L30,151 L93,151 Q94,154 96,160 Q99,169 100,174 Q63,173 26,174 M177,79 L97,79 L97,56 L177,56 M97,20 L97,-1 L177,-1 L177,20 M97,50 L97,26 L177,26 L177,50"/> 
            <glyph glyph-name="知" unicode="&#x77E5;" horiz-adv-x="243" d=" M233,92 Q233,83 233,55 Q234,12 234,-7 Q235,-14 229,-14 Q218,-17 202,-17 L202,10 L165,10 L165,-8 Q166,-16 158,-17 Q144,-20 133,-20 Q135,43 135,76 L135,118 Q135,166 134,180 L171,170 L197,170 L207,187 L238,174 Q243,172 243,169 Q243,165 233,158 M8,86 L8,92 L55,92 Q57,107 57,125 L57,154 L54,154 Q40,129 13,103 L10,106 Q25,147 31,177 Q34,193 35,208 L76,198 Q79,198 80,195 Q80,189 68,186 Q63,174 57,161 L88,161 L102,180 L129,161 Q131,161 131,158 Q131,155 124,154 L88,154 L88,126 Q88,108 86,92 L94,92 L107,110 L132,93 Q133,92 133,90 Q132,87 126,86 L85,86 Q84,74 81,63 Q127,42 127,20 Q126,0 108,-1 Q98,-2 96,9 Q90,39 79,56 Q64,0 7,-28 L5,-25 Q45,20 54,86 M202,164 L165,164 L165,16 L202,16"/> 
            <glyph glyph-name="票" unicode="&#x7968;" horiz-adv-x="248" d=" M219,137 Q219,130 219,112 Q219,106 215,106 Q204,103 190,103 L190,108 L62,108 Q62,102 57,102 Q44,99 33,99 Q33,119 33,135 L33,147 Q33,153 33,167 L72,158 L87,158 L87,181 L13,181 L13,187 L204,187 L219,205 L246,188 Q248,186 248,186 Q248,181 240,181 L165,181 L165,158 L186,158 L195,175 L225,163 Q226,162 227,162 Q229,161 229,158 Q229,153 219,147 M15,52 L15,58 L197,58 L214,80 L243,59 Q245,58 245,56 Q245,53 237,52 L145,52 L145,47 Q145,46 145,38 Q146,13 146,4 Q148,-20 104,-24 Q102,-1 72,3 L73,6 L103,5 Q115,4 114,16 L114,52 M156,37 L157,40 Q196,36 212,27 Q228,18 228,7 Q226,-10 210,-12 Q203,-13 198,-4 Q179,23 156,37 M15,-17 L12,-14 Q35,5 49,23 Q56,33 61,45 L94,31 Q97,30 97,28 Q97,22 88,21 Q85,21 82,22 Q57,-4 15,-17 M47,81 L47,87 L171,87 L186,105 L210,88 Q212,87 212,85 Q212,82 204,81 M190,152 L165,152 L165,114 L190,114 M113,152 L113,114 L138,114 L138,152 M62,152 L62,114 L87,114 L87,152 M113,181 L113,158 L138,158 L138,181"/> 
            <glyph glyph-name="竞" unicode="&#x7ADE;" horiz-adv-x="248" d=" M9,-26 L8,-21 Q90,5 91,49 L80,49 L80,45 Q80,39 74,38 Q62,35 49,35 Q50,50 50,73 L50,89 Q50,97 50,111 L88,102 L173,102 L183,118 L212,106 Q216,104 216,101 Q216,95 207,90 L207,82 Q207,66 208,51 Q209,44 202,43 Q191,40 177,40 L177,49 L167,49 L167,21 Q167,11 177,11 L200,11 Q213,11 219,25 L231,62 L234,61 L236,27 Q236,17 242,13 Q248,9 248,2 Q245,-15 209,-16 L160,-16 Q134,-17 135,6 L135,49 L125,49 Q121,-18 9,-26 M67,166 L68,168 Q111,160 110,144 Q109,132 97,127 L145,127 Q152,147 155,168 L189,161 Q195,160 194,156 Q194,152 184,150 Q173,137 158,127 L200,127 L216,150 L246,129 Q248,128 248,126 Q247,121 240,121 L11,121 L11,127 L83,127 Q79,130 78,136 Q76,150 67,166 M177,96 L80,96 L80,55 L177,55 M25,171 L25,177 L114,177 Q113,180 111,184 Q110,197 102,207 L104,209 Q146,208 145,190 Q145,181 136,177 L184,177 L199,198 L227,178 Q227,178 228,177 Q229,177 229,175 Q228,172 221,171"/> 
            <glyph glyph-name="童" unicode="&#x7AE5;" horiz-adv-x="247" d=" M10,129 L10,135 L82,135 Q76,135 74,144 Q73,157 66,169 L68,170 Q104,165 103,150 Q102,138 89,135 L140,135 Q147,153 149,173 L21,173 L21,179 L113,179 Q112,180 111,182 Q110,183 110,184 Q110,196 103,206 L104,208 Q144,207 143,190 Q143,182 135,179 L185,179 L200,200 L231,180 Q233,179 233,177 Q233,173 225,173 L150,173 L179,164 Q185,162 184,160 Q184,155 175,154 Q164,142 151,135 L197,135 L214,155 L245,136 Q247,135 247,133 Q246,130 239,129 L184,129 L213,117 Q219,115 218,111 Q218,108 208,100 L208,84 Q208,83 208,77 Q209,59 209,46 Q210,39 204,38 Q203,38 201,38 Q199,37 198,37 L224,21 Q226,20 226,18 Q226,14 219,14 L140,14 L140,-11 L195,-11 L215,9 L246,-10 Q247,-11 247,-13 Q247,-17 240,-17 L10,-17 L10,-11 L109,-11 L109,14 L32,14 L32,20 L109,20 L109,43 L71,43 L71,42 Q71,35 64,33 Q48,31 40,31 Q41,55 41,71 L41,87 Q41,103 40,120 L76,112 L174,112 L183,129 M194,36 Q192,36 186,36 Q181,35 178,35 L178,43 L140,43 L140,20 L179,20 M178,106 L140,106 L140,80 L178,80 M71,106 L71,80 L109,80 L109,106 M140,73 L140,49 L178,49 L178,73 M71,73 L71,49 L109,49 L109,73"/> 
            <glyph glyph-name="米" unicode="&#x7C73;" horiz-adv-x="249" d=" M108,205 L147,201 Q152,201 152,198 Q153,193 142,189 L142,111 L192,111 L210,135 L242,111 Q245,110 244,108 Q244,104 236,104 L151,104 Q188,52 249,37 L247,31 Q227,27 214,2 Q156,38 144,104 L142,104 L142,80 Q142,57 144,-12 Q145,-20 136,-22 Q122,-24 108,-24 Q109,-2 109,19 Q109,38 109,67 Q74,23 9,-7 L7,-4 Q65,48 93,104 L15,104 L15,111 L110,111 L110,144 Q110,155 108,205 M154,114 L150,117 Q171,156 178,191 L216,176 Q222,173 221,170 Q221,164 208,164 Q189,139 154,114 M35,185 L38,188 Q93,166 92,142 Q90,121 70,119 Q60,119 58,130 Q52,156 35,185"/> 
            <glyph glyph-name="索" unicode="&#x7D22;" horiz-adv-x="248" d=" M84,110 L136,112 Q148,122 155,132 L187,113 Q190,112 190,109 Q190,103 177,104 Q173,102 166,99 Q118,76 85,66 Q99,66 137,67 Q166,69 181,69 Q173,79 164,88 L166,90 Q226,78 225,54 Q224,36 208,34 Q201,34 196,42 Q193,51 188,59 Q166,56 143,53 L143,39 Q143,19 143,0 Q143,-20 103,-24 Q102,-5 79,0 L80,2 L102,2 Q111,1 111,10 L111,49 Q82,45 49,42 Q49,35 44,34 Q41,35 39,38 L31,67 Q50,68 63,71 Q95,83 117,98 Q109,97 92,94 Q76,91 67,89 Q64,80 60,80 Q58,80 56,85 L49,110 Q65,111 71,118 Q80,126 86,136 L46,136 Q47,130 47,123 Q46,98 24,95 Q10,96 9,113 Q9,121 15,125 Q32,137 38,157 L40,157 Q41,155 42,151 Q43,148 45,142 L109,142 L109,166 L109,168 L17,168 L17,175 L108,175 Q108,192 108,204 L146,201 Q151,201 151,198 Q151,192 141,189 L141,175 L195,175 L210,194 L238,176 Q240,175 240,172 Q239,169 232,168 L141,168 L141,142 L197,142 L213,159 L242,138 Q247,135 247,132 Q248,126 233,126 Q217,119 195,112 L192,114 L202,136 L133,136 Q118,126 84,110 M156,36 L157,38 Q229,24 227,2 Q225,-14 209,-16 Q203,-16 196,-7 Q180,16 156,36 M13,-22 L11,-19 Q47,9 62,39 L95,25 Q99,24 99,21 Q98,16 87,16 Q57,-8 13,-22"/> 
            <glyph glyph-name="纪" unicode="&#x7EAA;" horiz-adv-x="248" d=" M145,24 Q144,12 156,13 L195,13 Q209,13 215,27 L232,71 L236,70 L234,31 Q234,19 240,15 Q248,11 248,2 Q247,-15 211,-15 L143,-15 Q113,-15 113,12 L113,74 Q113,99 112,117 L147,108 L195,108 L195,177 L108,177 L108,183 L189,183 L200,201 L230,188 Q235,186 235,183 Q236,178 226,172 L226,149 Q226,143 226,125 Q227,104 227,96 Q228,91 222,90 Q210,87 195,87 L195,102 L145,102 M107,72 Q67,53 38,44 Q36,36 32,35 Q29,35 28,38 L19,71 Q33,72 36,80 Q48,97 58,116 Q44,110 26,104 Q24,94 19,94 Q18,94 16,98 L7,130 Q16,132 18,136 Q32,161 40,184 Q41,186 42,190 Q45,201 46,207 L84,195 Q88,194 88,191 Q88,186 75,184 Q52,151 32,131 L66,132 Q68,134 68,137 Q77,157 78,165 L114,151 Q118,149 118,146 Q117,142 105,140 Q78,98 51,73 L106,77 M108,31 Q72,8 31,-7 Q30,-18 24,-18 Q22,-18 21,-15 L8,19 Q10,19 14,20 Q20,20 38,23 Q50,25 83,31 Q99,35 106,36"/> 
            <glyph glyph-name="纷" unicode="&#x7EB7;" horiz-adv-x="255" d=" M187,99 L155,99 L155,93 Q158,3 62,-26 L60,-22 Q127,21 125,92 L125,99 L113,99 L113,101 Q103,92 91,83 L88,86 Q112,125 123,166 Q127,186 127,194 L165,184 Q169,183 169,180 Q170,175 158,173 Q142,130 116,105 L182,105 L191,123 L207,116 Q183,143 176,190 Q176,191 175,193 Q174,203 172,205 L189,204 Q192,204 192,201 Q190,197 184,194 Q201,147 255,131 L254,127 Q240,123 230,94 Q229,95 227,97 Q226,98 226,98 Q225,98 224,97 Q221,95 219,94 Q219,76 216,40 Q216,25 215,17 Q214,-21 161,-23 Q162,-1 133,6 L134,10 L164,8 Q183,5 184,31 Q187,66 187,99 M97,75 Q68,59 36,47 Q35,38 30,38 Q29,38 26,43 L17,73 Q28,73 33,82 Q46,99 56,121 Q45,116 24,110 Q24,100 19,100 Q16,99 15,106 L6,135 Q18,137 20,144 Q32,165 37,182 Q41,195 44,207 L80,196 Q84,195 84,191 Q84,188 71,184 Q52,155 32,136 L63,135 Q63,137 65,140 Q71,155 74,168 L106,155 Q112,153 111,150 Q112,147 100,145 Q74,103 47,75 L96,80 M102,37 Q63,10 29,-2 Q28,-15 22,-14 Q20,-14 18,-10 L6,24 Q18,24 35,27 Q61,31 100,41"/> 
            <glyph glyph-name="线" unicode="&#x7EBF;" horiz-adv-x="248" d=" M185,195 L186,197 Q226,199 227,179 Q227,170 219,165 L237,156 Q239,154 239,154 Q238,149 232,148 L170,140 Q170,129 172,109 Q173,102 173,99 L203,104 L217,127 L246,110 Q248,110 248,108 Q248,104 241,102 L174,93 Q178,72 184,57 L188,60 Q205,82 210,93 L242,77 Q245,75 245,72 Q244,66 231,67 Q216,48 198,34 Q206,24 216,16 Q221,13 223,17 L240,55 L243,55 L240,22 Q239,5 243,2 Q248,0 248,-9 Q247,-22 229,-23 Q219,-23 211,-19 Q187,-7 171,15 Q127,-10 68,-22 L66,-17 Q123,6 160,35 Q149,60 145,89 L98,82 L97,88 L144,95 Q141,114 140,136 L103,131 L102,137 L140,142 Q140,146 140,154 Q139,162 139,167 Q139,174 137,206 L174,203 Q180,203 179,200 Q179,194 169,191 Q169,167 170,146 L197,150 L205,164 Q201,166 199,173 Q195,184 185,195 M112,71 Q73,53 38,43 Q36,33 31,33 Q28,33 27,37 L16,70 Q32,71 37,80 Q49,99 58,117 Q55,116 48,113 Q36,109 28,105 Q28,95 22,94 Q20,94 18,99 L8,128 Q19,129 25,141 Q33,157 40,178 Q43,191 46,206 L82,194 Q86,193 86,190 Q86,185 73,183 Q71,180 66,174 Q46,144 33,130 L64,131 Q66,134 67,139 Q74,156 77,168 L113,154 Q116,153 116,150 Q116,144 103,143 Q80,104 48,71 L111,76 M119,33 Q72,6 32,-9 Q32,-21 25,-21 Q22,-20 22,-17 L9,17 Q10,17 13,17 Q21,18 38,21 Q82,29 117,38"/> 
            <glyph glyph-name="给" unicode="&#x7ED9;" horiz-adv-x="254" d=" M225,27 Q225,16 225,-12 Q226,-19 219,-20 Q207,-23 194,-23 L194,-5 L139,-5 L139,-12 Q139,-19 132,-20 Q119,-23 108,-23 Q108,-11 109,3 Q109,11 109,15 L109,45 Q109,57 108,79 L147,70 L189,70 L199,86 L230,73 Q234,72 234,68 Q233,63 225,58 M103,76 Q61,55 38,46 Q35,37 31,37 Q28,37 27,41 L16,73 Q32,76 37,86 Q42,94 50,109 Q54,117 56,121 Q39,112 27,107 Q26,98 20,98 Q19,98 17,101 L7,130 Q18,133 23,144 Q29,165 33,178 Q36,192 38,205 L77,194 Q81,192 81,190 Q81,185 69,182 Q49,150 32,131 L59,131 Q61,134 62,137 Q68,154 70,167 L106,153 Q110,152 110,149 Q110,145 98,142 Q71,98 51,77 L102,81 M141,207 L183,197 Q187,196 187,193 Q187,188 173,186 Q206,145 254,131 L253,126 Q242,122 229,94 Q185,124 169,178 Q145,122 84,89 L81,93 Q117,134 130,170 Q136,188 141,207 M194,64 L139,64 L139,0 L194,0 M105,35 Q73,16 31,-4 Q29,-15 23,-14 Q22,-14 20,-10 L8,22 Q10,22 13,23 Q22,23 40,26 Q66,30 103,39 M122,100 L122,106 L169,106 L182,123 L206,106 Q207,106 207,104 Q207,101 200,100"/> 
            <glyph glyph-name="续" unicode="&#x7EED;" horiz-adv-x="250" d=" M161,120 L197,117 Q201,117 201,114 Q200,108 192,105 Q192,101 192,96 Q190,66 184,45 L204,45 L220,66 L247,46 Q249,45 249,43 Q249,39 240,39 L181,39 Q178,32 175,26 Q205,22 227,13 Q241,6 242,-3 Q241,-21 228,-23 Q221,-23 216,-18 Q206,-4 177,17 Q174,20 172,21 Q149,-12 67,-24 L64,-19 Q130,4 149,39 L87,39 L87,45 L153,45 Q159,59 161,74 Q164,99 161,120 M98,75 Q73,60 38,48 Q36,37 31,37 Q28,37 27,42 L17,73 Q29,75 34,82 Q46,99 54,117 Q47,114 33,108 Q30,107 28,106 Q27,96 22,96 Q19,96 17,100 L6,131 Q15,131 17,137 Q25,147 38,184 Q41,195 43,206 L82,194 Q85,192 85,189 Q85,184 72,183 Q47,145 30,131 Q37,131 57,133 Q43,131 61,133 Q63,136 64,140 Q65,142 66,146 Q71,161 72,167 L109,153 Q112,153 112,149 Q111,145 99,142 Q70,98 47,76 Q51,76 59,77 Q81,78 97,79 M143,205 L179,202 Q185,202 184,199 Q184,194 173,189 L173,170 L197,170 L211,189 L237,170 Q238,170 238,168 Q238,165 231,164 L173,164 L173,133 L206,133 L217,147 L247,128 Q250,127 249,124 Q250,119 238,120 Q223,107 205,100 L202,102 L209,127 L100,127 L100,133 L144,133 L144,164 L106,164 L106,170 L144,170 L144,174 Q144,176 144,188 Q143,202 143,205 M105,30 Q68,8 30,-5 Q30,-17 24,-17 Q21,-17 20,-14 L7,23 Q12,23 26,24 Q31,25 33,25 Q56,26 103,35 M100,86 L102,88 Q138,83 138,65 Q137,51 122,50 Q116,50 114,57 Q110,76 100,86 M114,116 L115,119 Q151,117 153,100 Q152,85 139,84 Q133,84 130,91 Q126,104 114,116"/> 
            <glyph glyph-name="综" unicode="&#x7EFC;" horiz-adv-x="252" d=" M115,181 L117,181 Q118,180 119,177 Q120,174 122,168 L156,168 Q153,171 152,177 Q151,192 144,205 L145,207 Q186,201 184,183 Q184,172 174,168 L207,168 L220,184 L248,164 Q252,162 252,159 Q252,153 238,153 Q227,146 211,141 L226,129 Q228,128 228,126 Q228,123 220,123 L118,123 L118,128 Q114,123 106,123 Q95,124 93,137 Q93,140 93,143 Q93,143 92,142 Q71,107 45,78 L94,82 L95,77 Q92,75 86,73 Q52,56 35,50 Q33,42 29,41 Q26,41 25,45 L14,75 Q29,79 32,85 Q41,100 49,116 Q39,110 27,106 Q24,98 20,98 Q18,98 17,102 L7,130 Q16,133 20,141 Q29,156 33,173 Q36,182 40,201 Q41,204 41,206 L78,194 Q81,193 81,190 Q81,184 69,183 Q52,154 31,131 L56,132 Q63,150 66,165 L99,153 Q99,153 100,153 Q110,163 115,181 M95,84 L95,91 L203,91 L219,111 L246,91 Q247,90 247,88 Q247,85 239,84 L183,84 L183,56 Q183,52 183,39 Q184,17 184,3 Q186,-19 142,-24 Q146,-2 114,2 L115,6 L141,5 Q151,6 152,16 L152,84 M211,162 L124,162 Q126,155 126,147 Q126,135 119,129 L186,129 L201,148 L206,144 M72,-15 L70,-12 Q105,29 113,65 L147,54 Q147,54 148,53 Q150,52 150,50 Q150,46 138,43 Q119,11 72,-15 M98,45 Q57,14 31,0 Q30,-9 25,-9 Q22,-10 20,-5 L6,26 Q10,27 19,28 Q31,31 38,32 Q66,39 97,49 M186,62 L189,65 Q247,39 245,15 Q244,-2 227,-4 Q218,-4 215,5 Q207,33 186,62"/> 
            <glyph glyph-name="缤" unicode="&#x7F24;" horiz-adv-x="252" d=" M145,206 L147,208 Q186,204 185,187 Q185,175 173,171 L207,171 L219,188 L249,168 Q252,167 252,164 Q252,160 241,158 Q224,148 211,144 L222,136 Q224,135 224,132 Q224,129 219,128 Q217,128 211,129 Q215,128 209,130 Q182,124 143,124 L143,97 L193,97 L207,115 L232,97 Q233,97 233,95 Q233,92 227,91 L199,91 L199,44 L206,44 L220,63 L247,45 Q248,44 248,42 Q248,39 242,38 L82,38 L82,44 L114,44 L114,91 Q114,98 114,115 Q113,133 113,139 Q111,138 108,138 Q105,138 102,139 Q100,136 91,134 Q73,102 46,72 L99,78 L100,73 Q75,60 36,45 Q35,36 30,36 Q27,36 26,39 L16,70 Q31,73 35,81 Q43,95 51,112 Q48,111 42,109 Q40,107 25,102 Q25,93 19,93 Q18,93 15,97 L5,126 Q16,128 21,137 Q31,157 37,180 Q37,182 38,185 Q40,193 42,205 L77,193 Q81,192 81,189 Q82,184 69,182 Q54,154 31,127 L58,128 L60,134 Q64,146 67,158 L94,147 Q93,150 93,153 Q93,162 100,166 Q112,173 116,189 L119,189 Q124,180 125,171 L160,171 Q156,174 154,180 Q153,194 145,206 M74,-25 L72,-21 Q116,6 132,33 L164,14 Q167,12 167,9 Q167,5 160,5 Q159,5 154,5 Q118,-15 74,-25 M211,165 L126,165 Q126,163 126,161 Q126,145 114,139 L146,132 Q177,143 195,157 L205,149 M96,29 Q57,7 27,-4 Q27,-14 21,-15 Q18,-16 17,-10 L6,21 Q20,21 33,23 Q57,26 95,33 M172,27 L174,30 Q241,15 240,-4 Q239,-20 224,-22 Q215,-22 211,-15 Q196,8 172,27 M143,91 L143,44 L171,44 L171,91"/> 
            <glyph glyph-name="聚" unicode="&#x805A;" horiz-adv-x="250" d=" M141,123 Q138,122 133,120 Q127,118 124,117 Q124,109 124,100 Q125,93 118,91 Q106,89 95,89 L95,107 Q89,105 76,101 Q45,91 31,87 Q31,76 25,76 Q22,76 22,80 L13,113 Q16,113 23,113 Q30,114 34,114 L34,182 L14,182 L14,187 L108,187 L121,205 L147,188 Q147,188 148,187 Q148,186 148,185 Q148,182 141,182 L124,182 L124,124 Q131,126 140,126 M44,63 L43,67 Q141,86 172,106 L199,84 Q201,83 201,80 Q201,77 198,77 Q193,77 189,79 Q184,78 173,76 Q159,73 152,72 Q165,53 181,41 Q197,56 206,76 L237,57 Q240,55 240,52 Q240,49 232,48 Q229,48 226,49 Q206,40 188,37 Q210,24 250,18 L249,15 Q236,9 222,-17 Q161,7 147,71 Q146,71 144,71 L144,52 Q144,43 145,16 Q145,-7 145,-14 Q145,-21 139,-22 Q127,-25 112,-25 Q112,-14 113,15 Q113,37 113,43 L113,67 Q82,64 44,63 M138,157 L140,160 Q143,159 149,158 Q167,155 185,149 Q192,159 198,174 L141,174 L141,179 L196,179 L207,195 L238,176 Q240,175 240,173 Q240,166 229,165 Q220,148 211,138 Q238,125 238,110 Q237,92 223,91 Q223,91 222,91 Q215,90 209,99 Q202,110 190,120 Q170,107 130,98 L129,102 Q157,117 173,134 Q160,145 138,157 M9,-20 L8,-16 Q59,9 79,31 L106,16 Q109,15 109,13 Q109,8 98,9 Q62,-9 9,-20 M11,12 L10,16 Q53,38 76,63 L102,48 Q105,47 105,45 Q105,41 94,41 Q59,22 11,12 M62,158 L62,140 L95,140 L95,158 M62,182 L62,163 L95,163 L95,182 M62,116 Q79,119 95,120 L95,134 L62,134"/> 
            <glyph glyph-name="育" unicode="&#x80B2;" horiz-adv-x="246" d=" M75,137 L175,139 Q163,149 147,158 L149,161 Q228,151 225,128 Q224,111 210,110 Q204,110 197,118 Q192,123 187,129 Q125,119 50,113 Q50,112 50,110 L85,101 L170,101 L180,118 L213,104 Q216,103 216,100 Q217,95 207,89 L207,65 Q207,32 208,4 Q211,-18 163,-24 Q164,0 125,5 L125,8 L162,7 Q174,7 174,19 L174,33 L81,33 L81,-14 Q82,-20 76,-21 Q63,-24 48,-24 Q48,-12 49,16 Q49,30 49,33 L49,54 Q49,76 48,106 Q47,103 44,103 Q41,103 40,108 L32,137 Q52,137 61,144 Q72,154 80,167 L10,167 L10,173 L115,173 Q113,176 113,179 Q111,197 105,205 L106,207 Q148,206 148,187 Q148,180 139,173 L195,173 L213,196 L243,174 Q244,174 245,173 Q246,173 246,172 Q245,167 238,167 L131,167 Q103,149 75,137 M174,95 L81,95 L81,70 L174,70 M81,64 L81,39 L174,39 L174,64"/> 
            <glyph glyph-name="艺" unicode="&#x827A;" horiz-adv-x="245" d=" M75,20 Q75,14 103,14 L179,14 Q200,12 208,35 L223,69 L226,68 L226,34 Q226,22 233,17 Q239,12 239,4 Q236,-13 194,-14 L100,-14 Q44,-14 43,17 Q45,50 136,105 L27,105 L27,111 L136,111 L152,127 L182,105 Q186,103 186,100 Q188,93 167,91 Q76,40 75,20 M146,205 L182,202 Q188,202 187,199 Q187,194 176,189 L176,177 L176,168 L198,168 L214,190 L243,169 Q245,169 245,167 Q244,162 237,162 L176,162 Q176,157 177,147 Q177,140 177,138 Q177,133 173,133 Q161,130 146,130 L146,162 L99,162 L99,134 Q99,128 94,127 Q78,125 69,125 Q69,129 70,144 Q70,155 70,158 L70,162 L9,162 L9,168 L70,168 L70,178 Q70,184 69,194 Q69,201 69,204 L105,202 Q111,201 110,198 Q109,194 99,189 L99,168 L146,168 L146,172 Q146,186 146,205"/> 
            <glyph glyph-name="节" unicode="&#x8282;" horiz-adv-x="249" d=" M185,110 L123,110 L123,61 Q123,41 124,-15 Q124,-21 119,-21 Q106,-24 90,-24 Q90,-6 91,19 Q92,51 92,61 L92,110 L26,110 L26,116 L180,116 L190,134 L224,120 Q228,120 228,116 Q228,110 218,103 L218,83 Q218,78 218,59 Q219,35 219,27 Q222,0 170,-3 Q170,22 138,28 L139,31 L169,30 Q185,29 185,45 M146,205 L183,202 Q188,202 188,199 Q188,193 177,189 L177,172 L199,172 L216,195 L247,173 Q249,172 249,170 Q248,165 241,165 L177,165 Q177,151 177,140 Q178,134 172,133 Q168,133 160,132 Q151,131 147,130 L147,165 L99,165 L99,137 Q99,133 93,131 Q77,129 68,129 Q68,137 69,153 Q69,162 69,164 L69,165 L8,165 L8,172 L69,172 L69,173 Q69,193 68,205 L104,202 Q110,202 109,199 Q109,195 99,190 L99,172 L147,172 Q146,179 146,205"/> 
            <glyph glyph-name="莱" unicode="&#x83B1;" horiz-adv-x="249" d=" M109,157 L145,154 Q149,154 150,151 Q151,146 141,141 L141,132 L190,132 L204,152 L233,133 Q235,131 235,129 Q235,126 227,125 L141,125 L141,72 L153,72 Q165,97 169,122 L205,110 Q208,110 208,106 Q209,102 197,100 Q179,82 164,72 L197,72 L213,93 L243,73 Q246,72 246,70 Q245,67 238,66 L149,66 Q186,25 249,22 L249,18 Q234,11 224,-14 Q169,1 142,66 L141,66 L141,26 Q141,7 141,-15 Q141,-22 135,-22 Q122,-25 109,-24 Q109,-19 109,-1 Q110,16 110,22 L110,37 Q69,0 9,-16 L7,-13 Q67,21 93,66 L14,66 L14,72 L110,72 L110,125 L22,125 L22,132 L110,132 Q110,151 109,157 M151,205 L184,202 Q189,202 189,199 Q189,195 180,190 L180,182 L180,178 L198,178 L214,198 L243,179 Q245,178 245,175 Q245,172 237,172 L180,172 Q180,165 180,156 Q180,150 176,150 Q163,147 151,146 L151,172 L102,172 L102,154 Q103,148 97,148 Q85,145 73,145 Q74,163 74,172 L10,172 L10,178 L74,178 L74,180 Q74,189 73,205 L107,202 Q112,202 112,199 Q112,195 102,190 L102,178 L151,178 Q151,188 151,205 M48,118 L50,121 Q94,111 93,90 Q92,73 74,72 Q65,71 63,83 Q57,108 48,118"/> 
            <glyph glyph-name="视" unicode="&#x89C6;" horiz-adv-x="249" d=" M153,161 L189,158 Q195,157 194,154 Q193,148 183,146 L183,124 Q183,101 179,81 L196,80 Q200,79 200,77 Q200,71 194,69 L194,16 Q193,7 202,8 L208,8 Q217,7 221,19 L234,55 L237,55 L237,25 Q237,16 244,9 Q249,5 249,0 Q248,-16 219,-17 L192,-17 Q165,-18 166,6 L166,40 Q143,-4 77,-26 L75,-22 Q159,37 155,120 L155,129 Q155,143 153,161 M231,144 Q231,101 232,72 Q233,66 227,66 Q218,63 201,63 L201,182 L138,182 L138,66 Q138,61 134,61 Q126,59 109,58 Q110,85 110,134 L110,151 Q110,182 109,197 L144,188 L197,188 L207,204 L236,192 Q239,190 239,188 Q239,183 231,177 M64,150 L9,150 L9,156 L61,156 L74,173 L103,155 Q106,154 106,151 Q106,144 94,143 Q83,119 68,100 L68,93 Q103,82 103,66 Q102,50 88,48 Q80,48 77,57 Q75,74 68,86 L68,-12 Q68,-21 61,-22 Q53,-24 38,-24 Q38,-13 39,5 Q40,31 40,56 L40,71 Q29,61 6,47 L4,50 Q52,111 64,150 M27,204 L29,206 Q67,198 67,181 Q65,162 48,161 Q39,161 36,172 Q33,192 27,204"/> 
            <glyph glyph-name="赛" unicode="&#x8D5B;" horiz-adv-x="250" d=" M101,207 L102,208 Q143,208 142,191 Q142,185 138,181 L200,181 L214,198 L244,177 Q249,175 248,172 Q248,166 233,166 Q220,161 205,157 L217,150 Q220,148 219,147 Q219,144 212,143 L175,143 L175,125 L180,125 L194,141 L213,126 Q216,125 215,123 Q215,120 208,119 L175,119 L175,101 L201,101 L216,119 L240,102 Q241,101 241,99 Q241,96 234,95 L168,95 Q194,76 250,72 L249,67 Q238,64 230,38 Q206,48 191,57 Q191,55 191,50 Q192,39 192,29 Q193,24 187,23 Q172,21 163,22 L163,70 L89,70 L89,21 Q90,15 84,15 Q72,12 60,12 Q61,26 61,53 Q41,42 11,33 L9,37 Q55,66 75,95 L17,95 L17,101 L76,101 L76,119 L50,119 L50,125 L76,125 L76,135 L76,143 L43,143 L43,148 Q35,139 26,138 Q11,139 10,154 Q9,165 20,170 Q36,181 42,197 L44,197 Q47,190 50,181 L112,181 Q111,183 111,184 Q109,195 101,207 M111,62 L145,59 Q151,59 150,56 Q151,52 142,47 Q141,41 141,36 Q139,26 136,19 Q182,16 198,11 Q221,5 221,-7 Q221,-23 205,-23 Q200,-24 188,-15 Q171,-2 133,12 Q116,-19 27,-24 L25,-19 Q113,1 111,37 Q113,52 111,62 M147,168 L179,165 Q185,165 184,162 Q184,157 175,154 L175,149 L184,149 L195,163 L200,160 L204,175 L50,175 Q51,172 51,169 Q51,158 44,149 L76,149 Q76,160 76,168 L108,165 Q113,165 113,162 Q113,157 104,154 L104,149 L147,149 Q147,160 147,168 M115,95 Q106,84 94,75 L96,75 L160,75 L166,83 Q165,85 162,89 Q160,93 158,95 M104,119 L104,101 L148,101 L148,119 M148,125 L148,136 L148,143 L104,143 L104,125"/> 
            <glyph glyph-name="足" unicode="&#x8DB3;" horiz-adv-x="249" d=" M210,155 Q210,154 210,149 Q211,128 211,111 Q211,103 206,102 Q192,100 178,100 L178,114 L148,114 L148,66 L184,66 L202,90 L233,67 Q235,66 235,64 Q235,61 228,60 L148,60 L148,15 Q161,14 179,14 Q216,14 249,19 L249,14 Q235,10 229,-18 Q219,-19 179,-19 Q95,-20 78,37 Q62,-5 10,-26 L7,-23 Q41,10 49,59 Q51,73 51,86 L92,78 Q98,78 97,74 Q96,68 86,65 Q83,54 81,45 Q93,29 116,21 L116,114 L78,114 L78,106 Q78,99 71,97 Q63,95 44,95 Q45,119 45,140 L45,159 Q45,179 44,197 L83,186 L173,186 L182,204 L216,191 Q222,189 221,186 Q221,180 210,174 M178,180 L78,180 L78,121 L178,121"/> 
            <glyph glyph-name="过" unicode="&#x8FC7;" horiz-adv-x="251" d=" M72,38 Q69,9 154,10 Q184,10 251,17 L251,13 Q238,7 236,-16 Q233,-16 225,-17 Q190,-19 171,-19 Q82,-23 62,24 Q53,11 33,-9 Q33,-21 28,-22 Q25,-22 24,-18 L6,15 Q20,19 40,30 L40,104 L8,104 L8,110 L36,110 L45,128 L78,115 Q78,115 79,115 Q83,113 83,111 Q83,105 72,97 M87,147 L87,153 L170,153 Q170,174 169,205 L209,202 Q214,202 214,198 Q213,191 202,187 L202,153 L205,153 L219,174 L246,155 Q247,154 247,152 Q245,148 239,147 L202,147 L202,128 Q202,118 203,86 Q204,65 204,53 Q203,23 156,18 Q157,45 122,51 L122,55 L156,54 Q170,54 170,67 L170,147 M23,200 L25,202 Q79,190 77,168 Q75,147 55,145 Q46,145 42,156 Q35,183 23,200 M97,129 L99,132 Q147,116 147,96 Q146,75 126,73 Q116,73 114,86 Q110,108 97,129"/> 
            <glyph glyph-name="这" unicode="&#x8FD9;" horiz-adv-x="251" d=" M70,34 Q72,9 141,7 Q183,6 251,13 L251,10 Q238,6 236,-17 Q188,-22 138,-19 Q75,-16 62,20 Q50,5 33,-12 Q33,-24 27,-23 Q25,-23 23,-19 L6,12 Q28,21 39,28 L39,104 L8,104 L8,110 L34,110 L44,128 L77,114 Q81,112 81,109 Q81,104 70,99 M82,154 L82,161 L196,161 L213,184 L245,162 Q247,160 247,158 Q247,155 239,154 L205,154 Q198,114 184,91 Q220,69 221,46 Q220,26 203,24 Q194,23 188,34 Q178,52 166,66 Q136,35 85,19 L82,24 Q121,48 146,87 Q132,102 95,127 L97,130 Q131,118 156,105 Q168,131 171,154 M23,200 L25,202 Q79,190 77,168 Q75,147 55,145 Q46,145 42,156 Q35,183 23,200 M129,205 L130,207 Q176,203 176,183 Q175,164 155,163 Q144,162 142,176 Q139,190 129,205"/> 
            <glyph glyph-name="追" unicode="&#x8FFD;" horiz-adv-x="251" d=" M99,179 L136,169 Q137,193 137,205 L171,201 Q177,201 177,198 Q178,193 168,190 Q160,178 148,168 L189,168 L198,185 L227,175 Q233,172 232,169 Q232,162 223,157 L223,144 Q223,129 224,119 Q224,114 218,112 Q206,110 193,110 L193,121 L131,121 L131,90 L194,90 L203,106 L233,94 Q239,92 238,89 Q238,85 229,78 L229,61 Q229,60 229,57 Q228,42 229,29 Q230,23 224,23 Q212,20 198,20 L198,34 L131,34 L131,27 Q131,21 124,20 Q112,17 99,17 Q99,37 100,67 Q100,79 100,82 L100,145 Q100,152 99,163 Q99,173 99,179 M67,34 Q64,9 140,8 Q183,7 251,14 L251,10 Q236,4 236,-18 Q196,-20 154,-20 Q84,-22 60,23 Q48,6 31,-11 Q31,-23 26,-24 Q25,-24 22,-20 L5,13 Q24,20 37,28 L37,102 L6,102 L6,108 L32,108 L42,125 L72,113 Q78,111 77,107 Q77,102 67,96 M198,83 L131,83 L131,40 L198,40 M193,162 L131,162 L131,127 L193,127 M23,199 L25,201 Q73,190 71,166 Q70,147 50,145 Q40,145 38,157 Q35,176 23,199"/> 
            <glyph glyph-name="都" unicode="&#x90FD;" horiz-adv-x="251" d=" M55,205 L89,202 Q94,202 94,198 Q95,195 83,189 L83,170 L84,170 L93,183 L109,172 L110,171 Q112,175 116,184 Q119,192 121,195 L151,183 Q151,183 151,182 Q151,190 151,197 L184,188 L205,188 L216,203 L247,187 Q251,185 251,183 Q251,177 238,174 Q225,148 200,114 Q247,87 246,55 Q248,12 202,10 Q202,31 180,38 L180,-15 Q181,-22 175,-23 Q157,-25 150,-25 Q152,-2 152,52 L152,120 Q151,120 149,120 L106,120 Q87,99 76,90 L100,90 L108,105 L136,93 Q140,92 140,90 Q141,86 132,79 L132,51 Q132,27 133,1 Q133,-4 127,-5 Q117,-8 103,-8 L103,5 L63,5 L63,-4 Q63,-13 56,-14 Q55,-14 53,-14 Q44,-16 34,-16 Q34,-2 35,19 Q35,30 35,33 L35,57 L35,61 Q21,53 7,47 L5,51 Q14,58 33,74 Q34,75 34,75 Q34,86 34,98 L54,93 Q68,109 77,120 L10,120 L10,126 L56,126 L56,159 L56,164 L18,164 L18,170 L56,170 Q55,185 55,205 M207,182 L180,182 L180,42 L202,41 Q214,42 215,57 Q216,86 192,113 M63,45 L63,11 L103,11 L103,45 M69,84 Q68,83 66,82 Q64,80 63,79 L63,51 L103,51 L103,84 M152,140 Q152,157 152,175 Q149,174 143,172 Q128,146 111,126 L120,126 L134,143 L152,129 M104,164 L83,164 L83,128 Q95,143 105,161 Q105,162 106,163 Q107,164 107,165 Q106,164 104,164"/> 
            <glyph glyph-name="里" unicode="&#x91CC;" horiz-adv-x="248" d=" M33,198 L71,188 L179,188 L188,205 L221,192 Q227,190 226,187 Q226,182 216,176 L216,122 Q216,120 216,115 Q217,97 217,80 Q218,73 211,72 Q208,71 196,70 Q187,69 184,69 L184,84 L141,84 L141,43 L183,43 L200,65 L230,44 Q231,44 231,41 Q231,38 223,37 L141,37 L141,-8 L196,-8 L215,14 L247,-7 Q248,-9 248,-10 Q248,-14 241,-14 L8,-14 L8,-8 L108,-8 L108,37 L27,37 L27,43 L108,43 L108,84 L66,84 L66,77 Q66,68 59,67 Q43,65 33,65 Q34,89 34,105 L34,159 Q34,181 33,198 M141,133 L141,91 L184,91 L184,133 M184,182 L141,182 L141,140 L184,140 M66,133 L66,91 L108,91 L108,133 M66,182 L66,140 L108,140 L108,182"/> 
            <glyph glyph-name="量" unicode="&#x91CF;" horiz-adv-x="250" d=" M45,107 L82,100 L176,100 L185,115 L216,104 Q219,103 219,100 Q219,94 210,89 L210,74 Q210,56 211,39 Q211,35 209,33 L231,18 Q233,17 233,15 Q233,12 225,12 L143,12 L143,-8 L201,-8 L216,11 L244,-7 Q247,-7 247,-10 Q247,-13 239,-13 L13,-13 L13,-8 L112,-8 L112,12 L28,12 L28,17 L112,17 L112,39 L76,39 L76,36 Q76,28 68,28 Q60,26 44,26 Q45,38 45,64 L45,80 Q45,92 45,107 M44,198 L82,191 L174,191 L183,206 L213,195 Q219,193 218,190 Q219,187 209,180 L209,176 Q209,151 210,140 Q211,133 204,132 Q194,129 178,129 L178,137 L76,137 Q75,133 69,131 Q53,129 44,129 Q45,140 45,161 L45,171 Q45,191 44,198 M76,162 L76,143 L178,143 L178,162 M178,186 L76,186 L76,167 L178,167 M9,116 L9,122 L206,122 L221,142 L249,123 Q250,122 250,120 Q250,117 242,116 M201,30 Q187,28 180,28 L180,39 L143,39 L143,17 L191,17 M180,94 L143,94 L143,72 L180,72 M143,67 L143,44 L180,44 L180,67 M76,94 L76,72 L112,72 L112,94 M76,67 L76,44 L112,44 L112,67"/> 
            <glyph glyph-name="门" unicode="&#x95E8;" horiz-adv-x="237" d=" M61,204 L63,205 Q113,199 113,177 Q112,156 93,155 Q82,155 79,167 Q74,188 61,204 M196,176 L129,176 L129,182 L190,182 L200,200 L233,187 Q237,185 237,182 Q237,176 228,169 L228,88 Q228,43 229,5 Q231,-23 184,-25 Q188,-3 148,4 L148,8 L185,6 Q196,6 196,17 M29,171 L65,168 Q70,168 70,164 Q71,160 61,156 L61,-14 Q62,-21 55,-22 Q39,-24 29,-24 Q30,8 30,49 L30,113 Q30,146 29,171"/> 
            <glyph glyph-name="间" unicode="&#x95F4;" horiz-adv-x="242" d=" M177,92 Q177,50 178,30 Q178,25 173,23 Q164,20 147,20 L147,36 L105,36 L105,24 Q106,18 100,17 Q88,14 75,14 Q76,35 76,70 L76,105 Q76,124 76,146 L112,136 L143,136 L152,153 L182,140 Q186,139 186,135 Q186,131 177,124 M201,174 L114,174 L114,180 L196,180 L206,198 L238,184 Q242,182 242,179 Q242,173 233,168 L233,131 Q233,129 233,105 Q235,25 235,5 Q238,-21 187,-25 Q187,0 154,8 L155,12 L188,11 Q201,11 201,24 M23,159 L59,156 Q64,156 64,152 Q64,147 54,144 L54,-12 Q54,-20 47,-22 Q33,-24 22,-24 Q24,19 24,50 L24,114 Q24,121 24,136 Q23,151 23,159 M105,83 L105,42 L147,42 L147,83 M147,130 L105,130 L105,90 L147,90 M49,203 L50,205 Q102,200 102,175 Q100,156 80,154 Q69,154 67,166 Q61,188 49,203"/> 
            <glyph glyph-name="陆" unicode="&#x9646;" horiz-adv-x="249" d=" M154,203 L189,200 Q194,199 194,196 Q194,191 184,186 L184,152 L196,152 L210,172 L235,153 Q237,152 237,150 Q237,146 229,146 L184,146 L184,103 L205,103 L220,124 L247,104 Q249,103 249,101 Q249,98 241,97 L184,97 L184,2 L202,2 L202,33 Q202,34 202,37 Q203,56 202,76 L232,73 Q238,73 238,69 Q239,66 229,61 L229,26 Q229,24 229,16 Q230,-3 230,-15 Q230,-20 226,-20 Q216,-23 202,-24 L202,-2 L139,-2 L129,-14 Q116,-9 106,0 Q104,0 104,1 Q104,3 106,4 Q112,7 111,14 L111,32 Q111,33 111,36 Q112,54 111,75 L141,72 Q144,72 145,69 Q146,65 137,60 L137,2 L155,2 L155,97 L96,97 L96,103 L155,103 L155,132 L155,146 L106,146 L106,152 L155,152 Q155,158 155,174 Q154,193 154,203 M20,195 L51,186 L69,186 L79,201 L109,184 Q112,182 112,179 Q112,175 100,174 Q97,169 91,158 Q76,132 65,115 Q103,89 102,59 Q104,16 63,12 Q63,30 49,37 L49,-14 Q49,-20 43,-22 Q35,-24 20,-24 Q21,31 21,95 L21,134 Q21,171 20,195 M71,180 L49,180 L49,42 L61,42 Q75,42 76,61 Q77,91 58,114"/> 
            <glyph glyph-name="院" unicode="&#x9662;" horiz-adv-x="251" d=" M16,199 L50,190 L65,190 L75,206 L105,191 Q108,189 108,187 Q109,181 97,179 Q96,178 95,175 Q81,150 60,118 Q97,90 96,59 Q97,20 61,19 Q62,41 45,48 L45,-12 Q46,-18 40,-20 Q26,-23 15,-22 Q15,-7 16,18 Q17,74 17,97 L17,139 Q17,145 17,161 Q16,186 16,199 M95,82 L95,88 L199,88 L215,110 L245,89 Q246,88 246,86 Q246,83 239,82 L199,82 L199,17 Q198,7 206,8 L211,8 Q219,7 223,19 L234,52 L238,52 L239,21 Q239,14 244,9 Q250,4 250,-1 Q251,-19 219,-19 L196,-19 Q167,-21 169,4 L169,82 L152,82 Q155,-1 65,-24 L63,-21 Q123,10 121,82 M142,206 L142,207 Q181,205 182,186 Q182,176 171,170 L204,170 L217,187 L246,167 Q250,165 250,162 Q250,157 237,156 Q223,147 208,142 L225,130 Q226,129 226,126 Q226,123 218,123 L114,123 L114,129 L182,129 L197,149 L202,145 L208,164 L121,164 Q121,163 122,162 Q123,157 123,151 Q121,129 102,127 Q88,128 87,142 Q87,150 94,156 Q107,166 111,183 L113,183 Q114,181 116,177 Q118,172 119,170 L154,170 Q150,173 150,178 Q148,194 142,206 M67,184 L45,184 L45,51 L58,51 Q69,51 69,62 Q70,91 52,117"/> 
            <glyph glyph-name="集" unicode="&#x96C6;" horiz-adv-x="250" d=" M112,206 L113,207 Q153,206 152,188 Q152,179 142,175 L185,175 L200,195 L231,175 Q231,175 232,174 Q233,174 233,173 Q232,168 225,168 L148,168 L148,146 L180,146 L194,164 L220,147 Q223,146 222,144 Q222,141 215,140 L148,140 L148,117 L179,117 L195,136 L221,118 Q223,116 223,114 Q221,111 215,111 L148,111 L148,88 L187,88 L204,108 L232,89 Q235,88 234,86 Q234,83 227,82 L71,82 L71,77 Q71,68 64,67 Q50,65 40,65 Q41,99 41,128 L41,136 Q28,126 9,113 L6,117 Q49,169 59,208 L95,196 Q99,195 99,192 Q99,187 86,185 Q85,182 81,178 Q80,176 79,175 L123,175 Q120,176 120,182 Q118,194 112,206 M109,76 L145,73 Q150,73 150,70 Q150,66 141,61 L141,54 L196,54 L212,74 L242,55 Q244,54 244,52 Q244,49 236,48 L150,48 Q184,21 250,20 L249,15 Q233,9 227,-16 Q164,0 141,48 L141,29 Q141,26 141,15 Q142,-4 142,-14 Q142,-21 136,-22 Q123,-24 109,-24 Q109,-11 110,8 Q110,19 110,23 Q70,-9 9,-18 L7,-13 Q61,11 94,48 L14,48 L14,54 L110,54 Q110,62 109,76 M71,140 L71,117 L117,117 L117,140 M71,111 L71,88 L117,88 L117,111 M74,168 Q73,166 71,166 L71,146 L117,146 L117,168"/> 
            <glyph glyph-name="韩" unicode="&#x97E9;" horiz-adv-x="250" d=" M10,168 L10,174 L53,174 Q53,186 53,205 L86,202 Q91,201 91,198 Q91,194 81,189 L81,174 L92,174 L105,192 L127,175 Q129,174 129,172 Q129,169 122,168 L81,168 L81,140 L85,140 L93,155 L121,144 Q125,142 125,139 Q126,135 116,129 L116,109 Q116,101 117,68 Q117,61 111,60 Q101,59 89,57 L89,69 L81,69 L81,44 L81,35 L95,35 L109,53 L133,35 Q135,35 135,32 Q135,29 128,28 L81,28 Q81,-1 82,-14 Q82,-21 76,-22 Q74,-22 71,-23 Q63,-24 53,-24 Q53,-13 54,7 Q54,22 54,28 L7,28 L7,35 L54,35 L54,40 L54,69 L46,69 L46,63 Q46,56 39,54 Q31,52 19,52 Q19,81 19,94 L19,110 Q19,116 19,148 L52,140 L53,140 L53,161 L53,168 M151,205 L188,202 Q193,202 193,199 Q194,193 182,189 L182,166 L201,166 L216,185 L242,166 Q245,165 244,164 Q243,159 236,159 L182,159 L182,125 L194,125 L207,144 L234,126 Q236,125 236,123 Q235,120 228,119 L182,119 L182,82 L206,82 L215,97 L244,86 Q250,84 249,80 Q249,77 239,70 Q239,43 238,35 Q235,0 197,0 Q199,18 182,24 Q182,8 183,-12 Q183,-20 177,-21 Q165,-24 151,-24 Q152,20 152,67 L152,76 L119,76 L119,82 L152,82 L152,119 L123,119 L123,125 L152,125 L152,139 L152,159 L117,159 L117,166 L152,166 Q152,191 151,205 M210,76 L182,76 L182,67 Q182,52 182,30 L196,29 Q207,27 208,40 Q210,60 210,76 M46,101 L46,75 L89,75 L89,101 M89,134 L46,134 L46,108 L89,108"/> 
            <glyph glyph-name="颗" unicode="&#x9897;" horiz-adv-x="250" d=" M8,71 L8,77 L53,77 L53,104 L39,104 L39,101 Q39,93 33,93 Q25,91 14,91 Q15,114 15,138 L15,162 Q15,174 15,197 L44,190 L90,190 L98,206 L123,194 Q126,193 126,190 Q126,186 117,180 L117,158 Q117,156 117,146 Q118,123 118,108 Q119,102 113,101 Q101,98 94,98 L94,104 L79,104 L79,77 L91,77 L103,94 L125,78 Q127,77 127,75 Q128,72 119,71 L79,71 L79,57 Q123,48 122,30 Q121,12 106,11 Q100,10 96,20 Q91,35 79,51 L79,49 Q79,45 79,29 Q80,0 80,-14 Q80,-20 73,-22 Q66,-23 52,-23 Q52,-16 52,2 Q53,25 53,35 Q36,9 9,-7 L7,-4 Q36,38 44,71 M130,187 L130,193 L208,193 L222,211 L247,194 Q250,193 249,191 Q249,188 242,187 L200,187 Q185,164 172,152 L206,152 L215,169 L244,156 Q250,155 249,152 Q250,147 238,141 L238,116 Q238,78 239,45 Q240,38 233,37 Q226,34 210,34 L210,145 L157,145 L157,40 Q158,34 152,33 Q142,30 130,30 Q131,49 131,92 L131,116 Q131,121 131,138 Q130,155 130,160 L161,152 Q161,154 161,157 Q163,171 163,187 M169,126 L199,123 Q204,123 204,120 Q205,116 196,112 L196,74 Q197,48 191,30 Q247,17 246,-3 Q244,-19 229,-21 Q223,-21 219,-14 Q210,3 189,25 Q175,-10 108,-25 L106,-20 Q175,6 170,74 L170,88 Q170,108 169,126 M94,184 L79,184 L79,150 L94,150 M39,144 L39,110 L53,110 L53,144 M39,184 L39,150 L53,150 L53,184 M79,144 L79,110 L94,110 L94,144"/> 
            <glyph glyph-name="颜" unicode="&#x989C;" horiz-adv-x="250" d=" M128,178 L128,185 L208,185 L221,204 L248,186 Q250,185 250,183 Q249,178 242,178 L200,178 Q185,153 173,140 L206,140 L214,155 L242,144 Q246,143 246,139 Q247,135 237,129 L237,109 Q237,71 238,37 Q239,30 232,29 Q225,26 210,26 L210,134 L160,134 L160,34 Q160,27 154,26 Q144,23 132,23 Q133,50 133,90 L133,107 Q133,109 133,116 Q134,137 133,148 L162,140 Q164,161 162,145 Q164,161 164,178 M19,126 L52,117 L74,117 Q81,135 87,166 L119,156 Q123,155 123,152 Q122,146 112,146 Q99,131 81,117 L97,117 L109,133 L131,118 Q132,115 132,114 Q132,111 125,111 L97,111 L118,97 Q122,95 122,92 Q122,89 115,89 Q113,89 111,89 Q82,73 50,63 L48,67 Q78,89 93,111 L48,111 L48,93 Q48,45 40,22 Q32,0 7,-21 L4,-19 Q22,16 20,79 L20,89 Q20,105 19,126 M171,122 L202,119 Q206,119 206,116 Q207,112 198,108 L198,76 Q198,45 191,26 Q249,16 246,-4 Q244,-21 228,-23 Q220,-24 218,-16 Q204,8 189,20 Q174,-12 109,-26 L107,-22 Q148,-2 159,16 Q173,34 172,74 L172,90 Q172,104 171,122 M23,-25 L21,-22 Q79,9 105,42 L129,24 Q132,21 132,18 Q131,15 123,15 Q123,15 120,15 Q83,-12 23,-25 M12,169 L12,175 L61,175 Q58,178 58,182 Q56,197 49,207 L50,208 Q87,207 87,189 Q87,180 79,175 L94,175 L106,192 L129,176 Q132,175 132,173 Q132,170 124,169 M46,22 L44,26 Q84,56 100,80 L124,64 Q127,62 127,59 Q126,55 120,56 Q119,56 116,56 Q86,35 46,22 M29,163 L31,165 Q68,155 67,138 Q65,123 50,121 Q41,121 40,130 Q38,150 29,163"/> 
            <glyph glyph-name="高" unicode="&#x9AD8;" horiz-adv-x="247" d=" M173,8 Q173,7 173,5 L182,5 Q196,4 195,17 L195,80 L61,80 L61,-14 Q61,-20 55,-21 Q41,-23 29,-23 Q31,0 31,17 L31,63 Q31,67 31,79 Q30,92 30,95 L73,86 L191,86 L201,102 L231,89 Q235,87 235,84 Q235,79 226,74 L226,56 Q226,27 227,5 Q230,-19 186,-24 Q189,-1 164,1 Q155,0 144,0 L144,12 L109,12 L109,5 Q109,1 105,0 Q105,0 104,0 Q91,-3 80,-3 L80,68 L115,59 L141,59 L149,73 L177,63 Q181,61 181,58 Q182,54 173,48 M196,136 Q196,121 196,106 Q197,102 192,100 Q178,98 166,98 L166,106 L86,106 L86,104 Q86,97 79,97 Q74,95 63,95 Q58,94 55,94 Q56,103 56,126 L56,133 Q56,146 56,158 L94,150 L162,150 L171,165 L199,155 Q205,154 204,150 Q205,145 196,139 M98,204 L99,206 Q144,206 143,188 Q143,179 136,175 L203,175 L219,195 L246,175 Q247,175 247,173 Q247,170 240,169 L11,169 L11,175 L111,175 Q109,177 109,180 Q106,191 99,202 Q98,203 98,204 M166,144 L86,144 L86,112 L166,112 M144,53 L109,53 L109,18 L144,18"/> 
            <glyph glyph-name="，" unicode="&#xFF0C;" horiz-adv-x="88" d=" M46,-31 L40,-23 Q60,-12 64,-2 Q66,5 56,5 Q39,9 38,26 Q40,47 62,49 Q87,48 88,21 Q88,-14 46,-31"/> 
        </font>
</defs>
</svg>
