<?xml version="1.0" standalone="no"?>
<!DOCTYPE svg PUBLIC "-//W3C//DTD SVG 1.1//EN" "http://www.w3.org/Graphics/SVG/1.1/DTD/svg11.dtd" >
<svg xmlns="http://www.w3.org/2000/svg">
    <defs>
        <font id="">
            <font-face font-family=""
                       units-per-em="1024"
                       ascent="1069"
                       descent="-289"
                       bbox="-40 -289 977 1069"
                    />
            <missing-glyph horiz-adv-x="0" />
            
            <glyph glyph-name="&quot;" unicode="&#x22;" horiz-adv-x="268" d=" M107,733 L163,733 Q163,685 161.5,639 Q160,593 158,545 L112,545 Q110,593 108.5,639 Q107,685 107,733 M211,733 L268,733 Q268,685 266.5,639 Q265,593 263,545 L216,545 Q214,593 212.5,639 Q211,685 211,733"/> 
            <glyph glyph-name="." unicode="&#x2E;" horiz-adv-x="191" d=" M191,-34 L119,-34 L119,38 L191,38"/> 
            <glyph glyph-name="0" unicode="&#x30;" horiz-adv-x="545" d=" M293,733 Q360,733 408,700.5 Q456,668 486.5,613 Q517,558 531,487 Q545,416 545,339.5 Q545,263 531,192.5 Q517,122 486.5,68 Q456,14 408,-18.5 Q360,-51 293,-51 Q226,-51 178.5,-18.5 Q131,14 101,68 Q71,122 57,192.5 Q43,263 43,339.5 Q43,416 57,487 Q71,558 101,613 Q131,668 178.5,700.5 Q226,733 293,733 M294,0 Q342,0 379,25.5 Q416,51 440.5,96 Q465,141 478,203.5 Q491,266 491,340 Q491,414 478,477 Q465,540 440.5,585.5 Q416,631 379,656.5 Q342,682 294,682 Q246,682 209,656.5 Q172,631 147,585.5 Q122,540 109.5,477 Q97,414 97,340 Q97,266 109.5,203.5 Q122,141 147,96 Q172,51 209,25.5 Q246,0 294,0"/> 
            <glyph glyph-name="1" unicode="&#x31;" horiz-adv-x="307" d=" M307,-40 L252,-40 L252,663 L61,559 L61,617 L263,727 L307,727"/> 
            <glyph glyph-name="2" unicode="&#x32;" horiz-adv-x="523" d=" M286,733 Q335,733 376,717 Q417,701 446,672 Q475,643 491.5,602.5 Q508,562 508,514 Q508,458 479.5,407.5 Q451,357 406,309 Q391,293 371.5,272 Q352,251 330.5,227 Q309,203 285.5,177.5 Q262,152 240,128 Q188,72 132,11 L523,11 L523,-40 L51,-40 L51,3 Q115,70 172,132 Q196,158 221.5,185.5 Q247,213 271,238.5 Q295,264 315.5,286 Q336,308 351,324 Q397,374 425.5,420 Q454,466 454,514 Q454,591 408,635 Q362,679 286,679 Q245,679 212,666.5 Q179,654 156,631.5 Q133,609 120.5,577 Q108,545 108,506 L54,506 Q54,551 68.5,592 Q83,633 112,664.5 Q141,696 184.5,714.5 Q228,733 286,733"/> 
            <glyph glyph-name="3" unicode="&#x33;" horiz-adv-x="531" d=" M379,370 Q451,353 491,299.5 Q531,246 531,174 Q531,124 514,83 Q497,42 465,12 Q433,-18 387.5,-34.5 Q342,-51 285,-51 Q203,-51 142,-15 Q81,21 42,99 L88,126 Q121,61 171.5,30.5 Q222,0 285,0 Q377,0 427,48 Q477,96 477,174 Q477,207 463.5,237.5 Q450,268 424.5,291.5 Q399,315 362.5,329 Q326,343 281,343 L215,343 L215,394 L282,394 Q318,394 350,404 Q382,414 405.5,432.5 Q429,451 442.5,478.5 Q456,506 456,541 Q456,602 413,642 Q370,682 290,682 Q219,682 173,648.5 Q127,615 116,561 L62,561 Q68,598 87.5,629.5 Q107,661 137,684 Q167,707 206,720 Q245,733 290,733 Q339,733 379.5,718 Q420,703 449,677 Q478,651 494,616 Q510,581 510,542 Q510,482 476.5,436 Q443,390 379,370"/> 
            <glyph glyph-name="4" unicode="&#x34;" horiz-adv-x="575" d=" M384,176 L384,622 L80,176 M438,176 L575,176 L575,125 L438,125 L438,-40 L384,-40 L384,125 L13,125 L13,168 L395,727 L438,727"/> 
            <glyph glyph-name="5" unicode="&#x35;" horiz-adv-x="520" d=" M284,446 Q336,446 379,428.5 Q422,411 453.5,379 Q485,347 502.5,302 Q520,257 520,202 Q520,143 501.5,96.5 Q483,50 450,17 Q417,-16 371,-33.5 Q325,-51 270,-51 Q200,-51 140.5,-19 Q81,13 50,74 L94,100 Q119,50 166,25 Q213,0 270,0 Q313,0 349,13.5 Q385,27 411,52.5 Q437,78 451,116 Q465,154 465,202 Q465,245 452,281 Q439,317 415,342 Q391,367 357.5,381 Q324,395 284,395 Q230,395 186,371 Q142,347 116,303 L72,303 L115,722 L491,722 L491,671 L163,671 L134,385 Q160,412 200.5,429 Q241,446 284,446"/> 
            <glyph glyph-name="6" unicode="&#x36;" horiz-adv-x="535" d=" M300,390 Q241,390 194,359.5 Q147,329 124,274 Q118,257 114.5,239 Q111,221 111,201 Q111,156 124,118.5 Q137,81 160.5,55 Q184,29 217.5,14.5 Q251,0 292.5,0 Q334,0 368.5,13.5 Q403,27 428,52 Q453,77 467,113 Q481,149 481,194 Q481,237 468,273.5 Q455,310 431,335.5 Q407,361 373.5,375.5 Q340,390 300,390 M311,733 Q389,733 447,692.5 Q505,652 532,574 L484,556 Q461,617 414.5,649.5 Q368,682 311,682 Q210,682 161,598.5 Q112,515 107,341 L107,330 L112,341 Q141,387 191.5,414 Q242,441 301,441 Q354,441 397.5,422 Q441,403 471.5,369 Q502,335 518.5,289.5 Q535,244 535,192 Q535,135 516.5,90 Q498,45 465,13.5 Q432,-18 388,-34.5 Q344,-51 292.5,-51 Q241,-51 199,-33.5 Q157,-16 127,16.5 Q97,49 79,94 Q61,139 57,195 Q55,225 53.5,263.5 Q52,302 54,336 Q58,431 73.5,505 Q89,579 119.5,629.5 Q150,680 197,706.5 Q244,733 311,733"/> 
            <glyph glyph-name="7" unicode="&#x37;" horiz-adv-x="521" d=" M521,678 L210,-40 L151,-40 L461,671 L59,671 L59,722 L521,722"/> 
            <glyph glyph-name="8" unicode="&#x38;" horiz-adv-x="552" d=" M132,541 Q132,508 143.5,480.5 Q155,453 176.5,433 Q198,413 229,402 Q260,391 298,391 Q333,391 363.5,402 Q394,413 416.5,433 Q439,453 451.5,480.5 Q464,508 464,541 Q464,569 452.5,595 Q441,621 419.5,640.5 Q398,660 367,671.5 Q336,683 298,683 Q260,683 229.5,671.5 Q199,660 177,640.5 Q155,621 143.5,595.5 Q132,570 132,541 M97,169 Q97,130 111.5,98.5 Q126,67 152.5,45.5 Q179,24 215.5,12 Q252,0 297,0 Q389,0 443.5,45.5 Q498,91 498,170 Q498,205 483,236.5 Q468,268 441.5,291.5 Q415,315 378,328.5 Q341,342 296.5,342 Q252,342 215,328.5 Q178,315 151.5,291.5 Q125,268 111,236.5 Q97,205 97,169 M298,733 Q344,733 384,719.5 Q424,706 454,681 Q484,656 501,620.5 Q518,585 518,540 Q518,510 508.5,482.5 Q499,455 482,432.5 Q465,410 442.5,393.5 Q420,377 395,370 Q426,361 454.5,342.5 Q483,324 505,298 Q527,272 539.5,239.5 Q552,207 552,171 Q552,120 533.5,79 Q515,38 481.5,9 Q448,-20 401,-35.5 Q354,-51 297.5,-51 Q241,-51 194.5,-36 Q148,-21 114,7.5 Q80,36 61.5,77 Q43,118 43,170 Q43,208 55.5,240.5 Q68,273 90,299 Q112,325 140.5,343 Q169,361 201,370 Q174,377 151.5,394 Q129,411 112.5,433.5 Q96,456 87,483.5 Q78,511 78,540 Q78,583 95,619 Q112,655 142,680 Q172,705 212,719 Q252,733 298,733"/> 
            <glyph glyph-name="9" unicode="&#x39;" horiz-adv-x="524" d=" M286,682 Q244,682 209.5,667 Q175,652 151,626 Q127,600 114,564.5 Q101,529 101,488 Q101,397 148.5,345 Q196,293 278,293 Q338,293 383,324 Q428,355 450,411 Q463,441 463,481 Q463,523 450,560 Q437,597 414,624 Q391,651 358.5,666.5 Q326,682 286,682 M286,733 Q338,733 379.5,714.5 Q421,696 450.5,663 Q480,630 497.5,585 Q515,540 520,487 Q522,457 523,421 Q524,385 522,347 Q520,269 508.5,197 Q497,125 469.5,70 Q442,15 393,-18 Q344,-51 267,-51 Q106,-51 44,95 L90,118 Q115,56 161,28 Q207,0 267,0 Q327,0 365,29 Q403,58 425.5,105.5 Q448,153 457,213 Q466,273 468,336 L468,351 Q467,349 464.5,344.5 Q462,340 460,338 Q428,290 381,266 Q334,242 276,242 Q223,242 180.5,260 Q138,278 108,310.5 Q78,343 62,388.5 Q46,434 46,490 Q46,538 63,582 Q80,626 111.5,659.5 Q143,693 187,713 Q231,733 286,733"/> 
            <glyph glyph-name="A" unicode="&#x41;" horiz-adv-x="622" d=" M5,-40 L296,722 L338,722 L622,-40 L564,-40 L316,625 L61,-40 M496,206 L134,206 L134,257 L496,257"/> 
            <glyph glyph-name="I" unicode="&#x49;" horiz-adv-x="135" d=" M135,-40 L80,-40 L80,722 L135,722"/> 
            <glyph glyph-name="M" unicode="&#x4D;" horiz-adv-x="782" d=" M445,-40 L407,-40 L123,584 L123,-40 L70,-40 L70,722 L115,722 L426,44 L737,722 L782,722 L782,-40 L729,-40 L729,584"/> 
            <glyph glyph-name="U" unicode="&#x55;" horiz-adv-x="579" d=" M324,-51 Q260,-51 212,-29 Q164,-7 132.5,32.5 Q101,72 85.5,127.5 Q70,183 70,251 L70,722 L125,722 L125,267 Q125,212 134.5,163.5 Q144,115 167.5,78.5 Q191,42 229,21 Q267,0 324,0 Q384,0 422.5,20 Q461,40 483.5,75.5 Q506,111 514.5,160 Q523,209 523,267 L523,722 L579,722 L579,267 Q579,194 563.5,135.5 Q548,77 516.5,35.5 Q485,-6 437,-28.5 Q389,-51 324,-51"/> 
            <glyph glyph-name="h" unicode="&#x68;" horiz-adv-x="533" d=" M125,-40 L70,-40 L70,752 L125,752 M533,-40 L478,-40 L478,310 Q478,350 465.5,378 Q453,406 433.5,422.5 Q414,439 390,446.5 Q366,454 342,454 Q264,454 207.5,412.5 Q151,371 120,296 L80,315 Q117,405 182.5,455 Q248,505 342,505 Q382,505 417,490.5 Q452,476 478,450.5 Q504,425 518.5,389 Q533,353 533,310"/> 
            <glyph glyph-name="m" unicode="&#x6D;" horiz-adv-x="819" d=" M469,-31 L417,-31 L417,310 Q417,376 386.5,414.5 Q356,453 305,453 Q242,453 192,408 Q142,363 119,285 L78,299 Q89,341 109.5,378.5 Q130,416 159,443.5 Q188,471 224.5,487.5 Q261,504 305,504 Q344,504 374.5,488.5 Q405,473 426.5,446 Q448,419 459,384 Q470,349 470,310 L470,-31 M818,-31 L766,-31 L766,310 Q766,376 735.5,414.5 Q705,453 652,453 Q621,453 592,441 Q563,429 538.5,407.5 Q514,386 495.5,355 Q477,324 467,285 L426,299 Q436,341 456.5,378 Q477,415 506,443 Q535,471 571.5,487.5 Q608,504 652,504 Q691,504 722,488.5 Q753,473 774.5,446.5 Q796,420 807.5,384.5 Q819,349 819,310 L819,-31 M122,-31 L70,-31 L70,493 L123,493 L123,-31"/> 
            <glyph glyph-name="一" unicode="&#x4E00;" horiz-adv-x="962" d=" M63,357 L63,415 L962,415 L962,357"/> 
            <glyph glyph-name="万" unicode="&#x4E07;" horiz-adv-x="948" d=" M83,684 L83,740 L948,740 L948,684 L420,684 Q417,568 407,467 L838,467 Q834,375 828.5,277 Q823,179 817,105 Q808,-81 645,-75 Q558,-76 482,-76 Q476,-37 470,-12 Q519,-14 553.5,-14.5 Q588,-15 635,-15 Q751,-23 758,113 Q763,166 768,249 Q773,332 775,411 L402,411 Q385,243 319.5,124 Q254,5 114,-105 Q100,-87 70,-58 Q211,51 272.5,164.5 Q334,278 346,450 Q356,564 359,684"/> 
            <glyph glyph-name="三" unicode="&#x4E09;" horiz-adv-x="950" d=" M173,336 L173,392 L846,392 L846,336 M74,-28 L74,30 L950,30 L950,-28 M131,662 L131,719 L889,719 L889,662"/> 
            <glyph glyph-name="个" unicode="&#x4E2A;" horiz-adv-x="958" d=" M482,-103 L482,471 L542,471 L542,-103 M918,367 Q779,446 686.5,527.5 Q594,609 518,720 Q372,500 102,351 Q77,385 63,399 Q384,573 510,815 L571,804 Q560,784 548,766 Q698,547 958,420 Q939,398 918,367"/> 
            <glyph glyph-name="久" unicode="&#x4E45;" horiz-adv-x="956" d=" M911,-96 Q673,43 560,297 Q419,72 112,-101 Q90,-71 68,-46 Q320,83 452,252.5 Q584,422 633,621 L337,621 Q271,491 169,375 Q146,399 123,418 Q282,590 353,811 L414,794 Q390,731 366,679 L697,679 L697,616 Q658,471 593,352 Q707,89 956,-31 Q933,-62 911,-96"/> 
            <glyph glyph-name="二" unicode="&#x4E8C;" horiz-adv-x="946" d=" M77,10 L77,67 L946,67 L946,10 M145,632 L145,689 L879,689 L879,632"/> 
            <glyph glyph-name="亮" unicode="&#x4EAE;" horiz-adv-x="959" d=" M279,552 L279,463 L738,463 L738,552 M83,679 L83,727 L489,727 L464,812 L521,823 L548,727 L939,727 L939,679 M99,199 L99,335 L924,335 L924,199 L869,199 L869,287 L154,287 L154,199 M99,-108 Q90,-83 74,-55 Q215,-31 261.5,13 Q308,57 304,142 L304,204 L680,204 L680,31 Q675,-28 735,-25 L826,-25 Q889,-28 894,30 Q902,68 906,129 Q935,117 959,111 Q955,58 946,15 Q932,-80 834,-75 L723,-75 Q617,-78 624,25 L624,156 L360,156 L360,140 Q363,34 307.5,-22 Q252,-78 99,-108 M224,417 L224,598 L794,598 L794,417"/> 
            <glyph glyph-name="人" unicode="&#x4EBA;" horiz-adv-x="954" d=" M912,-81 Q726,30 636.5,164 Q547,298 514,521 Q481,308 390,167 Q299,26 112,-94 Q90,-65 70,-42 Q264,81 352.5,222.5 Q441,364 470,568 Q484,672 482,803 L543,803 Q542,729 538,659 Q580,368 672,221 Q764,74 954,-27 Q929,-55 912,-81"/> 
            <glyph glyph-name="亿" unicode="&#x4EBF;" horiz-adv-x="961" d=" M93,287 Q79,313 58,343 Q206,543 283,813 L340,794 Q301,679 259,582 L259,-101 L203,-101 L203,466 Q154,373 93,287 M515,-61 Q364,-55 365,54 Q365,120 428,211 Q480,288 603,435 Q726,582 818,685 L411,685 L411,739 L884,739 L884,674 Q779,557 662.5,417 Q546,277 492,201 Q424,105 426,59 Q420,-4 541,-6 L761,-6 Q886,-13 890,93 Q893,125 897.5,173 Q902,221 904,254 Q936,241 961,233 Q953,129 944,63 Q928,-63 776,-61"/> 
            <glyph glyph-name="代" unicode="&#x4EE3;" horiz-adv-x="962" d=" M839,594 Q777,653 684,735 L723,771 Q810,698 881,634 M193,-105 L193,486 Q139,392 78,307 Q70,337 55,368 Q192,551 280,812 L335,794 Q295,688 249,593 L249,-105 M332,431 L324,487 L541,511 Q532,641 528,815 L587,815 Q589,644 597,518 L938,556 L945,501 L600,462 Q621,219 686,88 Q747,-41 817,-36 Q865,-39 885,31 Q898,95 908,154 Q934,143 962,135 Q953,80 936,11 Q908,-98 821,-98 Q714,-102 636,58 Q566,194 545,455"/> 
            <glyph glyph-name="会" unicode="&#x4F1A;" horiz-adv-x="959" d=" M265,425 L265,480 L755,480 L755,425 M920,432 Q777,501 683,573.5 Q589,646 518,740 Q351,546 99,416 Q76,450 59,467 Q355,611 513,824 L579,815 Q565,798 553,782 Q625,687 721,617.5 Q817,548 959,486 Q937,458 920,432 M96,228 L96,284 L927,284 L927,228 L489,228 Q379,92 274,-7 Q371,-2 488,3 Q605,8 716,13 Q666,66 609,122 L654,157 Q770,44 873,-64 L825,-104 Q794,-68 764,-37 Q657,-40 525.5,-47 Q394,-54 285,-62 Q242,-65 205,-73 L169,-12 Q204,6 238,34 Q270,63 318.5,115.5 Q367,168 413,228"/> 
            <glyph glyph-name="体" unicode="&#x4F53;" horiz-adv-x="963" d=" M179,-103 L179,461 Q132,374 81,304 Q67,346 58,368 Q192,558 267,815 L323,800 Q281,675 233,570 L233,-103 M322,568 L322,619 L586,619 L586,815 L639,815 L639,619 L925,619 L925,568 L683,568 Q733,421 796.5,322 Q860,223 963,131 Q944,107 925,79 Q812,192 749,300 Q686,408 639,564 L639,149 L793,149 L793,97 L639,97 L639,-103 L586,-103 L586,97 L432,97 L432,149 L586,149 L586,564 Q540,408 476.5,293.5 Q413,179 300,63 Q281,86 258,110 Q461,294 543,568"/> 
            <glyph glyph-name="信" unicode="&#x4FE1;" horiz-adv-x="958" d=" M378,331 L378,381 L904,381 L904,331 M378,485 L378,535 L904,535 L904,485 M328,639 L328,690 L632,690 Q610,748 584,799 L636,818 Q662,764 688,705 L650,690 L958,690 L958,639 M178,-103 L178,467 Q134,382 86,310 Q76,340 62,368 Q120,455 173.5,572.5 Q227,690 260,814 L314,798 Q278,684 232,580 L232,-103 M440,175 L440,5 L841,5 L841,175 M386,-103 L386,226 L895,226 L895,-103 L841,-103 L841,-48 L440,-48 L440,-103"/> 
            <glyph glyph-name="像" unicode="&#x50CF;" horiz-adv-x="948" d=" M411,450 L580,450 Q605,496 615,557 L411,557 M666,557 Q656,496 635,450 L848,450 L848,557 M717,695 L484,695 Q442,645 394,599 L634,599 M83,314 Q72,342 56,365 Q123,467 170,573 Q217,679 255,813 L306,798 Q272,686 228,586 L228,-100 L177,-100 L177,478 Q132,392 83,314 M319,534 Q304,555 284,574 Q429,677 510,820 L565,808 Q542,771 517,738 L781,738 L781,695 L697,599 L898,599 L898,408 L611,408 Q601,392 587,377 Q641,327 668,271 Q784,333 862,390 L893,350 Q838,314 778,279 Q802,188 841.5,127.5 Q881,67 948,17 Q928,-3 911,-28 Q840,32 800.5,96 Q761,160 736,255 Q712,242 686,228 Q708,158 707,62 Q709,-90 565,-88 Q530,-89 488,-89 Q484,-62 477,-34 Q522,-37 560,-37 Q658,-44 656,65 Q656,113 649,155 Q585,86 507,35 Q429,-16 312,-64 Q298,-42 281,-19 Q406,29 488,80.5 Q570,132 638,205 Q628,239 610,271 Q550,207 483.5,164.5 Q417,122 314,82 Q299,107 283,125 Q390,163 460,204.5 Q530,246 587,306 Q572,326 553,344 Q475,277 311,215 Q298,237 281,260 Q480,326 550,408 L361,408 L361,569 Q340,551 319,534"/> 
            <glyph glyph-name="元" unicode="&#x5143;" horiz-adv-x="959" d=" M163,699 L163,753 L863,753 L863,699 M74,421 L74,475 L950,475 L950,421 L658,421 L658,67 Q653,-19 730,-12 L794,-12 Q880,-16 890,66 Q896,116 902,185 Q931,175 959,168 Q953,106 946,53 Q932,-73 798,-69 L718,-69 Q597,-73 599,53 L599,421 L396,421 L393,359 Q389,181 331.5,84 Q274,-13 117,-103 Q102,-79 77,-53 Q225,25 278.5,110.5 Q332,196 335,358 L338,421"/> 
            <glyph glyph-name="全" unicode="&#x5168;" horiz-adv-x="959" d=" M923,424 Q774,500 681.5,574.5 Q589,649 514,749 Q355,550 98,415 Q80,441 60,464 Q369,629 500,826 L563,814 L546,790 Q626,688 721,615 Q816,542 959,476 Q944,457 923,424 M219,403 L219,457 L803,457 L803,403 L541,403 L541,237 L841,237 L841,184 L541,184 L541,1 L924,1 L924,-55 L101,-55 L101,1 L482,1 L482,184 L182,184 L182,237 L482,237 L482,403"/> 
            <glyph glyph-name="共" unicode="&#x5171;" horiz-adv-x="957" d=" M892,-88 Q741,19 595,114 L632,158 Q775,66 929,-39 M114,-92 Q95,-64 77,-40 Q243,53 381,159 L423,114 Q285,11 114,-92 M360,568 L360,287 L662,287 L662,568 M101,568 L101,621 L302,621 L302,809 L360,809 L360,621 L662,621 L662,809 L721,809 L721,621 L921,621 L921,568 L721,568 L721,287 L957,287 L957,233 L66,233 L66,287 L302,287 L302,568"/> 
            <glyph glyph-name="刘" unicode="&#x5218;" horiz-adv-x="914" d=" M640,126 L640,707 L694,707 L694,126 M673,-87 Q669,-50 660,-18 Q720,-22 777,-22 Q858,-34 854,56 L854,803 L910,803 L910,33 Q914,-90 805,-86 Q741,-87 673,-87 M68,611 L68,663 L325,663 L259,795 L308,817 Q343,752 379,682 L338,663 L566,663 L566,611 L500,611 Q457,397 379,246 L549,-4 L500,-42 L347,191 Q264,55 112,-89 Q93,-67 67,-46 Q227,94 313,244 Q217,386 126,517 L170,545 Q256,424 342,299 Q409,435 445,611"/> 
            <glyph glyph-name="别" unicode="&#x522B;" horiz-adv-x="917" d=" M659,128 L659,714 L714,714 L714,128 M180,711 L180,512 L472,512 L472,711 M663,-89 Q659,-56 653,-28 Q701,-31 769,-31 Q856,-35 851,41 L851,812 L908,812 L908,33 Q917,-85 787,-86 Q722,-89 663,-89 M280,-81 Q276,-50 268,-20 Q323,-23 377,-23 Q468,-30 470,69 Q478,177 479,277 L295,277 Q286,141 243.5,59.5 Q201,-22 102,-103 Q85,-83 58,-60 Q151,16 191,86 Q231,156 239,277 L91,277 L91,328 L242,328 Q244,371 244,425 L299,425 Q299,372 297,328 L536,328 Q535,275 532.5,201.5 Q530,128 526,60 Q523,-83 390,-80 Q328,-81 280,-81 M126,460 L126,765 L528,765 L528,460"/> 
            <glyph glyph-name="到" unicode="&#x5230;" horiz-adv-x="916" d=" M660,128 L660,714 L715,714 L715,128 M688,-86 Q682,-44 677,-25 Q697,-27 737,-27.5 Q777,-28 800,-28 Q858,-31 858,37 L858,811 L914,811 L914,30 Q916,-83 811,-84 Q793,-85 752,-85.5 Q711,-86 688,-86 M90,219 L90,271 L303,271 L303,388 L359,388 L359,271 L570,271 L570,219 L359,219 L359,25 Q477,40 591,57 Q590,32 591,3 Q349,-27 79,-66 L67,-8 Q175,3 303,19 L303,219 M79,708 L79,760 L591,760 L591,708 L330,708 Q263,593 177,479 Q327,487 470,493 Q438,549 396,609 L443,632 Q516,523 582,413 L531,385 L497,445 Q332,438 214,429 Q168,426 120,416 L92,472 Q126,495 138,515 Q216,617 264,708"/> 
            <glyph glyph-name="化" unicode="&#x5316;" horiz-adv-x="961" d=" M94,283 Q74,323 59,345 Q216,531 318,808 L376,790 Q324,661 265,551 L265,-101 L208,-101 L208,450 Q154,363 94,283 M352,181 Q337,207 317,234 Q441,295 541,365 L541,799 L599,799 L599,408 Q750,526 866,685 L916,652 Q777,471 599,336 L599,74 Q594,-18 687,-12 L786,-12 Q870,-13 883,53 Q894,108 904,221 Q933,209 961,200 Q952,107 938,33 Q925,-70 791,-70 L671,-70 Q537,-76 541,68 L541,294 Q453,234 352,181"/> 
            <glyph glyph-name="千" unicode="&#x5343;" horiz-adv-x="941" d=" M143,662 Q138,692 131,720 Q518,732 871,764 L883,705 Q710,692 542,682 L542,399 L941,399 L941,341 L542,341 L542,-100 L481,-100 L481,341 L83,341 L83,399 L481,399 L481,679 Q326,670 143,662"/> 
            <glyph glyph-name="卡" unicode="&#x5361;" horiz-adv-x="952" d=" M863,52 Q772,102 675.5,152.5 Q579,203 503,240 L503,-105 L443,-105 L443,362 L503,362 L503,250 L528,287 Q707,199 893,104 M75,397 L75,451 L443,451 L443,819 L503,819 L503,676 L893,676 L893,622 L503,622 L503,451 L952,451 L952,397"/> 
            <glyph glyph-name="双" unicode="&#x53CC;" horiz-adv-x="964" d=" M846,690 L557,690 Q575,522 608.5,412.5 Q642,303 692,224 Q750,307 785.5,414 Q821,521 846,690 M412,29 L307,204 Q235,65 105,-73 Q84,-49 63,-30 Q204,120 273,262 Q163,445 85,567 L132,594 Q224,449 300,325 Q359,476 383,690 L73,690 L73,744 L438,744 L438,688 Q412,438 337,265 Q403,158 461,62 M925,-87 Q767,14 690,126 Q638,59 573,5 Q508,-49 410,-106 Q389,-73 371,-57 Q561,48 657,175 Q597,270 560,391.5 Q523,513 505,690 L473,690 L473,744 L902,744 L902,688 Q873,499 831,380.5 Q789,262 726,174 Q815,51 964,-33 Q942,-58 925,-87"/> 
            <glyph glyph-name="受" unicode="&#x53D7;" horiz-adv-x="955" d=" M265,521 Q223,593 186,649 L237,672 Q282,604 315,547 M511,529 Q482,602 451,667 L503,687 Q535,623 563,551 M138,705 Q133,738 128,762 Q522,764 870,790 L886,736 Q714,725 513.5,716.5 Q313,708 138,705 M717,282 L329,282 Q408,159 515,91 Q638,165 717,282 M95,327 L95,503 L655,503 Q721,599 772,691 L827,666 Q779,590 718,503 L927,503 L927,327 L870,327 L870,451 L152,451 L152,327 M926,-95 Q655,-53 515,26 Q359,-57 101,-108 Q90,-79 72,-52 Q310,-14 460,61 Q349,142 269,282 L205,282 L205,334 L779,334 L779,275 Q696,142 571,60 Q708,-7 955,-34 Q938,-65 926,-95"/> 
            <glyph glyph-name="可" unicode="&#x53EF;" horiz-adv-x="959" d=" M223,476 L223,206 L500,206 L500,476 M67,687 L67,743 L959,743 L959,687 L809,687 L809,40 Q813,-82 684,-84 Q624,-87 539,-86 Q536,-59 529,-25 Q607,-29 666,-28 Q756,-36 751,57 L751,687 M167,75 L167,530 L556,530 L556,152 L223,152 L223,75"/> 
            <glyph glyph-name="台" unicode="&#x53F0;" horiz-adv-x="962" d=" M917,371 L840,455 Q489,446 211,433 Q157,430 116,423 L89,483 Q128,500 162,529 Q315,658 446,824 L502,792 Q374,643 198,489 Q461,494 790,508 Q720,581 646,655 L691,688 Q832,551 962,414 M246,260 L246,14 L777,14 L777,260 M188,-104 L188,314 L835,314 L835,-104 L777,-104 L777,-40 L246,-40 L246,-104"/> 
            <glyph glyph-name="同" unicode="&#x540C;" horiz-adv-x="903" d=" M251,529 L251,581 L771,581 L771,529 M378,349 L378,159 L645,159 L645,349 M324,107 L324,401 L699,401 L699,107 M124,-93 L124,767 L898,767 L898,32 Q903,-87 785,-85 Q706,-88 653,-87 Q649,-57 641,-26 Q695,-29 765,-28 Q848,-34 842,44 L842,713 L180,713 L180,-93"/> 
            <glyph glyph-name="吴" unicode="&#x5434;" horiz-adv-x="954" d=" M242,722 L242,556 L784,556 L784,722 M133,346 L133,396 L889,396 L889,346 L540,346 Q537,266 529,219 L946,219 L946,168 L548,168 Q654,-6 954,-40 Q938,-68 930,-98 Q603,-50 504,145 Q437,-39 93,-108 Q85,-82 69,-52 Q406,11 457,168 L77,168 L77,219 L470,219 Q480,269 482,346 M186,506 L186,772 L840,772 L840,506"/> 
            <glyph glyph-name="喜" unicode="&#x559C;" horiz-adv-x="955" d=" M415,248 L380,225 L597,225 Q646,282 680,332 L344,332 Q382,291 415,248 M239,455 L239,374 L783,374 L783,455 M229,65 L229,-23 L794,-23 L794,65 M91,689 L91,733 L484,733 L484,816 L538,816 L538,733 L933,733 L933,689 L538,689 L538,612 L870,612 L870,568 L152,568 L152,612 L484,612 L484,689 M175,-105 L175,108 L848,108 L848,-105 L794,-105 L794,-67 L229,-67 L229,-105 M71,181 L71,225 L366,225 Q338,264 300,307 L340,332 L185,332 L185,497 L837,497 L837,332 L683,332 L732,308 Q702,269 661,225 L955,225 L955,181"/> 
            <glyph glyph-name="器" unicode="&#x5668;" horiz-adv-x="958" d=" M191,720 L191,576 L396,576 L396,720 M617,720 L617,576 L824,576 L824,720 M193,141 L193,-9 L399,-9 L399,141 M618,141 L618,-9 L827,-9 L827,141 M140,531 L140,766 L447,766 L447,531 M566,531 L566,766 L874,766 L874,531 M140,-102 L140,186 L451,186 L451,-101 L399,-101 L399,-55 L193,-55 L193,-102 M827,-102 L827,-55 L618,-55 L618,-101 L566,-101 L566,186 L879,186 L879,-102 M91,389 L91,435 L467,435 Q476,468 480,511 L534,511 Q529,469 522,435 L703,435 Q689,463 669,498 L717,515 Q733,482 758,435 L939,435 L939,389 L575,389 Q627,328 713.5,301 Q800,274 958,268 Q940,238 933,215 Q747,230 656.5,269.5 Q566,309 520,389 L504,389 Q476,318 381.5,277 Q287,236 89,207 Q75,237 65,259 Q241,281 328.5,309.5 Q416,338 446,389"/> 
            <glyph glyph-name="国" unicode="&#x56FD;" horiz-adv-x="908" d=" M696,189 Q647,245 601,284 L637,317 Q688,273 734,225 M246,558 L246,607 L776,607 L776,558 L533,558 L533,415 L757,415 L757,365 L533,365 L533,162 L792,162 L792,113 L231,113 L231,162 L480,162 L480,365 L264,365 L264,415 L480,415 L480,558 M171,717 L171,-1 L853,-1 L853,717 M116,-104 L116,770 L908,770 L908,-104 L853,-104 L853,-54 L171,-54 L171,-104"/> 
            <glyph glyph-name="图" unicode="&#x56FE;" horiz-adv-x="909" d=" M650,206 Q509,236 377,254 L390,300 Q454,290 528,277.5 Q602,265 662,253 M710,54 Q496,100 282,129 L297,176 Q495,147 723,103 M689,574 L378,574 Q378,572 376,571 Q440,495 530,446 Q623,499 689,574 M797,305 Q635,341 530,393 Q403,327 224,289 Q215,312 200,339 Q362,363 482,421 Q408,467 346,538 Q303,494 252,451 Q236,471 218,488 Q335,576 414,698 L462,679 Q440,647 417,619 L750,619 L750,574 Q674,481 579,421 Q682,375 820,356 Q807,331 797,305 M165,729 L165,-4 L855,-4 L855,729 M111,-103 L111,780 L909,780 L909,-103 L855,-103 L855,-56 L165,-56 L165,-103"/> 
            <glyph glyph-name="在" unicode="&#x5728;" horiz-adv-x="957" d=" M364,316 L364,369 L605,369 L605,558 L662,558 L662,369 L904,369 L904,316 L662,316 L662,25 L957,25 L957,-29 L316,-29 L316,25 L605,25 L605,316 M103,631 L103,685 L366,685 Q393,746 418,820 L474,810 Q450,743 426,685 L957,685 L957,631 L403,631 Q348,508 274,410 L274,-100 L217,-100 L217,340 Q164,280 98,219 Q86,240 63,267 Q159,356 225.5,442 Q292,528 341,631"/> 
            <glyph glyph-name="块" unicode="&#x5757;" horiz-adv-x="953" d=" M808,597 L631,597 Q629,425 623,345 L808,345 M71,525 L71,576 L194,576 L194,813 L248,813 L248,576 L365,576 L365,525 L248,525 L248,164 L374,200 Q375,169 378,144 Q223,102 77,56 L62,115 Q123,130 194,149 L194,525 M352,292 L352,345 L564,345 Q573,412 574,597 L406,597 L406,649 L575,649 L575,814 L632,814 Q632,722 631,649 L863,649 L863,345 L953,345 L953,292 L644,292 Q691,173 763.5,97.5 Q836,22 952,-34 Q932,-62 913,-89 Q791,-21 717.5,62.5 Q644,146 602,271 Q564,63 331,-105 Q312,-78 289,-56 Q528,101 556,292"/> 
            <glyph glyph-name="处" unicode="&#x5904;" horiz-adv-x="964" d=" M432,571 L221,571 Q212,541 201,512 Q236,320 312,202 Q410,360 432,571 M902,321 Q792,414 687,493 L687,54 L630,54 L630,812 L687,812 L687,510 L715,542 Q829,460 943,370 M945,-71 Q670,-75 565,-51 Q414,-21 314,103 Q231,-4 98,-107 Q80,-83 59,-58 Q196,40 278,152 Q205,261 167,425 Q133,344 94,268 Q77,290 53,310 Q177,542 227,812 L285,803 Q264,709 238,625 L489,625 L489,566 Q460,320 348,151 Q440,36 572,9 Q736,-21 964,-8 Q954,-37 945,-71"/> 
            <glyph glyph-name="备" unicode="&#x5907;" horiz-adv-x="957" d=" M782,287 L538,287 L538,160 L782,160 M240,287 L240,160 L484,160 L484,287 M538,114 L538,-13 L782,-13 L782,114 M240,114 L240,-13 L484,-13 L484,114 M765,686 L314,686 Q400,583 524,522 Q659,584 765,686 M85,344 Q73,374 60,399 Q303,435 461,496 Q355,556 278,653 Q213,580 124,508 L86,547 Q252,675 339,824 L391,803 Q367,767 343,734 L834,734 L834,683 Q724,564 589,494 Q739,437 957,423 Q943,393 931,363 Q674,398 524,464 Q355,392 85,344 M184,-104 L184,335 L838,335 L838,-104 L782,-104 L782,-61 L240,-61 L240,-104"/> 
            <glyph glyph-name="多" unicode="&#x591A;" horiz-adv-x="920" d=" M158,532 Q142,557 125,579 Q372,692 504,830 L563,814 Q515,767 466,727 L880,727 L880,673 Q734,542 548,453 Q362,364 106,297 Q95,321 79,349 Q548,455 799,675 L398,675 L352,642 Q423,595 500,539 L460,498 Q382,563 307,614 Q239,572 158,532 M175,127 Q146,171 140,177 Q432,285 612,456 L664,428 Q619,389 576,356 L920,356 L920,300 Q764,130 579,39.5 Q394,-51 119,-106 Q109,-79 94,-51 Q353,-8 530.5,76.5 Q708,161 849,306 L508,306 Q466,276 422,250 Q494,199 566,142 L525,102 Q448,168 376,223 Q285,171 175,127"/> 
            <glyph glyph-name="大" unicode="&#x5927;" horiz-adv-x="956" d=" M77,496 L77,555 L480,555 Q488,684 486,814 L546,814 Q546,687 541,555 L947,555 L947,496 L542,496 Q577,306 670.5,185 Q764,64 956,-27 Q925,-68 914,-84 Q734,11 641.5,125 Q549,239 513,406 Q485,243 392.5,123.5 Q300,4 115,-100 Q91,-69 72,-46 Q276,65 366.5,192.5 Q457,320 474,496"/> 
            <glyph glyph-name="好" unicode="&#x597D;" horiz-adv-x="962" d=" M347,564 L218,564 Q190,406 158,290 L269,201 Q332,332 347,564 M424,335 L424,390 L674,390 L674,539 L855,699 L458,699 L458,752 L926,752 L926,691 L730,516 L730,390 L962,390 L962,335 L730,335 L730,31 Q734,-86 618,-86 Q553,-89 508,-88 Q505,-57 499,-26 Q552,-30 608,-30 Q676,-34 674,42 L674,335 M402,8 Q354,52 283,116 Q222,11 104,-85 L66,-39 Q189,58 243,151 Q174,210 101,271 Q135,405 162,564 L75,564 L75,617 L172,617 Q188,718 200,815 L259,810 Q243,708 227,617 L403,617 L403,562 Q383,304 311,166 Q384,105 444,53"/> 
            <glyph glyph-name="安" unicode="&#x5B89;" horiz-adv-x="961" d=" M301,229 Q412,181 537,126 Q661,223 709,357 L378,357 Q339,288 301,229 M114,514 L114,681 L524,681 Q491,741 457,797 L509,822 Q546,763 583,701 L543,681 L911,681 L911,514 L854,514 L854,625 L171,625 L171,514 M65,357 L65,412 L346,412 Q393,497 434,583 L492,561 Q453,487 410,412 L961,412 L961,357 L770,357 Q716,204 595,100 Q756,27 895,-38 L863,-96 Q695,-14 542,60 Q394,-45 130,-104 Q116,-69 100,-42 Q340,-5 483,88 Q367,143 223,211 Q268,276 315,357"/> 
            <glyph glyph-name="对" unicode="&#x5BF9;" horiz-adv-x="964" d=" M622,214 Q573,308 505,420 L552,445 Q618,342 674,243 M489,553 L489,608 L793,608 L793,813 L851,813 L851,608 L964,608 L964,553 L851,553 L851,59 Q858,-86 725,-85 Q654,-86 599,-86 Q598,-59 587,-22 Q635,-26 708,-26 Q800,-36 793,69 L793,553 M427,18 Q371,107 304,212 Q231,70 98,-67 Q80,-44 57,-17 Q195,117 268,267 L91,538 L137,566 Q211,457 296,330 Q355,477 375,659 L85,659 L85,713 L432,713 L432,650 Q402,435 333,274 L476,53"/> 
            <glyph glyph-name="屏" unicode="&#x5C4F;" horiz-adv-x="959" d=" M473,397 Q439,452 395,506 L440,531 Q480,479 519,423 M482,236 Q482,218 481,201 L698,201 L698,346 L482,346 M218,715 L218,593 L858,593 L858,715 M287,346 L287,394 L647,394 Q696,468 732,532 L783,508 Q747,453 704,394 L907,394 L907,346 L751,346 L751,201 L959,201 L959,152 L751,152 L751,-102 L698,-102 L698,152 L479,152 Q472,68 437,10 Q402,-48 324,-107 Q304,-86 283,-67 Q353,-15 385.5,32.5 Q418,80 425,152 L245,152 L245,201 L428,201 Q429,218 429,238 L429,346 M100,-99 Q82,-81 57,-62 Q120,31 142.5,128.5 Q165,226 164,403 L164,766 L911,766 L911,542 L218,542 L218,400 Q220,211 195,105.5 Q170,0 100,-99"/> 
            <glyph glyph-name="属" unicode="&#x5C5E;" horiz-adv-x="934" d=" M371,381 L371,297 L567,297 L567,381 M820,381 L618,381 L618,297 L820,297 M220,730 L220,638 L859,638 L859,730 M104,-102 Q83,-81 61,-65 Q123,32 145.5,137 Q168,242 167,434 L167,771 L910,771 L910,598 L220,598 L220,439 Q222,231 197.5,120 Q173,9 104,-102 M386,-1 L379,45 L567,51 L567,147 L329,147 L329,-104 L279,-104 L279,187 L567,187 L567,261 L321,261 L321,417 L567,417 L567,490 L280,485 L272,526 Q399,527 574,531 Q749,535 898,542 L906,501 Q791,496 618,492 L618,417 L870,417 L870,261 L618,261 L618,187 L926,187 L926,6 Q934,-96 834,-95 Q793,-98 738,-97 Q735,-71 727,-49 Q756,-52 819,-51 Q881,-56 876,9 L876,147 L618,147 L618,52 Q685,56 742,60 L723,105 L762,121 Q795,52 817,-6 L776,-27 Q767,-1 757,23 Q592,13 386,-1"/> 
            <glyph glyph-name="崇" unicode="&#x5D07;" horiz-adv-x="947" d=" M906,-77 Q801,-3 675,75 L707,117 Q837,39 938,-29 M115,-85 L85,-35 Q207,30 319,118 L354,76 Q239,-11 115,-85 M221,312 L221,358 L802,358 L802,312 M162,620 L162,779 L215,779 L215,666 L484,666 L484,821 L537,821 L537,666 L810,666 L810,779 L863,779 L863,620 M100,358 L100,508 L497,508 L472,579 L528,591 L552,508 L922,508 L922,358 L866,358 L866,459 L156,459 L156,358 M79,164 L79,213 L947,213 L947,164 L553,164 L553,10 Q559,-93 450,-95 Q402,-96 344,-96 Q342,-68 333,-37 Q386,-41 432,-40 Q503,-44 498,23 L498,164"/> 
            <glyph glyph-name="工" unicode="&#x5DE5;" horiz-adv-x="949" d=" M127,673 L127,732 L896,732 L896,673 L541,673 L541,24 L949,24 L949,-35 L74,-35 L74,24 L481,24 L481,673"/> 
            <glyph glyph-name="幕" unicode="&#x5E55;" horiz-adv-x="959" d=" M538,230 L538,153 L749,153 Q667,193 605,264 L405,264 Q342,203 248,153 L486,153 L486,230 M243,487 L243,416 L781,416 L781,487 M243,594 L243,523 L781,523 L781,594 M84,711 L84,753 L348,753 L348,819 L398,819 L398,753 L629,753 L629,819 L679,819 L679,753 L943,753 L943,711 L679,711 L679,658 L629,658 L629,711 L398,711 L398,658 L348,658 L348,711 M486,-105 L486,111 L264,111 L264,-52 L214,-52 L214,134 Q157,106 90,80 Q80,103 62,124 Q232,178 335,264 L92,264 L92,306 L380,306 Q412,339 436,376 L193,376 L193,634 L831,634 L831,376 L494,376 Q473,339 444,306 L934,306 L934,264 L661,264 Q727,209 796.5,180.5 Q866,152 959,136 Q944,107 937,89 Q864,106 809,127 L809,38 Q814,-43 722,-43 Q675,-44 627,-44 L618,4 Q649,3 707,3 Q762,1 759,50 L759,111 L538,111 L538,-105"/> 
            <glyph glyph-name="年" unicode="&#x5E74;" horiz-adv-x="962" d=" M269,420 L269,201 L540,201 L540,420 M121,450 Q100,476 79,494 Q210,628 290,823 L348,808 Q325,757 301,710 L923,710 L923,658 L597,658 L597,473 L905,473 L905,420 L597,420 L597,201 L962,201 L962,147 L597,147 L597,-108 L540,-108 L540,147 L66,147 L66,201 L213,201 L213,473 L540,473 L540,658 L272,658 Q209,548 121,450"/> 
            <glyph glyph-name="应" unicode="&#x5E94;" horiz-adv-x="953" d=" M587,158 Q550,348 513,527 L563,538 Q608,349 642,169 M387,110 Q340,306 289,481 L340,494 Q393,314 442,125 M237,-41 L237,13 L665,13 Q755,261 820,519 L876,505 Q838,368 797.5,235.5 Q757,103 725,13 L953,13 L953,-41 M106,-100 L60,-63 Q122,35 143,134 Q164,233 163,419 L163,683 L547,683 L505,809 L560,821 Q581,760 607,683 L942,683 L942,628 L219,628 L219,436 Q220,234 196.5,120 Q173,6 106,-100"/> 
            <glyph glyph-name="度" unicode="&#x5EA6;" horiz-adv-x="951" d=" M438,500 L438,401 L718,401 L718,500 M766,218 L402,218 Q477,126 575,70 Q685,130 766,218 M105,-104 Q84,-82 61,-65 Q118,31 137,121.5 Q156,212 155,396 L155,714 L541,714 L518,813 L575,821 Q589,771 600,714 L949,714 L949,663 L209,663 L209,390 Q210,206 187.5,101.5 Q165,-3 105,-104 M250,500 L250,551 L386,551 L386,631 L438,631 L438,551 L718,551 L718,631 L769,631 L769,551 L939,551 L939,500 L769,500 L769,353 L386,353 L386,500 M925,-96 Q708,-57 576,10 Q440,-59 231,-106 Q220,-77 202,-51 Q389,-17 519,42 Q413,110 338,218 L276,218 L276,267 L835,267 L835,213 Q742,108 633,42 Q754,-10 951,-37 Q936,-67 925,-96"/> 
            <glyph glyph-name="开" unicode="&#x5F00;" horiz-adv-x="965" d=" M372,691 L372,396 L679,396 L679,691 M116,691 L116,748 L926,748 L926,691 L738,691 L738,396 L965,396 L965,339 L738,339 L738,-99 L679,-99 L679,339 L371,339 Q370,167 318.5,71.5 Q267,-24 131,-107 Q110,-79 89,-56 Q216,16 264,100.5 Q312,185 312,339 L74,339 L74,396 L313,396 L313,691"/> 
            <glyph glyph-name="彩" unicode="&#x5F69;" horiz-adv-x="958" d=" M322,496 Q300,570 265,657 L314,670 Q345,591 370,510 M168,452 Q130,537 91,611 L135,630 Q186,539 217,473 M459,451 L413,476 Q470,563 512,657 L559,634 Q517,551 459,451 M606,501 Q592,524 572,549 Q750,642 862,778 L904,740 Q841,671 772.5,615 Q704,559 606,501 M621,235 Q602,260 584,282 Q765,378 886,521 L927,483 Q810,345 621,235 M93,696 Q89,721 81,747 Q323,755 546,778 L557,728 Q346,710 93,696 M534,-102 Q520,-77 499,-51 Q777,69 913,262 L958,227 Q802,18 534,-102 M91,321 L91,370 L296,370 L296,447 L348,447 L348,370 L539,370 L539,321 L348,321 L348,206 L370,233 Q454,175 553,100 L516,55 Q426,129 348,189 L348,-102 L296,-102 L296,243 Q228,99 98,-17 Q84,7 65,32 Q213,158 291,321"/> 
            <glyph glyph-name="待" unicode="&#x5F85;" horiz-adv-x="961" d=" M541,35 Q516,64 479.5,102.5 Q443,141 414,168 L454,205 Q535,126 585,75 M109,503 Q96,527 78,554 Q200,656 295,817 L343,786 Q243,622 109,503 M92,205 Q79,237 65,260 Q194,376 295,569 L343,540 Q300,462 257,398 L257,-103 L202,-103 L202,324 Q152,261 92,205 M351,246 L351,297 L752,297 L752,385 L808,385 L808,297 L961,297 L961,246 L808,246 L808,21 Q812,-89 687,-92 Q624,-93 567,-93 Q565,-64 556,-31 Q615,-35 674,-34 Q758,-40 752,41 L752,246 M396,637 L396,687 L625,687 L625,816 L681,816 L681,687 L919,687 L919,637 L681,637 L681,484 L961,484 L961,434 L352,434 L352,484 L625,484 L625,637"/> 
            <glyph glyph-name="忘" unicode="&#x5FD8;" horiz-adv-x="956" d=" M561,153 Q503,239 449,308 L492,339 Q549,270 608,189 M909,36 Q831,152 767,233 L812,265 Q883,173 956,74 M121,-3 Q93,11 70,21 Q120,137 159,258 L213,240 Q172,118 121,-3 M413,-78 Q293,-79 292,45 L292,265 L348,265 L348,60 Q346,-29 429,-24 L604,-24 Q699,-29 706,45 Q715,85 721,144 Q750,135 774,127 Q766,59 756,10 Q742,-80 615,-78 M70,631 L70,684 L520,684 Q491,740 459,796 L509,820 Q544,764 577,703 L539,684 L955,684 L955,631 L260,631 L260,420 L878,420 L878,368 L204,368 L204,631"/> 
            <glyph glyph-name="快" unicode="&#x5FEB;" horiz-adv-x="955" d=" M110,360 Q87,366 61,370 Q87,493 98,597 L147,588 Q132,477 110,360 M808,596 L635,596 Q633,425 627,345 L808,345 M348,475 Q296,548 254,601 L254,-103 L199,-103 L199,815 L254,815 L254,624 L281,646 Q334,583 389,511 M340,292 L340,345 L568,345 Q577,413 579,596 L407,596 L407,648 L579,648 Q580,719 580,814 L637,814 Q637,720 636,648 L861,648 L861,345 L953,345 L953,292 L649,292 Q696,174 768,98.5 Q840,23 955,-33 L916,-87 Q794,-19 721,63.5 Q648,146 607,271 Q570,63 339,-103 Q319,-78 297,-54 Q419,30 480,112 Q541,194 560,292"/> 
            <glyph glyph-name="性" unicode="&#x6027;" horiz-adv-x="959" d=" M330,503 Q291,570 253,626 L292,656 Q331,602 373,537 M112,365 Q90,371 63,374 Q87,490 101,600 L151,592 Q134,483 112,365 M194,-106 L194,818 L248,818 L248,-106 M404,390 Q379,405 352,418 Q435,574 473,752 L528,740 Q512,671 492,607 L638,607 L638,817 L694,817 L694,607 L934,607 L934,553 L694,553 L694,313 L918,313 L918,259 L694,259 L694,-4 L959,-4 L959,-60 L341,-60 L341,-4 L638,-4 L638,259 L400,259 L400,313 L638,313 L638,553 L474,553 Q444,469 404,390"/> 
            <glyph glyph-name="悦" unicode="&#x60A6;" horiz-adv-x="958" d=" M534,640 Q517,663 486.5,703 Q456,743 426,781 L469,811 Q540,727 581,671 M104,362 L56,373 Q85,515 98,602 L145,592 Q126,475 104,362 M335,468 Q297,530 243,607 L243,-103 L189,-103 L189,810 L243,810 L243,613 L281,640 Q328,575 377,502 M442,580 L442,323 L825,323 L825,580 M388,271 L388,631 L665,631 Q723,713 786,814 L839,788 Q782,706 727,631 L879,631 L879,271 L737,271 L737,48 Q735,-32 803,-27 L831,-27 Q889,-30 894,27 Q900,65 906,140 L958,118 Q954,53 946,0 Q936,-80 840,-79 L786,-79 Q681,-81 682,37 L682,271 L562,271 Q562,227 558,192 Q549,85 498.5,20 Q448,-45 334,-103 L297,-55 Q405,-1 451,52 Q497,105 504,198 Q507,230 509,271"/> 
            <glyph glyph-name="愉" unicode="&#x6109;" horiz-adv-x="964" d=" M110,361 Q87,367 63,371 Q87,483 99,596 L146,588 Q131,476 110,361 M491,535 L491,581 L774,581 L774,535 M699,75 L699,418 L745,418 L745,75 M410,261 L410,159 L567,159 L567,261 M410,407 L410,305 L567,305 L567,407 M704,-92 Q702,-63 693,-36 Q732,-39 773,-39 Q835,-43 832,25 L832,466 L882,466 L882,18 Q886,-88 781,-92 Q740,-93 704,-92 M933,490 Q735,591 632,746 Q519,585 329,475 Q316,498 296,518 Q523,644 620,821 L675,814 Q667,799 658,785 Q771,621 964,538 Q949,519 933,490 M318,559 Q280,607 238,648 L238,-103 L188,-103 L188,813 L238,813 L238,656 L266,684 Q309,641 354,593 M362,-99 L362,453 L615,453 L615,-6 Q620,-90 528,-93 Q497,-94 470,-93 Q469,-67 461,-41 Q488,-42 517,-42 Q571,-46 567,5 L567,115 L410,115 L410,-99"/> 
            <glyph glyph-name="我" unicode="&#x6211;" horiz-adv-x="963" d=" M847,587 Q822,612 777.5,654 Q733,696 696,727 L735,764 Q762,740 813,694.5 Q864,649 889,626 M99,671 Q94,705 86,726 Q265,740 456,775 L471,722 Q405,710 323,699 L323,530 L578,530 Q570,670 570,820 L628,820 Q627,667 634,530 L963,530 L963,478 L637,478 Q642,410 650,355 Q662,264 676,204 Q769,290 850,407 L898,374 Q799,238 693,143 Q707,99 726,60 Q779,-41 828,-34 Q866,-37 884,23 Q899,83 907,152 Q936,137 959,130 Q952,60 931,-12 Q908,-95 828,-95 Q742,-99 673,36 Q658,66 645,103 Q549,26 419,-42 Q402,-19 383,7 Q525,79 627,162 Q605,243 594,348 Q587,411 581,478 L323,478 L323,296 Q421,315 505,332 Q503,310 506,277 Q426,262 323,242 L323,24 Q327,-83 229,-85 Q206,-86 171.5,-86.5 Q137,-87 119,-87 Q116,-59 106,-27 Q120,-29 152,-29.5 Q184,-30 206,-30 Q269,-33 265,28 L265,231 L74,192 L62,250 Q140,263 265,286 L265,478 L61,478 L61,530 L265,530 L265,691 Q163,678 99,671"/> 
            <glyph glyph-name="手" unicode="&#x624B;" horiz-adv-x="959" d=" M129,689 Q127,719 121,745 Q526,750 862,774 L873,719 Q714,710 544,702 L544,511 L879,511 L879,459 L544,459 L544,264 L959,264 L959,211 L544,211 L544,34 Q551,-86 422,-86 Q390,-87 347.5,-87 Q305,-87 281,-87 Q278,-59 266,-26 Q339,-30 407,-29 Q492,-36 486,49 L486,211 L67,211 L67,264 L486,264 L486,459 L133,459 L133,511 L486,511 L486,700 Q296,692 129,689"/> 
            <glyph glyph-name="持" unicode="&#x6301;" horiz-adv-x="961" d=" M549,36 Q523,65 487,103.5 Q451,142 422,169 L462,205 Q542,127 593,75 M374,247 L374,298 L761,298 L761,387 L816,387 L816,298 L961,298 L961,247 L816,247 L816,22 Q822,-87 695,-89 Q633,-92 575,-91 Q574,-62 564,-29 Q625,-33 683,-32 Q768,-39 761,43 L761,247 M417,637 L417,687 L639,687 L639,818 L694,818 L694,687 L921,687 L921,637 L694,637 L694,485 L961,485 L961,434 L375,434 L375,485 L639,485 L639,637 M72,566 L72,618 L197,618 L197,818 L251,818 L251,618 L360,618 L360,566 L251,566 L251,354 Q305,367 361,382 Q359,350 362,325 Q304,312 251,299 L251,8 Q253,-89 163,-91 Q107,-92 86,-92 Q83,-59 75,-28 Q112,-31 148,-30 Q197,-33 197,21 L197,285 Q141,271 70,252 L62,312 L197,341 L197,566"/> 
            <glyph glyph-name="指" unicode="&#x6307;" horiz-adv-x="956" d=" M480,312 L480,184 L841,184 L841,312 M480,137 L480,5 L841,5 L841,137 M534,457 Q413,452 417,569 L417,818 L471,818 L471,659 Q704,704 909,765 L929,715 Q714,655 471,610 L471,586 Q464,504 556,508 L794,508 Q871,502 888,572 Q896,608 902,658 Q932,645 956,640 Q950,588 937,542 Q921,456 806,457 M73,580 L73,632 L193,632 L193,814 L247,814 L247,632 L359,632 L359,580 L247,580 L247,353 Q306,368 364,384 Q365,354 365,327 Q309,313 247,297 L247,16 Q252,-92 147,-94 Q115,-97 86,-96 Q81,-54 75,-35 Q96,-36 135,-36 Q194,-42 193,20 L193,282 Q130,265 66,246 L60,310 Q124,323 193,340 L193,580 M426,-104 L426,362 L895,362 L895,-103 L841,-103 L841,-45 L480,-45 L480,-104"/> 
            <glyph glyph-name="捉" unicode="&#x6349;" horiz-adv-x="963" d=" M488,713 L488,490 L835,490 L835,713 M80,569 L80,620 L202,620 L202,814 L257,814 L257,620 L374,620 L374,569 L257,569 L257,354 L377,383 Q377,360 378,328 Q318,314 257,299 L257,11 Q261,-89 160,-92 Q118,-93 89,-93 Q85,-63 79,-34 Q111,-36 145,-36 Q207,-39 202,17 L202,285 Q139,269 73,252 L66,310 L202,341 L202,569 M347,-102 Q330,-85 303,-63 Q373,16 402.5,101 Q432,186 437,325 L492,320 Q487,233 475,168 Q537,21 636,-4 L636,438 L433,438 L433,765 L890,765 L890,438 L691,438 L691,271 L932,271 L932,221 L691,221 L691,-15 L723,-17 Q854,-20 963,-18 Q952,-45 943,-76 Q818,-76 715,-72 Q535,-74 457,90 Q426,-10 347,-102"/> 
            <glyph glyph-name="捕" unicode="&#x6355;" horiz-adv-x="959" d=" M854,684 Q805,734 758,776 L794,807 Q844,765 893,719 M434,459 L434,339 L622,339 L622,459 M434,290 L434,168 L622,168 L622,290 M871,459 L676,459 L676,339 L871,339 M676,290 L676,168 L871,168 L871,290 M75,580 L75,632 L178,632 L178,818 L232,818 L232,632 L327,632 L327,580 L232,580 L232,371 Q281,389 332,409 Q334,380 337,355 L232,315 L232,0 Q236,-96 152,-96 Q116,-99 82,-99 L70,-37 Q105,-41 139,-40 Q180,-40 178,2 L178,295 L70,253 L60,311 Q118,330 178,352 L178,580 M622,-84 L622,119 L434,119 L434,-103 L381,-103 L381,510 L622,510 L622,618 L357,618 L357,668 L622,668 L622,817 L676,817 L676,668 L959,668 L959,618 L676,618 L676,510 L924,510 L924,2 Q927,-92 842,-94 Q784,-97 743,-96 Q739,-69 729,-41 Q777,-44 821,-44 Q874,-47 871,6 L871,119 L676,119 L676,-84"/> 
            <glyph glyph-name="推" unicode="&#x63A8;" horiz-adv-x="957" d=" M714,650 Q677,720 635,788 L683,813 Q728,741 764,676 M459,594 Q459,593 458,592 L458,435 L672,435 L672,594 M458,386 L458,227 L672,227 L672,386 M458,178 L458,18 L672,18 L672,178 M70,566 L70,617 L184,617 L184,814 L239,814 L239,617 L338,617 L338,566 L239,566 L239,351 L342,383 Q342,354 344,328 L239,296 L239,2 Q244,-88 155,-92 Q122,-94 80,-94 Q77,-66 70,-31 Q107,-34 140,-34 Q187,-35 184,9 L184,278 Q129,261 71,241 L62,300 Q125,316 184,334 L184,566 M403,-103 L403,503 Q375,460 339,414 Q323,436 300,460 Q435,619 503,815 L557,798 Q522,714 485,643 L948,643 L948,594 L727,594 L727,435 L938,435 L938,386 L727,386 L727,227 L939,227 L939,178 L727,178 L727,18 L957,18 L957,-31 L458,-31 L458,-103"/> 
            <glyph glyph-name="支" unicode="&#x652F;" horiz-adv-x="953" d=" M744,417 L306,417 Q391,208 513,126 Q593,184 647,252 Q701,320 744,417 M918,-95 Q761,-59 668.5,-25 Q576,9 512,54 Q385,-37 104,-109 Q93,-83 73,-53 Q325,5 463,92 Q327,202 247,417 L160,417 L160,471 L490,471 L490,629 L71,629 L71,684 L490,684 L490,819 L547,819 L547,684 L949,684 L949,629 L547,629 L547,471 L808,471 L808,415 Q724,216 564,92 Q634,48 724,18.5 Q814,-11 953,-36 Q933,-63 918,-95"/> 
            <glyph glyph-name="旗" unicode="&#x65D7;" horiz-adv-x="956" d=" M237,670 Q212,739 185,805 L234,820 Q261,758 287,688 M914,-102 Q824,-30 737,29 L769,66 Q857,7 948,-58 M443,-106 Q431,-86 412,-62 Q513,-7 598,65 L634,27 Q541,-46 443,-106 M561,362 L561,273 L798,273 L798,362 M561,228 L561,139 L798,139 L798,228 M561,496 L561,407 L798,407 L798,496 M439,572 Q422,589 399,606 Q484,710 529,821 L581,807 Q562,765 541,727 L954,727 L954,679 L512,679 Q481,625 439,572 M70,616 L70,666 L387,666 L387,616 L211,616 L208,458 L368,458 Q364,227 358,66 Q357,-73 250,-70 Q213,-71 181,-71 Q178,-45 172,-15 Q198,-17 236,-17 Q303,-24 303,67 Q308,135 311,229.5 Q314,324 315,408 L206,408 Q206,372 204,346 Q199,189 175.5,92.5 Q152,-4 98,-91 Q78,-71 54,-53 Q103,24 124.5,111 Q146,198 152,343 Q156,454 159,616 M419,496 L419,543 L509,543 L509,617 L561,617 L561,543 L798,543 L798,618 L850,618 L850,543 L939,543 L939,496 L850,496 L850,139 L956,139 L956,92 L411,92 L411,139 L509,139 L509,496"/> 
            <glyph glyph-name="时" unicode="&#x65F6;" horiz-adv-x="959" d=" M593,206 Q538,321 487,415 L534,440 Q590,339 642,235 M152,364 L152,100 L344,100 L344,364 M152,678 L152,414 L344,414 L344,678 M450,554 L450,607 L779,607 L779,819 L834,819 L834,607 L959,607 L959,554 L834,554 L834,43 Q839,-81 710,-87 Q653,-89 574,-89 Q570,-58 561,-26 Q618,-29 695,-29 Q784,-35 779,57 L779,554 M98,-45 L98,730 L398,730 L398,-34 L344,-34 L344,48 L152,48 L152,-45"/> 
            <glyph glyph-name="明" unicode="&#x660E;" horiz-adv-x="915" d=" M169,690 L169,452 L343,452 L343,690 M169,157 L343,157 L343,401 L169,401 M570,718 L570,522 L850,522 L850,718 M570,440 Q570,344 563,272 L850,272 L850,470 L570,470 M117,23 L117,743 L395,743 L395,104 L169,104 L169,23 M386,-106 Q359,-80 337,-62 Q443,35 480,140.5 Q517,246 515,443 L515,771 L906,771 L906,27 Q915,-93 788,-95 Q709,-99 662,-98 Q659,-70 652,-35 Q702,-39 775,-39 Q852,-43 850,32 L850,220 L557,220 Q543,119 502,44.5 Q461,-30 386,-106"/> 
            <glyph glyph-name="晰" unicode="&#x6670;" horiz-adv-x="955" d=" M151,688 L151,409 L259,409 L259,688 M151,360 L151,75 L259,75 L259,360 M362,572 L362,620 L456,620 L456,809 L506,809 L506,620 L599,620 L599,572 L506,572 L506,411 L529,436 Q579,391 628,339 L593,301 Q551,347 506,392 L506,-103 L456,-103 L456,447 Q418,273 352,163 Q340,188 321,217 Q406,360 452,572 M821,-96 L821,438 L705,438 Q706,231 681.5,118.5 Q657,6 592,-96 Q574,-73 551,-53 Q611,37 633.5,139.5 Q656,242 655,443 L655,735 Q806,744 916,772 L939,722 Q888,711 823,701.5 Q758,692 705,687 L705,488 L955,488 L955,438 L871,438 L871,-96 M101,-57 L101,738 L308,738 L308,-51 L259,-51 L259,26 L151,26 L151,-57"/> 
            <glyph glyph-name="更" unicode="&#x66F4;" horiz-adv-x="955" d=" M804,566 L543,566 L540,447 L804,447 M479,280 Q484,329 485,400 L219,400 L219,280 M219,566 L219,447 L486,447 L488,566 M539,400 Q537,330 533,280 L804,280 L804,400 M804,184 L804,230 L527,230 Q511,120 453,53 Q536,19 655,2 Q774,-15 955,-22 Q939,-54 931,-81 Q740,-70 617,-49 Q494,-28 411,9 Q343,-53 99,-108 Q87,-81 70,-56 Q294,-8 355,37 Q273,86 195,169 L231,202 Q316,121 400,77 Q456,132 472,230 L165,230 L165,616 L488,616 Q489,673 489,720 L95,720 L95,771 L927,771 L927,720 L544,720 Q544,675 543,616 L859,616 L859,184"/> 
            <glyph glyph-name="有" unicode="&#x6709;" horiz-adv-x="946" d=" M303,464 L303,341 L784,341 L784,464 M303,292 L303,168 L784,168 L784,292 M93,640 L93,691 L382,691 Q415,751 445,820 L503,807 Q475,745 445,691 L946,691 L946,640 L417,640 Q379,574 337,515 L840,515 L840,28 Q845,-84 728,-84 Q645,-87 596,-86 Q591,-56 582,-29 Q631,-31 713,-31 Q788,-36 784,39 L784,118 L303,118 L303,-103 L248,-103 L248,402 Q180,324 95,247 Q75,278 60,296 Q240,448 353,640"/> 
            <glyph glyph-name="机" unicode="&#x673A;" horiz-adv-x="963" d=" M78,578 L78,628 L210,628 L210,816 L262,816 L262,628 L390,628 L390,578 L262,578 L262,424 L289,453 Q357,391 409,336 L372,298 Q312,362 262,412 L262,-100 L210,-100 L210,462 Q160,266 82,161 Q72,194 57,223 Q154,357 208,578 M362,-101 Q340,-81 314,-58 Q413,39 444,137 Q475,235 472,436 L472,754 L791,754 L791,37 Q789,-17 827,-13 L847,-13 Q891,-18 899,47 Q908,109 913,200 Q938,189 963,181 Q957,82 949,27 Q936,-73 853,-69 L817,-69 Q734,-71 734,30 L734,701 L529,701 L529,433 Q531,225 496.5,114 Q462,3 362,-101"/> 
            <glyph glyph-name="极" unicode="&#x6781;" horiz-adv-x="959" d=" M80,570 L80,620 L199,620 L199,809 L252,809 L252,620 L364,620 L364,570 L252,570 L252,422 L273,443 Q333,390 389,333 L354,293 Q302,353 252,399 L252,-103 L199,-103 L199,458 Q155,281 83,157 Q68,189 52,216 Q145,376 195,570 M521,618 L521,573 Q595,311 714,166 Q799,282 846,444 L682,444 L682,504 L776,709 L522,709 M495,-104 Q477,-79 458,-54 Q596,27 678,122 Q572,253 517,451 Q509,264 467.5,143.5 Q426,23 339,-88 Q316,-67 296,-48 Q395,74 432,216 Q469,358 467,617 L468,709 L386,709 L386,759 L830,759 L830,696 L736,494 L901,494 L901,433 Q847,253 751,124 Q834,37 959,-34 Q940,-62 923,-91 Q797,-7 715,80 Q626,-23 495,-104"/> 
            <glyph glyph-name="槽" unicode="&#x69FD;" horiz-adv-x="956" d=" M589,687 L589,603 L705,603 L705,687 M589,432 L589,342 L705,342 L705,432 M424,432 L424,342 L541,342 L541,432 M753,432 L753,342 L871,342 L871,432 M589,563 L589,471 L705,471 L705,563 M424,563 L424,471 L541,471 L541,563 M871,563 L753,563 L753,471 L871,471 M456,187 L456,101 L839,101 L839,187 M456,61 L456,-26 L839,-26 L839,61 M188,-101 L188,437 Q147,276 77,169 Q69,203 56,235 Q147,375 188,570 L188,575 L75,575 L75,623 L188,623 L188,813 L239,813 L239,623 L343,623 L343,575 L239,575 L239,413 L263,436 Q323,370 366,318 L329,285 Q292,330 239,395 L239,-101 M403,-104 L403,229 L891,229 L891,-104 L839,-104 L839,-68 L456,-68 L456,-104 M353,687 L353,729 L541,729 L541,814 L589,814 L589,729 L705,729 L705,814 L753,814 L753,729 L956,729 L956,687 L753,687 L753,603 L919,603 L919,302 L376,302 L376,603 L541,603 L541,687"/> 
            <glyph glyph-name="每" unicode="&#x6BCF;" horiz-adv-x="959" d=" M541,128 Q487,177 425,227 L460,262 Q524,211 578,167 M553,368 Q493,422 435,467 L470,503 Q531,458 591,409 M102,508 Q87,530 67,552 Q207,676 274,824 L335,815 Q315,776 292,738 L939,738 L939,688 L259,688 Q193,594 102,508 M289,532 L256,340 L770,340 Q774,439 777,532 M759,100 L768,290 L248,290 L216,100 M66,290 L66,340 L200,340 L241,581 L836,581 Q830,458 826,340 L959,340 L959,290 L823,290 Q819,189 813,100 L928,100 L928,51 L810,51 Q804,-96 660,-95 Q590,-98 531,-97 Q526,-64 520,-36 Q578,-40 649,-40 Q749,-49 756,51 L151,51 L191,290"/> 
            <glyph glyph-name="民" unicode="&#x6C11;" horiz-adv-x="953" d=" M562,302 Q545,385 536,488 L210,488 L210,302 M210,725 L210,540 L820,540 L820,725 M828,-98 Q765,-102 699,-24 Q612,81 573,248 L210,248 L210,-21 Q324,25 443,70 Q443,35 444,5 Q333,-32 225,-77 Q190,-91 165,-107 L131,-57 Q155,-36 154,5 L154,777 L877,777 L877,488 L595,488 Q603,384 619,302 L949,302 L949,248 L632,248 Q670,101 740,22 Q790,-36 824,-33 Q861,-36 873,22 Q890,77 900,160 Q926,148 953,140 Q939,56 924,-6 Q893,-99 828,-98"/> 
            <glyph glyph-name="波" unicode="&#x6CE2;" horiz-adv-x="959" d=" M215,387 Q132,457 66,509 L100,551 Q174,497 253,434 M246,627 Q170,701 98,758 L135,798 Q209,741 288,672 M150,-96 L88,-74 Q141,91 181,288 Q208,274 238,265 Q196,111 150,-96 M410,634 L410,441 L627,441 L627,634 M827,390 L532,390 Q576,239 673,138 Q781,243 827,390 M392,-104 Q375,-76 355,-50 Q524,14 629,100 Q525,210 477,390 L410,390 Q409,227 376,114.5 Q343,2 269,-100 Q249,-79 224,-60 Q298,39 327.5,144 Q357,249 356,401 L356,686 L627,686 L627,817 L681,817 L681,686 L942,686 L924,521 Q899,524 870,524 L889,634 L681,634 L681,441 L886,441 L886,386 Q829,212 714,99 Q810,16 959,-37 Q941,-64 924,-96 Q768,-27 670,60 Q560,-31 392,-104"/> 
            <glyph glyph-name="清" unicode="&#x6E05;" horiz-adv-x="959" d=" M239,632 Q172,697 102,756 L139,794 Q206,740 281,674 M200,386 Q137,446 58,509 L96,548 Q178,486 242,431 M146,-97 L88,-73 Q112,-3 140.5,93.5 Q169,190 187,271 Q214,256 243,245 Q218,158 191.5,64 Q165,-30 146,-97 M409,198 L409,114 L832,114 L832,198 M409,324 L409,240 L832,240 L832,324 M316,691 L316,736 L592,736 L592,819 L646,819 L646,736 L946,736 L946,691 L646,691 L646,612 L916,612 L916,568 L646,568 L646,487 L959,487 L959,442 L294,442 L294,487 L592,487 L592,568 L338,568 L338,612 L592,612 L592,691 M353,-101 L353,368 L888,368 L888,13 Q891,-92 779,-93 Q718,-95 650,-95 Q646,-68 635,-37 Q690,-41 763,-41 Q838,-45 832,19 L832,72 L409,72 L409,-101"/> 
            <glyph glyph-name="焦" unicode="&#x7126;" horiz-adv-x="934" d=" M396,-93 Q375,-14 347,60 L398,75 Q428,0 451,-76 M636,-88 Q606,-7 572,65 L623,85 Q660,6 691,-69 M884,-91 Q845,-15 794,68 L843,93 Q887,18 934,-65 M137,-107 Q114,-92 89,-79 Q157,21 191,89 L240,67 Q192,-24 137,-107 M253,624 L253,514 L542,514 L542,624 M253,467 L253,357 L542,357 L542,467 M253,308 L253,196 L542,196 L542,308 M913,672 L913,624 L596,624 L596,514 L878,514 L878,467 L596,467 L596,357 L878,357 L878,308 L596,308 L596,196 L928,196 L928,147 L253,147 L253,109 L198,109 L198,548 Q153,488 99,431 Q84,455 66,479 Q210,620 295,815 L347,797 Q317,732 281,672 M575,674 Q539,734 499,792 L546,817 Q587,759 625,698"/> 
            <glyph glyph-name="然" unicode="&#x7136;" horiz-adv-x="961" d=" M871,630 Q817,685 756,738 L794,772 Q854,720 912,666 M644,-73 Q612,5 569,91 L620,111 Q658,35 697,-52 M409,-82 Q379,-5 340,84 L390,102 Q426,27 464,-62 M138,-97 L89,-72 Q137,14 181,116 L231,96 Q197,16 138,-97 M897,-74 Q848,16 794,106 L843,132 Q903,36 951,-49 M524,525 L524,575 L649,575 Q659,688 659,815 L713,815 Q712,774 710,707 Q708,640 704,575 L948,575 L948,525 L706,525 Q732,411 790,340.5 Q848,270 961,214 Q942,193 924,165 Q817,225 760.5,292 Q704,359 679,462 Q656,359 600,287.5 Q544,216 442,155 L406,201 Q522,270 574.5,344 Q627,418 643,525 M98,415 Q85,433 62,455 Q201,612 282,823 L334,809 Q312,753 286,702 L512,702 L512,647 Q463,466 374.5,346.5 Q286,227 127,133 Q104,159 86,177 Q220,251 302,343 Q235,393 171,438 L200,474 Q263,432 334,382 Q363,420 385,462 Q319,509 251,551 L279,585 Q340,551 407,506 Q437,572 457,651 L260,651 Q193,524 98,415"/> 
            <glyph glyph-name="爱" unicode="&#x7231;" horiz-adv-x="954" d=" M281,572 Q249,628 216,676 L261,699 Q295,649 328,597 M530,576 Q504,635 471,689 L519,708 Q552,656 580,598 M772,209 L357,209 Q447,118 566,61 Q686,122 772,209 M130,713 Q126,741 119,766 Q316,767 518.5,773.5 Q721,780 902,792 L916,740 Q545,722 130,713 M106,444 L106,568 L691,568 Q746,646 786,710 L836,686 Q798,632 750,568 L926,568 L926,444 L870,444 L870,519 L161,519 L161,444 M80,346 L80,397 L341,397 Q356,441 370,490 L429,482 Q416,437 402,397 L954,397 L954,346 L382,346 Q364,300 343,258 L842,258 L842,202 Q746,101 628,35 Q763,-16 954,-36 Q938,-65 927,-93 Q710,-61 565,2 Q419,-66 197,-106 Q185,-80 169,-53 Q368,-23 503,33 Q390,94 305,190 Q225,56 93,-56 Q79,-28 61,-6 Q239,134 322,346"/> 
            <glyph glyph-name="现" unicode="&#x73B0;" horiz-adv-x="962" d=" M778,-72 Q675,-76 676,43 L676,273 L729,273 L729,47 Q724,-28 793,-21 L825,-21 Q889,-25 898,39 Q904,79 909,154 Q936,144 962,135 Q958,81 951,25 Q940,-75 823,-72 M365,-103 Q348,-81 324,-59 Q502,45 566,152 Q630,259 634,450 Q637,548 637,632 L690,632 Q690,597 689.5,549 Q689,501 688,469 Q681,247 615,128 Q549,9 365,-103 M70,682 L70,732 L387,732 L387,682 L257,682 L257,421 L376,421 L376,371 L257,371 L257,105 L394,128 Q394,97 396,73 Q344,66 236,48 Q128,30 70,19 L60,76 Q106,82 202,97 L202,371 L81,371 L81,421 L202,421 L202,682 M439,207 L439,770 L890,770 L890,215 L834,215 L834,716 L493,716 L493,207"/> 
            <glyph glyph-name="理" unicode="&#x7406;" horiz-adv-x="962" d=" M850,719 L689,719 L689,566 L850,566 M473,719 L473,566 L635,566 L635,719 M689,519 L689,365 L850,365 L850,519 M473,519 L473,365 L635,365 L635,519 M68,684 L68,734 L365,734 L365,684 L243,684 L243,414 L358,414 L358,364 L243,364 L243,83 L365,112 Q365,83 367,54 Q224,25 72,-14 L61,45 Q122,57 191,72 L191,364 L76,364 L76,414 L191,414 L191,684 M401,137 L401,185 L635,185 L635,316 L421,316 L421,768 L903,768 L903,316 L689,316 L689,185 L924,185 L924,137 L689,137 L689,-18 L962,-18 L962,-68 L347,-68 L347,-18 L635,-18 L635,137"/> 
            <glyph glyph-name="生" unicode="&#x751F;" horiz-adv-x="959" d=" M112,371 Q90,393 66,413 Q194,569 264,771 L323,754 Q293,679 262,616 L498,616 L498,820 L557,820 L557,616 L911,616 L911,560 L557,560 L557,323 L885,323 L885,268 L557,268 L557,7 L959,7 L959,-50 L68,-50 L68,7 L498,7 L498,268 L168,268 L168,323 L498,323 L498,560 L234,560 Q180,459 112,371"/> 
            <glyph glyph-name="用" unicode="&#x7528;" horiz-adv-x="915" d=" M226,415 Q226,329 222,265 L503,265 L503,460 L226,460 M226,708 L226,512 L503,512 L503,708 M560,460 L560,265 L849,265 L849,460 M849,708 L560,708 L560,512 L849,512 M111,-103 Q85,-83 60,-68 Q125,28 147.5,127 Q170,226 169,417 L169,762 L906,762 L906,29 Q915,-88 788,-93 Q727,-96 678,-95 Q675,-66 667,-33 Q714,-35 775,-35 Q853,-36 849,33 L849,213 L560,213 L560,-89 L503,-89 L503,213 L218,213 Q209,115 184,44.5 Q159,-26 111,-103"/> 
            <glyph glyph-name="电" unicode="&#x7535;" horiz-adv-x="955" d=" M790,637 L505,637 L505,459 L790,459 M165,637 L165,459 L450,459 L450,637 M505,228 L790,228 L790,407 L505,407 M165,407 L165,228 L450,228 L450,407 M580,-72 Q443,-77 450,62 L450,174 L165,174 L165,106 L111,106 L111,691 L450,691 L450,818 L505,818 L505,691 L845,691 L845,174 L505,174 L505,69 Q499,-19 597,-16 L780,-16 Q869,-18 880,49 Q894,105 898,159 Q932,146 955,140 Q943,58 933,16 Q917,-73 791,-72"/> 
            <glyph glyph-name="的" unicode="&#x7684;" horiz-adv-x="924" d=" M701,199 Q630,306 556,404 L597,434 Q673,339 748,234 M153,607 L153,355 L385,355 L385,607 M153,304 L153,46 L385,46 L385,304 M598,-84 Q595,-52 586,-24 Q654,-27 736,-27 Q851,-34 852,88 Q857,187 860.5,337 Q864,487 866,607 L600,607 Q562,516 523,448 Q501,464 475,479 Q563,630 616,815 L672,800 Q650,731 622,661 L924,661 Q922,529 917.5,378 Q913,227 906,80 Q907,-82 748,-82 Q671,-85 598,-84 M100,-91 L100,660 L199,660 Q226,749 240,815 L298,802 Q279,735 254,660 L438,660 L438,-84 L385,-84 L385,-7 L153,-7 L153,-91"/> 
            <glyph glyph-name="相" unicode="&#x76F8;" horiz-adv-x="921" d=" M507,455 L507,261 L864,261 L864,455 M507,701 L507,506 L864,506 L864,701 M507,211 L507,14 L864,14 L864,211 M76,571 L76,622 L214,622 L214,813 L267,813 L267,622 L396,622 L396,571 L267,571 L267,407 L297,436 Q356,377 412,316 L373,279 Q320,342 267,398 L267,-103 L214,-103 L214,451 Q164,276 86,161 Q73,193 57,223 Q159,372 212,571 M452,-104 L452,752 L921,752 L921,-104 L864,-104 L864,-37 L507,-37 L507,-104"/> 
            <glyph glyph-name="眼" unicode="&#x773C;" horiz-adv-x="959" d=" M173,711 L173,531 L324,531 L324,711 M173,484 L173,303 L324,303 L324,484 M173,256 L173,73 L324,73 L324,256 M532,724 L532,582 L839,582 L839,724 M532,391 L839,391 L839,534 L532,534 M122,-80 L122,760 L373,760 L373,-57 L324,-57 L324,24 L173,24 L173,-80 M923,-74 Q787,10 719,105 Q651,200 621,342 L532,342 L532,-16 Q611,24 690,69 Q692,38 697,12 Q623,-23 543,-70 Q518,-83 492,-104 L456,-59 Q480,-33 479,12 L479,773 L892,773 L892,342 L672,342 Q695,248 735,179 Q832,240 911,297 L944,253 Q867,202 762,138 Q828,46 959,-24 Q938,-50 923,-74"/> 
            <glyph glyph-name="睛" unicode="&#x775B;" horiz-adv-x="959" d=" M158,703 L158,531 L284,531 L284,703 M158,483 L158,311 L284,311 L284,483 M158,264 L158,89 L284,89 L284,264 M485,323 L485,241 L849,241 L849,323 M485,198 L485,115 L849,115 L849,198 M394,691 L394,736 L639,736 L639,819 L691,819 L691,736 L947,736 L947,691 L691,691 L691,612 L922,612 L922,568 L691,568 L691,487 L959,487 L959,442 L381,442 L381,487 L639,487 L639,568 L418,568 L418,612 L639,612 L639,691 M433,-101 L433,368 L899,368 L899,13 Q900,-91 801,-93 Q747,-95 687,-95 Q682,-67 675,-37 Q722,-41 787,-41 Q853,-45 849,19 L849,72 L485,72 L485,-101 M108,-52 L108,752 L333,752 L333,-33 L284,-33 L284,40 L158,40 L158,-52"/> 
            <glyph glyph-name="瞬" unicode="&#x77AC;" horiz-adv-x="956" d=" M478,534 Q469,555 451,589 Q433,623 418,650 L462,671 Q498,610 524,558 M650,546 Q643,568 630.5,606 Q618,644 606,673 L653,688 Q679,619 698,562 M150,709 L150,527 L260,527 L260,709 M150,478 L150,292 L260,292 L260,478 M150,243 L150,52 L260,52 L260,243 M384,695 Q379,723 373,746 Q655,755 908,780 L923,732 Q827,723 681.5,713 Q536,703 384,695 M366,401 L366,524 L754,524 Q795,599 836,693 L886,674 L807,524 L941,524 L941,401 L892,401 L892,476 L417,476 L417,401 M364,124 L328,160 Q415,265 467,432 L513,420 Q500,380 486,344 L615,344 L615,293 Q589,154 534,64.5 Q479,-25 365,-106 Q349,-86 330,-65 Q442,12 493,92.5 Q544,173 565,297 L466,297 Q451,263 433,232 Q471,204 505,176 L473,135 Q445,164 410,192 Q389,157 364,124 M656,297 L656,344 L786,344 L786,418 L835,418 L835,344 L942,344 L942,297 L835,297 L835,130 L956,130 L956,82 L835,82 L835,-100 L786,-100 L786,82 L621,82 L664,240 L711,240 L681,130 L786,130 L786,297 M99,-57 L99,757 L308,757 L308,3 L150,3 L150,-57"/> 
            <glyph glyph-name="秀" unicode="&#x79C0;" horiz-adv-x="954" d=" M129,-106 L93,-57 Q233,0 288,72.5 Q343,145 348,272 L205,272 L205,322 L732,322 L732,276 L655,181 L860,181 Q857,94 849,29 Q843,-81 719,-80 Q652,-83 586,-82 Q581,-53 572,-25 Q671,-28 715,-27 Q788,-30 794,35 Q800,84 802,132 L595,132 L595,177 L669,272 L403,272 Q397,125 337.5,42.5 Q278,-40 129,-106 M92,553 L92,602 L484,602 L484,718 Q308,712 146,709 Q144,729 136,759 Q340,761 516,767.5 Q692,774 870,784 L884,735 Q708,726 539,720 L539,602 L934,602 L934,553 L587,553 Q720,426 954,372 Q935,344 926,317 Q791,359 700.5,411.5 Q610,464 539,542 L539,364 L484,364 L484,541 Q416,467 325.5,411.5 Q235,356 98,305 Q88,332 68,358 Q299,432 436,553"/> 
            <glyph glyph-name="私" unicode="&#x79C1;" horiz-adv-x="961" d=" M902,-86 L871,10 Q676,-1 534,-15 Q503,-18 469,-28 L437,27 Q474,56 498,128 Q547,263 601,456 Q655,649 687,796 L753,785 Q703,589 643.5,393.5 Q584,198 525,43 Q665,55 852,66 Q822,155 788.5,249 Q755,343 727,418 L780,438 Q827,314 879.5,169 Q932,24 961,-64 M70,483 L70,537 L238,537 L238,693 L91,684 Q85,715 76,740 Q259,749 436,771 L450,712 Q372,704 292,698 L292,537 L464,537 L464,483 L292,483 L292,358 L314,381 Q385,321 455,252 L416,208 Q352,278 292,335 L292,-100 L238,-100 L238,382 Q179,207 91,89 Q76,124 62,152 Q168,287 233,483"/> 
            <glyph glyph-name="秒" unicode="&#x79D2;" horiz-adv-x="964" d=" M913,374 Q838,509 765,627 L810,655 Q894,525 964,405 M450,324 L396,350 Q461,470 523,645 L575,626 Q522,479 450,324 M644,225 L644,816 L700,816 L700,225 M400,-109 Q385,-84 364,-56 Q545,12 655,102.5 Q765,193 850,343 L898,314 Q807,157 696.5,62.5 Q586,-32 400,-109 M76,482 L76,534 L225,534 L225,707 Q162,703 89,700 Q86,728 79,753 Q252,760 403,780 L416,726 Q349,717 280,711 L280,534 L411,534 L411,482 L280,482 L280,338 L307,362 Q375,294 439,220 L397,183 Q334,260 280,320 L280,-104 L225,-104 L225,375 Q176,207 87,77 Q75,110 61,142 Q164,282 222,482"/> 
            <glyph glyph-name="米" unicode="&#x7C73;" horiz-adv-x="959" d=" M708,503 L663,540 Q754,644 824,746 L871,713 Q804,617 708,503 M317,510 Q232,620 152,714 L196,748 Q287,645 365,547 M72,380 L72,436 L486,436 L486,805 L543,805 L543,436 L952,436 L952,380 L596,380 Q710,162 959,39 Q940,10 923,-18 Q780,65 691.5,157.5 Q603,250 546,380 L543,380 L543,-104 L486,-104 L486,380 L483,380 Q429,256 340,157.5 Q251,59 98,-39 Q83,-13 61,14 Q206,101 290,185 Q374,269 433,380"/> 
            <glyph glyph-name="精" unicode="&#x7CBE;" horiz-adv-x="959" d=" M329,529 L287,545 Q327,637 358,725 L400,707 Q387,670 366.5,618.5 Q346,567 329,529 M133,529 Q105,615 69,708 L110,724 Q151,625 179,544 M500,320 L500,240 L849,240 L849,320 M500,197 L500,115 L849,115 L849,197 M358,153 Q306,232 259,294 L259,-99 L208,-99 L208,307 Q165,158 88,50 Q76,78 59,103 Q154,227 206,418 L70,418 L70,467 L208,467 L208,812 L259,812 L259,467 L383,467 L383,418 L259,418 L259,302 L293,327 Q320,294 350.5,254 Q381,214 401,185 M428,683 L428,728 L648,728 L648,819 L700,819 L700,728 L947,728 L947,683 L700,683 L700,604 L924,604 L924,560 L700,560 L700,482 L959,482 L959,436 L413,436 L413,482 L648,482 L648,560 L450,560 L450,604 L648,604 L648,683 M450,-101 L450,365 L899,365 L899,13 Q900,-91 801,-93 Q747,-95 687,-95 Q682,-67 675,-37 Q722,-41 787,-41 Q853,-45 849,19 L849,72 L500,72 L500,-101"/> 
            <glyph glyph-name="系" unicode="&#x7CFB;" horiz-adv-x="936" d=" M108,-58 Q89,-32 69,-12 Q186,63 297,168 L340,130 Q229,31 108,-58 M898,-51 Q773,49 660,128 L699,168 Q816,87 936,-7 M175,443 L154,495 Q194,508 224,527 Q360,604 480,694 Q295,683 133,676 Q129,704 121,731 Q513,741 886,776 L899,724 Q710,708 507,696 L545,670 Q419,583 266,499 L588,507 Q685,568 767,627 L817,587 Q701,511 553.5,427 Q406,343 262,274 Q500,279 765,287 Q705,343 649,394 L688,427 Q810,320 925,211 L884,174 Q854,204 813,242 L551,234 L551,32 Q557,-81 442,-84 Q389,-87 335,-86 Q329,-52 321,-26 Q359,-30 429,-30 Q497,-35 495,42 L495,232 Q336,227 232,222 Q187,219 152,215 L127,272 Q165,279 220,306 Q365,373 509,459 Q389,457 238,448 Q200,445 175,443"/> 
            <glyph glyph-name="素" unicode="&#x7D20;" horiz-adv-x="952" d=" M91,-61 Q82,-40 63,-12 Q203,39 323,101 L354,59 Q237,-3 91,-61 M920,-62 Q870,-36 799.5,-2.5 Q729,31 662,60 L694,104 Q750,79 826,44 Q902,9 952,-15 M109,684 L109,729 L485,729 L485,821 L539,821 L539,729 L915,729 L915,684 L539,684 L539,607 L858,607 L858,562 L539,562 L539,485 L951,485 L951,439 L483,439 L522,418 Q413,379 282,339 Q446,344 588,347 L727,407 L772,370 Q507,264 262,182 L742,197 L656,260 L694,293 Q818,206 906,139 L870,97 Q836,125 798,154 Q682,152 549,148 L549,24 Q555,-90 443,-87 Q389,-89 342,-89 Q338,-63 330,-33 Q375,-34 428,-34 Q498,-37 495,31 L495,147 L247,139 Q200,138 158,134 L135,185 Q178,194 230,213 Q357,255 489,307 Q378,303 294.5,300 Q211,297 180,295 L162,344 Q198,350 239,363 Q359,402 439,439 L72,439 L72,485 L485,485 L485,562 L165,562 L165,607 L485,607 L485,684"/> 
            <glyph glyph-name="红" unicode="&#x7EA2;" horiz-adv-x="962" d=" M78,-20 L66,37 Q235,65 396,97 Q395,66 396,41 Q248,17 78,-20 M114,185 L91,240 Q119,261 158,311 Q202,369 251,444 Q129,440 81,434 L65,488 Q91,512 122,558 Q198,674 263,816 L322,796 Q285,727 234,641.5 Q183,556 135,489 Q160,490 203.5,491.5 Q247,493 283,494 Q324,560 360,624 L417,602 Q366,520 302.5,425 Q239,330 176,248 Q225,254 287.5,261 Q350,268 390,271 Q387,253 386,221 Q255,208 186,198 M425,671 L425,726 L929,726 L929,671 L703,671 L703,11 L962,11 L962,-43 L379,-43 L379,11 L647,11 L647,671"/> 
            <glyph glyph-name="纹" unicode="&#x7EB9;" horiz-adv-x="964" d=" M680,662 Q636,738 596,794 L647,820 Q692,757 732,692 M73,-13 L61,47 Q221,71 391,102 Q387,73 386,46 Q229,20 73,-13 M98,184 L76,241 Q103,257 135,301 Q184,361 242,449 Q123,445 78,440 L59,494 Q84,513 114,557 Q146,604 187,673 Q228,742 264,810 L322,786 Q228,628 133,495 Q205,497 276,500 Q310,553 337,601 L389,575 Q339,496 277.5,409.5 Q216,323 158,246 Q249,254 376,271 Q370,242 369,217 Q178,200 98,184 M517,591 Q555,358 665,210 Q789,369 820,591 M401,591 L401,644 L949,644 L949,591 L873,591 Q834,334 701,165 Q803,50 964,-27 Q944,-54 927,-83 Q766,2 664,120 Q551,-5 376,-99 Q358,-68 339,-45 Q518,46 628,165 Q508,326 464,591"/> 
            <glyph glyph-name="统" unicode="&#x7EDF;" horiz-adv-x="961" d=" M76,-14 L61,41 Q212,65 369,98 Q367,67 367,45 Q230,21 76,-14 M97,190 L79,241 Q109,260 158,325 Q200,380 244,450 Q153,448 79,444 L65,497 Q90,520 123,570 Q198,684 261,817 L319,797 Q275,719 223,636.5 Q171,554 131,496 L275,500 Q305,550 331,598 L386,575 Q332,492 269,400 Q206,308 161,248 Q251,258 355,266 Q350,242 348,216 Q180,202 97,190 M366,637 L366,688 L642,688 Q627,731 596,809 L650,823 Q681,754 699,704 L652,688 L947,688 L947,637 L596,637 L642,617 Q567,517 463,397 Q536,399 631.5,402.5 Q727,406 803,409 L724,511 L768,541 Q813,486 858,428 Q903,370 936,326 L891,292 L838,363 Q793,360 743,359 L743,45 Q741,-30 802,-24 L824,-24 Q895,-30 897,37 Q903,79 909,140 L961,119 Q957,62 948,15 Q937,-79 825,-77 L791,-77 Q687,-80 689,31 L689,356 L575,351 Q575,273 568,213 Q557,101 506.5,31 Q456,-39 347,-106 Q333,-86 309,-59 Q412,0 458,59 Q504,118 514,213 Q520,269 521,348 Q507,346 495,346 Q448,343 398,333 L371,390 Q408,413 429,436 Q515,527 582,637"/> 
            <glyph glyph-name="继" unicode="&#x7EE7;" horiz-adv-x="955" d=" M587,536 Q547,635 512,707 L555,727 Q590,653 632,557 M825,534 L781,557 Q828,639 871,733 L916,712 Q877,629 825,534 M73,-13 L62,44 L350,87 Q346,58 346,32 Q203,12 73,-13 M92,205 L74,260 Q97,276 126,316 Q171,378 227,471 Q115,470 74,464 L59,517 Q83,536 96,563 Q158,669 223,809 L278,785 Q202,645 127,518 Q189,519 258,522 Q291,578 322,634 L373,610 Q270,435 151,262 Q244,270 344,281 Q340,254 338,229 Q230,222 154,213 Q117,209 92,205 M399,-64 L399,778 L452,778 L452,-12 L955,-12 L955,-64 M498,425 L498,474 L684,474 L684,814 L734,814 L734,474 L936,474 L936,425 L734,425 L734,329 L760,352 Q837,274 919,187 L880,151 Q798,244 734,312 L734,27 L684,27 L684,356 Q622,222 516,112 Q504,140 488,163 Q598,268 677,425"/> 
            <glyph glyph-name="续" unicode="&#x7EED;" horiz-adv-x="956" d=" M590,345 Q522,388 456,423 L479,459 Q549,425 614,387 M523,237 Q451,285 385,319 L408,357 Q476,325 549,279 M74,-13 L65,43 Q190,59 344,85 Q342,62 343,31 Q215,11 74,-13 M77,453 L61,510 Q87,529 103,559 Q184,681 246,822 L301,802 Q213,633 131,510 Q179,510 258,515 Q291,571 322,628 L371,606 Q267,426 157,263 Q246,269 343,278 Q340,258 338,227 Q219,220 165,213 Q124,207 98,203 L78,258 Q104,273 130,312 Q180,384 229,466 Q126,461 77,453 M421,660 L421,708 L636,708 L636,818 L690,818 L690,708 L910,708 L910,660 L690,660 L690,547 L946,547 L946,496 L920,376 Q893,382 865,383 L894,497 L384,497 L384,547 L636,547 L636,660 M376,146 L376,195 L657,195 Q673,261 674,452 L727,452 Q727,272 711,195 L956,195 L956,146 L699,146 Q693,128 686,112 Q822,33 947,-48 L912,-98 Q777,-2 659,68 Q592,-25 362,-107 Q349,-80 331,-53 Q476,-8 547.5,38.5 Q619,85 642,146"/> 
            <glyph glyph-name="网" unicode="&#x7F51;" horiz-adv-x="901" d=" M458,133 L375,292 Q314,171 250,75 Q230,91 205,105 Q286,226 346,345 Q286,456 222,571 L264,597 L374,403 Q422,507 455,606 L504,588 Q460,466 404,350 Q456,256 506,161 M757,82 Q712,171 659,270 Q601,160 536,61 Q514,78 492,92 Q568,207 630,326 Q568,442 508,547 L553,572 L658,383 Q712,493 749,601 L797,580 Q748,446 689,328 L805,109 M125,-95 L125,764 L895,764 L895,31 Q901,-83 790,-89 Q724,-93 664,-92 Q661,-60 654,-30 Q710,-34 765,-34 Q846,-37 841,40 L841,707 L179,707 L179,-95"/> 
            <glyph glyph-name="美" unicode="&#x7F8E;" horiz-adv-x="951" d=" M367,685 Q326,732 263,797 L309,826 Q371,767 417,717 M93,159 L93,208 L475,208 Q483,243 487,283 L544,283 Q538,242 531,208 L931,208 L931,159 L561,159 Q609,74 698,29.5 Q787,-15 951,-39 Q936,-63 920,-98 Q744,-63 651,-9 Q558,45 512,139 Q479,44 383,-13.5 Q287,-71 96,-109 Q80,-78 66,-55 Q248,-22 339,27.5 Q430,77 460,159 M106,632 L106,682 L592,682 Q668,764 713,823 L765,795 Q717,738 663,682 L915,682 L915,632 L539,632 L539,528 L870,528 L870,480 L539,480 L539,372 L943,372 L943,324 L80,324 L80,372 L483,372 L483,480 L154,480 L154,528 L483,528 L483,632"/> 
            <glyph glyph-name="能" unicode="&#x80FD;" horiz-adv-x="955" d=" M169,405 L169,303 L418,303 L418,405 M169,257 L169,154 L418,154 L418,257 M501,500 L456,557 Q294,550 153,541 Q114,538 85,531 L62,586 Q90,600 120,633 Q201,720 268,826 L324,800 Q237,689 147,590 Q273,596 416,605 L337,694 L378,726 Q458,640 547,537 M696,406 Q581,405 585,513 L585,815 L639,815 L639,638 Q778,692 895,764 L926,716 Q797,645 639,581 L639,523 Q634,456 707,458 L809,458 Q879,458 888,514 Q895,551 901,617 Q928,606 955,598 Q946,536 936,498 Q920,406 816,406 M694,-79 Q581,-82 584,32 L584,349 L638,349 L638,188 Q783,243 912,320 L944,271 Q794,189 638,129 L638,42 Q635,-30 706,-27 L811,-27 Q882,-28 891,29 Q896,63 901,131 Q930,120 954,113 Q947,49 938,11 Q925,-81 818,-79 M117,-96 L117,452 L470,452 L470,8 Q474,-86 384,-86 Q343,-88 296,-88 Q292,-62 284,-34 Q326,-35 368,-35 Q422,-37 418,8 L418,108 L169,108 L169,-96"/> 
            <glyph glyph-name="航" unicode="&#x822A;" horiz-adv-x="964" d=" M262,453 Q241,523 216,592 L260,607 Q287,535 307,470 M271,112 Q248,188 221,263 L263,279 Q291,208 317,129 M926,659 L926,608 L460,608 L460,659 M679,662 Q646,738 615,797 L668,818 Q700,752 731,679 M178,667 L178,393 L356,393 L356,667 M459,-105 Q437,-81 416,-63 Q486,8 509.5,86 Q533,164 531,326 L531,466 L804,466 L804,22 Q802,-26 848,-23 L857,-23 Q895,-28 901,27 Q912,100 915,182 Q943,170 964,162 Q958,71 950,10 Q938,-80 862,-77 L830,-77 Q750,-82 751,11 L751,414 L585,414 L585,327 Q586,156 558.5,65.5 Q531,-25 459,-105 M63,344 L63,393 L129,393 L129,716 L221,716 L239,822 L294,816 Q283,770 270,716 L406,716 L406,10 Q411,-87 317,-88 Q281,-90 237,-91 Q234,-64 227,-32 Q256,-34 301,-34 Q360,-36 356,18 L356,344 L178,344 L178,333 Q179,172 163.5,79 Q148,-14 105,-101 Q77,-78 59,-65 Q99,13 114.5,95 Q130,177 129,331 L129,344"/> 
            <glyph glyph-name="舰" unicode="&#x8230;" horiz-adv-x="961" d=" M270,459 Q247,531 221,589 L261,605 Q290,542 312,477 M279,121 Q254,203 226,274 L267,290 Q295,217 323,139 M803,-71 Q710,-77 711,43 L711,272 L762,272 L762,48 Q760,-28 817,-21 L838,-21 Q895,-27 900,37 Q907,79 912,154 Q937,142 961,137 Q957,82 950,25 Q941,-74 841,-71 M446,-103 Q431,-83 409,-57 Q557,33 610.5,133.5 Q664,234 668,424 Q671,530 672,624 L723,624 Q723,509 720,442 Q713,221 655.5,107 Q598,-7 446,-103 M189,663 L189,398 L354,398 L354,663 M503,207 L503,759 L891,759 L891,221 L840,221 L840,707 L554,707 L554,207 M69,349 L69,398 L138,398 L138,712 L229,712 Q242,773 249,821 L303,814 Q293,764 279,712 L403,712 L403,9 Q405,-85 324,-85 Q278,-86 237,-86 L227,-32 Q267,-35 301,-34 Q358,-37 354,14 L354,349 L189,349 L189,304 Q190,167 171.5,79.5 Q153,-8 103,-99 Q80,-81 56,-65 Q102,10 120.5,91.5 Q139,173 138,302 L138,349"/> 
            <glyph glyph-name="艺" unicode="&#x827A;" horiz-adv-x="956" d=" M68,640 L68,693 L323,693 L323,820 L379,820 L379,693 L644,693 L644,820 L701,820 L701,693 L956,693 L956,640 L701,640 L701,537 L644,537 L644,640 L379,640 L379,538 L323,538 L323,640 M299,-70 Q149,-66 153,30 Q153,96 219,146 Q375,259 682,414 L197,414 L197,468 L791,468 L791,407 Q647,337 494.5,252.5 Q342,168 264,110 Q211,70 212,40 Q212,-13 321,-15 L684,-15 Q781,-15 819.5,4.5 Q858,24 866,66 Q878,125 886,205 L940,184 Q932,89 920,36 Q908,-17 861.5,-43.5 Q815,-70 702,-70"/> 
            <glyph glyph-name="荐" unicode="&#x8350;" horiz-adv-x="951" d=" M87,679 L87,730 L329,730 L329,815 L384,815 L384,730 L657,730 L657,816 L711,816 L711,730 L951,730 L951,679 L711,679 L711,604 L657,604 L657,679 L384,679 L384,615 L329,615 L329,679 M351,143 L351,194 L651,194 L651,243 L809,345 L417,345 L417,395 L885,395 L885,338 L706,221 L706,194 L951,194 L951,143 L706,143 L706,11 Q708,-92 604,-93 Q555,-95 469,-95 Q466,-70 456,-36 Q522,-40 587,-40 Q653,-42 651,16 L651,143 M94,495 L94,547 L350,547 Q368,580 384,614 L438,601 L411,547 L937,547 L937,495 L383,495 Q338,418 283,345 L283,-103 L229,-103 L229,278 Q169,208 96,142 Q81,167 62,191 Q213,316 321,495"/> 
            <glyph glyph-name="被" unicode="&#x88AB;" horiz-adv-x="961" d=" M231,658 Q195,732 161,796 L207,818 Q243,757 281,684 M487,624 L487,429 L667,429 L667,624 M840,380 L591,380 Q628,233 712,138 Q796,235 840,380 M189,-101 L189,325 Q143,272 81,217 Q71,247 58,273 Q216,407 297,579 L76,579 L76,631 L353,631 L353,577 Q302,471 242,390 L242,364 L285,321 Q323,366 357,412 L396,382 Q359,337 315,290 Q349,253 386,217 L350,180 Q298,241 242,302 L242,-101 M468,-107 Q454,-83 432,-56 Q586,15 673,98 Q576,207 535,380 L487,380 L487,373 Q488,214 458.5,106.5 Q429,-1 357,-105 Q336,-86 309,-69 Q378,21 406,120 Q434,219 433,377 L433,676 L667,676 L667,816 L722,816 L722,676 L941,676 L922,509 Q896,511 867,511 L886,624 L722,624 L722,429 L896,429 L896,376 Q843,205 750,99 Q830,24 961,-37 Q943,-63 927,-92 Q792,-18 711,58 Q622,-27 468,-107"/> 
            <glyph glyph-name="览" unicode="&#x89C8;" horiz-adv-x="957" d=" M821,444 Q736,507 609,581 L641,620 Q756,556 856,489 M131,478 L131,792 L185,792 L185,478 M339,474 L339,818 L394,818 L394,474 M102,-105 Q94,-82 76,-52 Q253,-10 339,38 Q425,86 450,161 Q470,220 470,307 L527,307 Q523,219 506,156 Q480,60 388,1 Q296,-58 102,-105 M478,491 Q460,511 432,529 Q536,645 594,823 L649,814 Q630,759 607,708 L946,708 L946,657 L582,657 Q537,566 478,491 M636,-76 Q516,-80 521,34 L521,195 L577,195 L577,51 Q572,-34 653,-25 L806,-25 Q879,-27 889,37 Q896,79 902,146 Q930,136 957,128 Q953,65 941,14 Q926,-76 822,-76 M186,101 L186,411 L814,411 L814,110 L759,110 L759,359 L242,359 L242,101"/> 
            <glyph glyph-name="角" unicode="&#x89D2;" horiz-adv-x="883" d=" M660,674 L324,674 Q275,616 223,568 L563,568 M246,517 L246,376 L501,376 L501,517 M246,325 Q245,243 238,183 L501,183 L501,325 M824,517 L556,517 L556,376 L824,376 M556,325 L556,183 L824,183 L824,325 M112,472 Q90,497 70,517 Q248,644 365,822 L424,804 Q395,762 365,725 L729,725 L729,670 L636,568 L879,568 L879,34 Q883,-79 772,-83 Q717,-86 652,-85 Q649,-57 642,-27 Q699,-30 752,-30 Q828,-35 824,42 L824,133 L556,133 L556,-59 L501,-59 L501,133 L232,133 Q210,5 127,-101 Q103,-81 78,-64 Q146,22 169,107 Q192,192 190,365 L190,537 Q153,504 112,472"/> 
            <glyph glyph-name="解" unicode="&#x89E3;" horiz-adv-x="958" d=" M175,516 L175,385 L273,385 L273,516 M175,231 L175,206 L273,206 L273,338 L175,338 M421,516 L322,516 L322,385 L421,385 M322,338 L322,206 L421,206 L421,338 M217,670 Q179,612 135,562 L293,562 L372,670 M525,444 L492,487 Q573,530 603,575.5 Q633,621 634,704 L528,704 L528,753 L912,753 Q911,674 903,590 Q898,481 792,483 Q742,482 705,482 Q702,500 696,535 Q738,532 785,533 Q847,528 852,597 Q855,650 857,704 L686,704 Q685,605 651,550 Q617,495 525,444 M547,194 Q523,208 500,217 Q554,310 588,433 L637,423 Q624,378 610,340 L722,340 L722,447 L773,447 L773,340 L936,340 L936,289 L773,289 L773,144 L958,144 L958,94 L773,94 L773,-106 L722,-106 L722,94 L496,94 L496,144 L722,144 L722,289 L591,289 Q571,236 547,194 M273,11 L273,161 L174,161 Q171,74 154.5,16.5 Q138,-41 103,-101 Q79,-79 60,-68 Q98,-10 113.5,54 Q129,118 128,236 L128,554 L96,520 Q80,541 61,559 Q174,671 241,818 L293,800 Q269,754 245,715 L429,715 L429,666 L354,562 L469,562 L469,8 Q472,-88 378,-88 Q349,-90 308,-91 Q306,-63 301,-37 Q326,-38 365,-38 Q425,-44 421,19 L421,161 L322,161 L322,11"/> 
            <glyph glyph-name="识" unicode="&#x8BC6;" horiz-adv-x="961" d=" M266,597 Q203,676 132,755 L175,791 Q211,752 250.5,707 Q290,662 313,633 M911,-92 Q823,37 717,179 L761,208 Q863,78 961,-54 M364,-99 L318,-59 Q425,51 526,208 L575,180 Q471,22 364,-99 M193,-24 L148,23 Q178,56 176,108 L176,444 L62,444 L62,497 L230,497 L230,87 Q296,136 369,198 L380,137 Q336,104 292,67.5 Q248,31 227.5,13 Q207,-5 193,-24 M466,698 L466,342 L839,342 L839,698 M409,290 L409,749 L895,749 L895,290"/> 
            <glyph glyph-name="诗" unicode="&#x8BD7;" horiz-adv-x="961" d=" M541,36 Q516,65 479.5,103.5 Q443,142 414,169 L454,205 Q535,128 585,75 M241,603 Q180,676 106,750 L147,788 Q218,717 288,642 M189,-75 L145,-28 Q175,11 173,75 L173,436 L66,436 L66,488 L228,488 L228,37 Q248,54 282.5,84 Q317,114 344,140 Q349,106 359,78 Q332,58 295.5,27 Q259,-4 230,-31 Q210,-49 189,-75 M334,247 L334,298 L749,298 L749,386 L805,386 L805,298 L961,298 L961,247 L805,247 L805,21 Q809,-89 683,-92 Q622,-93 563,-93 Q561,-64 553,-31 Q612,-35 671,-34 Q755,-40 749,41 L749,247 M375,637 L375,687 L620,687 L620,817 L675,817 L675,687 L916,687 L916,637 L675,637 L675,485 L961,485 L961,434 L329,434 L329,485 L620,485 L620,637"/> 
            <glyph glyph-name="赖" unicode="&#x8D56;" horiz-adv-x="961" d=" M401,505 L303,505 L303,320 L401,320 M157,505 L157,320 L255,320 L255,505 M923,-95 Q795,28 714,95 Q660,-20 482,-104 Q466,-79 449,-56 Q600,8 653,92 Q706,176 702,343 L702,432 L755,432 L755,345 Q755,221 732,142 Q841,55 961,-51 M514,527 Q499,543 474,560 Q586,684 640,823 L694,813 Q676,772 657,735 L873,735 L873,685 L776,535 L919,535 L919,132 L867,132 L867,487 L589,487 L589,132 L538,132 L538,535 L720,535 L819,687 L630,687 Q582,605 514,527 M78,662 L78,711 L254,711 L254,819 L304,819 L304,711 L482,711 L482,662 L304,662 L304,553 L450,553 L450,274 L304,274 L304,193 L328,218 Q407,151 482,83 L446,47 Q374,117 304,180 L304,-105 L254,-105 L254,207 Q190,70 86,-42 Q75,-15 61,14 Q175,124 246,274 L110,274 L110,553 L254,553 L254,662"/> 
            <glyph glyph-name="起" unicode="&#x8D77;" horiz-adv-x="957" d=" M672,109 Q545,105 548,217 L548,497 L833,497 L833,707 L532,707 L532,758 L888,758 L888,445 L601,445 L601,229 Q598,156 680,161 L787,161 Q869,157 878,223 Q890,270 895,330 Q921,318 947,312 Q941,261 931,208 Q917,106 794,109 M99,628 L99,679 L259,679 L259,816 L312,816 L312,679 L463,679 L463,628 L312,628 L312,472 L490,472 L490,423 L341,423 L341,256 L478,256 L478,205 L341,205 L341,14 Q412,-16 534,-17 Q631,-19 752,-19 Q873,-19 957,-17 Q943,-49 938,-74 Q858,-74 731,-73.5 Q604,-73 518,-70 Q378,-66 301,-24 Q224,18 175,123 Q157,4 98,-101 Q79,-81 56,-66 Q104,22 120.5,111 Q137,200 136,351 L188,351 Q187,266 183,203 Q230,95 287,48 L287,423 L68,423 L68,472 L259,472 L259,628"/> 
            <glyph glyph-name="身" unicode="&#x8EAB;" horiz-adv-x="959" d=" M252,666 L252,565 L749,565 L749,666 M252,518 L252,415 L749,415 L749,518 M722,263 Q736,272 749,283 L749,367 L252,367 L252,263 M515,-87 Q512,-52 505,-28 Q569,-31 657,-30 Q753,-37 749,56 L749,212 L737,212 Q597,114 445,39 Q293,-36 105,-99 Q94,-72 73,-44 Q254,13 391,73.5 Q528,134 647,212 L70,212 L70,263 L197,263 L197,716 L414,716 Q431,772 444,820 L502,812 Q490,767 471,716 L804,716 L804,325 Q861,369 923,423 L959,381 Q880,315 804,259 L804,49 Q805,-87 679,-85 Q638,-86 590,-86.5 Q542,-87 515,-87"/> 
            <glyph glyph-name="辉" unicode="&#x8F89;" horiz-adv-x="961" d=" M334,506 L292,522 Q332,620 358,708 L401,694 Q369,591 334,506 M124,505 Q102,586 67,697 L109,711 Q140,620 169,518 M437,612 L437,760 L934,760 L934,612 L882,612 L882,711 L489,711 L489,612 M66,375 L66,421 L209,421 L209,807 L260,807 L260,421 L400,421 L400,375 L323,375 L323,52 L391,112 Q393,79 397,53 Q355,20 321,-13 Q298,-32 283,-51 L252,-13 Q273,17 273,65 L273,375 L196,375 Q196,334 195,300 Q192,157 170,71.5 Q148,-14 95,-99 Q78,-72 58,-54 Q104,22 123,96 Q142,170 145,300 Q146,334 146,375 M427,502 L427,552 L579,552 Q608,615 628,668 L683,654 Q662,608 635,552 L948,552 L948,502 L610,502 Q562,407 513,316 L686,316 L686,440 L737,440 L737,316 L926,316 L926,268 L737,268 L737,132 L961,132 L961,82 L737,82 L737,-103 L686,-103 L686,82 L429,82 L429,132 L686,132 L686,268 L457,268 L457,325 Q496,383 555,502"/> 
            <glyph glyph-name="选" unicode="&#x9009;" horiz-adv-x="961" d=" M241,610 Q187,676 112,755 L156,791 Q218,725 287,649 M94,-79 L60,-30 Q117,32 183,93 L183,427 L72,427 L72,484 L239,484 L239,97 Q322,-22 463,-16 Q565,-18 715.5,-18.5 Q866,-19 961,-17 Q947,-51 941,-75 Q819,-75 671.5,-74 Q524,-73 441,-70 Q294,-71 209,49 Q143,-21 94,-79 M382,479 Q356,492 330,504 Q408,641 443,779 L496,765 Q480,709 459,652 L609,652 L609,817 L663,817 L663,652 L905,652 L905,601 L663,601 L663,428 L949,428 L949,378 L730,378 L730,177 Q726,105 791,110 L823,110 Q876,105 886,171 Q892,208 896,262 Q927,247 948,240 Q943,193 935,153 Q922,58 839,61 L767,61 Q679,58 677,169 L677,378 L536,378 Q534,248 496,177 Q458,106 357,45 L319,92 Q412,143 447.5,204 Q483,265 483,378 L308,378 L308,428 L609,428 L609,601 L439,601 Q412,536 382,479"/> 
            <glyph glyph-name="通" unicode="&#x901A;" horiz-adv-x="961" d=" M258,597 Q198,669 118,753 L161,786 Q190,758 232,713 Q274,668 305,633 M413,519 L413,409 L601,409 L601,519 M843,519 L654,519 L654,409 L843,409 M413,363 L413,251 L601,251 L601,363 M654,363 L654,251 L843,251 L843,363 M94,-77 L59,-29 Q118,36 182,97 L182,427 L72,427 L72,482 L237,482 L237,102 Q321,-20 463,-13 Q565,-15 715.5,-15.5 Q866,-16 961,-14 Q947,-48 941,-71 Q819,-71 671.5,-70 Q524,-69 441,-66 Q294,-68 209,53 Q143,-17 94,-77 M714,46 Q712,75 702,99 Q739,96 778,97 Q847,90 843,171 L843,205 L654,205 L654,61 L601,61 L601,205 L413,205 L413,48 L360,48 L360,565 L599,565 Q512,616 426,664 L460,700 Q536,657 615,609 L813,719 L342,719 L342,767 L890,767 L890,709 L662,580 L688,565 L896,565 L896,154 Q900,51 795,48 Q745,45 714,46"/> 
            <glyph glyph-name="速" unicode="&#x901F;" horiz-adv-x="961" d=" M239,612 Q185,676 117,753 L157,786 Q181,760 218.5,719.5 Q256,679 283,648 M418,508 L418,366 L603,366 L603,508 M842,508 L656,508 L656,366 L842,366 M94,-77 L59,-29 Q118,36 182,97 L182,427 L72,427 L72,482 L237,482 L237,102 Q321,-20 463,-13 Q565,-15 715.5,-15.5 Q866,-16 961,-14 Q947,-48 941,-71 Q819,-71 671.5,-70 Q524,-69 441,-66 Q294,-68 209,53 Q143,-17 94,-77 M327,663 L327,712 L603,712 L603,817 L656,817 L656,712 L943,712 L943,663 L656,663 L656,554 L895,554 L895,318 L656,318 L656,251 L683,285 Q746,245 815,200 Q884,155 935,120 L902,74 Q855,110 784,158 Q713,206 656,243 L656,28 L603,28 L603,269 Q509,141 342,59 Q326,85 305,109 Q482,183 588,318 L365,318 L365,554 L603,554 L603,663"/> 
            <glyph glyph-name="都" unicode="&#x90FD;" horiz-adv-x="961" d=" M221,295 L221,181 L468,181 L468,295 M221,134 L221,17 L468,17 L468,134 M636,-103 L636,761 L939,761 L939,705 L828,427 Q961,306 954,181 Q954,28 827,24 Q783,21 738,22 Q732,54 725,84 Q765,80 812,80 Q899,79 897,181 Q904,283 767,416 L881,710 L690,710 L690,-103 M112,637 L112,686 L266,686 L266,816 L322,816 L322,686 L450,686 L450,637 L322,637 L322,512 L384,512 Q473,606 534,716 L582,689 Q521,589 454,512 L584,512 L584,461 L407,461 Q348,399 276,344 L520,344 L520,-89 L468,-89 L468,-32 L221,-32 L221,-91 L168,-91 L168,266 Q127,239 82,212 Q71,236 53,261 Q213,347 333,461 L68,461 L68,512 L266,512 L266,637"/> 
            <glyph glyph-name="量" unicode="&#x91CF;" horiz-adv-x="959" d=" M225,350 L225,281 L484,281 L484,350 M797,350 L537,350 L537,281 L797,281 M225,244 L225,174 L484,174 L484,244 M537,244 L537,174 L797,174 L797,244 M70,446 L70,486 L955,486 L955,446 M219,737 L219,676 L803,676 L803,737 M219,640 L219,579 L803,579 L803,640 M167,542 L167,774 L856,774 L856,542 M172,135 L172,390 L850,390 L850,135 L537,135 L537,72 L889,72 L889,31 L537,31 L537,-33 L959,-33 L959,-74 L66,-74 L66,-33 L484,-33 L484,31 L135,31 L135,72 L484,72 L484,135"/> 
            <glyph glyph-name="金" unicode="&#x91D1;" horiz-adv-x="957" d=" M319,34 Q272,94 199,172 L242,205 Q308,137 365,71 M691,33 L647,70 Q713,131 777,205 L823,172 Q759,102 691,33 M928,471 Q664,570 515,752 Q366,579 99,458 Q85,483 66,510 Q383,651 505,827 L567,815 L547,790 Q715,604 957,525 Q940,494 928,471 M220,453 L220,506 L791,506 L791,453 L540,453 L540,304 L870,304 L870,252 L540,252 L540,-11 L933,-11 L933,-64 L93,-64 L93,-11 L483,-11 L483,252 L153,252 L153,304 L483,304 L483,453"/> 
            <glyph glyph-name="销" unicode="&#x9500;" horiz-adv-x="928" d=" M520,603 Q463,680 406,748 L446,777 Q507,709 565,637 M810,600 L768,634 Q828,701 885,777 L928,747 Q869,668 810,600 M97,481 L61,525 Q145,652 193,819 L244,804 Q221,733 197,675 L372,675 L372,625 L176,625 Q143,553 97,481 M480,497 L480,361 L856,361 L856,497 M480,310 L480,173 L856,173 L856,310 M133,459 L133,509 L350,509 L350,459 L248,459 L248,312 L373,312 L373,262 L248,262 L248,23 Q310,73 362,117 Q366,85 373,58 Q316,16 247,-40 L206,-77 L168,-34 Q196,-4 196,42 L196,262 L68,262 L68,312 L196,312 L196,459 M427,-101 L427,549 L639,549 L639,819 L694,819 L694,549 L910,549 L910,30 Q918,-87 800,-89 Q730,-93 692,-92 Q687,-63 680,-33 Q724,-35 786,-35 Q860,-38 856,35 L856,122 L480,122 L480,-101"/> 
            <glyph glyph-name="锁" unicode="&#x9501;" horiz-adv-x="959" d=" M510,590 Q458,670 408,739 L452,767 Q503,700 555,622 M820,587 L776,619 Q839,696 883,771 L928,741 Q881,668 820,587 M94,482 Q78,505 59,527 Q154,651 206,817 L260,802 Q235,734 207,675 L371,675 L371,626 L183,626 Q146,554 94,482 M923,-97 Q787,14 659,109 Q598,-30 385,-106 Q373,-79 354,-53 Q498,-3 564.5,68.5 Q631,140 638,253 Q642,311 642,426 L695,426 Q695,305 691,249 Q688,200 676,158 Q827,54 959,-45 M130,460 L130,509 L348,509 L348,460 L245,460 L245,310 L364,310 L364,261 L245,261 L245,32 L369,125 Q374,95 383,69 Q318,27 244,-29 Q224,-44 203,-65 L167,-25 Q194,3 194,44 L194,261 L69,261 L69,310 L194,310 L194,460 M423,126 L423,543 L640,543 L640,815 L694,815 L694,543 L914,543 L914,127 L861,127 L861,491 L475,491 L475,126"/> 
            <glyph glyph-name="长" unicode="&#x957F;" horiz-adv-x="954" d=" M401,497 Q389,525 372,551 Q645,651 829,772 L866,726 Q673,607 401,497 M913,-66 Q740,12 640.5,112 Q541,212 480,363 L293,363 L293,-7 Q403,48 517,101 Q517,67 519,36 Q417,-8 313,-60 Q276,-78 248,-99 L209,-49 Q235,-21 234,25 L234,363 L72,363 L72,419 L234,419 L234,816 L293,816 L293,419 L945,419 L945,363 L537,363 Q595,230 694,141.5 Q793,53 954,-6 Q934,-32 913,-66"/> 
            <glyph glyph-name="间" unicode="&#x95F4;" horiz-adv-x="919" d=" M273,649 Q210,723 155,781 L200,817 Q259,760 324,692 M109,-100 L109,628 L164,628 L164,-100 M379,508 L379,353 L644,353 L644,508 M379,303 L379,144 L644,144 L644,303 M662,-98 Q660,-66 651,-36 Q706,-39 778,-39 Q865,-42 863,49 L863,706 L398,706 L398,760 L919,760 L919,42 Q919,-97 795,-97 Q731,-98 662,-98 M326,92 L326,560 L697,560 L697,92"/> 
            <glyph glyph-name="隐" unicode="&#x9690;" horiz-adv-x="966" d=" M681,68 Q643,129 599,185 L639,212 Q683,155 724,99 M920,2 Q873,87 828,151 L872,177 Q916,111 966,30 M353,-40 Q327,-29 303,-21 Q351,71 382,156 L429,140 Q398,57 353,-40 M765,676 L523,676 Q484,623 435,570 L681,570 M593,-77 Q480,-79 484,26 L484,180 L535,180 L535,34 Q531,-30 604,-26 L689,-26 Q761,-29 767,26 Q774,52 780,101 L829,83 Q823,33 814,3 Q797,-78 696,-77 M106,-103 L106,775 L364,775 L364,716 L274,483 Q322,416 339.5,364.5 Q357,313 356,256 Q355,148 268,135 Q238,131 193,131 Q188,156 179,186 Q215,183 251,184 Q306,187 304,258 Q310,358 220,476 L312,727 L159,727 L159,-103 M386,520 Q371,540 352,559 Q476,676 554,821 L604,803 Q580,760 556,724 L823,724 L823,669 L743,570 L899,570 L899,234 L421,234 L421,282 L848,282 L848,380 L433,380 L433,425 L848,425 L848,522 L429,522 L429,563"/> 
            <glyph glyph-name="集" unicode="&#x96C6;" horiz-adv-x="955" d=" M253,657 L253,576 L521,576 L521,657 M253,532 L253,451 L521,451 L521,532 M253,407 L253,325 L521,325 L521,407 M83,137 L83,184 L485,184 L485,248 L539,248 L539,184 L946,184 L946,137 L587,137 Q657,84 741.5,48 Q826,12 955,-19 Q938,-47 926,-71 Q791,-34 701.5,12 Q612,58 539,127 L539,-106 L485,-106 L485,126 Q412,57 321.5,8 Q231,-41 97,-78 Q87,-55 68,-27 Q192,5 278.5,43.5 Q365,82 436,137 M199,246 L199,594 Q153,539 97,487 Q81,514 66,534 Q202,653 286,813 L337,793 Q308,745 279,702 L560,702 Q536,748 503,795 L550,818 Q585,769 613,722 L573,702 L918,702 L918,657 L574,657 L574,576 L877,576 L877,532 L574,532 L574,451 L877,451 L877,407 L574,407 L574,325 L921,325 L921,280 L253,280 L253,246"/> 
            <glyph glyph-name="高" unicode="&#x9AD8;" horiz-adv-x="957" d=" M364,164 L364,61 L659,61 L659,164 M272,551 L272,459 L750,459 L750,551 M66,674 L66,724 L491,724 Q482,766 469,809 L527,819 L550,724 L957,724 L957,674 M310,16 L310,210 L712,210 L712,16 M116,-99 L116,334 L905,334 L905,19 Q914,-88 805,-92 Q755,-93 689,-93 L678,-35 Q728,-38 782,-38 Q857,-42 851,24 L851,286 L171,286 L171,-99 M218,413 L218,597 L803,597 L803,413"/> 
            <glyph glyph-name="龙" unicode="&#x9F99;" horiz-adv-x="955" d=" M755,660 Q684,721 615,774 L651,813 Q720,761 793,703 M358,-12 L324,43 Q436,96 529,164 L529,572 L406,572 Q385,323 314.5,171 Q244,19 102,-104 Q84,-76 63,-54 Q192,54 260.5,196 Q329,338 348,572 L82,572 L82,627 L352,627 Q358,712 360,816 L419,816 Q416,713 410,627 L949,627 L949,572 L587,572 L587,208 Q731,328 835,483 L886,449 Q754,263 587,135 L587,67 Q581,-22 673,-20 L786,-20 Q873,-23 882,55 Q892,110 895,198 Q923,188 955,180 Q947,96 935,30 Q924,-81 794,-77 L660,-77 Q521,-77 529,53 L529,92 Q450,38 358,-12"/> 
        </font>
</defs>
</svg>
