<?xml version="1.0" standalone="no"?>
<!DOCTYPE svg PUBLIC "-//W3C//DTD SVG 1.1//EN" "http://www.w3.org/Graphics/SVG/1.1/DTD/svg11.dtd" >
<svg xmlns="http://www.w3.org/2000/svg">
    <defs>
        <font id="">
            <font-face font-family=""
                       units-per-em="256"
                       ascent="267"
                       descent="-72"
                       bbox="-23 -72 256 267"
                    />
            <missing-glyph horiz-adv-x="0" />
            
            <glyph glyph-name="." unicode="&#x2E;" horiz-adv-x="45" d=" M45,10 L45,-8 L27,-8 L27,10"/> 
            <glyph glyph-name="/" unicode="&#x2F;" horiz-adv-x="74" d=" M12,-15 L-2,-15 L60,186 L74,186"/> 
            <glyph glyph-name="0" unicode="&#x30;" horiz-adv-x="137" d=" M74,0 Q98,1 110.5,24.5 Q123,48 123,85.5 Q123,123 110.5,146.5 Q98,170 74,171 Q49,170 36.5,146.5 Q24,123 24,85.5 Q24,48 36.5,24.5 Q49,1 74,0 M73,184 Q107,182 122,153.5 Q137,125 136,85 Q137,46 122,17.5 Q107,-11 73,-12 Q40,-11 25.5,17.5 Q11,46 11,85.5 Q11,125 25.5,153.5 Q40,182 73,184"/> 
            <glyph glyph-name="2" unicode="&#x32;" horiz-adv-x="131" d=" M72,184 Q97,183 112,168 Q127,153 127,129 Q126,101 102,78 Q85,59 60.5,32.5 Q36,6 33,3 L131,3 L131,-10 L13,-10 L13,1 Q14,2 28,17.5 Q42,33 59.5,51.5 Q77,70 88,81 Q112,105 114,129 Q112,169 72,170 Q29,168 27,127 L14,127 Q14,150 28.5,166.5 Q43,183 72,184"/> 
            <glyph glyph-name="8" unicode="&#x38;" horiz-adv-x="138" d=" M75,184 Q98,183 113.5,170.5 Q129,158 130,135 Q127,103 99,93 Q115,88 126.5,75 Q138,62 138,43 Q138,17 120.5,2.5 Q103,-12 74.5,-12 Q46,-12 28.5,2.5 Q11,17 11,43 Q11,62 22.5,75 Q34,88 50,93 Q22,103 20,135 Q20,157 35.5,170 Q51,183 75,184 M24,43 Q27,2 74,0 Q122,2 125,43 Q124,61 110.5,73 Q97,85 74,86 Q51,85 38,73 Q25,61 24,43 M33,136 Q35,100 75,98 Q93,98 104.5,108.5 Q116,119 116,136 Q116,150 105,160.5 Q94,171 74.5,171 Q55,171 44,160.5 Q33,150 33,136"/> 
            <glyph glyph-name="C" unicode="&#x43;" horiz-adv-x="149" d=" M94,-12 Q53,-12 31,14 Q9,40 9,83 Q9,124 32,153 Q55,182 95,184 Q123,184 149,169 L142,158 Q120,171 95,171 Q64,170 43.5,144.5 Q23,119 23,83 Q23,47 41,24 Q59,1 94,0 Q119,0 142,14 L148,3 Q123,-13 94,-12"/> 
            <glyph glyph-name="G" unicode="&#x47;" horiz-adv-x="150" d=" M92,-12 Q53,-12 31,14 Q9,40 9,84 Q10,125 33.5,153.5 Q57,182 95,184 Q126,184 149,169 L142,157 Q122,171 95,171 Q61,170 42,144.5 Q23,119 23,84 Q23,47 41,24 Q59,1 92,0 Q116,0 137,11 L137,78 L94,78 L94,90 L150,90 L150,4 Q125,-12 92,-12"/> 
            <glyph glyph-name="L" unicode="&#x4C;" horiz-adv-x="112" d=" M112,3 L112,-10 L19,-10 L19,181 L33,181 L33,3"/> 
            <glyph glyph-name="P" unicode="&#x50;" horiz-adv-x="137" d=" M33,168 L33,73 Q41,73 57,73 Q120,73 123,123 Q120,170 57,169 Q42,169 33,168 M33,61 L33,-10 L19,-10 L19,180 Q31,182 57,182 Q135,181 137,123 Q135,61 57,61 Q44,61 33,61"/> 
            <glyph glyph-name="U" unicode="&#x55;" horiz-adv-x="150" d=" M137,181 L150,181 L150,70 Q150,-14 85,-12 Q19,-14 19,70 L19,181 L33,181 L33,70 Q32,0 85,0 Q138,0 137,70"/> 
            <glyph glyph-name="g" unicode="&#x67;" horiz-adv-x="124" d=" M69,114 Q50,113 36,98 Q22,83 21,59 Q22,35 34,19 Q46,3 68,3.5 Q90,4 106,20 Q108,23 108,27 L108,89 Q108,92 106,95 Q91,114 69,114 M111,124 L124,124 Q122,115 122,106 L122,-3 Q120,-72 60,-73 Q38,-73 19,-64 L23,-53 Q40,-60 60,-60 Q108,-59 108,-3 L108,6 L107,6 Q91,-9 68,-10 Q40,-9 24,9.5 Q8,28 8,58.5 Q8,89 24.5,107.5 Q41,126 69,126 Q92,125 107,110 L109,110 L109,114 Q110,119 111,124"/> 
            <glyph glyph-name="m" unicode="&#x6D;" horiz-adv-x="199" d=" M33,69 L33,-10 L19,-10 L19,106 Q19,115 18,124 L30,124 Q32,115 32,106 L32,99 L34,99 Q46,124 73,126 Q103,125 113,97 Q127,125 157,126 Q175,127 186.5,114.5 Q198,102 199,75 L199,-10 L185,-10 L185,75 Q184,112 157,114 Q129,112 117,78 Q116,74 116,70 L116,-10 L102,-10 L102,75 Q100,112 73,114 Q47,111 34,76 Q33,73 33,69"/> 
            <glyph glyph-name="o" unicode="&#x6F;" horiz-adv-x="130" d=" M69,114 Q46,113 34.5,97 Q23,81 23,57.5 Q23,34 34.5,17.5 Q46,1 69,0 Q93,1 104.5,17.5 Q116,34 116,57.5 Q116,81 104.5,97 Q93,113 69,114 M69,-12 Q40,-12 24.5,7.5 Q9,27 9,57 Q9,87 24.5,106.5 Q40,126 69,126 Q98,126 114,106.5 Q130,87 130,57 Q130,27 114.5,7.5 Q99,-12 69,-12"/> 
            <glyph glyph-name="、" unicode="&#x3001;" horiz-adv-x="92" d=" M81,-5 L39,44 L49,53 L92,4"/> 
            <glyph glyph-name="一" unicode="&#x4E00;" horiz-adv-x="241" d=" M16,90 L16,104 L241,104 L241,90"/> 
            <glyph glyph-name="不" unicode="&#x4E0D;" horiz-adv-x="239" d=" M229,45 Q210,59 189,74 Q168,89 151,100 L160,111 Q202,83 239,58 M119,-26 L119,124 L134,124 L134,-26 M23,171 L23,185 L236,185 L236,171 L151,171 Q127,131 97,100 Q67,69 25,39 Q21,46 16,51 Q58,80 85.5,108 Q113,136 134,171"/> 
            <glyph glyph-name="与" unicode="&#x4E0E;" horiz-adv-x="239" d=" M16,42 L16,55 L182,55 L182,42 M119,-21 Q118,-12 116,-4 Q137,-6 166,-6 Q200,-7 202,22 Q206,60 207,97 L53,97 L63,205 L78,205 L74,168 L239,168 L239,154 L73,154 L69,111 L222,111 Q220,61 216,20 Q215,-21 169,-21 Q140,-21 119,-21"/> 
            <glyph glyph-name="两" unicode="&#x4E24;" horiz-adv-x="238" d=" M104,176 Q104,156 103,140 L154,140 Q154,155 155,176 M63,20 Q57,25 52,29 Q70,50 78.5,71 Q87,92 89,122 Q89,124 89,127 L45,127 L45,-23 L31,-23 L31,140 L90,140 Q91,156 90,176 L18,176 L18,189 L238,189 L238,176 L168,176 Q168,158 167,140 L224,140 L224,7 Q225,-21 198,-21 Q181,-21 166,-21 Q165,-13 163,-6 Q177,-7 191,-7 Q212,-8 211,9 L211,127 L166,127 Q166,124 166,122 Q164,103 161,88 Q182,65 204,41 L194,30 Q174,54 157,74 Q147,42 124,13 Q119,18 113,23 Q132,45 141,68.5 Q150,92 153,127 L103,127 Q101,109 98,94 Q115,79 130,64 L121,53 Q107,68 95,80 Q86,48 63,20"/> 
            <glyph glyph-name="严" unicode="&#x4E25;" horiz-adv-x="238" d=" M67,121 Q54,141 40,158 L51,165 Q65,148 79,129 M190,119 L180,128 Q197,146 211,165 L222,156 Q208,139 190,119 M110,177 L110,106 L151,106 L151,177 M21,177 L21,190 L238,190 L238,177 L164,177 L164,106 L237,106 L237,93 L52,93 L52,75 Q52,43 46.5,20.5 Q41,-2 26,-25 Q21,-20 14,-15 Q27,3 32.5,23.5 Q38,44 38,75 L38,106 L97,106 L97,177"/> 
            <glyph glyph-name="主" unicode="&#x4E3B;" horiz-adv-x="239" d=" M129,165 Q123,180 113,200 L127,205 L143,170 M27,148 L27,161 L228,161 L228,148 L135,148 L135,86 L220,86 L220,72 L135,72 L135,2 L239,2 L239,-12 L18,-12 L18,2 L121,2 L121,72 L36,72 L36,86 L121,86 L121,148"/> 
            <glyph glyph-name="丽" unicode="&#x4E3D;" horiz-adv-x="238" d=" M191,48 Q177,78 164,102 L175,108 Q188,83 203,55 M80,46 Q66,74 52,99 L63,105 Q77,81 91,52 M18,177 L18,190 L238,190 L238,177 M141,-26 L141,148 L225,148 L225,5 Q226,-22 200,-22 Q188,-22 175,-22 Q174,-15 172,-8 Q185,-9 197,-8 Q212,-9 211,5 L211,135 L154,135 L154,-26 M32,-26 L32,148 L113,148 L113,5 Q114,-22 87,-22 Q76,-22 64,-22 Q63,-15 61,-8 Q73,-8 84,-8 Q100,-9 99,6 L99,135 L45,135 L45,-26"/> 
            <glyph glyph-name="么" unicode="&#x4E48;" horiz-adv-x="233" d=" M26,70 Q21,77 16,83 Q81,134 120,204 L134,196 Q90,123 26,70 M45,-14 L37,3 Q50,10 63,22 Q90,50 119.5,86.5 Q149,123 172,159 L187,150 Q131,72 66,4 Q139,9 198,12 Q178,40 156,69 L168,78 Q201,34 233,-12 L220,-21 L208,-3 Q136,-6 72,-10 Q56,-12 45,-14"/> 
            <glyph glyph-name="也" unicode="&#x4E5F;" horiz-adv-x="241" d=" M122,27 L122,125 L64,110 L64,22 Q62,-4 87,-2 L191,-2 Q220,-4 221,17 Q224,32 225,50 Q234,47 241,46 Q239,27 235,10 Q231,-18 195,-16 L83,-16 Q48,-18 49,18 L49,107 L18,99 L16,112 L49,121 L49,177 L64,177 L64,125 L122,139 L122,204 L136,204 L136,143 L217,164 Q216,122 214,85.5 Q212,49 181,51 Q168,51 157,51 Q156,59 154,67 Q165,66 179,66 Q199,64 200,88 Q202,116 202,146 L136,129 L136,27"/> 
            <glyph glyph-name="什" unicode="&#x4EC0;" horiz-adv-x="241" d=" M23,72 Q19,79 14,85 Q56,136 77,202 L92,198 Q80,166 67,140 L67,-25 L53,-25 L53,114 Q39,91 23,72 M90,103 L90,117 L159,117 L159,202 L174,202 L174,117 L241,117 L241,103 L174,103 L174,-25 L159,-25 L159,103"/> 
            <glyph glyph-name="从" unicode="&#x4ECE;" horiz-adv-x="241" d=" M117,56 Q97,83 73,110 Q70,69 59.5,39 Q49,9 27,-21 Q21,-16 15,-11 Q38,18 48,52 Q58,86 61,142 Q63,172 64,202 L78,202 Q77,167 75,134 L74,116 L81,122 Q105,95 128,66 M92,-24 Q87,-18 81,-13 Q117,17 134,55 Q151,93 153,143 Q154,173 154,203 L169,203 Q169,182 168,159 Q174,91 190,54.5 Q206,18 241,-8 Q235,-16 230,-21 Q199,5 183.5,35 Q168,65 162,113 Q158,73 142,40.5 Q126,8 92,-24"/> 
            <glyph glyph-name="光" unicode="&#x5149;" horiz-adv-x="241" d=" M75,126 Q56,153 35,177 L46,185 Q66,163 88,136 M176,124 L165,134 Q191,160 209,185 L221,176 Q201,152 176,124 M18,91 L18,105 L121,105 L121,205 L135,205 L135,105 L239,105 L239,91 L163,91 L163,12 Q163,-6 181,-6 L206,-6 Q222,-7 224,8 Q226,21 227,41 Q234,38 241,36 Q239,17 237,4 Q233,-20 207,-20 L178,-20 Q149,-19 149,9 L149,91 L99,91 Q99,81 98,72 Q95,36 78.5,14 Q62,-8 25,-26 Q20,-19 15,-12 Q50,2 65.5,21 Q81,40 84,73 Q85,81 85,91"/> 
            <glyph glyph-name="全" unicode="&#x5168;" horiz-adv-x="240" d=" M231,106 Q194,125 170.5,144 Q147,163 129,188 Q89,138 25,104 Q20,111 15,116 Q92,158 125,207 L141,204 L137,198 Q157,172 180.5,154 Q204,136 240,119 Q236,115 231,106 M55,101 L55,115 L201,115 L201,101 L135,101 L135,60 L210,60 L210,46 L135,46 L135,1 L231,1 L231,-13 L25,-13 L25,1 L121,1 L121,46 L46,46 L46,60 L121,60 L121,101"/> 
            <glyph glyph-name="创" unicode="&#x521B;" horiz-adv-x="228" d=" M164,32 L164,179 L178,179 L178,32 M141,129 Q112,160 88,182 Q63,142 24,111 Q20,117 15,123 Q62,158 86,206 L100,203 L95,193 Q125,165 151,140 M172,-21 Q171,-14 169,-6 Q183,-7 198,-7 Q213,-7 214,9 L214,204 L227,204 L227,8 Q228,-20 202,-21 Q186,-21 172,-21 M71,-18 Q40,-19 41,12 L41,121 L133,121 Q133,110 132.5,96 Q132,82 131,72 Q130,43 99,43 Q86,43 75,43 Q74,49 71,57 Q84,56 97,56 Q117,56 118,75 Q118,89 119,108 L54,108 L54,14 Q53,-5 74,-5 L107,-5 Q129,-4 131.5,8.5 Q134,21 136,37 Q143,34 150,32 Q148,17 144,3 Q139,-18 110,-18"/> 
            <glyph glyph-name="到" unicode="&#x5230;" horiz-adv-x="229" d=" M165,32 L165,179 L179,179 L179,32 M172,-21 Q171,-10 169,-6 Q174,-6 184,-6.5 Q194,-7 200,-7 Q215,-7 215,10 L215,203 L229,203 L229,8 Q229,-20 203,-21 Q198,-21 188,-21 Q178,-21 172,-21 M23,55 L23,68 L76,68 L76,97 L90,97 L90,68 L143,68 L143,55 L90,55 L90,7 Q119,11 148,15 Q148,8 148,1 Q87,-6 20,-16 L17,-2 Q44,1 76,5 L76,55 M20,177 L20,190 L148,190 L148,177 L83,177 Q66,149 44,120 Q82,122 118,124 Q110,137 99,153 L111,158 Q129,131 146,104 L133,97 L124,112 Q83,110 54,108 Q42,107 30,104 L23,118 Q32,124 35,129 Q54,155 66,177"/> 
            <glyph glyph-name="制" unicode="&#x5236;" horiz-adv-x="230" d=" M170,38 L170,180 L183,180 L183,38 M173,-22 Q172,-14 170,-6 Q184,-7 198,-7 Q216,-9 215,10 L215,203 L228,203 L228,9 Q230,-21 202,-22 Q187,-22 173,-22 M16,106 L16,118 L83,118 L83,154 L44,154 Q39,142 32,128 Q26,132 20,135 Q37,163 44,194 L57,191 Q53,178 49,167 L83,167 L83,203 L96,203 L96,167 L146,167 L146,154 L96,154 L96,118 L156,118 L156,106 L96,106 L96,74 L147,74 L147,18 Q148,-4 126,-5 Q118,-5 109,-5 Q108,1 106,8 Q113,8 122,8 Q135,7 134,20 L134,62 L96,62 L96,-26 L83,-26 L83,62 L46,62 L46,-8 L33,-8 L33,74 L83,74 L83,106"/> 
            <glyph glyph-name="势" unicode="&#x52BF;" horiz-adv-x="240" d=" M23,163 L23,175 L60,175 L60,205 L73,205 L73,175 L100,175 L100,163 L73,163 L73,136 Q88,139 100,142 Q101,130 101,129 L73,124 L73,98 Q74,74 50,74 Q41,74 30,74 Q29,81 27,88 Q38,87 47,87 Q60,86 60,100 L60,121 Q42,117 25,113 L22,126 Q39,129 60,133 L60,163 M99,75 Q95,81 90,86 Q120,101 131,120 Q120,127 109,134 L116,143 Q126,138 137,132 Q141,144 142,163 L114,163 L114,175 L143,175 Q144,190 144,205 L158,205 Q157,190 157,175 L203,175 Q203,122 206,107 Q209,90 218,90 Q223,90 225.5,100.5 Q228,111 229,128 Q235,125 240,123 Q239,108 236,95 Q231,75 218,76 Q199,76 193,104 Q191,121 191,163 L156,163 Q154,141 148,125 L178,107 L170,96 L142,114 Q130,93 99,75 M134,-20 Q132,-12 129,-4 Q150,-5 168,-5 Q195,-6 196,14 Q198,28 198,46 L116,46 Q111,18 91,1.5 Q71,-15 27,-26 Q24,-19 19,-12 Q59,-3 78,10 Q97,23 102,46 L31,46 L31,58 L104,58 Q104,65 105,73 L119,73 Q118,65 118,58 L213,58 Q212,30 210,12 Q210,-20 170,-20 Q169,-20 156.5,-20 Q144,-20 134,-20"/> 
            <glyph glyph-name="包" unicode="&#x5305;" horiz-adv-x="240" d=" M62,117 L62,76 L134,76 L134,117 M82,-17 Q47,-18 48,17 L48,129 Q37,113 24,98 Q20,105 15,112 Q53,155 73,206 L87,202 Q82,189 76,177 L211,177 Q210,125 207,66 Q207,24 170,26 Q154,26 141,26 Q140,33 138,42 Q150,41 168,41 Q193,40 193,66 Q196,111 196,164 L69,164 Q60,147 49,130 L148,130 L148,63 L62,63 L62,18 Q60,-4 85,-3 L193,-3 Q218,-4 221,14 Q224,26 225,48 L240,43 Q237,21 234,8 Q230,-18 196,-17"/> 
            <glyph glyph-name="华" unicode="&#x534E;" horiz-adv-x="238" d=" M25,119 Q22,125 17,132 Q55,158 86,205 L99,199 Q86,180 72,164 L72,77 L58,77 L58,148 Q42,132 25,119 M18,34 L18,47 L121,47 L121,78 L135,78 L135,47 L237,47 L237,34 L135,34 L135,-26 L121,-26 L121,34 M92,110 Q90,116 86,123 Q115,132 139,143 L139,201 L153,201 L153,149 Q186,165 217,188 L226,178 Q192,153 153,134 L153,116 Q152,95 174,97 L198,97 Q218,96 221,112 Q223,123 224,137 Q232,134 238,132 Q236,116 233,105 Q228,83 201,84 L171,84 Q138,82 139,114 L139,128 Q118,119 92,110"/> 
            <glyph glyph-name="双" unicode="&#x53CC;" horiz-adv-x="241" d=" M212,173 L139,173 Q144,131 152.5,103.5 Q161,76 173,56 Q188,77 196.5,104 Q205,131 212,173 M103,8 L77,51 Q59,17 26,-18 Q21,-12 16,-7 Q51,30 68,66 Q41,112 21,142 L33,149 Q56,113 75,82 Q90,119 96,173 L18,173 L18,186 L110,186 L110,172 Q103,110 84,67 Q101,40 115,16 M231,-21 Q192,4 173,32 Q160,15 143.5,1.5 Q127,-12 103,-26 Q97,-18 93,-14 Q140,12 164,44 Q149,68 140,98.5 Q131,129 126,173 L118,173 L118,186 L226,186 L226,172 Q218,125 208,95.5 Q198,66 182,44 Q204,13 241,-8 Q236,-14 231,-21"/> 
            <glyph glyph-name="口" unicode="&#x53E3;" horiz-adv-x="218" d=" M53,167 L53,21 L203,21 L203,167 M38,-16 L38,181 L218,181 L218,-16 L203,-16 L203,7 L53,7 L53,-16"/> 
            <glyph glyph-name="可" unicode="&#x53EF;" horiz-adv-x="240" d=" M56,119 L56,52 L125,52 L125,119 M17,172 L17,186 L240,186 L240,172 L202,172 L202,10 Q203,-20 171,-21 Q156,-21 135,-21 Q134,-14 132,-6 Q152,-7 167,-7 Q189,-8 188,15 L188,172 M42,19 L42,133 L139,133 L139,38 L56,38 L56,19"/> 
            <glyph glyph-name="味" unicode="&#x5473;" horiz-adv-x="242" d=" M41,166 L41,44 L73,44 L73,166 M28,12 L28,179 L86,179 L86,31 L41,31 L41,12 M104,150 L104,163 L154,163 L154,204 L167,204 L167,163 L221,163 L221,150 L167,150 L167,109 L233,109 L233,96 L175,96 Q188,66 202.5,46.5 Q217,27 242,9 Q236,3 231,-4 Q206,17 192,39 Q178,61 167,92 L167,-26 L154,-26 L154,91 Q141,57 125.5,34.5 Q110,12 86,-8 Q81,-2 74,4 Q100,22 115.5,43 Q131,64 145,96 L95,96 L95,109 L154,109 L154,150"/> 
            <glyph glyph-name="喜" unicode="&#x559C;" horiz-adv-x="239" d=" M104,62 L95,57 L149,57 Q162,71 170,83 L86,83 Q96,73 104,62 M60,114 L60,94 L196,94 L196,114 M57,17 L57,-5 L199,-5 L199,17 M23,173 L23,184 L121,184 L121,204 L135,204 L135,184 L233,184 L233,173 L135,173 L135,153 L218,153 L218,142 L38,142 L38,153 L121,153 L121,173 M44,-26 L44,27 L212,27 L212,-26 L199,-26 L199,-16 L57,-16 L57,-26 M18,46 L18,57 L92,57 Q85,66 75,77 L85,83 L46,83 L46,125 L209,125 L209,83 L171,83 L183,77 Q175,68 166,57 L239,57 L239,46"/> 
            <glyph glyph-name="多" unicode="&#x591A;" horiz-adv-x="230" d=" M40,133 Q36,140 31,145 Q93,173 126,208 L141,204 Q129,192 117,182 L220,182 L220,169 Q184,136 137.5,113.5 Q91,91 27,75 Q24,81 20,88 Q137,114 200,169 L100,169 L88,161 Q106,149 125,135 L115,125 Q96,141 77,154 Q60,143 40,133 M44,32 Q36,43 35,45 Q108,72 153,114 L166,107 Q155,98 144,89 L230,89 L230,75 Q191,33 144.5,10 Q98,-13 30,-26 Q27,-19 24,-12 Q88,-2 132.5,19.5 Q177,41 212,77 L127,77 Q117,69 106,63 Q124,50 142,36 L131,26 Q112,43 94,56 Q71,43 44,32"/> 
            <glyph glyph-name="它" unicode="&#x5B83;" horiz-adv-x="232" d=" M25,129 L25,172 L131,172 Q125,187 117,201 L130,207 Q138,193 146,177 L135,172 L232,172 L232,129 L218,129 L218,159 L39,159 L39,129 M92,-18 Q57,-19 59,16 L59,129 L74,129 L74,66 Q141,86 204,121 L213,108 Q143,72 74,52 L74,18 Q73,-5 95,-3 L187,-3 Q208,-3 211,16 Q213,28 215,49 Q223,47 231,45 Q228,23 225,9 Q220,-17 190,-18"/> 
            <glyph glyph-name="定" unicode="&#x5B9A;" horiz-adv-x="239" d=" M215,135 L215,163 L42,163 L42,136 L28,136 L28,176 L125,176 Q122,189 118,202 L133,205 Q137,193 140,176 L228,176 L228,135 M21,107 L21,121 L235,121 L235,107 L140,107 L140,64 L221,64 L221,51 L140,51 L140,-3 Q161,-3 188.5,-3 Q216,-3 239,-3 Q236,-11 235,-19 Q209,-19 181.5,-18.5 Q154,-18 134,-17 Q88,-16 61,28 Q49,-2 25,-26 Q22,-20 16,-14 Q55,24 60,86 L75,84 Q71,62 66,45 Q92,1 126,-2 L126,107"/> 
            <glyph glyph-name="密" unicode="&#x5BC6;" horiz-adv-x="239" d=" M134,127 Q120,140 108,151 L117,160 Q130,148 143,135 M39,88 L28,95 Q42,117 51,136 L62,131 Q53,111 39,88 M227,83 Q214,103 199,121 L210,128 Q224,111 239,91 M24,142 L24,180 L123,180 Q120,191 115,202 L130,205 Q134,194 138,180 L232,180 L232,142 L219,142 L219,167 L38,167 L38,142 M43,-15 L43,43 L57,43 L57,-2 L121,-2 L121,52 L135,52 L135,-2 L199,-2 L199,43 L213,43 L213,-25 L199,-25 L199,-15 M22,52 Q19,59 16,65 Q47,74 78,87 L78,92 L78,141 L91,141 L91,96 L91,93 Q143,116 188,150 L197,139 Q147,104 94,81 Q99,73 113,73 L157,73 Q174,73 177,87 Q178,94 180,106 Q186,103 193,101 Q191,89 188,79 Q184,60 159,61 L108,61 Q87,60 81,75 Q52,62 22,52"/> 
            <glyph glyph-name="寸" unicode="&#x5BF8;" horiz-adv-x="237" d=" M101,46 Q91,59 75.5,77 Q60,95 47,109 L59,118 Q70,106 85.5,88 Q101,70 114,56 M19,144 L19,158 L169,158 L169,204 L184,204 L184,158 L237,158 L237,144 L184,144 L184,24 Q186,-20 143,-19 Q124,-19 97,-19 Q96,-10 93,-3 Q109,-4 139,-4 Q156,-4 162.5,2.5 Q169,9 169,28 L169,144"/> 
            <glyph glyph-name="小" unicode="&#x5C0F;" horiz-adv-x="240" d=" M76,-23 Q75,-15 73,-7 Q88,-7 102,-7 Q125,-9 123,14 L123,202 L138,202 L138,9 Q140,-22 108,-22 Q94,-23 76,-23 M225,30 Q201,84 172,143 L186,149 Q198,124 213,93 Q228,62 240,37 M32,26 Q24,31 17,34 Q33,63 44.5,90.5 Q56,118 66,150 L82,145 Q61,84 32,26"/> 
            <glyph glyph-name="尺" unicode="&#x5C3A;" horiz-adv-x="237" d=" M65,174 L65,116 L198,116 L198,174 M228,-21 Q177,0 152,28 Q127,56 113,102 L65,102 Q65,59 56,30 Q47,1 27,-25 L16,-14 Q36,11 43.5,37.5 Q51,64 50,110 L50,187 L212,187 L212,89 L198,89 L198,102 L127,102 Q141,59 166,34 Q191,9 237,-8"/> 
            <glyph glyph-name="屏" unicode="&#x5C4F;" horiz-adv-x="240" d=" M118,100 Q110,113 99,127 L110,133 Q120,120 130,106 M121,59 Q121,55 120,51 L175,51 L175,87 L121,87 M55,179 L55,148 L215,148 L215,179 M72,87 L72,99 L162,99 Q174,118 183,133 L196,127 Q187,114 176,99 L227,99 L227,87 L188,87 L188,51 L240,51 L240,38 L188,38 L188,-25 L175,-25 L175,38 L120,38 Q118,17 109,2.5 Q100,-12 81,-26 Q76,-21 71,-16 Q88,-4 96.5,8 Q105,20 106,38 L61,38 L61,51 L107,51 Q107,55 107,60 L107,87 M25,-24 Q20,-20 14,-15 Q30,8 35.5,32.5 Q41,57 41,101 L41,192 L228,192 L228,136 L55,136 L55,100 Q55,53 49,26.5 Q43,0 25,-24"/> 
            <glyph glyph-name="属" unicode="&#x5C5E;" horiz-adv-x="234" d=" M93,95 L93,75 L142,75 L142,95 M205,95 L155,95 L155,75 L205,75 M55,182 L55,160 L215,160 L215,182 M26,-25 Q21,-20 15,-16 Q31,8 36.5,34.5 Q42,61 42,109 L42,193 L228,193 L228,150 L55,150 L55,110 Q55,58 50,30 Q43,3 26,-25 M97,-1 L95,12 Q116,12 142,13 L142,37 L82,37 L82,-26 L70,-26 L70,47 L142,47 L142,66 L80,66 L80,105 L142,105 L142,122 L70,121 L68,132 Q100,132 143.5,133 Q187,134 225,136 L227,125 Q198,124 155,123 L155,105 L218,105 L218,66 L155,66 L155,47 L232,47 L232,2 Q234,-24 209,-23 Q198,-24 185,-24 Q184,-17 182,-12 Q189,-13 205,-12 Q220,-14 219,3 L219,37 L155,37 L155,14 Q171,15 186,16 L181,27 L191,31 Q199,15 204,1 L194,-4 L190,6 Q149,3 97,-1"/> 
            <glyph glyph-name="幕" unicode="&#x5E55;" horiz-adv-x="240" d=" M135,58 L135,40 L184,40 Q166,50 151,66 L101,66 Q87,52 66,40 L122,40 L122,58 M61,122 L61,104 L195,104 L195,122 M61,149 L61,131 L195,131 L195,149 M21,178 L21,189 L87,189 L87,205 L100,205 L100,189 L157,189 L157,205 L170,205 L170,189 L236,189 L236,178 L170,178 L170,165 L157,165 L157,178 L100,178 L100,165 L87,165 L87,178 M122,-26 L122,30 L66,30 L66,-11 L53,-11 L53,33 Q40,26 23,20 Q20,26 16,31 Q58,45 83,66 L23,66 L23,77 L95,77 Q103,85 109,94 L48,94 L48,159 L208,159 L208,94 L124,94 Q118,85 111,77 L234,77 L234,66 L166,66 Q182,52 199.5,45 Q217,38 240,34 Q236,27 234,22 Q216,26 203,32 L203,11 Q204,-9 181,-9 Q169,-9 157,-9 L155,3 Q162,3 176.5,2.5 Q191,2 190,14 L190,30 L135,30 L135,-26"/> 
            <glyph glyph-name="心" unicode="&#x5FC3;" horiz-adv-x="241" d=" M149,133 Q130,165 109,198 L121,206 Q143,173 162,142 M31,35 Q24,38 16,40 Q31,85 41,133 L55,129 Q45,83 31,35 M226,49 Q208,93 188,133 L202,139 Q222,99 241,56 M109,-17 Q75,-17 75,18 L75,158 L90,158 L90,21 Q89,-4 113,-3 L157,-3 Q181,-3 184,18 Q186,31 188,51 Q196,48 204,46 Q201,25 198,11 Q194,-17 159,-17"/> 
            <glyph glyph-name="意" unicode="&#x610F;" horiz-adv-x="241" d=" M137,7 Q134,12 126,20 Q118,28 112,34 L122,42 Q135,30 148,17 M229,-10 Q216,9 203,26 L215,33 Q229,14 241,-3 M28,-16 Q24,-13 17,-8 Q29,8 42,31 L54,25 Q41,2 28,-16 M98,150 L90,145 L154,145 Q165,159 173,171 L81,171 Q91,159 98,150 M102,-19 Q71,-20 73,9 L73,33 L87,33 L87,12 Q85,-8 106,-6 L150,-6 Q170,-7 172,7 Q174,15 176,27 Q183,24 189,22 Q187,10 184,1 Q180,-19 153,-19 M60,106 L60,86 L194,86 L194,106 M60,76 L60,56 L194,56 L194,76 M32,171 L32,182 L123,182 Q120,192 117,203 L130,206 Q135,193 138,182 L224,182 L224,171 L177,171 L186,166 Q180,158 171,145 L239,145 L239,134 L18,134 L18,145 L85,145 Q77,156 69,166 L77,171 M47,45 L47,116 L208,116 L208,45"/> 
            <glyph glyph-name="扇" unicode="&#x6247;" horiz-adv-x="227" d=" M180,45 Q166,60 151,73 L160,80 Q175,68 190,54 M97,44 Q82,60 69,72 L77,80 Q92,67 107,53 M152,13 L148,26 Q178,35 213,47 L213,92 L149,92 L149,104 L226,104 L226,9 Q227,-23 200,-23 Q187,-23 171,-23 Q171,-15 169,-8 Q182,-9 196,-9 Q214,-10 213,11 L213,34 Q183,24 152,13 M57,7 L52,20 Q68,25 87.5,31 Q107,37 124,43 L124,92 L63,92 L63,104 L137,104 L137,8 Q137,-23 109,-23 Q93,-23 83,-23 Q82,-16 80,-8 Q93,-8 107,-8 Q125,-10 124,10 L124,30 Q89,18 57,7 M52,169 L52,141 L211,141 L211,169 M27,-24 Q21,-19 14,-15 Q28,9 33.5,33.5 Q39,58 39,104 L39,181 L128,181 Q124,192 119,201 L133,205 Q138,195 143,181 L224,181 L224,128 L52,128 L52,109 Q53,59 47.5,31 Q42,3 27,-24"/> 
            <glyph glyph-name="手" unicode="&#x624B;" horiz-adv-x="240" d=" M32,173 Q32,180 30,187 Q132,188 216,194 L218,180 Q179,178 136,176 L136,128 L220,128 L220,115 L136,115 L136,66 L240,66 L240,53 L136,53 L136,9 Q138,-21 106,-21 Q98,-21 87,-21 Q76,-21 70,-21 Q70,-14 67,-6 Q85,-7 102,-7 Q123,-8 122,13 L122,53 L17,53 L17,66 L122,66 L122,115 L33,115 L33,128 L122,128 L122,175 Q74,173 32,173"/> 
            <glyph glyph-name="技" unicode="&#x6280;" horiz-adv-x="239" d=" M208,99 L130,99 Q143,56 166,32 Q194,58 208,99 M18,144 L18,157 L49,157 L49,203 L63,203 L63,157 L91,157 L91,144 L63,144 L63,92 Q78,96 92,100 Q92,94 92,87 L63,78 L63,5 Q64,-22 40,-23 Q29,-23 22,-23 Q21,-16 19,-8 L36,-8 Q50,-9 49,7 L49,74 L17,64 L15,79 Q28,82 49,88 L49,144 M102,153 L102,166 L160,166 L160,204 L174,204 L174,166 L237,166 L237,153 L174,153 L174,112 L223,112 L223,99 Q206,51 177,23 Q200,4 239,-10 Q234,-17 231,-24 Q190,-7 166,14 Q139,-8 92,-26 Q87,-18 83,-14 Q130,4 156,24 Q130,51 116,99 L104,99 L104,112 L160,112 L160,153"/> 
            <glyph glyph-name="持" unicode="&#x6301;" horiz-adv-x="240" d=" M137,9 Q131,17 122,26.5 Q113,36 106,43 L116,52 Q136,32 148,19 M94,62 L94,75 L190,75 L190,97 L204,97 L204,75 L240,75 L240,62 L204,62 L204,6 Q206,-21 174,-22 Q158,-22 144,-22 Q144,-15 141,-7 Q157,-8 171,-8 Q192,-9 190,11 L190,62 M104,160 L104,172 L160,172 L160,205 L174,205 L174,172 L230,172 L230,160 L174,160 L174,122 L240,122 L240,109 L94,109 L94,122 L160,122 L160,160 M18,142 L18,155 L49,155 L49,205 L63,205 L63,155 L90,155 L90,142 L63,142 L63,89 Q76,92 90,96 Q90,88 91,82 Q76,78 63,75 L63,2 Q63,-22 41,-22 Q27,-23 22,-23 Q21,-14 19,-7 Q28,-7 37,-7 Q50,-8 49,6 L49,72 Q35,68 18,63 L16,78 L49,86 L49,142"/> 
            <glyph glyph-name="挑" unicode="&#x6311;" horiz-adv-x="240" d=" M109,110 Q100,139 88,165 L100,169 Q112,141 122,115 M201,110 L190,117 Q206,143 218,169 L230,163 Q217,137 201,110 M88,47 L81,60 Q106,77 129,93 Q129,102 129,114 L129,201 L142,201 L142,114 Q143,58 131.5,29 Q120,0 87,-26 Q83,-21 77,-15 Q103,5 114,25 Q125,45 128,77 Q110,64 88,47 M229,50 Q205,66 184,78 L184,7 Q184,-6 198,-5 L209,-5 Q223,-6 224,8 Q226,20 227,35 Q234,32 240,30 Q239,15 237,3 Q231,-20 211,-19 L195,-19 Q170,-19 171,5 L171,202 L184,202 L184,93 Q211,78 236,62 M18,143 L18,156 L48,156 L48,204 L61,204 L61,156 L85,156 L85,143 L61,143 L61,90 Q75,94 87,98 Q87,90 88,84 L61,76 L61,4 Q62,-23 38,-23 Q28,-23 19,-23 Q18,-16 17,-8 Q27,-9 35,-9 Q48,-10 48,5 L48,71 L18,61 L16,76 Q30,80 48,86 L48,143"/> 
            <glyph glyph-name="接" unicode="&#x63A5;" horiz-adv-x="239" d=" M137,121 Q133,127 126.5,136 Q120,145 115,152 L126,158 Q138,143 149,128 M120,38 Q141,30 163,21 Q182,36 193,62 L137,62 Q128,48 120,38 M94,163 L94,175 L163,175 Q158,187 150,200 L164,205 Q172,191 177,179 L167,175 L232,175 L232,163 M86,107 L86,120 L174,120 Q188,139 200,159 L212,152 Q202,136 189,120 L239,120 L239,107 M18,145 L18,158 L47,158 L47,205 L60,205 L60,158 L84,158 L84,145 L60,145 L60,91 Q74,94 85,98 Q85,90 86,84 L60,77 L60,4 Q62,-23 38,-23 Q27,-23 17,-23 Q16,-16 14,-8 Q25,-9 34,-9 Q47,-9 47,5 L47,73 Q32,69 18,64 L15,79 Q29,83 47,87 L47,145 M86,62 L86,74 L129,74 Q137,87 143,99 L157,95 Q152,84 145,74 L239,74 L239,62 L208,62 Q196,33 177,15 Q206,3 237,-11 L228,-24 Q193,-7 166,5 Q138,-15 81,-26 Q78,-18 74,-12 Q125,-3 150,12 Q128,22 101,34 Q111,47 121,62"/> 
            <glyph glyph-name="控" unicode="&#x63A7;" horiz-adv-x="239" d=" M165,170 Q157,185 149,200 L160,205 Q170,191 178,176 M104,83 Q100,88 95,94 Q122,113 144,134 L154,124 Q132,104 104,83 M226,84 Q203,105 177,125 L186,135 Q213,115 236,94 M98,129 L98,169 L233,169 L233,129 L219,129 L219,156 L112,156 L112,129 M102,61 L102,73 L228,73 L228,61 L172,61 L172,-3 L239,-3 L239,-15 L86,-15 L86,-3 L158,-3 L158,61 M18,145 L18,158 L48,158 L48,204 L62,204 L62,158 L85,158 L85,145 L62,145 L62,89 Q75,93 86,96 Q86,88 87,82 Q75,79 62,75 L62,4 Q63,-23 39,-23 Q28,-23 18,-23 Q17,-16 16,-8 Q26,-9 35,-9 Q48,-9 48,5 L48,72 L18,62 L15,78 Q30,81 48,86 L48,145"/> 
            <glyph glyph-name="支" unicode="&#x652F;" horiz-adv-x="238" d=" M186,105 L77,105 Q98,52 128,32 Q148,46 162,64 Q175,80 186,105 M230,-23 Q190,-15 167,-6 Q144,3 128,14 Q96,-9 26,-27 Q23,-20 18,-13 Q81,2 116,23 Q82,51 62,105 L40,105 L40,118 L123,118 L123,158 L18,158 L18,171 L123,171 L123,205 L137,205 L137,171 L237,171 L237,158 L137,158 L137,118 L202,118 L202,104 Q181,54 141,23 Q159,12 181.5,5 Q204,-2 238,-9 Q233,-15 230,-23"/> 
            <glyph glyph-name="散" unicode="&#x6563;" horiz-adv-x="242" d=" M59,164 L59,133 L95,133 L95,164 M43,90 L43,67 L111,67 L111,90 M43,56 L43,31 L111,31 L111,56 M166,148 L162,139 Q169,83 187,50 Q207,87 211,148 M21,164 L21,176 L46,176 L46,205 L59,205 L59,176 L95,176 L95,205 L108,205 L108,176 L130,176 L130,164 L108,164 L108,133 L135,133 L135,121 L17,121 L17,133 L46,133 L46,164 M30,-26 L30,102 L124,102 L124,6 Q126,-21 99,-22 Q88,-22 78,-22 Q77,-15 75,-8 Q86,-8 95,-8 Q112,-10 111,8 L111,20 L43,20 L43,-26 M137,-25 Q133,-20 127,-14 Q161,10 179,37 Q160,70 153,120 Q146,107 138,94 Q135,100 129,106 Q158,150 172,206 L186,204 Q179,182 171,161 L240,161 L240,148 L224,148 Q218,77 195,37 Q212,11 242,-10 Q237,-15 232,-22 Q204,1 187,25 Q169,-1 137,-25"/> 
            <glyph glyph-name="新" unicode="&#x65B0;" horiz-adv-x="240" d=" M53,123 Q43,140 34,154 L45,160 Q55,146 64,130 M113,10 Q102,30 92,47 L102,52 Q114,35 124,17 M27,1 L16,8 Q29,27 42,52 L53,46 Q42,23 27,1 M23,165 L23,178 L72,178 Q66,193 62,203 L75,206 Q77,201 80.5,192.5 Q84,184 86,178 L126,178 L126,165 M16,110 L16,122 L83,122 Q94,141 104,160 L116,154 Q106,137 96,122 L132,122 L132,110 M22,66 L22,78 L68,78 L68,103 L82,103 L82,78 L126,78 L126,66 L82,66 L82,6 Q83,-20 58,-21 Q50,-22 38,-22 Q37,-15 35,-8 Q45,-8 54,-8 Q69,-8 68,7 L68,66 M196,-25 L196,101 L157,101 L157,93 Q158,52 150.5,25.5 Q143,-1 128,-23 Q122,-19 115,-14 Q131,5 137.5,29.5 Q144,54 144,94 L144,185 Q190,188 230,194 L234,180 Q196,175 157,173 L157,113 L240,113 L240,101 L209,101 L209,-25"/> 
            <glyph glyph-name="方" unicode="&#x65B9;" horiz-adv-x="237" d=" M19,150 L19,164 L130,164 Q124,182 116,201 L130,205 Q138,186 145,168 L131,164 L237,164 L237,150 L97,150 Q97,127 95,105 L207,105 Q206,84 204.5,61 Q203,38 202,25 Q200,2 189,-8 Q178,-18 155,-18 Q134,-19 118,-19 Q117,-10 116,-3 Q132,-3 154,-3 Q186,-6 188,28 Q191,57 191,91 L94,91 Q90,50 74.5,23.5 Q59,-3 28,-27 Q22,-20 16,-15 Q48,8 62,33 Q76,58 80,99 Q82,124 83,150"/> 
            <glyph glyph-name="无" unicode="&#x65E0;" horiz-adv-x="239" d=" M37,173 L37,187 L220,187 L220,173 L133,173 Q132,139 127,113 L238,113 L238,99 L148,99 L148,18 Q146,-5 169,-3 L200,-3 Q221,-4 223,16 Q224,28 225,46 Q233,41 239,40 Q238,20 236,8 Q234,-17 202,-17 L165,-17 Q133,-18 134,15 L134,99 L124,99 Q115,58 92.5,28 Q70,-2 28,-26 Q23,-20 17,-14 Q57,9 78.5,35.5 Q100,62 110,99 L19,99 L19,113 L113,113 Q118,139 119,173"/> 
            <glyph glyph-name="更" unicode="&#x66F4;" horiz-adv-x="239" d=" M201,142 L136,142 L135,112 L201,112 M120,70 Q121,83 121,100 L55,100 L55,70 M55,142 L55,112 L122,112 L122,142 M135,100 Q134,83 134,70 L201,70 L201,100 M201,46 L201,58 L132,58 Q128,30 113,14 Q134,5 164,1 Q194,-3 239,-5 Q235,-13 233,-20 Q185,-17 154.5,-12 Q124,-7 103,3 Q86,-13 25,-27 Q22,-20 18,-14 Q74,-2 89,10 Q68,22 49,43 L58,51 Q79,31 100,20 Q114,33 118,58 L41,58 L41,154 L122,154 Q122,168 122,180 L24,180 L24,193 L232,193 L232,180 L136,180 Q136,169 136,154 L215,154 L215,46"/> 
            <glyph glyph-name="有" unicode="&#x6709;" horiz-adv-x="237" d=" M76,116 L76,86 L196,86 L196,116 M76,73 L76,42 L196,42 L196,73 M23,160 L23,173 L96,173 Q104,188 111,205 L126,202 Q119,187 111,173 L237,173 L237,160 L104,160 Q95,144 84,129 L210,129 L210,7 Q211,-21 182,-21 Q161,-21 149,-21 Q148,-14 146,-7 Q158,-7 177.5,-7.5 Q197,-8 196,10 L196,30 L76,30 L76,-25 L62,-25 L62,101 Q45,81 24,62 Q19,70 15,74 Q60,112 88,160"/> 
            <glyph glyph-name="术" unicode="&#x672F;" horiz-adv-x="240" d=" M200,154 Q192,161 181,170.5 Q170,180 161,188 L170,197 Q191,180 210,164 M21,133 L21,147 L121,147 L121,205 L135,205 L135,147 L236,147 L236,133 L146,133 Q163,95 184,70 Q205,45 240,21 Q234,13 230,8 Q192,35 171,62.5 Q150,90 135,130 L135,-25 L121,-25 L121,129 Q106,88 85,59 Q64,30 26,3 Q21,11 17,17 Q51,41 72.5,67.5 Q94,94 110,133"/> 
            <glyph glyph-name="机" unicode="&#x673A;" horiz-adv-x="241" d=" M20,145 L20,157 L53,157 L53,204 L66,204 L66,157 L98,157 L98,145 L66,145 L66,106 L72,114 Q89,98 102,84 L93,75 Q78,91 66,103 L66,-25 L53,-25 L53,116 Q40,67 21,41 Q18,49 14,56 Q39,90 52,145 M91,-25 Q85,-20 79,-14 Q103,10 111,34.5 Q119,59 118,109 L118,189 L198,189 L198,10 Q197,-4 207,-3 L212,-3 Q223,-4 225,12 Q227,28 228,50 Q235,48 241,46 Q239,21 237,7 Q234,-18 213,-17 L204,-17 Q183,-17 184,8 L184,176 L132,176 L132,109 Q133,57 124.5,29 Q116,1 91,-25"/> 
            <glyph glyph-name="板" unicode="&#x677F;" horiz-adv-x="240" d=" M213,118 L149,118 Q157,73 180,42 Q204,72 213,118 M17,145 L17,157 L51,157 L51,204 L63,204 L63,157 L94,157 L94,145 L63,145 L63,111 L67,114 Q82,101 97,86 L88,77 Q76,90 63,102 L63,-25 L51,-25 L51,117 Q40,73 21,42 Q18,50 15,58 Q38,96 50,145 M120,-25 Q116,-19 111,-13 Q149,7 171,31 Q145,65 136,118 L120,118 L120,98 Q121,57 113.5,30 Q106,3 87,-24 Q83,-19 76,-14 Q94,9 100.5,33.5 Q107,58 107,97 L107,186 Q138,186 170.5,188.5 Q203,191 232,195 L237,181 Q184,176 120,173 L120,130 L227,130 L227,118 Q217,67 189,31 Q210,7 240,-9 Q236,-15 231,-22 Q200,-2 180,20 Q158,-4 120,-25"/> 
            <glyph glyph-name="次" unicode="&#x6B21;" horiz-adv-x="239" d=" M62,128 Q41,158 23,182 L34,190 Q56,163 75,137 M31,0 L17,9 Q26,26 40,53.5 Q54,81 63,102 Q70,98 77,93 Q56,52 31,0 M209,99 Q202,101 195,103 L215,149 L121,149 Q111,126 97,102 Q91,106 83,110 Q114,157 125,204 L139,200 Q133,179 127,163 L229,163 L229,148 M228,-23 Q195,1 178,25.5 Q161,50 153,85 Q147,51 128,24.5 Q109,-2 71,-26 Q66,-20 60,-13 Q103,12 122,41.5 Q141,71 145,108 Q146,119 146,134 L160,134 Q160,120 159,109 Q169,65 187,38.5 Q205,12 239,-9 Q234,-16 228,-23"/> 
            <glyph glyph-name="欢" unicode="&#x6B22;" horiz-adv-x="241" d=" M215,111 Q209,115 202,117 L221,156 L135,156 Q126,130 115,108 Q109,112 102,114 Q124,158 135,204 L149,201 Q144,184 139,169 L235,169 L235,155 M92,-26 Q87,-19 82,-13 Q150,30 155,91 Q158,113 158,139 L172,139 Q172,121 171,107 Q180,66 196.5,38.5 Q213,11 241,-8 Q235,-14 230,-21 Q205,-1 189.5,21.5 Q174,44 166,77 Q157,18 92,-26 M96,15 Q82,36 70,56 Q54,22 25,-12 Q20,-6 14,0 Q45,34 61,71 Q41,104 22,133 L33,140 L67,87 Q79,122 84,165 L21,165 L21,177 L98,177 L98,163 Q92,111 77,72 L108,24"/> 
            <glyph glyph-name="止" unicode="&#x6B62;" horiz-adv-x="239" d=" M18,-6 L18,9 L58,9 L58,160 L73,160 L73,9 L135,9 L135,204 L150,204 L150,133 L227,133 L227,119 L150,119 L150,9 L239,9 L239,-6"/> 
            <glyph glyph-name="没" unicode="&#x6CA1;" horiz-adv-x="240" d=" M53,97 Q45,103 34.5,112 Q24,121 17,127 L25,137 Q33,131 44.5,122.5 Q56,114 63,108 M65,156 Q47,173 27,188 L37,198 Q54,185 75,166 M34,-24 L19,-18 Q34,22 48,71 Q53,68 62,65 Q56,46 48,21.5 Q40,-3 34,-24 M202,86 L117,86 Q132,50 156,29 Q183,51 202,86 M90,110 Q85,116 79,122 Q99,130 106,141 Q113,152 112,171 L112,193 L205,193 L205,148 Q204,134 218,135 L240,135 L238,121 L215,121 Q191,121 191,143 L191,180 L126,180 L126,171 Q126,147 118.5,134 Q111,121 90,110 M231,-23 Q184,-8 157,12 Q127,-9 75,-26 Q71,-19 67,-12 Q117,2 145,21 Q119,45 103,86 L90,86 L90,99 L217,99 L217,84 Q196,45 168,20 Q194,3 239,-8 Q234,-17 231,-23"/> 
            <glyph glyph-name="测" unicode="&#x6D4B;" horiz-adv-x="231" d=" M47,99 Q32,114 17,127 L25,136 Q33,130 42.5,122 Q52,114 58,109 M54,160 Q39,175 22,189 L32,198 Q46,186 65,169 M34,-22 L21,-16 Q27,1 34.5,24.5 Q42,48 46,68 Q53,65 60,62 Q46,18 34,-22 M181,32 L181,185 L193,185 L193,32 M183,-22 Q182,-15 181,-8 Q190,-8 201,-8 Q219,-10 217,11 L217,204 L230,204 L230,8 Q231,-21 207,-21 Q195,-22 183,-22 M159,-16 Q137,5 113,27 Q101,-1 66,-25 Q61,-19 57,-14 Q89,7 99.5,30 Q110,53 110,103 L110,154 L123,154 L123,103 Q123,57 115,32 L120,37 Q131,28 144.5,16.5 Q158,5 169,-5 M74,45 L74,192 L158,192 L158,45 L146,45 L146,179 L86,179 L86,45"/> 
            <glyph glyph-name="源" unicode="&#x6E90;" horiz-adv-x="242" d=" M60,158 Q42,176 25,191 L35,200 Q53,185 70,169 M52,97 Q34,113 16,128 L25,138 Q44,124 62,109 M107,-16 Q102,-11 98,-7 Q118,15 132,39 L144,32 Q127,6 107,-16 M231,-14 Q213,10 195,32 L205,40 Q225,17 242,-5 M34,-23 L21,-18 Q33,28 42,71 Q47,68 55,66 Q50,47 44.5,23 Q39,-1 34,-23 M133,94 L133,68 L211,68 L211,94 M133,133 L133,106 L211,106 L211,133 M120,56 L120,145 L154,145 L162,176 L97,176 L97,109 Q97,62 90.5,32 Q84,2 66,-25 Q61,-21 55,-16 Q71,7 77.5,34.5 Q84,62 84,109 L84,188 L240,188 L240,176 L176,176 L167,145 L224,145 L224,56 L179,56 L179,1 Q179,-23 157,-23 Q147,-24 136,-24 Q135,-17 133,-10 Q143,-10 153,-10 Q166,-11 165,3 L165,56"/> 
            <glyph glyph-name="热" unicode="&#x70ED;" horiz-adv-x="243" d=" M160,-18 Q152,1 141,23 L154,28 Q163,9 173,-12 M101,-20 Q94,-1 83,21 L96,26 Q105,7 114,-14 M34,-25 L22,-19 Q35,4 45,28 L57,23 Q49,1 34,-25 M224,-19 Q212,4 199,27 L211,33 Q225,9 236,-12 M21,157 L21,170 L54,170 L54,205 L67,205 L67,170 L94,170 L94,157 L67,157 L67,121 L94,129 Q94,122 94,115 Q83,112 67,107 L67,70 Q68,45 44,45 Q35,44 25,44 L22,58 Q32,58 41,58 Q54,57 54,71 L54,104 L20,93 L17,108 Q35,112 54,117 L54,157 M169,74 Q154,85 141,94 Q128,64 95,38 Q90,44 84,50 Q117,71 130,102 L104,119 L111,130 L134,115 Q139,133 140,157 L110,157 L110,170 L140,170 Q141,187 141,205 L154,205 Q154,185 154,170 L204,170 Q204,128 205,108.5 Q206,89 208,76 Q212,58 218.5,58 Q225,58 227.5,70.5 Q230,83 231,100 Q238,97 243,95 Q241,77 238,64 Q234,44 219,43 Q201,43 195,73 Q193,86 192,104 Q191,122 191,157 L153,157 Q152,129 146,107 L177,86"/> 
            <glyph glyph-name="电" unicode="&#x7535;" horiz-adv-x="239" d=" M198,160 L126,160 L126,115 L198,115 M41,160 L41,115 L113,115 L113,160 M126,57 L198,57 L198,102 L126,102 M41,102 L41,57 L113,57 L113,102 M145,-18 Q111,-19 113,16 L113,44 L41,44 L41,27 L28,27 L28,173 L113,173 L113,205 L126,205 L126,173 L211,173 L211,44 L126,44 L126,18 Q125,-5 149,-4 L195,-4 Q217,-4 220,13 Q224,27 225,40 Q233,37 239,35 Q236,15 233,4 Q230,-18 198,-18"/> 
            <glyph glyph-name="的" unicode="&#x7684;" horiz-adv-x="231" d=" M175,50 Q158,77 139,101 L149,109 Q168,85 187,59 M38,152 L38,89 L96,89 L96,152 M38,76 L38,12 L96,12 L96,76 M150,-21 Q149,-13 147,-6 Q163,-6 184,-6 Q213,-8 213,22 Q214,47 215,84.5 Q216,122 217,152 L150,152 Q141,130 131,112 Q125,116 119,120 Q141,158 154,204 L168,200 Q163,183 156,166 L231,166 Q231,133 229.5,95 Q228,57 227,20 Q227,-20 187,-20 Q168,-21 150,-21 M25,-22 L25,165 L50,165 Q57,188 60,204 L75,201 Q70,184 64,165 L110,165 L110,-21 L96,-21 L96,-1 L38,-1 L38,-22"/> 
            <glyph glyph-name="盘" unicode="&#x76D8;" horiz-adv-x="240" d=" M143,132 Q125,145 107,156 L115,165 Q136,152 150,142 M136,76 Q118,88 100,100 L107,109 Q129,96 143,86 M59,46 L59,-4 L96,-4 L96,46 M109,46 L109,-4 L147,-4 L147,46 M198,46 L160,46 L160,-4 L198,-4 M73,150 Q73,138 73,128 L192,128 L192,171 L73,171 M19,116 L19,128 L59,128 Q60,138 60,150 L60,183 L110,183 Q114,196 116,206 L130,204 Q128,193 124,183 L206,183 L206,128 L238,128 L238,116 L206,116 L206,98 Q207,71 182,71 Q167,71 158,71 Q157,79 155,85 Q164,84 177,84 Q193,83 192,99 L192,116 L71,116 Q69,95 60,81.5 Q51,68 33,55 Q28,60 23,65 Q39,76 47,87 Q55,98 58,116 M17,-17 L17,-4 L46,-4 L46,58 L212,58 L212,-4 L240,-4 L240,-17"/> 
            <glyph glyph-name="相" unicode="&#x76F8;" horiz-adv-x="230" d=" M127,114 L127,66 L216,66 L216,114 M127,176 L127,127 L216,127 L216,176 M127,53 L127,4 L216,4 L216,53 M19,143 L19,156 L54,156 L54,204 L67,204 L67,156 L99,156 L99,143 L67,143 L67,102 L74,109 Q89,95 103,79 L93,70 Q80,86 67,100 L67,-25 L54,-25 L54,113 Q41,69 22,41 Q18,49 14,56 Q40,93 53,143 M113,-26 L113,188 L230,188 L230,-26 L216,-26 L216,-9 L127,-9 L127,-26"/> 
            <glyph glyph-name="着" unicode="&#x7740;" horiz-adv-x="236" d=" M79,18 L79,0 L199,0 L199,18 M79,47 L79,29 L199,29 L199,47 M79,76 L79,58 L199,58 L199,76 M26,167 L26,179 L95,179 Q84,189 74,199 L85,206 Q97,196 108,184 L100,179 L149,179 Q164,194 174,206 L187,199 Q178,188 167,179 L233,179 L233,167 L125,167 L119,148 L215,148 L215,137 L115,137 Q111,127 106,118 L236,118 L236,107 L100,107 Q94,97 87,87 L212,87 L212,-26 L199,-26 L199,-12 L79,-12 L79,-26 L65,-26 L65,61 Q48,43 25,25 Q21,30 16,36 Q61,70 84,107 L20,107 L20,118 L91,118 Q96,127 100,137 L39,137 L39,148 L105,148 Q108,157 111,167"/> 
            <glyph glyph-name="程" unicode="&#x7A0B;" horiz-adv-x="241" d=" M127,178 L127,138 L210,138 L210,178 M18,121 L18,133 L53,133 L53,176 L22,175 Q21,182 19,187 Q58,189 96,193 L98,180 Q81,178 66,177 L66,133 L98,133 L98,121 L66,121 L66,88 L73,94 Q89,79 102,65 L92,55 Q80,70 66,84 L66,-26 L53,-26 L53,92 Q42,52 21,23 Q18,30 14,36 Q40,72 52,121 M104,86 L104,99 L233,99 L233,86 L175,86 L175,50 L228,50 L228,38 L175,38 L175,-1 L241,-1 L241,-13 L91,-13 L91,-1 L161,-1 L161,38 L109,38 L109,50 L161,50 L161,86 M113,126 L113,190 L224,190 L224,126"/> 
            <glyph glyph-name="精" unicode="&#x7CBE;" horiz-adv-x="240" d=" M82,133 L72,137 Q82,160 90,182 L100,177 Q97,168 92,155 Q87,142 82,133 M33,133 Q26,154 17,177 L28,181 Q38,157 45,136 M125,80 L125,60 L212,60 L212,80 M125,50 L125,29 L212,29 L212,50 M88,40 Q76,58 65,73 L65,-24 L52,-24 L52,77 Q42,40 22,13 Q19,20 15,26 Q39,57 52,105 L18,105 L18,117 L52,117 L52,203 L65,203 L65,117 L96,117 L96,105 L65,105 L65,78 L72,83 Q78,75 86,65 Q94,55 99,48 M107,171 L107,182 L162,182 L162,205 L175,205 L175,182 L237,182 L237,171 L175,171 L175,151 L231,151 L231,140 L175,140 L175,121 L240,121 L240,109 L103,109 L103,121 L162,121 L162,140 L113,140 L113,151 L162,151 L162,171 M113,-25 L113,92 L225,92 L225,4 Q225,-23 200,-23 Q187,-23 172,-23 Q171,-16 169,-9 Q181,-10 197,-10.5 Q213,-11 212,5 L212,18 L125,18 L125,-25"/> 
            <glyph glyph-name="背" unicode="&#x80CC;" horiz-adv-x="239" d=" M23,169 L23,180 L89,180 L89,204 L103,204 L103,119 L89,119 L89,136 Q55,130 20,122 L17,136 Q53,141 89,149 L89,169 M62,90 L62,67 L194,67 L194,90 M62,56 L62,32 L194,32 L194,56 M172,120 Q143,120 144,149 L144,204 L158,204 L158,171 Q192,179 226,190 L231,178 Q213,172 192,166.5 Q171,161 158,159 L158,150 Q156,131 177,133 L201,133 Q221,132 223,144 Q224,151 226,162 L239,158 Q238,147 235,138 Q231,120 205,120 M48,-25 L48,102 L208,102 L208,9 Q209,-21 176,-22 Q148,-23 136,-23 Q134,-12 132,-7 Q146,-8 172,-8 Q196,-9 194,12 L194,20 L62,20 L62,-25"/> 
            <glyph glyph-name="能" unicode="&#x80FD;" horiz-adv-x="239" d=" M42,102 L42,76 L105,76 L105,102 M42,65 L42,39 L105,39 L105,65 M125,125 L114,140 Q74,138 38,136 Q29,135 21,133 L16,147 Q23,150 30,159 Q50,180 67,207 L81,200 Q60,173 37,148 Q68,149 104,152 L84,174 L95,182 Q115,160 137,135 M174,102 Q146,102 146,129 L146,204 L160,204 L160,160 Q195,174 224,191 L232,179 Q199,162 160,146 L160,131 Q159,114 177,115 L202,115 Q220,115 222,129 Q224,138 225,155 Q232,152 239,150 Q237,134 234,125 Q230,102 204,102 M174,-19 Q146,-20 146,8 L146,88 L160,88 L160,47 Q196,61 228,80 L236,68 Q199,47 160,33 L160,11 Q159,-7 177,-6 L203,-6 Q221,-6 223,8 Q224,16 225,33 Q233,30 239,29 Q237,13 235,3 Q231,-20 205,-19 M29,-24 L29,113 L118,113 L118,2 Q119,-21 96,-21 Q86,-22 74,-22 Q73,-15 71,-8 Q82,-8 92,-8 Q105,-9 105,2 L105,27 L42,27 L42,-24"/> 
            <glyph glyph-name="脑" unicode="&#x8111;" horiz-adv-x="241" d=" M171,170 Q166,187 160,202 L173,206 Q179,191 184,174 M43,178 L43,130 L76,130 L76,178 M43,118 L43,70 L76,70 L76,118 M105,156 L105,169 L241,169 L241,156 M133,139 L144,144 Q155,125 172,94 Q183,117 194,146 L206,141 Q192,107 179,80 L208,25 L197,19 Q186,40 172,67 Q159,41 143,19 L133,26 Q151,52 165,80 Q148,112 133,139 M113,-14 L113,126 L125,126 L125,-1 L217,-1 L217,126 L230,126 L230,-25 L217,-25 L217,-14 M26,-24 L15,-15 Q23,2 26.5,20 Q30,38 30,69 L30,190 L88,190 L88,2 Q88,-21 67,-22 Q59,-23 50,-23 Q49,-15 47,-9 Q53,-9 63,-9 Q77,-10 76,5 L76,58 L42,58 Q42,29 38,11 Q34,-7 26,-24"/> 
            <glyph glyph-name="自" unicode="&#x81EA;" horiz-adv-x="215" d=" M55,47 L55,4 L201,4 L201,47 M55,103 L55,60 L201,60 L201,103 M55,160 L55,116 L201,116 L201,160 M41,-25 L41,173 L103,173 Q109,192 111,205 L127,203 Q123,189 118,173 L215,173 L215,-25 L201,-25 L201,-10 L55,-10 L55,-25"/> 
            <glyph glyph-name="色" unicode="&#x8272;" horiz-adv-x="239" d=" M166,168 L79,168 Q64,150 46,134 L135,134 M56,121 L56,73 L121,73 L121,121 M200,121 L135,121 L135,73 L200,73 M27,118 Q23,123 17,129 Q65,164 91,206 L105,203 Q97,192 90,181 L183,181 L183,168 L153,134 L214,134 L214,59 L56,59 L56,18 Q55,-5 80,-4 L191,-4 Q219,-5 221,16 Q223,25 226,42 Q233,39 239,37 Q237,22 234,10 Q230,-18 193,-17 L75,-17 Q42,-18 42,16 L42,131"/> 
            <glyph glyph-name="苛" unicode="&#x82DB;" horiz-adv-x="239" d=" M132,34 L132,79 L60,79 L60,34 M163,144 L163,168 L95,168 L95,144 L81,144 L81,168 L21,168 L21,181 L81,181 L81,205 L95,205 L95,181 L163,181 L163,205 L177,205 L177,181 L236,181 L236,168 L177,168 L177,144 M17,120 L17,132 L239,132 L239,120 L208,120 L208,13 Q210,-21 176,-21 Q158,-21 142,-21 Q141,-14 139,-5 Q157,-6 173,-6 Q196,-8 194,15 L194,120 M46,3 L46,91 L145,91 L145,21 L60,21 L60,3"/> 
            <glyph glyph-name="薄" unicode="&#x8584;" horiz-adv-x="240" d=" M123,-14 Q111,-2 96,12 L105,19 Q119,7 133,-5 M49,75 Q33,89 17,101 L25,110 Q43,97 58,85 M60,120 Q44,134 28,145 L36,155 Q55,142 70,130 M208,108 L157,108 L157,92 L208,92 M157,82 L157,65 L208,65 L208,82 M94,108 L94,92 L145,92 L145,108 M94,82 L94,65 L145,65 L145,82 M35,-25 L22,-19 Q35,19 45,58 L58,52 Q46,15 35,-25 M66,21 L66,32 L191,32 L191,43 L204,43 L204,32 L240,32 L240,21 L204,21 L204,6 Q206,-21 176,-21 Q171,-22 161.5,-22 Q152,-22 148,-22 Q147,-16 145,-8 Q149,-9 158.5,-9 Q168,-9 174,-9 Q192,-9 191,6 L191,21 M17,173 L17,184 L86,184 L86,204 L99,204 L99,184 L159,184 L159,204 L172,204 L172,184 L240,184 L240,173 L172,173 L172,162 L159,162 L159,173 L99,173 L99,158 L86,158 L86,173 M74,135 L74,146 L145,146 L145,160 L157,160 L157,146 L195,146 Q192,154 189,162 L201,165 Q204,157 207,146 L235,146 L235,135 L157,135 L157,118 L221,118 L221,46 L208,46 L208,55 L157,55 L157,43 L145,43 L145,55 L94,55 L94,43 L82,43 L82,118 L145,118 L145,135"/> 
            <glyph glyph-name="表" unicode="&#x8868;" horiz-adv-x="240" d=" M25,163 L25,175 L121,175 L121,204 L135,204 L135,175 L231,175 L231,163 L135,163 L135,136 L221,136 L221,124 L135,124 L135,97 L238,97 L238,85 L135,85 Q143,62 157,46 Q170,52 187.5,61.5 Q205,71 213,77 L221,64 L167,36 Q194,14 240,4 Q240,3 237,-2 Q234,-7 231,-11 Q186,3 161.5,23 Q137,43 124,78 Q112,62 94,48 L94,-5 Q102,-3 121.5,4.5 Q141,12 153,17 Q153,9 153,2 Q139,-3 120,-10 Q101,-17 93,-20 L83,-26 L74,-14 Q81,-9 81,-1 L81,38 Q57,22 23,7 Q20,13 16,20 Q85,49 114,85 L19,85 L19,97 L121,97 L121,124 L34,124 L34,136 L121,136 L121,163"/> 
            <glyph glyph-name="触" unicode="&#x89E6;" horiz-adv-x="241" d=" M44,129 L44,97 L68,97 L68,129 M44,58 L44,52 L68,52 L68,85 L44,85 M104,129 L79,129 L79,97 L104,97 M79,85 L79,52 L104,52 L104,85 M54,168 Q45,153 34,141 L73,141 L93,168 M148,144 L148,79 L176,79 L176,144 M217,144 L189,144 L189,79 L217,79 M135,53 L135,156 L176,156 L176,204 L189,204 L189,156 L230,156 L230,67 L189,67 L189,6 Q203,7 217,9 L206,34 L217,39 Q223,25 229.5,9 Q236,-7 241,-19 L229,-24 Q225,-13 221,-3 Q202,-5 174,-8.5 Q146,-12 128,-15 L126,0 Q150,2 176,5 L176,67 L148,67 L148,53 M26,-25 Q20,-19 15,-17 Q24,-2 28,14 Q32,30 32,59 L32,138 L24,131 L15,140 Q44,168 60,205 L73,200 Q67,189 61,179 L107,179 L107,167 L88,141 L116,141 L116,2 Q117,-22 93,-22 Q86,-22 76,-22 Q75,-15 74,-9 Q80,-9 90,-9 Q105,-10 104,5 L104,41 L79,41 L79,3 L68,3 L68,41 L43,41 Q43,19 38.5,4.5 Q34,-10 26,-25"/> 
            <glyph glyph-name="计" unicode="&#x8BA1;" horiz-adv-x="240" d=" M72,153 Q53,175 35,192 L46,201 Q66,183 84,163 M52,-21 L41,-9 Q49,-2 48,11 L48,110 L17,110 L17,124 L62,124 L62,7 L105,37 Q107,29 110,22 Q88,8 63,-11 Q56,-15 52,-21 M90,109 L90,123 L158,123 L158,204 L172,204 L172,123 L240,123 L240,109 L172,109 L172,-26 L158,-26 L158,109"/> 
            <glyph glyph-name="设" unicode="&#x8BBE;" horiz-adv-x="241" d=" M67,151 Q49,173 33,189 L44,198 Q61,180 78,161 M49,-6 L39,3 Q43,10 43,19 L43,112 L16,112 L16,125 L56,125 L56,24 Q71,39 83,54 Q86,46 90,41 Q76,27 57,6 Q52,0 49,-6 M117,86 Q132,50 157,29 Q184,51 202,86 M90,110 Q85,116 80,122 Q99,130 106,141 Q113,152 113,171 L113,193 L205,193 L205,148 Q204,134 218,135 L241,135 L239,121 L215,121 Q191,121 191,143 L191,179 L126,179 L126,171 Q127,147 119,134 Q111,121 90,110 M75,-26 Q72,-18 67,-12 Q116,3 145,21 Q119,44 102,86 L91,86 L91,99 L217,99 L217,84 Q196,45 168,20 Q195,3 239,-8 Q233,-17 231,-23 Q184,-8 157,11 Q127,-10 75,-26"/> 
            <glyph glyph-name="试" unicode="&#x8BD5;" horiz-adv-x="241" d=" M218,164 Q207,174 190,187 L199,196 Q216,183 227,174 M57,152 Q42,171 25,189 L36,198 Q54,179 68,162 M44,-12 L34,0 Q41,8 42,24 L42,113 L17,113 L17,126 L55,126 L55,21 Q66,32 81,48 L84,32 Q70,17 54,1 Q49,-6 44,-12 M83,87 L83,100 L157,100 L157,87 L128,87 L128,12 Q147,15 165,18 Q165,12 165,4 Q151,2 128.5,-2 Q106,-6 83,-10 L79,4 Q96,6 115,10 L115,87 M83,144 L83,156 L167,156 Q167,178 167,203 L181,203 Q181,177 181,156 L238,156 L238,144 L181,144 L182,130 Q183,85 186.5,58.5 Q190,32 196,11 Q204,-10 212.5,-9.5 Q221,-9 224,3 Q227,18 229,36 Q234,34 241,32 Q240,13 236,-3 Q230,-25 213,-24 Q194,-25 183,7 Q176,26 172.5,55 Q169,84 168,129 L167,144"/> 
            <glyph glyph-name="超" unicode="&#x8D85;" horiz-adv-x="239" d=" M142,82 L142,33 L212,33 L212,82 M173,115 L170,129 Q180,128 193,128 Q212,127 213,147 Q214,169 214,181 L167,181 Q166,153 158,137.5 Q150,122 128,109 Q125,115 120,120 Q139,131 146,143.5 Q153,156 154,181 L122,181 L122,193 L228,193 Q228,175 226,147 Q225,114 197,116 Q182,115 173,115 M130,20 L130,94 L225,94 L225,20 M25,157 L25,170 L63,170 L63,204 L76,204 L76,170 L110,170 L110,157 L76,157 L76,118 L115,118 L115,106 L83,106 L83,64 L114,64 L114,51 L83,51 L83,3 Q102,-5 134,-4 Q158,-5 188,-4.5 Q218,-4 239,-4 Q236,-12 235,-18 Q215,-18 183,-18 Q151,-18 130,-18 Q93,-17 74,-6.5 Q55,4 43,28 Q38,0 24,-25 Q20,-20 14,-16 Q26,6 30,28 Q34,50 34,88 L47,88 Q47,65 45,47 Q56,23 70,12 L70,106 L17,106 L17,118 L63,118 L63,157"/> 
            <glyph glyph-name="距" unicode="&#x8DDD;" horiz-adv-x="240" d=" M44,180 L44,135 L86,135 L86,180 M213,116 L136,116 L136,66 L213,66 M31,123 L31,193 L98,193 L98,123 L78,123 L78,81 L103,81 L103,68 L78,68 L78,13 L105,18 Q105,10 105,4 Q63,-3 18,-13 L15,1 L28,3 L28,96 L41,96 L41,6 L65,10 L65,123 M123,-16 L123,191 L238,191 L238,178 L136,178 L136,129 L226,129 L226,52 L136,52 L136,-3 L240,-3 L240,-16"/> 
            <glyph glyph-name="身" unicode="&#x8EAB;" horiz-adv-x="240" d=" M63,167 L63,142 L187,142 L187,167 M63,130 L63,104 L187,104 L187,130 M181,66 Q184,68 187,71 L187,92 L63,92 L63,66 M129,-21 Q128,-13 126,-7 Q142,-7 164,-7 Q188,-9 187,14 L187,53 L184,53 Q149,29 111,10 Q73,-9 26,-24 Q24,-18 18,-11 Q64,4 98,19 Q132,34 162,53 L18,53 L18,66 L49,66 L49,179 L104,179 Q108,194 111,205 L126,203 Q122,192 118,179 L201,179 L201,82 Q215,93 231,106 L240,96 Q220,79 201,65 L201,13 Q201,-21 170,-21 Q160,-21 148,-21 Q136,-21 129,-21"/> 
            <glyph glyph-name="轻" unicode="&#x8F7B;" horiz-adv-x="241" d=" M232,87 Q207,106 178,125 Q155,104 114,85 Q111,91 106,98 Q142,113 163,130.5 Q184,148 202,176 L117,176 L117,188 L217,188 L217,174 Q203,151 187,134 Q216,116 241,100 M116,62 L116,75 L228,75 L228,62 L179,62 L179,-1 L240,-1 L240,-14 L101,-14 L101,-1 L166,-1 L166,62 M18,158 L18,171 L45,171 Q50,189 55,206 L69,203 L59,171 L107,171 L107,158 L55,158 Q43,122 33,96 L64,96 L64,139 L76,139 L76,96 L101,96 L101,83 L76,83 L76,45 Q93,47 108,49 Q107,44 107,36 Q91,34 76,32 L76,-25 L63,-25 L63,31 Q39,28 17,25 L16,39 L63,44 L63,83 L20,83 L20,97 Q29,121 41,158"/> 
            <glyph glyph-name="过" unicode="&#x8FC7;" horiz-adv-x="239" d=" M61,152 Q55,160 46.5,172.5 Q38,185 31,195 L43,202 Q59,181 74,160 M138,69 Q128,82 117.5,95.5 Q107,109 98,118 L109,126 Q129,104 150,79 M87,146 L87,159 L184,159 L184,204 L198,204 L198,159 L238,159 L238,146 L198,146 L198,49 Q199,18 168,18 Q149,18 138,18 Q137,26 135,34 Q151,33 164,33 Q185,31 184,51 L184,146 M25,-24 L14,-12 Q31,9 47,27 L47,108 L18,108 L18,122 L61,122 L61,28 Q86,-4 125,-3 Q147,-3 180,-3 Q213,-3 239,-2 Q236,-9 234,-17 Q214,-17 181,-17 Q148,-17 122,-16 Q100,-16 84,-9 Q68,-2 54,16 Q49,9 40,-2.5 Q31,-14 25,-24"/> 
            <glyph glyph-name="选" unicode="&#x9009;" horiz-adv-x="240" d=" M60,153 Q47,169 28,189 L39,198 Q55,182 72,163 M24,-19 L15,-7 Q30,8 46,24 L46,107 L18,107 L18,121 L60,121 L60,25 Q81,-5 116,-4 Q141,-4 179,-4 Q217,-4 240,-4 Q237,-12 235,-18 Q205,-18 168,-18 Q131,-18 110,-17 Q74,-17 52,13 Q36,-5 24,-19 M96,120 Q89,123 83,126 Q102,161 111,195 L124,192 Q120,178 115,163 L152,163 L152,205 L166,205 L166,163 L226,163 L226,151 L166,151 L166,107 L237,107 L237,95 L183,95 L183,45 Q182,27 198,28 L206,28 Q219,27 222,43 Q223,52 224,66 Q232,62 237,60 Q236,49 234,39 Q231,15 210,16 L192,16 Q170,15 169,43 L169,95 L134,95 Q134,62 124.5,44.5 Q115,27 89,12 L80,23 Q103,36 112,51.5 Q121,67 121,95 L77,95 L77,107 L152,107 L152,151 L110,151 Q103,134 96,120"/> 
            <glyph glyph-name="通" unicode="&#x901A;" horiz-adv-x="240" d=" M65,150 Q50,167 30,189 L40,197 Q47,190 58,178.5 Q69,167 76,159 M103,130 L103,103 L150,103 L150,130 M211,130 L164,130 L164,103 L211,103 M103,91 L103,63 L150,63 L150,91 M164,91 L164,63 L211,63 L211,91 M24,-19 L15,-7 Q30,9 46,25 L46,107 L18,107 L18,121 L59,121 L59,26 Q81,-5 116,-3 Q141,-3 179,-3.5 Q217,-4 240,-3 Q237,-12 235,-17 Q205,-17 168,-17 Q131,-17 110,-16 Q74,-17 52,14 Q36,-4 24,-19 M179,12 Q178,19 176,25 Q185,24 195,25 Q212,23 211,43 L211,52 L164,52 L164,16 L150,16 L150,52 L103,52 L103,12 L90,12 L90,142 L150,142 Q128,154 107,166 L115,175 Q134,165 154,153 L203,180 L86,180 L86,192 L223,192 L223,178 L166,145 L172,142 L224,142 L224,39 Q225,13 199,12 Q186,12 179,12"/> 
            <glyph glyph-name="都" unicode="&#x90FD;" horiz-adv-x="240" d=" M55,74 L55,46 L117,46 L117,74 M55,34 L55,5 L117,5 L117,34 M159,-25 L159,191 L235,191 L235,177 L207,107 Q240,77 239,46 Q239,7 207,6 Q196,6 185,6 Q183,14 181,21 Q191,20 203,20 Q225,20 224,46 Q226,71 192,104 L220,178 L173,178 L173,-25 M28,160 L28,172 L67,172 L67,204 L81,204 L81,172 L113,172 L113,160 L81,160 L81,128 L96,128 Q118,152 134,179 L146,173 Q130,148 114,128 L146,128 L146,116 L102,116 Q87,100 69,86 L130,86 L130,-22 L117,-22 L117,-8 L55,-8 L55,-22 L42,-22 L42,67 Q32,60 21,53 Q18,59 13,66 Q53,87 83,116 L17,116 L17,128 L67,128 L67,160"/> 
            <glyph glyph-name="配" unicode="&#x914D;" horiz-adv-x="240" d=" M68,178 L68,143 L86,143 L86,178 M117,132 L98,132 L98,97 Q97,84 110,84 L117,84 M37,36 L37,4 L117,4 L117,36 M48,61 Q43,66 38,68 Q49,79 52.5,90 Q56,101 56,122 L56,132 L37,132 L37,47 L117,47 L117,74 L105,74 Q86,73 86,94 L86,132 L68,132 L68,123 Q68,99 64,86 Q60,73 48,61 M166,97 L166,15 Q164,-7 187,-5 L201,-5 Q222,-6 224,14 Q227,29 228,46 Q234,44 240,42 Q239,23 237,11 Q233,-20 202,-18 L183,-18 Q152,-19 153,13 L153,110 L214,110 L214,178 L149,178 L149,190 L227,190 L227,97 M20,178 L20,190 L134,190 L134,178 L98,178 L98,143 L129,143 L129,-23 L117,-23 L117,-8 L37,-8 L37,-23 L25,-23 L25,143 L56,143 L56,178"/> 
            <glyph glyph-name="金" unicode="&#x91D1;" horiz-adv-x="239" d=" M80,9 Q68,24 50,43 L61,52 Q77,35 91,18 M173,9 L162,18 Q178,33 194,52 L206,43 Q190,26 173,9 M232,118 Q166,143 129,188 Q92,145 25,115 Q21,121 17,128 Q96,163 126,207 L142,204 L137,198 Q179,152 239,132 Q235,124 232,118 M55,114 L55,127 L198,127 L198,114 L135,114 L135,76 L218,76 L218,63 L135,63 L135,-2 L233,-2 L233,-16 L23,-16 L23,-2 L121,-2 L121,63 L38,63 L38,76 L121,76 L121,114"/> 
            <glyph glyph-name="银" unicode="&#x94F6;" horiz-adv-x="241" d=" M23,121 Q19,126 14,132 Q37,162 51,205 L64,202 Q57,184 51,169 L92,169 L92,157 L45,157 Q36,139 23,121 M122,96 L205,96 L205,133 L122,133 M122,182 L122,145 L205,145 L205,182 M31,114 L31,127 L86,127 L86,114 L60,114 L60,76 L92,76 L92,64 L60,64 L60,2 Q76,12 93,24 Q94,16 96,9 Q79,0 59,-14 Q53,-18 49,-22 L40,-12 Q46,-4 46,6 L46,64 L16,64 L16,76 L46,76 L46,114 M232,-21 Q195,-1 176.5,22 Q158,45 148,83 L122,83 L122,-1 Q143,10 163,20 Q164,12 165,5 Q146,-3 123,-16 Q116,-19 111,-24 L102,-13 Q109,-5 108,6 L108,195 L218,195 L218,83 L162,83 Q169,57 180,40 Q204,55 224,70 L233,59 Q213,46 187,30 Q205,9 241,-8 Q236,-14 232,-21"/> 
            <glyph glyph-name="键" unicode="&#x952E;" horiz-adv-x="240" d=" M212,171 L183,171 L183,148 L212,148 M183,137 L183,114 L212,114 L212,137 M22,120 Q18,125 14,130 Q32,161 43,205 L55,203 Q50,185 45,169 L77,169 L77,158 L40,158 Q33,138 22,120 M29,116 L29,128 L73,128 L73,116 L53,116 L53,85 L80,85 L80,73 L53,73 L53,14 L76,37 Q78,30 81,25 Q68,13 52,-3 Q48,-7 44,-13 L36,-4 Q41,3 41,12 L41,73 L17,73 L17,85 L41,85 L41,116 M235,-17 Q221,-17 203.5,-16.5 Q186,-16 174,-15 Q126,-14 105,12 Q96,-6 80,-25 Q76,-20 70,-15 Q89,5 98,23 Q88,41 81,71 L91,75 Q97,53 104,38 Q111,60 114,97 L84,97 L84,110 L116,172 L84,172 L84,183 L129,183 L129,171 L97,109 L125,109 L125,97 Q122,52 111,25 Q129,-3 176,-3 Q206,-4 240,-3 Q237,-10 235,-17 M130,137 L130,148 L171,148 L171,171 L141,171 L141,182 L171,182 L171,205 L183,205 L183,182 L224,182 L224,148 L239,148 L239,137 L224,137 L224,103 L183,103 L183,79 L226,79 L226,68 L183,68 L183,45 L231,45 L231,34 L183,34 L183,8 L171,8 L171,34 L131,34 L131,45 L171,45 L171,68 L137,68 L137,79 L171,79 L171,103 L141,103 L141,114 L171,114 L171,137"/> 
            <glyph glyph-name="面" unicode="&#x9762;" horiz-adv-x="237" d=" M99,129 L99,95 L155,95 L155,129 M99,83 L99,49 L155,49 L155,83 M99,37 L99,2 L155,2 L155,37 M44,129 L44,2 L86,2 L86,129 M210,129 L168,129 L168,2 L210,2 M19,178 L19,191 L237,191 L237,178 L131,178 L118,142 L224,142 L224,-25 L210,-25 L210,-11 L44,-11 L44,-25 L31,-25 L31,142 L104,142 L116,178"/> 
            <glyph glyph-name="风" unicode="&#x98CE;" horiz-adv-x="241" d=" M171,1 Q149,33 124,67 Q99,31 66,-2 Q61,4 55,9 Q91,44 116,79 Q89,115 65,149 L75,157 Q100,124 124,91 Q145,123 163,160 L176,154 Q156,114 133,79 Q161,41 183,10 M26,-25 Q22,-20 15,-14 Q29,9 33.5,32.5 Q38,56 38,104 L38,190 L203,190 L203,82 Q203,43 205,25.5 Q207,8 211,0 Q219,-16 223,2 Q225,9 226,20.5 Q227,32 228,42 Q234,40 241,38 Q239,19 236,-1 Q233,-23 217,-23 Q205,-22 198,-7 Q194,3 192,22 Q190,41 190,82 L190,177 L52,177 L52,108 Q52,56 46.5,28.5 Q41,1 26,-25"/> 
            <glyph glyph-name="，" unicode="&#xFF0C;" horiz-adv-x="73" d=" M55,13 L73,13 L73,-5 Q73,-31 64,-51 L55,-51 Q63,-31 63,-5 L55,-5"/> 
        </font>
</defs>
</svg>
