<?xml version="1.0" standalone="no"?>
<!DOCTYPE svg PUBLIC "-//W3C//DTD SVG 1.1//EN" "http://www.w3.org/Graphics/SVG/1.1/DTD/svg11.dtd" >
<svg xmlns="http://www.w3.org/2000/svg">
    <defs>
        <font id="">
            <font-face font-family=""
                       units-per-em="256"
                       ascent="229"
                       descent="-64"
                       bbox="-14 -64 269 229"
                    />
            <missing-glyph horiz-adv-x="0" />
            
            <glyph glyph-name="0" unicode="&#x30;" horiz-adv-x="144" d=" M77,176 Q36,173 35,90 Q35,4 78,5 Q121,4 121,90 Q121,177 77,176 M79,-12 Q12,-11 12,90 Q13,191 78,194 Q143,192 144,90 Q143,-10 79,-12"/> 
            <glyph glyph-name="1" unicode="&#x31;" horiz-adv-x="105" d=" M84,-9 L105,-9 L105,194 L90,194 Q77,162 31,141 L31,120 Q62,132 84,152"/> 
            <glyph glyph-name="3" unicode="&#x33;" horiz-adv-x="143" d=" M101,97 Q134,109 135,142 Q133,192 76,194 Q26,193 14,144 L36,137 Q43,174 77,175 Q109,174 111,142 Q109,105 66,104 Q60,104 56,104 L56,86 Q60,86 74,86 Q117,84 120,48 Q120,6 75,6 Q38,6 32,47 L9,41 Q21,-12 77,-12 Q140,-9 143,46 Q141,85 101,97"/> 
            <glyph glyph-name="6" unicode="&#x36;" horiz-adv-x="144" d=" M33,67 Q34,6 81,4 Q119,6 121,54 Q120,102 81,103 Q42,101 33,67 M140,149 L120,142 Q112,177 82,176 Q32,175 32,93 Q48,120 84,121 Q140,118 144,56 Q140,-7 81,-12 Q10,-12 10,85 Q11,194 83,194 Q127,192 140,149"/> 
            <glyph glyph-name="9" unicode="&#x39;" horiz-adv-x="146" d=" M122,113 Q122,176 74,175 Q36,172 33,126 Q35,80 74,77 Q113,77 122,113 M16,31 L37,38 Q44,3 74,4 Q121,6 122,87 Q107,58 72,58 Q16,63 11,124 Q15,189 76,194 Q146,195 145,95 Q145,-11 72,-12 Q28,-10 16,31"/> 
            <glyph glyph-name="D" unicode="&#x44;" horiz-adv-x="190" d=" M91,171 L44,171 L44,8 L90,8 Q166,9 165,90 Q162,168 91,171 M90,-9 L22,-9 L22,191 L92,191 Q185,188 188,91 Q190,-11 90,-9"/> 
            <glyph glyph-name="F" unicode="&#x46;" horiz-adv-x="158" d=" M158,171 L45,171 L45,104 L143,104 L144,84 L45,84 L45,-9 L23,-9 L23,191 L158,191"/> 
            <glyph glyph-name="H" unicode="&#x48;" horiz-adv-x="179" d=" M157,191 L179,191 L179,-9 L157,-9 L157,84 L45,84 L45,-9 L22,-9 L22,191 L45,191 L45,104 L157,104"/> 
            <glyph glyph-name="I" unicode="&#x49;" horiz-adv-x="48" d=" M26,-9 L48,-9 L48,191 L26,191"/> 
            <glyph glyph-name="M" unicode="&#x4D;" horiz-adv-x="214" d=" M191,-9 L214,-9 L214,191 L184,191 L126,45 Q121,32 118,18 L117,18 Q113,34 109,46 L51,191 L21,191 L21,-9 L42,-9 L42,131 Q42,147 40,173 L41,174 Q43,165 47,149 L110,-9 L123,-9 L187,148 Q191,158 194,174 L195,173 Q195,170 194,162 Q191,137 191,132"/> 
            <glyph glyph-name="R" unicode="&#x52;" horiz-adv-x="198" d=" M45,171 L45,101 L110,101 Q159,102 159,138 Q158,170 110,171 M198,-9 L167,-9 L98,81 L45,81 L45,-9 L22,-9 L22,191 L115,191 Q179,188 183,137 Q183,85 123,81"/> 
            <glyph glyph-name="U" unicode="&#x55;" horiz-adv-x="181" d=" M158,191 L158,75 Q160,4 100,6 Q44,4 45,75 L45,191 L22,191 L22,74 Q21,-13 100,-12 Q181,-13 180,74 L180,191"/> 
            <glyph glyph-name="V" unicode="&#x56;" horiz-adv-x="189" d=" M189,191 L164,191 L103,30 Q103,29 102,27 Q98,12 97,7 L96,7 Q93,21 90,30 L28,191 L4,191 L84,-9 L108,-9"/> 
            <glyph glyph-name="a" unicode="&#x61;" horiz-adv-x="145" d=" M115,48 L115,67 Q111,59 72,56 Q32,51 33,28 Q34,6 66,6 Q111,9 115,48 M36,92 L15,98 Q26,143 80,141 Q139,142 137,85 L137,26 Q136,2 145,-8 L124,-8 Q117,0 117,12 Q99,-12 60,-12 Q14,-10 11,26 Q12,68 64,73 Q106,77 115,84 Q118,124 79,122 Q41,124 36,92"/> 
            <glyph glyph-name="e" unicode="&#x65;" horiz-adv-x="145" d=" M35,75 L122,75 Q120,119 79,121 Q38,117 35,75 M122,37 L144,31 Q132,-13 80,-12 Q13,-9 11,62 Q14,137 79,140 Q143,138 145,62 Q145,58 145,57 L34,57 Q36,8 79,5 Q113,5 122,37"/> 
            <glyph glyph-name="g" unicode="&#x67;" horiz-adv-x="142" d=" M116,59 L116,81 Q114,119 76,123 Q32,121 30,66 Q32,14 73,11 Q115,12 116,59 M138,137 L138,10 Q142,-62 69,-59 Q33,-59 15,-38 L24,-27 Q44,-41 68,-42 Q117,-43 116,4 L116,19 Q106,-5 67,-4 Q11,-1 9,66 Q12,137 72,140 Q101,139 116,116 L116,137"/> 
            <glyph glyph-name="h" unicode="&#x68;" horiz-adv-x="138" d=" M137,85 L137,-8 L115,-8 L115,82 Q115,123 82,123 Q43,118 40,81 L40,-9 L18,-9 L18,191 L40,191 L40,115 Q57,140 87,141 Q138,142 137,85"/> 
            <glyph glyph-name="i" unicode="&#x69;" horiz-adv-x="40" d=" M19,-9 L40,-9 L40,137 L19,137 M19,164 L40,164 L40,191 L19,191"/> 
            <glyph glyph-name="l" unicode="&#x6C;" horiz-adv-x="39" d=" M18,-8 L39,-8 L39,191 L18,191"/> 
            <glyph glyph-name="m" unicode="&#x6D;" horiz-adv-x="216" d=" M215,87 L215,-8 L194,-8 L194,82 Q195,124 164,123 Q130,120 127,81 L127,-8 L106,-8 L106,82 Q107,124 77,123 Q43,120 39,83 L39,-8 L18,-8 L18,137 L39,137 L39,115 Q55,141 79,141 Q116,141 124,110 Q140,141 167,141 Q216,142 215,87"/> 
            <glyph glyph-name="o" unicode="&#x6F;" horiz-adv-x="145" d=" M78,123 Q32,122 31,62 Q32,6 78,4 Q121,6 122,63 Q119,119 78,123 M77,-12 Q12,-8 9,61 Q11,138 79,140 Q142,137 145,64 Q144,-11 77,-12"/> 
            <glyph glyph-name="r" unicode="&#x72;" horiz-adv-x="98" d=" M89,113 L98,133 Q86,141 74,140 Q50,139 40,111 L39,111 L39,137 L18,137 L18,-9 L39,-9 L39,70 Q39,94 48,105 Q59,119 71,119 Q80,119 89,113"/> 
            <glyph glyph-name="s" unicode="&#x73;" horiz-adv-x="131" d=" M102,96 L124,102 Q115,140 68,141 Q19,139 15,100 Q13,63 71,56 Q109,49 108,29 Q107,5 71,4 Q38,3 30,37 L9,31 Q21,-13 71,-12 Q129,-11 130,30 Q131,65 77,74 Q36,81 37,100 Q40,121 69,122 Q96,122 102,96"/> 
            <glyph glyph-name="t" unicode="&#x74;" horiz-adv-x="75" d=" M71,4 L75,-7 Q65,-11 53,-11 Q22,-12 23,21 L23,119 L3,119 L3,137 L23,137 L23,176 L44,187 L44,137 L71,137 L71,119 L44,119 L44,21 Q43,2 60,3 Q66,3 71,4"/> 
            <glyph glyph-name="°" unicode="&#xB0;" horiz-adv-x="89" d=" M51,169 Q29,166 26,143 Q29,119 51,116 Q73,118 76,143 Q73,167 51,169 M89,143 Q86,108 51,105 Q17,108 14,143 Q17,177 51,180 Q86,177 89,143"/> 
            <glyph glyph-name="“" unicode="&#x201C;" horiz-adv-x="233" d=" M223,217 L233,209 Q215,196 214,170 L230,170 L230,138 L199,138 Q199,146 199,165 Q199,200 223,217 M178,217 L187,209 Q169,196 168,170 L185,170 L185,138 L153,138 Q153,146 153,165 Q153,200 178,217"/> 
            <glyph glyph-name="”" unicode="&#x201D;" horiz-adv-x="104" d=" M34,136 L24,144 Q42,157 43,184 L27,184 L27,215 L58,215 Q58,208 58,188 Q58,155 34,136 M79,136 L70,144 Q88,157 89,184 L72,184 L72,215 L104,215 Q104,208 104,188 Q104,155 79,136"/> 
            <glyph glyph-name="、" unicode="&#x3001;" horiz-adv-x="104" d=" M37,36 L52,48 L104,-9 L88,-23"/> 
            <glyph glyph-name="《" unicode="&#x300A;" horiz-adv-x="209" d=" M152,-36 L170,-36 L123,90 L170,218 L152,218 L104,89 M190,-36 L209,-36 L161,90 L209,218 L191,218 L143,89"/> 
            <glyph glyph-name="》" unicode="&#x300B;" horiz-adv-x="152" d=" M86,-36 L104,-36 L152,90 L104,218 L86,218 L134,90 M48,-36 L66,-36 L114,90 L65,218 L47,218 L95,90"/> 
            <glyph glyph-name="一" unicode="&#x4E00;" horiz-adv-x="248" d=" M8,107 L248,107 L248,86 L8,86"/> 
            <glyph glyph-name="上" unicode="&#x4E0A;" horiz-adv-x="246" d=" M106,204 L127,204 L127,131 L227,131 L227,112 L127,112 L127,3 L246,3 L246,-14 L10,-14 L10,3 L106,3"/> 
            <glyph glyph-name="下" unicode="&#x4E0B;" horiz-adv-x="246" d=" M135,125 Q190,96 232,73 L219,54 Q165,87 127,107 L127,-26 L107,-26 L107,170 L10,170 L10,189 L246,189 L246,170 L127,170 L127,112"/> 
            <glyph glyph-name="不" unicode="&#x4E0D;" horiz-adv-x="249" d=" M13,188 L243,188 L243,169 L155,169 Q141,148 126,127 L137,127 L137,-29 L117,-29 L117,114 Q71,60 19,27 Q11,39 6,44 Q86,94 131,169 L13,169 M162,114 Q172,107 198,90 Q235,67 249,57 L236,39 Q181,79 150,98"/> 
            <glyph glyph-name="世" unicode="&#x4E16;" horiz-adv-x="245" d=" M10,145 L42,145 L42,194 L62,194 L62,145 L108,145 L108,205 L127,205 L127,145 L191,145 L191,205 L210,205 L210,145 L245,145 L245,127 L210,127 L210,40 L108,40 L108,127 L62,127 L62,0 L239,0 L239,-18 L42,-18 L42,127 L10,127 M127,127 L127,58 L191,58 L191,127"/> 
            <glyph glyph-name="临" unicode="&#x4E34;" horiz-adv-x="247" d=" M108,98 L237,98 L237,-27 L219,-27 L219,-10 L126,-10 L126,-27 L108,-27 M63,207 L81,207 L81,-28 L63,-28 M89,122 Q125,160 143,209 L161,203 Q155,188 147,173 L247,173 L247,156 L138,156 Q123,132 103,108 Q100,112 92,119 Q90,121 89,122 M20,183 L38,183 L38,-5 L20,-5 M126,81 L126,5 L164,5 L164,81 M219,81 L181,81 L181,5 L219,5 M161,151 Q175,141 200,118 L186,103 Q167,124 148,139"/> 
            <glyph glyph-name="亲" unicode="&#x4EB2;" horiz-adv-x="247" d=" M121,101 L9,101 L9,118 L84,118 Q81,123 73,135 Q65,146 61,151 L77,160 Q79,157 84,151 Q98,133 103,125 L90,118 L147,118 Q165,141 177,162 L195,152 Q184,137 169,118 L247,118 L247,101 L140,101 L140,69 L233,69 L233,52 L140,52 L140,7 Q142,-26 105,-26 Q86,-26 74,-26 Q74,-24 73,-20 Q71,-10 70,-6 Q75,-6 86,-6 Q97,-7 103,-7 Q122,-8 121,9 L121,52 L22,52 L22,69 L121,69 M113,205 L132,211 Q138,199 143,186 L130,180 L234,180 L234,163 L22,163 L22,180 L124,180 Q119,193 113,205 M167,27 L179,41 Q205,23 239,0 L226,-16 Q210,-3 177,20 Q170,25 167,27 M67,42 L82,29 Q54,4 26,-16 Q20,-7 12,0 Q40,16 67,42"/> 
            <glyph glyph-name="仅" unicode="&#x4EC5;" horiz-adv-x="249" d=" M87,173 L87,190 L233,190 L233,174 Q221,92 176,39 Q206,9 249,-7 Q240,-19 234,-27 Q188,-3 162,24 Q130,-6 85,-28 Q80,-21 70,-11 Q118,10 148,40 Q108,90 99,173 M211,173 L118,173 Q125,102 162,55 Q204,106 211,173 M6,94 Q44,147 63,208 L83,202 Q73,174 58,142 L58,-28 L39,-28 L39,108 Q27,88 14,73 Q10,83 6,94"/> 
            <glyph glyph-name="件" unicode="&#x4EF6;" horiz-adv-x="249" d=" M164,207 L183,207 L183,151 L241,151 L241,134 L183,134 L183,72 L249,72 L249,55 L183,55 L183,-28 L164,-28 L164,55 L76,55 L76,72 L164,72 L164,134 L118,134 Q107,105 96,87 Q86,93 79,97 Q103,140 114,190 L134,185 Q132,178 128,165 Q125,156 124,151 L164,151 M7,87 Q41,136 61,207 L80,201 Q73,177 61,147 L61,-28 L42,-28 L42,108 Q26,80 16,66 Q12,76 7,87"/> 
            <glyph glyph-name="传" unicode="&#x4F20;" horiz-adv-x="248" d=" M98,29 L108,43 Q139,27 161,13 L208,59 L105,59 L105,76 Q110,91 114,106 L77,106 L77,123 L119,123 Q124,140 128,155 L88,155 L88,172 L133,172 Q135,181 138,197 Q139,203 140,206 L161,206 Q160,201 157,189 Q155,178 153,172 L238,172 L238,155 L148,155 Q146,146 142,129 Q141,125 140,123 L248,123 L248,106 L135,106 Q131,91 125,76 L233,76 L233,58 L178,3 Q195,-5 207,-14 L194,-30 Q170,-14 112,20 Q102,26 98,29 M8,89 Q42,141 61,207 L81,201 Q80,199 79,194 Q73,175 61,149 L61,-28 L42,-28 L42,109 Q30,85 16,68 Q12,78 8,89"/> 
            <glyph glyph-name="低" unicode="&#x4F4E;" horiz-adv-x="250" d=" M92,188 Q151,187 236,198 L243,180 Q230,179 192,176 Q183,175 178,175 Q178,161 180,113 L246,113 L246,96 L182,96 Q189,12 220,-3 Q227,-6 229,0 Q232,14 233,37 Q243,33 250,30 Q249,21 247,6 Q246,0 246,-4 Q241,-25 226,-25 Q208,-24 192,-3 Q168,27 164,96 L110,96 L110,10 Q114,12 121,16 Q134,23 155,36 Q157,24 159,17 Q155,14 144,8 Q118,-4 110,-10 Q104,-15 97,-21 L84,-5 Q93,2 92,14 M6,95 Q44,148 63,209 L81,202 Q70,170 55,141 L55,-28 L37,-28 L37,110 Q21,84 12,74 Q9,84 6,95 M163,113 Q162,141 160,174 Q149,173 152,174 Q120,172 110,172 L110,113 M141,-1 L154,8 Q170,-5 180,-18 L166,-29 Q163,-26 159,-20 Q148,-8 141,-1"/> 
            <glyph glyph-name="体" unicode="&#x4F53;" horiz-adv-x="250" d=" M58,26 Q108,70 131,140 L75,140 L75,158 L145,158 L145,207 L164,207 L164,158 L239,158 L239,140 L178,140 Q202,65 250,32 Q245,28 236,14 Q183,64 164,140 L164,38 L202,38 L202,21 L164,21 L164,-28 L145,-28 L145,21 L107,21 L107,38 L145,38 L145,140 Q129,69 72,10 Q63,22 58,26 M6,91 Q42,139 62,208 L80,202 Q70,169 56,140 L56,-28 L38,-28 L38,105 Q36,101 31,94 Q27,87 15,71 Q14,72 12,78 Q7,90 6,91"/> 
            <glyph glyph-name="元" unicode="&#x5143;" horiz-adv-x="248" d=" M11,122 L245,122 L245,103 L168,103 L168,13 Q167,-4 186,-3 L200,-3 Q223,-4 224,13 Q227,25 227,46 Q237,42 248,40 Q247,21 244,5 Q240,-22 203,-21 L181,-21 Q147,-23 149,10 L149,103 L100,103 Q100,99 100,95 Q101,8 22,-29 Q18,-22 8,-12 Q84,21 80,94 Q80,99 80,103 L11,103 M35,192 L222,192 L222,174 L35,174"/> 
            <glyph glyph-name="其" unicode="&#x5176;" horiz-adv-x="248" d=" M14,176 L51,176 L51,207 L69,207 L69,176 L187,176 L187,207 L205,207 L205,176 L242,176 L242,159 L205,159 L205,47 L248,47 L248,30 L9,30 L9,47 L51,47 L51,159 L14,159 M69,73 L69,47 L187,47 L187,73 M69,116 L69,90 L187,90 L187,116 M69,159 L69,133 L187,133 L187,159 M151,9 L162,26 Q169,23 185,16 Q232,-2 248,-10 L238,-29 Q204,-10 151,9 M92,25 L103,9 Q64,-12 18,-30 Q17,-27 13,-21 Q9,-14 8,-12 Q57,5 92,25"/> 
            <glyph glyph-name="内" unicode="&#x5185;" horiz-adv-x="229" d=" M119,207 L139,207 Q139,200 138,184 Q138,171 138,165 L227,165 L227,7 Q229,-23 195,-23 Q169,-24 157,-24 Q155,-13 153,-3 Q158,-3 170,-3 Q184,-4 191,-4 Q208,-5 207,9 L207,147 L138,147 Q137,115 128,94 L138,103 Q170,77 201,47 L186,31 Q167,52 126,89 Q113,59 64,28 Q62,32 55,41 Q51,45 51,46 Q120,78 118,147 L48,147 L48,-26 L29,-26 L29,165 L118,165 Q119,179 119,207"/> 
            <glyph glyph-name="动" unicode="&#x52A8;" horiz-adv-x="240" d=" M157,208 L177,208 Q177,198 176,180 Q176,165 176,157 L240,157 Q240,154 240,148 Q238,46 236,19 Q235,-22 199,-22 Q185,-22 171,-22 Q169,-12 167,-1 Q187,-3 197,-3 Q216,-3 217,19 Q221,89 221,140 L175,140 Q175,130 175,119 Q174,24 119,-30 Q113,-22 104,-14 Q154,27 156,119 Q156,128 156,140 L119,140 L119,157 L157,157 Q157,182 157,208 M94,74 Q105,51 121,15 Q119,18 123,9 Q119,8 110,4 Q106,2 104,1 Q103,6 101,10 Q58,6 18,0 L9,20 Q20,27 26,41 Q39,69 51,101 L9,101 L9,119 L126,119 L126,101 L71,101 Q53,53 35,21 Q50,22 83,25 Q91,26 95,26 Q92,33 86,47 Q81,60 78,67 M20,187 L117,187 L117,169 L20,169"/> 
            <glyph glyph-name="卡" unicode="&#x5361;" horiz-adv-x="246" d=" M109,208 L128,208 L128,172 L230,172 L230,154 L128,154 L128,116 L246,116 L246,97 L12,97 L12,116 L109,116 M136,74 Q190,49 231,27 L220,9 Q158,43 128,58 L128,-28 L108,-28 L108,89 L128,89 L128,61"/> 
            <glyph glyph-name="吧" unicode="&#x5427;" horiz-adv-x="248" d=" M120,15 Q120,-3 138,-3 L210,-3 Q224,-4 226,10 Q227,17 228,31 Q230,44 230,51 Q233,50 241,46 Q246,45 248,44 Q245,22 243,3 Q239,-21 211,-20 L136,-20 Q101,-20 102,12 L102,196 L230,196 L230,83 L120,83 M18,185 L79,185 L79,17 L62,17 L62,33 L36,33 L36,9 L18,9 M36,167 L36,51 L62,51 L62,167 M212,179 L174,179 L174,100 L212,100 M120,179 L120,100 L157,100 L157,179"/> 
            <glyph glyph-name="器" unicode="&#x5668;" horiz-adv-x="248" d=" M140,50 L218,50 Q151,59 129,95 L127,95 Q115,63 41,50 L114,50 L114,-25 L97,-25 L97,-12 L46,-12 L46,-26 L29,-26 L29,48 Q23,46 16,46 Q15,48 12,53 Q7,61 6,63 Q95,72 108,95 L16,95 L16,111 L115,111 Q117,119 118,129 L136,129 Q135,119 133,111 L174,111 Q173,113 169,118 Q167,122 166,124 L182,130 Q183,127 188,119 Q192,114 193,111 L242,111 L242,95 L149,95 Q177,67 248,66 Q248,65 247,64 Q241,53 238,47 Q236,47 232,48 Q228,48 226,49 L226,-26 L209,-26 L209,-12 L157,-12 L157,-25 L140,-25 M140,194 L225,194 L225,132 L140,132 M29,194 L114,194 L114,132 L29,132 M157,35 L157,1 L209,1 L209,35 M46,35 L46,1 L97,1 L97,35 M157,179 L157,147 L209,147 L209,179 M46,179 L46,147 L97,147 L97,179"/> 
            <glyph glyph-name="在" unicode="&#x5728;" horiz-adv-x="247" d=" M100,208 L121,205 Q120,201 116,192 Q113,183 111,178 L247,178 L247,161 L103,161 Q86,126 65,96 L65,-27 L47,-27 L47,72 Q33,56 19,42 Q15,51 7,60 Q53,100 82,161 L19,161 L19,178 L90,178 Q97,193 100,208 M150,145 L169,145 L169,96 L233,96 L233,79 L169,79 L169,6 L247,6 L247,-9 L74,-9 L74,6 L150,6 L150,79 L87,79 L87,96 L150,96"/> 
            <glyph glyph-name="场" unicode="&#x573A;" horiz-adv-x="239" d=" M190,176 L95,176 L95,194 L225,194 L225,176 L129,115 L239,115 Q238,102 237,70 Q235,36 234,24 Q235,-25 195,-23 Q180,-23 166,-23 Q165,-12 163,-3 Q180,-5 193,-5 Q216,-7 216,22 Q217,42 219,87 Q220,95 220,98 L194,98 Q183,17 119,-29 Q112,-22 105,-15 Q166,25 176,98 L145,98 Q132,38 77,0 Q71,6 63,12 Q115,47 127,98 L98,98 L98,116 M8,29 Q23,37 43,44 L43,128 L10,128 L10,145 L43,145 L43,206 L61,206 L61,145 L91,145 L91,128 L61,128 L61,52 Q70,56 88,65 Q88,63 89,59 Q89,51 91,47 Q73,39 29,18 Q19,13 15,11"/> 
            <glyph glyph-name="境" unicode="&#x5883;" horiz-adv-x="249" d=" M95,108 L226,108 L226,30 L188,30 L188,2 Q188,-8 201,-8 L217,-8 Q227,-8 230,3 Q232,10 232,25 Q235,24 241,23 Q246,21 249,20 Q248,5 246,-3 Q242,-24 219,-24 L198,-24 Q170,-25 171,0 L171,30 L147,30 Q148,-11 74,-30 Q70,-21 64,-13 Q131,-1 130,30 L95,30 M8,28 Q14,29 29,34 Q35,35 38,36 L38,128 L10,128 L10,145 L38,145 L38,206 L56,206 L56,145 L80,145 L80,128 L56,128 L56,40 Q70,43 85,48 Q85,36 86,30 Q50,22 11,9 M115,160 L129,169 Q134,164 141,153 Q145,148 147,145 L137,139 L175,139 Q183,151 193,169 L210,161 Q201,149 194,139 L246,139 L246,124 L86,124 L86,139 L131,139 Q122,152 115,160 M148,204 L165,209 Q171,196 174,184 L238,184 L238,170 L92,170 L92,184 L156,184 Q153,193 148,204 M112,62 L112,45 L210,45 L210,62 M112,93 L112,76 L210,76 L210,93"/> 
            <glyph glyph-name="备" unicode="&#x5907;" horiz-adv-x="249" d=" M42,85 L214,85 L214,-28 L196,-28 L196,-17 L60,-17 L60,-28 L42,-28 M77,211 L94,204 Q88,193 83,186 L215,186 L215,171 Q185,141 154,124 Q196,110 249,107 Q246,102 243,95 Q240,90 239,87 Q171,97 132,113 Q89,96 15,81 Q13,85 9,92 Q6,96 5,99 Q60,106 110,124 Q83,140 65,164 Q49,145 24,124 Q22,126 18,131 Q14,135 12,137 Q54,170 77,211 M189,171 L79,171 Q100,148 132,133 Q167,149 189,171 M60,26 L60,-2 L119,-2 L119,26 M60,70 L60,40 L119,40 L119,70 M137,26 L137,-2 L196,-2 L196,26 M196,70 L137,70 L137,40 L196,40"/> 
            <glyph glyph-name="大" unicode="&#x5927;" horiz-adv-x="249" d=" M8,-10 Q109,34 115,122 L12,122 L12,141 L116,141 Q116,177 116,207 L138,207 Q138,197 137,171 Q137,149 137,141 L244,141 L244,122 L137,122 Q152,26 249,-4 Q247,-6 244,-11 Q237,-19 234,-25 Q150,8 128,89 Q112,15 23,-28 Q20,-25 15,-19 Q10,-12 8,-10"/> 
            <glyph glyph-name="实" unicode="&#x5B9E;" horiz-adv-x="245" d=" M8,-11 Q103,5 124,41 L12,41 L12,59 L132,59 Q141,85 141,146 L160,146 Q160,85 152,59 L245,59 L245,41 L145,41 Q144,38 142,35 Q150,32 171,22 Q226,-1 242,-8 L231,-26 Q219,-20 169,3 Q142,15 132,20 Q103,-10 20,-30 Q14,-20 8,-11 M115,204 L134,210 Q136,206 141,195 Q146,184 148,179 L133,174 L239,174 L239,131 L219,131 L219,156 L36,156 L36,131 L17,131 L17,174 L127,174 Q127,175 126,177 Q120,194 115,204 M48,109 Q50,108 54,106 Q89,89 100,82 L89,66 Q49,89 38,93 M70,144 Q92,134 121,117 L110,101 Q101,107 68,126 Q63,129 61,130"/> 
            <glyph glyph-name="容" unicode="&#x5BB9;" horiz-adv-x="247" d=" M126,133 L144,126 Q141,123 138,120 Q188,71 247,56 Q247,56 246,54 Q241,45 238,38 Q230,41 217,47 Q209,50 206,51 L206,-28 L188,-28 L188,-17 L68,-17 L68,-28 L49,-28 L49,50 Q34,41 17,34 Q12,43 7,51 Q84,79 126,133 M115,206 L135,209 Q136,207 137,202 Q140,187 141,180 L238,180 L238,136 L219,136 L219,163 L37,163 L37,136 L18,136 L18,180 L121,180 Q120,192 115,206 M68,40 L68,-1 L188,-1 L188,40 M128,108 Q98,78 61,57 L196,57 Q156,77 128,108 M94,152 L106,137 Q61,109 31,95 Q27,103 20,111 Q62,130 94,152 M159,152 Q199,134 234,114 L223,97 Q185,120 149,137"/> 
            <glyph glyph-name="小" unicode="&#x5C0F;" horiz-adv-x="249" d=" M121,205 L141,205 L141,7 Q142,-26 108,-25 Q103,-25 90,-26 Q77,-26 72,-26 Q72,-25 72,-23 Q71,-15 68,-3 Q80,-4 102,-4 Q122,-5 121,12 M61,153 L83,146 Q58,79 28,21 Q17,27 8,32 Q38,85 61,153 M170,143 L189,152 Q213,107 249,34 L227,24 Q196,93 170,143"/> 
            <glyph glyph-name="就" unicode="&#x5C31;" horiz-adv-x="249" d=" M156,208 L174,208 Q174,198 173,175 Q173,154 173,146 Q173,143 173,139 L241,139 L241,121 L198,121 L198,6 Q198,-5 209,-5 L214,-5 Q226,-6 228,8 Q230,28 231,45 Q238,40 249,38 Q247,17 245,4 Q241,-22 214,-22 L205,-22 Q180,-23 181,3 L181,121 L172,121 Q169,23 115,-30 Q110,-23 101,-16 Q153,32 155,121 L128,121 L128,139 L156,139 Q156,143 156,147 Q156,172 156,208 M25,137 L121,137 L121,70 L82,70 L82,3 Q83,-24 53,-24 Q47,-25 36,-25 Q36,-24 36,-23 Q35,-16 32,-6 Q35,-6 42,-7 Q50,-7 52,-7 Q66,-8 65,3 L65,70 L25,70 M57,202 L72,210 Q81,197 88,184 L73,175 L135,175 L135,159 L11,159 L11,175 L72,175 Q64,190 57,202 M42,122 L42,86 L104,86 L104,122 M36,58 L51,52 Q42,25 24,-1 Q21,0 14,4 Q11,5 9,6 Q24,28 36,58 M185,183 L196,196 Q218,181 233,167 L220,154 Q213,161 185,183 M90,53 L103,61 Q115,46 126,28 L111,18 Q101,36 90,53"/> 
            <glyph glyph-name="岛" unicode="&#x5C9B;" horiz-adv-x="234" d=" M61,95 L234,95 Q233,78 232,39 Q232,47 231,25 Q231,-27 180,-25 Q151,-25 135,-25 Q134,-13 131,-4 Q140,-5 156,-5 Q168,-6 177,-6 Q212,-9 212,27 Q212,30 212,36 Q214,57 214,78 L42,78 L42,186 L97,186 Q98,188 100,194 Q102,197 107,209 L127,204 Q123,196 117,186 L211,186 Q212,180 209,147 Q208,103 166,106 Q152,105 135,105 Q135,115 132,124 Q136,124 146,124 Q158,123 165,123 Q188,121 190,148 Q191,158 191,169 L61,169 M88,71 L107,71 L107,24 L153,24 L153,61 L171,61 L171,8 L24,8 L24,61 L43,61 L43,24 L88,24 M89,146 L95,161 Q105,158 130,150 Q148,144 153,143 L144,127 Q117,138 89,146"/> 
            <glyph glyph-name="广" unicode="&#x5E7F;" horiz-adv-x="245" d=" M121,201 L140,210 Q142,205 148,196 Q156,182 160,175 L147,169 L245,169 L245,150 L63,150 L63,107 Q66,21 24,-27 Q16,-20 7,-13 Q28,11 35,36 Q42,60 42,108 L42,169 L139,169 Q130,187 121,201"/> 
            <glyph glyph-name="度" unicode="&#x5EA6;" horiz-adv-x="247" d=" M64,51 L64,68 L216,68 L216,51 Q188,23 165,9 Q191,0 247,-8 Q241,-17 237,-27 Q181,-18 144,0 Q105,-19 52,-30 Q47,-17 42,-12 Q99,-1 124,9 Q100,27 81,51 M127,206 L146,210 Q147,204 150,194 Q152,186 153,182 L245,182 L245,165 L51,165 L51,109 Q51,51 45,25 Q40,-2 22,-30 Q20,-28 15,-24 Q9,-18 7,-16 Q24,10 28,33 Q33,55 33,105 L33,182 L133,182 Q130,194 127,206 M179,158 L197,158 L197,139 L242,139 L242,123 L197,123 L197,85 L92,85 L92,123 L57,123 L57,139 L92,139 L92,158 L111,158 L111,139 L179,139 M189,51 L104,51 Q122,31 144,19 Q169,32 189,51 M111,123 L111,101 L179,101 L179,123"/> 
            <glyph glyph-name="延" unicode="&#x5EF6;" horiz-adv-x="249" d=" M29,82 Q38,53 52,35 Q67,61 70,95 L13,95 L13,113 L67,169 L13,169 L13,187 L90,187 L90,169 L37,113 L89,113 L89,97 Q82,51 66,21 Q93,-2 140,-1 Q207,-1 249,0 Q244,-9 241,-20 Q195,-20 138,-20 Q87,-19 55,5 Q42,-11 20,-29 Q18,-27 14,-23 Q10,-18 7,-15 Q31,3 42,19 Q25,40 13,75 M113,140 L132,140 L132,46 L165,46 L165,173 Q159,173 147,172 Q119,170 105,170 Q103,181 101,188 Q172,190 234,198 L238,179 Q230,178 209,176 Q193,175 184,174 L184,123 L236,123 L236,105 L184,105 L184,46 L240,46 L240,28 L113,28"/> 
            <glyph glyph-name="往" unicode="&#x5F80;" horiz-adv-x="248" d=" M99,89 L157,89 L157,146 L91,146 L91,164 L242,164 L242,146 L176,146 L176,89 L234,89 L234,71 L176,71 L176,1 L248,1 L248,-15 L82,-15 L82,1 L157,1 L157,71 L99,71 M8,63 Q44,93 75,145 L92,135 Q79,114 65,96 L65,-28 L46,-28 L46,73 Q32,58 17,43 Q16,45 13,53 Q9,61 8,63 M15,141 Q51,169 74,208 L91,198 Q60,153 25,122 Q24,125 18,135 Q16,140 15,141 M149,204 L167,209 Q175,191 181,172 L162,166 Q153,193 149,204"/> 
            <glyph glyph-name="征" unicode="&#x5F81;" horiz-adv-x="247" d=" M100,193 L243,193 L243,175 L187,175 L187,101 L238,101 L238,83 L187,83 L187,0 L247,0 L247,-17 L82,-17 L82,0 L107,0 L107,124 L126,124 L126,0 L168,0 L168,175 L100,175 M7,62 Q44,93 76,146 L93,137 Q80,115 66,97 L66,-28 L47,-28 L47,73 Q32,57 16,43 Q12,55 7,62 M15,147 Q51,174 71,205 L89,195 Q61,158 25,129 Q22,136 15,147"/> 
            <glyph glyph-name="径" unicode="&#x5F84;" horiz-adv-x="249" d=" M97,175 L97,192 L226,192 L226,175 Q209,154 183,133 Q203,124 240,102 Q246,99 249,97 L238,80 Q218,93 178,116 Q171,120 168,122 Q134,99 86,81 Q85,83 82,88 Q78,96 76,99 Q157,126 201,175 M79,0 L154,0 L154,56 L93,56 L93,74 L234,74 L234,56 L173,56 L173,0 L248,0 L248,-15 L79,-15 M6,63 Q45,98 72,149 L88,139 Q79,122 61,97 L61,-28 L42,-28 L42,73 Q30,58 14,43 Q10,53 6,63 M12,142 Q47,170 71,211 L87,200 Q62,159 21,124 Q16,132 12,142"/> 
            <glyph glyph-name="得" unicode="&#x5F97;" horiz-adv-x="248" d=" M102,197 L226,197 L226,108 L102,108 M89,89 L243,89 L243,73 L213,73 L213,53 L248,53 L248,37 L213,37 L213,4 Q214,-26 182,-25 Q156,-25 148,-25 Q147,-17 144,-5 Q146,-5 148,-5 Q167,-7 178,-7 Q196,-8 195,10 L195,37 L79,37 L79,53 L195,53 L195,73 L89,73 M7,65 Q43,101 67,145 L83,136 Q71,117 61,101 L61,-28 L43,-28 L43,77 Q30,61 16,46 Q12,55 7,65 M120,145 L120,123 L208,123 L208,145 M120,182 L120,160 L208,160 L208,182 M8,141 Q40,165 66,208 L83,199 Q58,160 18,124 Q12,136 8,141 M102,26 L116,37 Q130,22 142,7 L127,-3 Q115,11 102,26"/> 
            <glyph glyph-name="感" unicode="&#x611F;" horiz-adv-x="250" d=" M190,202 L203,211 Q213,199 222,187 L210,178 L244,178 L244,163 L173,163 Q177,120 187,100 Q201,118 213,148 L229,141 Q212,104 195,84 Q199,77 205,71 Q217,58 224,72 Q228,86 232,103 Q241,99 250,96 Q245,78 238,60 Q222,31 194,55 Q188,63 183,69 Q181,67 176,63 Q170,57 154,44 Q151,49 142,58 Q161,72 174,84 Q161,110 157,163 L51,163 L51,138 Q54,76 22,36 Q21,38 19,41 Q15,46 10,51 Q35,80 34,138 L34,178 L155,178 Q154,183 154,192 Q153,202 153,207 L170,207 Q170,202 171,192 Q171,183 172,178 L207,178 Q195,196 190,202 M68,114 L142,114 L142,60 L68,60 M70,41 L89,41 L89,10 Q87,-7 108,-6 L149,-6 Q167,-7 169,6 Q172,18 174,32 Q182,29 193,25 Q191,19 189,8 Q187,1 186,-1 Q180,-24 153,-23 L103,-23 Q69,-24 70,8 M60,145 L148,145 L148,131 L60,131 M37,42 L54,35 Q40,0 27,-17 Q20,-13 11,-8 Q28,17 37,42 M84,100 L84,75 L125,75 L125,100 M202,27 L216,37 Q226,25 247,-2 L231,-14 Q218,6 202,27 M109,44 L122,54 Q127,48 137,38 Q146,27 151,21 L135,9 Q122,29 109,44"/> 
            <glyph glyph-name="戏" unicode="&#x620F;" horiz-adv-x="248" d=" M100,-8 Q135,12 159,37 Q148,72 145,121 L109,117 L106,134 L144,138 Q143,170 141,207 L161,207 Q161,199 163,141 L242,150 L244,133 L164,123 Q166,79 174,52 Q196,78 215,112 L232,103 Q208,62 181,32 Q189,9 206,-2 Q220,-12 224,2 Q229,20 230,40 Q235,37 248,33 Q246,11 242,-4 Q236,-28 219,-27 Q205,-28 193,-16 Q176,-2 167,17 Q150,0 114,-22 Q103,-11 100,-8 M29,143 Q49,116 67,88 Q77,120 83,160 L13,160 L13,178 L102,178 L102,160 Q94,105 79,70 Q87,57 101,34 Q109,21 113,15 L96,4 Q94,7 91,12 Q78,36 70,49 Q54,17 19,-20 Q14,-14 5,-4 Q41,29 58,67 Q35,105 14,133 M177,189 L188,202 Q204,192 226,176 Q228,174 229,173 L216,158 Q213,160 206,166 Q189,181 177,189"/> 
            <glyph glyph-name="戴" unicode="&#x6234;" horiz-adv-x="250" d=" M23,132 L147,132 L147,70 L120,70 L120,55 L152,55 L152,42 L120,42 L120,24 L155,24 L155,11 L10,11 L10,24 L50,24 L50,42 L16,42 L16,55 L50,55 L50,70 L23,70 M144,-1 Q164,12 180,35 Q172,65 169,108 Q169,112 169,122 Q168,136 168,144 L9,144 L9,159 L76,159 L76,175 L19,175 L19,188 L76,188 L76,209 L93,209 L93,188 L149,188 L149,175 L93,175 L93,159 L167,159 Q167,183 167,209 L185,209 Q185,183 185,159 L248,159 L248,144 L185,144 Q185,127 187,110 Q189,77 193,55 Q213,88 222,124 L239,118 Q225,71 198,32 Q203,14 211,2 Q217,-8 223,-7 Q228,-7 229,1 Q232,14 233,35 Q237,34 243,31 Q248,30 250,29 Q248,10 245,-3 Q240,-28 225,-28 Q209,-28 196,-6 Q190,3 185,15 Q177,4 156,-14 Q153,-10 144,-1 M62,8 L72,-2 Q45,-17 20,-28 Q16,-22 11,-14 Q36,-5 62,8 M95,-2 L104,8 Q130,-2 151,-14 L141,-28 Q113,-12 95,-2 M194,194 L206,205 Q207,204 209,203 Q224,191 239,176 L227,164 Q212,179 194,194 M65,42 L65,24 L105,24 L105,42 M65,70 L65,55 L105,55 L105,70 M38,95 L38,82 L78,82 L78,95 M92,95 L92,82 L132,82 L132,95 M38,120 L38,107 L78,107 L78,120 M132,120 L92,120 L92,107 L132,107"/> 
            <glyph glyph-name="手" unicode="&#x624B;" horiz-adv-x="248" d=" M25,171 Q25,180 23,190 Q135,192 223,199 L226,179 Q184,176 138,175 L138,130 L227,130 L227,111 L138,111 L138,68 L248,68 L248,48 L138,48 L138,6 Q140,-25 108,-24 Q96,-25 67,-25 Q65,-14 62,-3 Q79,-4 101,-4 Q121,-5 119,10 L119,48 L9,48 L9,68 L119,68 L119,111 L26,111 L26,130 L119,130 L119,174 Q54,172 25,171"/> 
            <glyph glyph-name="把" unicode="&#x628A;" horiz-adv-x="248" d=" M93,195 L228,195 L228,88 L111,88 L111,18 Q110,-3 133,-2 L198,-2 Q221,-3 223,13 Q227,25 229,54 Q244,48 248,47 Q247,26 242,4 Q236,-20 200,-20 L126,-20 Q93,-20 93,14 M7,79 Q13,81 23,84 Q34,87 39,88 L39,143 L10,143 L10,159 L39,159 L39,207 L57,207 L57,159 L86,159 L86,143 L57,143 L57,94 Q60,95 66,97 Q79,101 84,103 Q84,96 84,84 Q82,83 78,82 Q65,78 57,75 L57,3 Q59,-25 30,-25 Q23,-26 12,-26 Q10,-8 9,-6 Q11,-6 18,-6 Q25,-7 28,-7 Q40,-8 39,3 L39,69 Q24,65 10,59 M111,178 L111,105 L152,105 L152,178 M210,178 L170,178 L170,105 L210,105"/> 
            <glyph glyph-name="抗" unicode="&#x6297;" horiz-adv-x="250" d=" M130,101 L130,86 Q130,38 121,16 Q112,-7 82,-30 Q76,-22 68,-16 Q96,4 103,23 Q111,41 111,86 L111,119 L202,119 L202,1 Q202,-7 211,-7 L218,-7 Q228,-7 229,2 Q230,10 231,26 Q232,34 232,38 Q243,33 250,30 Q250,27 249,20 Q248,4 247,-1 Q244,-25 220,-24 L205,-24 Q183,-25 183,-1 L183,101 M42,206 L61,206 L61,158 L87,158 L87,142 L61,142 L61,94 Q69,97 83,102 Q88,103 90,104 Q90,93 91,86 Q82,83 61,76 L61,3 Q62,-25 34,-25 Q32,-25 24,-25 Q16,-26 13,-26 Q13,-16 10,-6 Q20,-6 31,-6 Q42,-7 42,4 L42,70 Q23,64 9,59 L7,79 Q11,80 21,83 Q35,87 42,89 L42,142 L11,142 L11,158 L42,158 M92,169 L156,169 Q144,193 140,203 L157,210 Q162,199 174,175 L158,169 L237,169 L237,151 L92,151"/> 
            <glyph glyph-name="拟" unicode="&#x62DF;" horiz-adv-x="249" d=" M6,79 Q9,80 15,81 Q23,83 42,89 L42,143 L10,143 L10,159 L42,159 L42,206 L60,206 L60,159 L89,159 L89,143 L60,143 L60,95 Q75,100 90,104 Q89,93 89,86 Q87,85 79,83 Q67,78 60,76 L60,3 Q61,-26 33,-25 Q28,-26 14,-26 Q13,-13 10,-6 Q12,-6 18,-6 Q27,-7 31,-7 Q43,-8 42,3 L42,70 Q24,64 8,59 M198,204 L216,204 Q216,148 214,120 Q213,75 202,43 Q218,26 249,-12 L233,-25 Q227,-17 211,3 Q199,18 194,25 Q180,-2 135,-30 Q125,-18 122,-15 Q197,22 196,119 Q198,169 198,204 M156,75 Q158,65 163,56 Q153,48 117,13 Q116,12 113,9 Q108,3 106,1 L93,17 Q102,26 102,39 L102,188 L120,188 L120,40 Q141,59 156,75 M131,201 L147,209 Q164,177 178,149 L161,140 Q150,166 131,201"/> 
            <glyph glyph-name="拿" unicode="&#x62FF;" horiz-adv-x="248" d=" M30,62 Q30,65 28,72 Q27,75 27,77 Q99,77 217,81 L220,66 Q179,65 141,63 L141,47 L221,47 L221,34 L141,34 L141,19 L246,19 L246,5 L141,5 L141,0 Q142,-26 112,-26 Q96,-26 79,-26 Q79,-23 77,-17 Q76,-11 75,-8 Q89,-9 108,-9 Q124,-10 123,2 L123,5 L9,5 L9,19 L123,19 L123,34 L32,34 L32,47 L123,47 L123,63 Q104,62 83,62 Q64,62 30,62 M51,135 L205,135 L205,91 L51,91 M151,208 Q147,203 142,200 Q183,167 248,152 Q247,150 245,146 Q241,140 239,135 Q207,145 176,159 L176,150 L78,150 L78,159 Q50,146 17,132 Q16,134 12,140 Q9,145 7,147 Q86,176 130,211 M68,122 L68,105 L188,105 L188,122 M129,190 Q107,175 85,163 L169,163 Q148,175 129,190"/> 
            <glyph glyph-name="捷" unicode="&#x6377;" horiz-adv-x="250" d=" M117,50 Q117,47 116,42 Q113,26 111,20 Q127,1 150,-2 L150,61 L94,61 L94,76 L150,76 L150,97 L87,97 L87,112 L150,112 L150,133 L94,133 L94,148 L150,148 L150,170 L85,170 L85,185 L150,185 L150,208 L168,208 L168,185 L239,185 L239,170 L168,170 L168,148 L226,148 L226,112 L249,112 L249,97 L226,97 L226,61 L168,61 L168,37 L232,37 L232,22 L168,22 L168,-4 L170,-4 Q218,-6 250,-4 Q246,-13 242,-22 Q197,-22 167,-21 Q127,-21 104,4 Q94,-13 72,-30 Q62,-18 60,-16 Q97,7 100,52 M8,80 Q13,81 24,85 Q33,88 38,89 L38,145 L9,145 L9,162 L38,162 L38,207 L56,207 L56,162 L83,162 L83,145 L56,145 L56,95 Q58,96 63,97 Q68,99 82,105 Q82,101 82,86 Q67,80 56,76 L56,2 Q59,-28 30,-26 Q24,-27 10,-26 Q9,-16 7,-6 Q20,-7 27,-7 Q40,-9 38,3 L38,70 Q23,64 10,59 M208,133 L168,133 L168,112 L208,112 M168,97 L168,76 L208,76 L208,97"/> 
            <glyph glyph-name="摸" unicode="&#x6478;" horiz-adv-x="247" d=" M77,38 L149,38 Q149,39 149,40 Q151,51 151,59 L95,59 L95,143 L226,143 L226,59 L169,59 Q169,49 167,38 L243,38 L243,23 L175,23 Q193,-3 247,-9 Q241,-17 237,-27 Q181,-18 160,17 Q143,-15 81,-30 Q78,-22 71,-13 Q133,-1 143,23 L77,23 M8,77 Q23,80 40,85 L40,142 L11,142 L11,159 L40,159 L40,206 L58,206 L58,159 L83,159 L83,142 L58,142 L58,89 Q63,90 72,93 Q81,95 85,96 Q85,95 85,91 Q84,83 84,78 Q81,77 73,75 Q63,73 58,71 L58,3 Q60,-25 31,-25 Q30,-25 24,-25 Q16,-26 12,-26 Q10,-16 8,-6 Q16,-7 29,-7 Q41,-8 40,4 L40,67 Q23,63 9,58 M80,184 L121,184 L121,207 L138,207 L138,184 L180,184 L180,207 L198,207 L198,184 L242,184 L242,168 L198,168 L198,150 L180,150 L180,168 L138,168 L138,150 L121,150 L121,168 L80,168 M113,94 L113,75 L209,75 L209,94 M113,128 L113,109 L209,109 L209,128"/> 
            <glyph glyph-name="敏" unicode="&#x654F;" horiz-adv-x="250" d=" M45,209 L62,206 Q59,196 54,185 L142,185 L142,169 L47,169 Q45,166 41,160 Q37,153 35,150 L128,150 Q128,139 127,120 Q127,99 126,90 L146,90 L146,74 L126,74 Q126,71 126,65 Q124,47 124,28 L143,28 L143,12 L123,12 Q123,-24 88,-23 Q70,-23 58,-22 Q58,-19 57,-13 Q56,-6 55,-3 Q70,-5 86,-5 Q105,-6 106,12 L22,12 L27,74 L9,74 L9,90 L28,90 L33,147 Q28,138 19,129 Q13,137 7,143 Q32,169 45,209 M171,208 L188,206 Q184,183 178,165 L247,165 L247,148 L233,148 Q226,77 203,37 Q221,7 250,-11 Q243,-20 238,-28 Q210,-7 192,19 Q173,-7 141,-30 Q140,-29 138,-26 Q132,-18 129,-14 Q163,8 182,37 Q165,70 159,114 Q157,111 153,103 Q149,96 147,92 Q146,96 139,104 Q136,107 135,108 Q159,148 171,208 M107,28 Q109,48 109,74 L44,74 L40,28 M49,134 L45,90 L110,90 Q110,97 110,111 Q111,126 111,134 M193,57 Q210,93 215,148 L173,148 Q171,146 171,144 Q177,92 193,57 M59,62 L73,70 Q83,54 92,39 L77,31 Q73,41 61,58 Q60,61 59,62 M62,123 L76,130 Q85,116 93,101 L79,94 Q71,110 62,123"/> 
            <glyph glyph-name="新" unicode="&#x65B0;" horiz-adv-x="249" d=" M143,188 Q190,188 236,198 L242,179 Q208,174 161,171 L161,114 L249,114 L249,98 L214,98 L214,-27 L196,-27 L196,98 L161,98 L161,90 Q163,14 125,-28 Q119,-21 112,-13 Q144,20 143,92 M64,102 L81,102 L81,79 L129,79 L129,63 L81,63 L81,1 Q82,-24 52,-24 Q40,-24 33,-24 Q32,-16 30,-6 Q35,-7 52,-7 Q64,-7 64,5 L64,63 L14,63 L14,79 L64,79 M8,123 L78,123 Q94,146 102,162 L120,152 Q108,137 97,123 L135,123 L135,108 L8,108 M57,202 L72,209 Q82,193 87,183 L80,180 L129,180 L129,164 L15,164 L15,180 L69,180 Q67,185 60,197 Q58,200 57,202 M33,53 L49,45 Q47,41 43,33 Q30,7 24,-3 Q10,3 8,4 Q21,26 33,53 M102,52 Q113,39 126,18 L111,7 Q100,26 88,42 M28,153 L41,162 Q44,158 51,148 Q58,139 62,134 L47,124 Q45,127 42,131 Q37,141 28,153"/> 
            <glyph glyph-name="时" unicode="&#x65F6;" horiz-adv-x="248" d=" M17,185 L101,185 L101,-11 L82,-11 L82,8 L37,8 L37,-13 L17,-13 M195,209 L214,209 L214,155 L248,155 L248,137 L214,137 L214,9 Q216,-25 180,-24 Q175,-24 160,-25 Q146,-25 142,-25 Q141,-19 138,-6 Q137,-4 137,-3 Q144,-4 176,-4 Q197,-6 195,13 L195,137 L109,137 L109,155 L195,155 M37,89 L37,26 L82,26 L82,89 M37,167 L37,106 L82,106 L82,167 M136,114 Q145,97 165,57 Q156,54 146,47 Q130,83 119,105"/> 
            <glyph glyph-name="星" unicode="&#x661F;" horiz-adv-x="246" d=" M40,197 L222,197 L222,104 L40,104 M124,99 L143,99 L143,78 L235,78 L235,61 L143,61 L143,37 L228,37 L228,21 L143,21 L143,-3 L246,-3 L246,-19 L15,-19 L15,-3 L124,-3 L124,21 L46,21 L46,37 L124,37 L124,61 L53,61 Q42,42 24,23 Q12,35 10,36 Q38,64 55,101 L72,95 Q68,86 63,78 L124,78 M59,143 L59,120 L204,120 L204,143 M59,181 L59,159 L204,159 L204,181"/> 
            <glyph glyph-name="晕" unicode="&#x6655;" horiz-adv-x="246" d=" M42,197 L214,197 L214,127 L42,127 M30,79 L75,79 Q81,88 87,97 L106,94 Q105,93 104,91 Q101,85 95,79 L225,79 L225,65 L84,65 Q81,60 74,51 Q70,46 68,43 L125,43 L125,59 L143,59 L143,43 L217,43 L217,29 L143,29 L143,12 L246,12 L246,-1 L143,-1 L143,-29 L125,-29 L125,-1 L11,-1 L11,12 L125,12 L125,29 L47,29 L47,44 Q48,45 50,47 Q55,53 64,65 L30,65 M17,114 L238,114 L238,83 L220,83 L220,99 L35,99 L35,83 L17,83 M60,155 L60,141 L196,141 L196,155 M60,183 L60,169 L196,169 L196,183"/> 
            <glyph glyph-name="更" unicode="&#x66F4;" horiz-adv-x="249" d=" M8,-13 Q62,-2 80,7 Q64,18 44,40 L59,51 Q75,30 95,19 Q110,35 114,55 L37,55 L37,157 L120,157 L120,179 L17,179 L17,196 L239,196 L239,179 L138,179 Q138,170 138,157 L221,157 L221,43 L203,43 L203,55 L133,55 Q128,28 112,10 Q153,-4 249,-5 Q247,-8 243,-18 Q241,-23 240,-24 Q134,-20 98,-1 Q76,-16 19,-30 Q14,-21 8,-13 M137,98 Q137,83 135,72 L203,72 L203,98 M203,140 L138,140 Q138,126 138,114 L203,114 M55,140 L55,114 L120,114 Q120,126 120,140 M117,72 Q119,83 119,98 L55,98 L55,72"/> 
            <glyph glyph-name="服" unicode="&#x670D;" horiz-adv-x="250" d=" M113,193 L233,193 L231,157 Q232,123 193,125 Q178,125 162,125 Q162,128 160,135 Q159,141 158,144 Q173,143 190,143 Q214,141 213,158 L214,176 L132,176 L132,107 L234,107 L234,93 Q223,47 198,18 Q216,1 250,-11 Q242,-21 236,-28 Q206,-13 186,5 Q168,-11 142,-26 Q137,-18 132,-10 Q161,3 174,18 Q151,48 143,91 L132,91 L132,-28 L113,-28 M25,195 L93,195 L93,-1 Q94,-25 70,-25 Q61,-25 48,-25 Q47,-17 45,-8 Q50,-8 65,-8 Q77,-9 76,1 L76,55 L42,55 Q43,0 22,-28 Q16,-22 8,-15 Q27,7 25,59 M215,91 L159,91 Q167,57 186,31 Q207,58 215,91 M42,117 L42,70 L76,70 L76,117 M42,179 L42,133 L76,133 L76,179"/> 
            <glyph glyph-name="未" unicode="&#x672A;" horiz-adv-x="249" d=" M11,106 L119,106 L119,148 L25,148 L25,166 L119,166 L119,208 L137,208 L137,166 L232,166 L232,148 L137,148 L137,106 L245,106 L245,89 L150,89 Q184,37 249,7 Q240,-1 236,-8 Q173,24 137,82 L137,-28 L119,-28 L119,82 Q81,21 20,-13 Q14,-3 7,2 Q71,34 106,89 L11,89"/> 
            <glyph glyph-name="机" unicode="&#x673A;" horiz-adv-x="251" d=" M135,174 L135,108 Q135,53 126,25 Q118,-4 92,-31 Q89,-28 82,-21 Q79,-18 77,-16 Q100,7 108,32 Q116,58 116,108 L116,192 L205,192 L205,14 Q204,-2 215,-1 L218,-1 Q228,-2 229,11 Q231,20 232,45 Q233,50 233,52 Q241,48 251,46 Q250,35 248,15 Q247,8 247,5 Q243,-21 219,-20 L214,-20 Q185,-22 186,11 L186,174 M6,54 Q34,95 46,143 L9,143 L9,160 L47,160 L47,207 L65,207 L65,160 L99,160 L99,143 L65,143 L65,103 L75,113 Q92,98 104,85 L91,72 Q90,73 88,75 Q77,89 65,99 L65,-27 L47,-27 L47,101 Q35,62 15,35 Q14,38 10,45 Q7,51 6,54"/> 
            <glyph glyph-name="来" unicode="&#x6765;" horiz-adv-x="249" d=" M7,3 Q65,32 105,76 L11,76 L11,93 L119,93 L119,157 L25,157 L25,174 L119,174 L119,209 L137,209 L137,174 L232,174 L232,157 L137,157 L137,93 L245,93 L245,76 L149,76 Q187,30 249,7 Q241,-2 236,-10 Q174,15 137,69 L137,-29 L119,-29 L119,70 Q82,20 20,-13 Q15,-6 7,3 M162,110 Q163,111 166,115 Q186,136 196,151 L212,138 Q192,113 175,98 M46,138 L60,151 Q77,133 94,112 L78,99 Q63,120 46,138"/> 
            <glyph glyph-name="柄" unicode="&#x67C4;" horiz-adv-x="248" d=" M119,-27 L101,-27 L101,137 L162,137 Q162,145 163,157 Q163,168 163,174 L92,174 L92,191 L248,191 L248,174 L181,174 Q180,158 180,137 L240,137 L240,1 Q241,-24 213,-25 Q196,-25 178,-25 Q178,-23 177,-19 Q176,-10 175,-7 Q187,-7 207,-7 Q222,-8 221,3 L221,38 L207,27 Q206,28 205,30 Q182,59 169,73 Q160,47 129,19 Q128,21 124,25 Q120,29 119,31 M7,55 Q34,98 43,141 L9,141 L9,157 L43,157 L43,206 L60,206 L60,157 L91,157 L91,141 L60,141 L60,100 L70,110 Q74,106 82,99 Q93,90 99,84 L85,71 Q74,83 60,97 L60,-28 L43,-28 L43,95 Q32,60 15,34 Q12,44 7,55 M119,122 L119,35 Q160,68 161,122 M182,86 Q188,79 202,64 Q215,48 221,41 L221,122 L179,122 Q178,99 171,77"/> 
            <glyph glyph-name="柔" unicode="&#x67D4;" horiz-adv-x="246" d=" M81,177 Q89,174 107,169 Q125,163 134,160 L186,182 L36,182 L36,198 L219,198 L219,180 L152,153 Q154,153 158,152 Q161,151 163,150 L157,143 L236,143 L236,126 L213,85 L196,91 L216,127 L156,127 L156,108 Q157,76 124,77 Q114,77 100,77 Q100,79 99,83 Q98,92 97,95 Q105,94 121,94 Q139,92 138,110 L138,127 L128,127 Q92,95 27,73 Q25,77 20,86 Q18,89 17,90 Q66,103 104,127 L19,127 L19,143 L140,143 Q99,155 72,163 M7,-6 Q63,10 105,41 L12,41 L12,58 L120,58 L120,72 L138,72 L138,58 L245,58 L245,41 L150,41 Q188,9 246,-2 Q243,-6 238,-13 Q235,-18 233,-21 Q167,0 138,35 L138,-30 L120,-30 L120,36 Q89,5 20,-23 Q14,-15 7,-6"/> 
            <glyph glyph-name="样" unicode="&#x6837;" horiz-adv-x="247" d=" M100,161 L173,161 Q191,184 206,209 L223,198 Q218,192 210,181 Q201,168 195,161 L239,161 L239,144 L177,144 L177,106 L232,106 L232,89 L177,89 L177,49 L247,49 L247,32 L177,32 L177,-29 L158,-29 L158,32 L87,32 L87,49 L158,49 L158,89 L105,89 L105,106 L158,106 L158,144 L100,144 M7,56 Q32,97 44,142 L10,142 L10,158 L46,158 L46,207 L64,207 L64,158 L92,158 L92,142 L64,142 L64,103 L74,112 Q83,103 104,81 L90,69 Q72,90 64,99 L64,-29 L46,-29 L46,102 Q35,66 16,35 Q12,46 7,56 M114,198 L129,209 Q136,201 148,186 Q155,178 157,175 L140,163 Q126,183 114,198"/> 
            <glyph glyph-name="毫" unicode="&#x6BEB;" horiz-adv-x="245" d=" M45,59 Q45,60 44,66 Q42,72 42,72 Q132,76 202,82 L207,69 Q203,69 183,67 Q149,65 129,63 L129,50 L214,56 L216,43 L129,37 L129,23 L244,30 L245,17 L129,9 L129,7 Q128,-10 146,-8 L202,-8 Q218,-10 222,11 Q231,7 239,5 Q233,-26 206,-23 L140,-23 Q109,-25 111,4 L111,8 L13,2 L12,15 L111,22 L111,36 L34,31 L33,44 L111,49 L111,62 Q100,62 79,60 Q54,59 45,59 M48,159 L208,159 L208,116 L48,116 M18,103 L239,103 L239,66 L221,66 L221,90 L36,90 L36,66 L18,66 M118,207 L137,208 Q137,206 138,201 Q140,191 140,186 L244,186 L244,172 L12,172 L12,186 L121,186 Q121,189 120,197 Q118,204 118,207 M65,145 L65,130 L191,130 L191,145"/> 
            <glyph glyph-name="流" unicode="&#x6D41;" horiz-adv-x="250" d=" M74,177 L149,177 Q145,187 134,204 L152,212 Q167,188 168,183 L156,177 L240,177 L240,160 L136,160 L148,153 Q128,130 107,112 Q122,113 155,114 Q182,115 195,115 Q183,130 173,139 L188,150 Q218,119 240,94 Q232,89 223,82 Q221,85 216,91 Q212,96 209,99 Q206,99 199,99 Q130,97 102,94 Q96,94 87,92 Q84,91 82,91 L74,109 Q83,114 91,120 Q116,141 130,160 L74,160 M186,83 L203,83 L203,3 Q203,-6 214,-6 L219,-6 Q229,-6 230,2 Q232,20 232,36 Q240,32 250,29 Q249,11 246,-1 Q242,-23 221,-23 L212,-23 Q186,-23 186,0 M95,83 L113,83 Q113,31 105,10 Q97,-11 69,-30 Q63,-22 57,-14 Q81,0 87,18 Q95,35 95,83 M140,83 L158,83 L158,-24 L140,-24 M15,-21 Q28,19 40,72 Q50,68 59,64 Q47,18 35,-27 M7,127 L19,142 Q42,126 61,110 Q52,101 47,94 Q18,120 7,127 M17,191 L29,204 Q39,196 57,181 Q65,174 69,170 Q61,162 54,156 Q28,182 17,191"/> 
            <glyph glyph-name="海" unicode="&#x6D77;" horiz-adv-x="249" d=" M225,147 Q225,136 224,114 Q224,95 224,86 L249,86 L249,70 L223,70 Q223,61 222,45 Q222,31 222,25 L241,25 L241,9 L221,9 Q219,-26 180,-26 Q164,-26 147,-26 Q147,-22 145,-13 Q144,-8 144,-6 Q157,-7 177,-7 Q200,-8 202,9 L77,9 L85,70 L61,70 L61,86 L87,86 L95,147 M203,25 Q204,32 204,47 Q205,62 205,70 L103,70 L98,25 M111,131 L105,86 L205,86 Q206,109 206,131 M59,140 Q92,170 109,210 L127,207 Q122,195 116,185 L244,185 L244,168 L106,168 Q87,141 71,125 Q69,128 63,135 Q60,138 59,140 M14,-22 Q22,2 38,60 Q39,66 40,69 Q50,65 58,62 Q46,19 35,-28 M20,142 Q41,125 61,110 L47,95 Q29,112 8,128 M29,205 Q47,192 69,171 L56,157 Q33,179 17,192 M135,116 L146,128 Q161,116 176,104 L164,91 Q150,104 135,116 M133,53 L143,64 Q159,52 174,40 L162,27 Q159,30 152,36 Q148,41 133,53"/> 
            <glyph glyph-name="游" unicode="&#x6E38;" horiz-adv-x="248" d=" M189,86 L218,116 L158,116 L158,131 Q153,122 147,114 Q142,120 135,127 Q160,161 177,210 L196,206 Q189,188 181,172 L247,172 L247,156 L173,156 Q165,142 159,132 L240,132 L240,115 L207,81 L207,73 L248,73 L248,57 L207,57 L207,4 Q208,-24 179,-24 Q163,-24 155,-24 Q155,-18 152,-6 Q162,-6 177,-6 Q189,-7 189,6 L189,57 L145,57 L145,73 L189,73 M58,163 L145,163 L145,146 L95,146 Q95,127 95,110 L140,110 Q140,99 140,103 Q138,42 136,12 Q136,-22 105,-21 Q95,-21 87,-21 Q85,-10 83,-3 Q88,-3 97,-4 Q101,-4 102,-4 Q119,-5 119,10 Q122,50 122,94 L94,94 Q93,8 59,-29 Q58,-28 52,-23 Q47,-18 45,-16 Q66,11 71,40 Q78,68 78,146 L58,146 M36,72 Q45,68 55,65 Q39,2 33,-27 L13,-20 Q27,27 36,72 M17,142 Q18,141 20,140 Q48,119 55,112 L42,97 Q23,116 6,129 M27,203 Q52,183 61,174 L48,159 Q36,172 15,191 M87,203 L104,208 Q109,193 117,172 L100,166 Q94,184 87,203"/> 
            <glyph glyph-name="火" unicode="&#x706B;" horiz-adv-x="248" d=" M8,-10 Q113,33 117,120 Q118,133 118,152 Q118,167 118,206 L138,206 Q138,181 136,125 Q136,117 136,112 Q159,20 248,-5 Q241,-16 236,-25 Q153,6 128,80 Q111,14 21,-29 Q16,-22 8,-10 M158,94 Q186,125 211,166 L229,156 Q197,110 175,82 M25,156 L41,166 Q68,132 93,94 L75,82 Q51,121 25,156"/> 
            <glyph glyph-name="灵" unicode="&#x7075;" horiz-adv-x="248" d=" M38,194 L220,194 L220,92 L35,92 L35,109 L201,109 L201,135 L44,135 L44,151 L201,151 L201,177 L38,177 M121,82 L141,82 Q141,80 140,77 Q138,70 136,60 Q167,1 248,-8 Q247,-9 246,-12 Q238,-22 236,-27 Q154,-9 128,39 Q109,-13 19,-30 Q18,-29 17,-26 Q11,-17 8,-12 Q116,1 121,82 M225,63 Q211,48 186,23 L172,36 Q191,54 210,75 M32,64 L45,76 Q50,71 62,58 Q76,44 83,37 L68,24 Q52,44 32,64"/> 
            <glyph glyph-name="热" unicode="&#x70ED;" horiz-adv-x="251" d=" M106,172 L138,172 Q139,191 139,209 L157,209 Q157,191 157,172 L211,172 Q208,100 214,75 Q216,63 221,61 Q227,59 229,69 Q232,80 233,102 Q242,98 251,96 Q249,76 246,62 Q241,40 224,39 Q204,40 196,71 Q191,89 192,155 L156,155 Q156,128 150,107 Q157,103 173,92 Q179,88 182,86 L170,69 Q157,80 143,89 Q132,61 95,33 Q89,40 81,49 Q117,72 128,100 Q126,101 121,105 Q114,110 99,119 L110,133 Q115,129 126,123 Q131,120 134,118 Q137,134 138,155 L106,155 M11,109 Q28,113 48,119 L48,155 L14,155 L14,172 L48,172 L48,208 L67,208 L67,172 L95,172 L95,155 L67,155 L67,124 Q72,126 80,128 Q89,131 93,132 Q93,129 93,114 Q89,112 79,110 Q71,107 67,106 L67,72 Q68,42 38,41 Q30,40 17,40 Q16,54 14,61 Q22,59 34,59 Q49,58 48,74 L48,100 Q43,98 32,95 Q21,91 15,89 M199,26 L215,36 Q220,27 231,11 Q241,-4 246,-12 L229,-22 Q216,2 199,26 M39,30 L56,23 Q46,0 29,-27 Q22,-23 13,-19 Q29,7 39,30 M78,20 L94,27 Q107,4 117,-16 L100,-24 Q97,-19 92,-7 Q82,12 78,20 M140,22 L156,29 Q161,21 170,3 Q176,-8 179,-14 L162,-22 Q157,-10 146,10 Q142,18 140,22"/> 
            <glyph glyph-name="片" unicode="&#x7247;" horiz-adv-x="247" d=" M162,207 L181,207 L181,137 L247,137 L247,119 L73,119 L73,103 Q73,88 72,76 L191,76 L191,-28 L172,-28 L172,58 L71,58 Q67,8 31,-29 Q28,-26 23,-20 Q17,-14 16,-12 Q57,25 54,102 L54,202 L73,202 L73,137 L162,137"/> 
            <glyph glyph-name="版" unicode="&#x7248;" horiz-adv-x="249" d=" M115,188 Q182,190 237,198 L243,180 Q168,174 132,172 L132,132 L234,132 L234,118 Q225,59 197,25 Q214,6 249,-7 Q239,-19 234,-26 Q196,-2 186,11 Q163,-10 131,-28 Q130,-27 125,-20 Q120,-13 119,-11 Q155,4 175,25 Q151,57 144,116 L132,116 L132,91 Q134,13 104,-28 Q102,-27 97,-23 Q91,-19 89,-17 Q117,18 115,91 M67,206 L84,206 L84,133 L104,133 L104,118 L42,118 L42,80 L86,80 L86,-25 L69,-25 L69,65 L41,65 Q42,8 22,-28 Q10,-19 6,-17 Q27,10 25,77 L25,199 L42,199 L42,133 L67,133 M216,116 L161,116 Q167,70 187,38 Q207,65 216,116"/> 
            <glyph glyph-name="独" unicode="&#x72EC;" horiz-adv-x="249" d=" M101,161 L156,161 L156,207 L174,207 L174,161 L230,161 L230,66 L174,66 L174,9 Q196,11 214,12 Q206,28 200,42 L216,49 Q219,44 225,31 Q244,-5 249,-17 L230,-25 Q227,-16 221,-2 Q190,-5 90,-16 L86,2 Q104,3 156,7 L156,66 L119,66 L119,56 L101,56 M8,52 Q38,74 58,104 Q55,122 49,136 Q36,123 20,111 Q15,121 9,126 Q26,138 41,153 Q31,172 13,190 L27,200 Q46,182 54,167 Q69,184 78,198 L94,188 Q93,186 90,183 Q78,167 63,150 Q80,112 80,39 Q82,-21 42,-20 Q28,-20 17,-20 Q14,-5 13,-1 Q18,-2 42,-2 Q63,-4 62,38 Q62,62 61,80 Q42,54 19,37 Q13,46 8,52 M213,144 L174,144 L174,83 L213,83 M119,144 L119,83 L156,83 L156,144"/> 
            <glyph glyph-name="画" unicode="&#x753B;" horiz-adv-x="244" d=" M69,154 L187,154 L187,27 L69,27 M231,150 L231,-28 L213,-28 L213,-14 L24,-14 L24,150 L43,150 L43,0 L213,0 L213,150 M11,193 L244,193 L244,177 L11,177 M86,83 L86,43 L119,43 L119,83 M136,83 L136,43 L169,43 L169,83 M169,138 L136,138 L136,99 L169,99 M86,138 L86,99 L119,99 L119,138"/> 
            <glyph glyph-name="畅" unicode="&#x7545;" horiz-adv-x="240" d=" M53,207 L69,207 L69,171 L105,171 L105,42 L69,42 L69,-27 L53,-27 L53,42 L33,42 L33,28 L17,28 L17,171 L53,171 M197,176 L117,176 L117,193 L226,193 L226,175 L142,115 L240,115 Q236,49 235,24 Q235,-25 196,-23 Q180,-23 167,-23 Q167,-14 163,-4 Q167,-4 178,-4 Q189,-5 194,-5 Q217,-7 217,22 Q219,41 220,83 Q221,93 221,98 L200,98 Q193,19 129,-28 Q123,-19 115,-13 Q174,28 184,98 L158,98 Q148,43 103,6 Q100,9 93,16 Q90,19 89,20 Q132,52 141,98 L115,98 L115,117 M33,99 L33,58 L53,58 L53,99 M69,58 L89,58 L89,99 L69,99 M33,155 L33,114 L53,114 L53,155 M89,155 L69,155 L69,114 L89,114"/> 
            <glyph glyph-name="界" unicode="&#x754C;" horiz-adv-x="248" d=" M163,56 L176,56 Q152,69 134,90 L125,90 Q105,72 81,57 L95,57 Q99,-5 39,-30 Q33,-23 24,-14 Q81,5 76,54 Q49,37 19,25 Q14,33 8,41 Q67,62 100,90 L33,90 L33,196 L223,196 L223,90 L155,90 Q189,58 248,46 Q242,37 239,28 Q208,37 182,52 L182,-28 L163,-28 M137,135 L137,105 L205,105 L205,135 M205,180 L137,180 L137,151 L205,151 M51,180 L51,151 L119,151 L119,180 M51,135 L51,105 L119,105 L119,135"/> 
            <glyph glyph-name="的" unicode="&#x7684;" horiz-adv-x="239" d=" M18,168 L42,168 Q52,191 57,208 L78,202 Q75,196 69,183 Q64,173 62,168 L111,168 L111,-23 L93,-23 L93,-4 L37,-4 L37,-25 L18,-25 M115,119 Q137,156 153,208 L174,203 Q173,200 171,194 Q168,186 161,168 L239,168 Q236,45 235,18 Q234,-26 186,-24 Q176,-24 161,-25 Q152,-25 149,-25 Q147,-13 145,-4 Q148,-4 156,-4 Q175,-5 187,-5 Q215,-7 216,22 Q218,52 219,150 L154,150 Q152,147 149,140 Q138,117 132,108 Q125,113 115,119 M37,73 L37,12 L93,12 L93,73 M37,150 L37,91 L93,91 L93,150 M136,102 L151,113 Q179,79 194,58 L176,45 Q158,72 136,102"/> 
            <glyph glyph-name="看" unicode="&#x770B;" horiz-adv-x="247" d=" M27,161 L104,161 Q105,163 107,169 Q110,176 111,180 Q69,178 26,178 Q25,185 23,194 Q130,196 227,201 L229,185 Q212,184 176,182 Q147,181 131,180 Q131,179 130,176 Q128,171 124,161 L229,161 L229,145 L118,145 Q112,135 108,125 L247,125 L247,110 L98,110 Q92,100 86,92 L217,92 L217,-28 L199,-28 L199,-18 L79,-18 L79,-28 L61,-28 L61,62 Q42,42 18,24 Q15,28 8,38 Q7,39 6,40 Q49,70 76,110 L11,110 L11,125 L86,125 Q87,127 89,131 Q92,135 97,145 L27,145 M79,76 L79,59 L199,59 L199,76 M79,12 L79,-3 L199,-3 L199,12 M79,44 L79,27 L199,27 L199,44"/> 
            <glyph glyph-name="眩" unicode="&#x7729;" horiz-adv-x="249" d=" M20,186 L88,186 L88,-10 L71,-10 L71,6 L38,6 L38,-16 L20,-16 M152,202 L168,209 Q178,195 187,178 L174,172 L244,172 L244,155 L176,155 Q150,119 127,91 Q135,92 156,92 Q175,93 185,93 Q193,102 207,122 Q212,128 214,131 L232,119 Q198,77 131,3 Q150,3 189,5 Q206,6 214,6 Q203,27 191,48 L207,56 Q219,38 241,-1 Q246,-10 249,-15 L230,-24 Q229,-22 227,-17 Q224,-12 223,-9 Q179,-9 131,-13 Q117,-14 105,-17 L97,2 Q112,8 122,19 Q125,23 133,32 Q157,59 171,76 Q141,76 121,75 Q117,75 106,73 Q104,72 103,72 L96,90 Q107,96 114,104 Q129,120 152,155 L94,155 L94,172 L168,172 Q163,184 152,202 M38,63 L38,23 L71,23 L71,63 M38,117 L38,79 L71,79 L71,117 M38,170 L38,133 L71,133 L71,170"/> 
            <glyph glyph-name="眼" unicode="&#x773C;" horiz-adv-x="249" d=" M233,77 L245,62 Q237,58 221,48 Q206,39 197,34 Q215,10 249,-5 Q241,-14 236,-22 Q170,16 156,83 L136,83 L136,-1 Q139,0 144,3 Q153,8 177,20 Q177,11 179,1 Q161,-6 137,-20 Q130,-23 123,-29 L111,-14 Q118,-7 118,2 L118,197 L230,197 L230,83 L173,83 Q179,63 188,48 Q215,63 233,77 M24,193 L94,193 L94,-16 L77,-16 L77,2 L41,2 L41,-23 L24,-23 M136,100 L212,100 L212,132 L136,132 M136,180 L136,148 L212,148 L212,180 M41,61 L41,17 L77,17 L77,61 M41,177 L41,134 L77,134 L77,177 M41,119 L41,76 L77,76 L77,119"/> 
            <glyph glyph-name="硬" unicode="&#x786C;" horiz-adv-x="249" d=" M102,194 L247,194 L247,178 L180,178 L180,155 L236,155 L236,44 L219,44 L219,54 L177,54 Q174,29 164,13 Q189,-1 249,-8 Q244,-15 238,-26 Q179,-16 153,0 Q132,-16 88,-29 Q85,-23 80,-15 Q78,-14 78,-13 Q125,0 138,10 Q125,23 113,42 L127,51 Q138,35 150,24 Q157,36 160,54 L107,54 L107,155 L163,155 L163,178 L102,178 M13,186 L98,186 L98,170 L63,170 Q59,153 49,122 Q48,118 47,116 L89,116 L89,10 L47,10 L47,-7 L31,-7 L31,78 Q30,76 28,72 Q25,66 18,53 Q15,57 5,67 Q34,114 46,170 L13,170 M47,100 L47,26 L73,26 L73,100 M180,98 Q180,92 179,82 Q179,73 179,69 L219,69 L219,98 M162,69 Q162,73 162,82 Q163,92 163,98 L124,98 L124,69 M219,140 L180,140 L180,113 L219,113 M124,140 L124,113 L163,113 L163,140"/> 
            <glyph glyph-name="秒" unicode="&#x79D2;" horiz-adv-x="247" d=" M8,137 L47,137 L47,174 Q30,173 15,170 Q13,178 10,187 Q47,190 95,200 L100,184 Q83,180 65,177 L65,137 L99,137 L99,120 L65,120 L65,86 L76,95 Q81,90 92,78 Q100,69 104,64 L89,52 Q76,68 65,83 L65,-28 L47,-28 L47,86 Q34,42 14,16 Q10,26 6,37 Q29,72 42,120 L8,120 M79,-8 Q178,11 221,89 L237,79 Q188,-3 90,-26 Q89,-24 86,-19 Q81,-11 79,-8 M160,206 L179,206 L179,53 L160,53 M123,167 L141,162 Q129,115 116,79 Q112,82 101,85 Q99,86 98,86 Q113,125 123,167 M196,162 L212,170 Q231,142 247,107 L230,98 Q215,131 196,162"/> 
            <glyph glyph-name="穿" unicode="&#x7A7F;" horiz-adv-x="246" d=" M17,115 L243,115 L243,98 L175,98 L175,64 L246,64 L246,47 L175,47 L175,2 Q176,-26 144,-26 Q128,-26 111,-26 Q110,-16 107,-6 Q112,-6 123,-7 Q134,-7 139,-7 Q156,-8 155,6 L155,47 L148,47 Q102,-2 17,-23 Q11,-13 7,-5 Q79,8 123,47 L33,47 L33,64 L47,95 L67,91 L53,64 L155,64 L155,98 L17,98 M114,206 L133,211 Q138,198 142,183 L240,183 L240,143 L221,143 L221,166 L35,166 L35,142 L16,142 L16,183 L122,183 Q120,187 117,196 Q115,203 114,206 M104,159 L114,143 Q106,140 93,136 Q68,127 38,118 Q34,129 30,135 Q64,144 91,154 Q99,157 104,159 M149,159 Q187,149 225,136 L217,120 Q200,126 170,135 Q152,141 142,144"/> 
            <glyph glyph-name="立" unicode="&#x7ACB;" horiz-adv-x="245" d=" M190,133 L211,125 Q189,68 158,3 L245,3 L245,-13 L11,-13 L11,3 L137,3 Q168,69 190,133 M111,204 L130,209 Q133,200 139,184 Q143,174 145,168 L126,162 L239,162 L239,143 L17,143 L17,162 L124,162 Q120,181 111,204 M46,124 L65,130 Q86,80 106,26 L86,19 Q64,84 46,124"/> 
            <glyph glyph-name="端" unicode="&#x7AEF;" horiz-adv-x="248" d=" M101,74 L152,74 L157,101 L95,101 L95,116 L248,116 L248,101 L175,101 L168,74 L238,74 L238,0 Q239,-27 214,-26 Q207,-27 196,-27 Q196,-22 194,-16 L180,-16 L180,59 L157,59 L157,-16 L141,-16 L141,59 L118,59 L118,-28 L101,-28 M107,140 L107,194 L124,194 L124,155 L161,155 L161,209 L177,209 L177,155 L215,155 L215,194 L231,194 L231,140 M87,125 Q81,90 66,24 Q79,27 91,30 Q91,28 91,13 Q70,8 20,-1 Q14,-2 11,-3 L8,13 Q25,16 49,21 Q61,78 69,128 M221,59 L196,59 L196,-9 Q204,-10 210,-10 Q222,-11 221,0 M14,124 L30,127 Q36,102 46,40 L29,36 Q28,49 19,94 Q16,115 14,124 M10,159 L93,159 L93,143 L10,143 M37,203 L53,208 Q53,207 54,204 Q63,175 65,166 L48,161 Q47,168 40,191 Q38,199 37,203"/> 
            <glyph glyph-name="第" unicode="&#x7B2C;" horiz-adv-x="245" d=" M56,211 L74,207 Q68,197 62,186 L133,186 L133,171 L75,171 Q78,168 85,161 Q91,154 94,150 L81,140 L190,140 Q185,146 172,162 Q171,163 170,164 L181,171 L160,171 Q152,158 140,144 Q132,152 125,156 Q146,178 161,210 L179,207 Q172,193 169,186 L245,186 L245,171 L184,171 Q195,161 204,150 L191,140 L221,140 L221,82 L137,82 L137,59 L234,59 Q234,36 232,18 Q231,-11 196,-11 Q182,-11 164,-11 Q163,-2 160,7 Q170,6 194,6 Q213,5 213,21 Q214,24 214,32 Q215,39 215,43 L137,43 L137,-29 L118,-29 L118,38 Q81,-5 16,-24 Q15,-22 12,-16 Q9,-10 7,-7 Q64,6 101,43 L26,43 L37,98 L118,98 L118,123 L33,123 L33,140 L80,140 Q72,152 61,164 L70,171 L52,171 Q39,152 19,136 Q13,143 7,149 Q40,177 56,211 M203,123 L137,123 L137,98 L203,98 M52,82 L48,59 L118,59 L118,82"/> 
            <glyph glyph-name="米" unicode="&#x7C73;" horiz-adv-x="249" d=" M7,2 Q76,40 103,93 L10,93 L10,111 L119,111 L119,205 L138,205 L138,111 L246,111 L246,93 L155,93 Q188,37 249,8 Q243,0 237,-8 Q168,29 138,90 L138,-28 L119,-28 L119,90 Q93,29 19,-13 Q19,-13 18,-12 Q12,-1 7,2 M31,180 L45,191 Q79,153 93,136 L77,123 Q60,145 31,180 M164,135 Q185,156 210,190 L226,179 Q224,177 221,173 Q203,149 179,122"/> 
            <glyph glyph-name="级" unicode="&#x7EA7;" horiz-adv-x="249" d=" M66,-14 Q97,18 106,56 Q115,91 114,176 L93,176 L93,193 L214,193 L214,175 L190,126 L230,126 L230,109 Q215,63 192,31 Q215,9 249,-8 Q240,-17 234,-26 Q196,0 180,16 Q157,-8 121,-29 Q119,-27 115,-22 Q110,-16 107,-13 Q143,5 167,31 Q144,59 131,101 Q127,21 81,-28 Q79,-26 74,-21 Q69,-17 66,-14 M170,127 L193,176 L133,176 Q133,170 132,158 Q132,148 132,143 Q152,78 179,46 Q197,68 210,109 L170,109 M40,75 Q65,79 92,82 Q92,80 91,74 Q91,69 90,66 Q69,63 36,59 Q29,58 21,56 L13,72 Q19,75 25,82 Q35,93 52,119 Q48,119 40,119 Q32,118 28,118 Q26,118 21,117 Q17,117 14,116 L8,131 Q15,137 21,146 Q42,176 57,208 L74,201 Q51,160 31,132 Q36,133 47,133 Q56,134 62,134 Q72,149 81,166 L97,157 Q78,126 40,75 M6,21 Q16,23 37,26 Q72,33 88,36 Q87,29 87,19 Q74,16 46,10 Q21,5 11,3"/> 
            <glyph glyph-name="细" unicode="&#x7EC6;" horiz-adv-x="237" d=" M99,187 L237,187 L237,-26 L218,-26 L218,-5 L117,-5 L117,-26 L99,-26 M38,62 Q48,64 71,67 Q84,69 89,70 Q89,67 88,61 Q88,55 87,52 Q44,46 16,41 L12,58 Q24,68 52,110 Q49,110 42,109 Q20,108 13,107 L8,123 Q35,159 56,210 L74,202 Q46,149 30,125 Q35,125 46,126 Q57,126 62,126 Q65,132 72,144 Q77,152 79,156 L95,147 Q64,98 38,62 M177,83 L177,11 L218,11 L218,83 M117,83 L117,11 L159,11 L159,83 M218,169 L177,169 L177,100 L218,100 M117,169 L117,100 L159,100 L159,169 M7,5 Q33,9 90,22 Q90,18 89,12 Q89,6 89,3 Q56,-1 13,-12"/> 
            <glyph glyph-name="绒" unicode="&#x7ED2;" horiz-adv-x="250" d=" M128,-7 Q162,16 180,41 Q174,68 170,124 Q169,136 169,148 L95,148 L95,165 L168,165 Q167,186 167,208 L185,208 Q185,187 186,165 L248,165 L248,148 L187,148 Q187,144 187,136 Q188,128 188,123 Q191,86 194,62 Q210,89 222,124 L239,116 Q221,71 199,38 Q204,17 210,7 Q216,-2 221,-2 Q227,-2 229,8 Q230,14 232,31 Q233,38 233,40 Q243,36 250,34 Q248,11 242,-4 Q225,-39 198,-7 Q190,5 185,20 Q170,1 141,-21 Q138,-18 134,-13 Q130,-9 128,-7 M34,64 Q38,64 46,65 Q70,66 81,68 Q80,56 79,50 Q53,49 14,44 L10,62 Q15,64 25,79 Q29,85 37,97 Q43,108 47,113 Q30,113 12,111 L7,127 Q12,132 19,145 Q37,177 51,208 L69,201 Q57,177 28,127 Q32,128 42,128 Q52,129 56,129 Q63,140 74,162 L92,155 Q59,100 34,64 M86,90 L117,90 L117,95 L117,138 L135,138 L135,98 L135,90 L163,90 L163,74 L134,74 Q133,21 95,-22 Q93,-20 89,-15 Q85,-11 83,-9 Q116,26 117,74 L86,74 M8,10 Q25,12 68,19 Q80,21 85,22 Q85,19 85,13 Q84,6 84,3 Q81,3 76,2 Q39,-2 12,-7 M199,200 L213,209 Q228,189 237,178 L222,168 Q216,177 203,195 Q200,198 199,200"/> 
            <glyph glyph-name="置" unicode="&#x7F6E;" horiz-adv-x="248" d=" M8,-6 L44,-6 L44,104 L120,104 L120,119 L14,119 L14,133 L120,133 L120,145 L138,145 L138,133 L242,133 L242,119 L138,119 L138,104 L214,104 L214,-6 L248,-6 L248,-21 L8,-21 M29,198 L227,198 L227,149 L29,149 M61,7 L61,-6 L197,-6 L197,7 M61,35 L61,20 L197,20 L197,35 M61,63 L61,48 L197,48 L197,63 M61,91 L61,76 L197,76 L197,91 M210,185 L166,185 L166,163 L210,163 M46,185 L46,163 L90,163 L90,185 M106,185 L106,163 L150,163 L150,185"/> 
            <glyph glyph-name="肤" unicode="&#x80A4;" horiz-adv-x="249" d=" M23,195 L93,195 L93,1 Q94,-25 69,-25 Q59,-25 49,-25 Q48,-16 46,-7 Q56,-7 65,-7 Q77,-8 76,2 L76,57 L40,57 Q39,7 20,-29 Q14,-23 5,-17 Q24,13 23,76 M163,206 L181,206 L181,165 L238,165 L238,147 L181,147 L181,127 Q181,124 181,116 Q180,105 180,99 L248,99 L248,82 L184,82 Q201,15 249,-8 Q247,-11 242,-17 Q237,-24 235,-26 Q186,7 172,65 Q160,10 106,-28 Q103,-23 95,-14 Q93,-11 92,-10 Q148,19 158,82 L102,82 L102,99 L161,99 Q163,113 163,128 L163,147 L109,147 L109,165 L163,165 M40,118 L40,73 L76,73 L76,118 M40,179 L40,134 L76,134 L76,179"/> 
            <glyph glyph-name="能" unicode="&#x80FD;" horiz-adv-x="246" d=" M40,-26 L23,-26 L23,115 L120,115 L120,5 Q120,-23 92,-24 Q79,-24 69,-24 Q67,-14 65,-6 Q69,-6 76,-7 Q83,-7 86,-7 Q103,-8 102,7 L102,24 L40,24 M144,89 L162,89 L162,49 Q199,62 234,83 L246,66 Q206,45 162,29 L162,12 Q161,-6 178,-5 L206,-5 Q223,-6 225,6 Q227,17 227,35 Q239,30 246,28 Q246,27 246,26 Q244,7 242,1 Q240,-23 205,-22 L176,-22 Q143,-23 144,8 M145,207 L162,207 L162,163 Q198,176 229,195 L240,179 Q210,163 162,144 L162,135 Q161,114 179,116 L206,116 Q223,115 224,129 Q225,135 227,158 Q234,154 246,152 Q245,145 243,133 Q242,126 242,124 Q239,97 205,99 L176,99 Q143,98 145,131 M96,185 Q116,164 141,135 Q137,132 130,126 Q127,123 125,122 Q123,125 119,131 Q114,137 112,140 Q98,139 103,139 Q53,136 34,134 Q30,134 24,133 Q17,133 14,132 L8,150 Q17,153 25,162 Q48,186 64,211 L83,203 Q74,192 53,169 Q41,156 36,150 Q52,151 91,154 Q87,154 99,155 Q96,158 91,165 Q85,171 82,174 M40,62 L40,39 L102,39 L102,62 M40,100 L40,77 L102,77 L102,100"/> 
            <glyph glyph-name="腻" unicode="&#x817B;" horiz-adv-x="250" d=" M23,194 L81,194 L81,1 Q83,-26 56,-25 Q44,-25 38,-25 Q38,-21 36,-10 Q38,-18 36,-7 Q41,-8 54,-8 Q66,-9 65,3 L65,56 L39,56 Q38,3 20,-28 Q19,-27 17,-26 Q11,-20 6,-18 Q23,12 23,68 M187,207 L204,207 L204,170 L247,170 L247,154 L204,154 Q203,46 220,2 Q223,-5 226,-6 Q230,-6 231,0 Q232,6 233,17 Q234,29 234,34 Q241,30 250,27 Q250,26 250,24 Q249,12 246,-4 Q242,-28 227,-28 Q213,-27 203,1 Q186,41 187,154 L91,154 L91,170 L187,170 M112,13 L97,13 L97,85 L177,85 L177,13 L162,13 L162,71 L112,71 M130,63 L144,63 L144,42 Q144,30 142,20 Q149,15 161,6 Q178,-5 186,-12 L176,-25 Q158,-8 137,6 Q125,-12 94,-27 Q91,-22 86,-13 Q133,3 130,44 M89,113 L180,113 L180,99 L89,99 M39,178 L39,132 L65,132 L65,178 M39,117 L39,71 L65,71 L65,117 M98,141 L173,141 L173,126 L98,126 M210,198 L223,204 Q227,198 235,184 Q236,181 237,180 L225,174 Q224,176 220,182 Q214,193 210,198"/> 
            <glyph glyph-name="舍" unicode="&#x820D;" horiz-adv-x="248" d=" M46,57 L118,57 L118,83 L15,83 L15,100 L118,100 L118,127 L67,127 L67,137 Q62,135 53,129 Q32,117 18,111 Q17,114 13,120 Q9,126 7,129 Q87,161 126,211 L146,207 Q145,206 143,203 Q141,201 140,199 Q182,155 248,133 Q247,132 246,130 Q243,126 238,115 Q210,127 189,138 L189,127 L137,127 L137,100 L240,100 L240,83 L137,83 L137,57 L210,57 L210,-29 L192,-29 L192,-17 L64,-17 L64,-29 L46,-29 M64,40 L64,-1 L192,-1 L192,40 M128,187 Q102,159 76,143 L181,143 Q151,162 128,187"/> 
            <glyph glyph-name="舒" unicode="&#x8212;" horiz-adv-x="248" d=" M86,206 Q85,205 84,203 Q82,200 81,199 Q101,183 132,154 L119,141 Q108,153 86,173 Q77,182 72,186 Q57,163 39,145 L112,145 L112,129 L79,129 L79,101 L123,101 L123,85 L79,85 L79,59 L116,59 L116,-25 L98,-25 L98,-11 L41,-11 L41,-25 L23,-25 L23,59 L61,59 L61,85 L12,85 L12,101 L61,101 L61,129 L33,129 L33,139 Q24,130 14,122 Q13,124 9,129 Q6,133 4,135 Q44,168 68,211 M148,151 L161,162 Q165,157 174,149 Q178,145 180,143 L214,176 L131,176 L131,193 L237,193 L237,176 L192,131 Q194,129 197,126 Q201,122 202,120 L191,111 L248,111 L241,55 Q231,57 223,57 L229,94 L194,94 L194,0 Q195,-26 163,-25 Q149,-26 137,-26 Q136,-16 134,-7 Q139,-7 148,-8 Q157,-8 161,-8 Q176,-8 176,3 L176,94 L127,94 L127,111 L185,111 Q166,134 148,151 M41,43 L41,3 L98,3 L98,43"/> 
            <glyph glyph-name="虚" unicode="&#x865A;" horiz-adv-x="244" d=" M50,142 L50,89 Q53,10 19,-28 Q17,-26 13,-23 Q7,-17 4,-15 Q33,16 31,86 L31,158 L113,158 L113,209 L131,209 L131,190 L230,190 L230,174 L131,174 L131,158 L242,158 L240,119 Q231,120 222,120 L225,142 M158,66 L176,66 L176,-4 L244,-4 L244,-20 L46,-20 L46,-4 L109,-4 L109,65 L127,65 L127,-4 L158,-4 M57,119 L110,122 L110,138 L127,138 L127,123 L200,127 L201,112 L127,107 L127,104 Q125,89 144,90 L192,90 Q208,90 209,99 Q212,108 213,119 Q221,115 230,113 Q229,110 228,105 Q228,102 225,93 Q221,73 192,74 L141,74 Q108,72 110,102 L110,106 L58,103 M184,21 Q200,41 215,63 L231,53 Q230,51 227,48 Q209,23 198,10 M56,54 L71,63 Q84,42 99,20 L84,10 Q71,33 56,54"/> 
            <glyph glyph-name="装" unicode="&#x88C5;" horiz-adv-x="248" d=" M112,100 L128,109 Q136,97 143,87 L135,82 L247,82 L247,65 L137,65 Q148,44 163,31 Q183,40 217,59 L227,41 Q197,28 178,20 Q205,3 248,-2 Q243,-9 237,-21 Q152,-3 123,56 Q110,43 92,29 L92,-4 Q122,3 147,11 Q147,8 147,-6 Q114,-16 96,-22 Q90,-25 79,-30 L68,-16 Q75,-12 74,2 L74,18 Q50,4 18,-6 Q15,1 7,9 Q74,31 109,65 L10,65 L10,82 L124,82 Q123,84 119,89 Q114,96 112,100 M105,176 L166,176 L166,208 L184,208 L184,176 L247,176 L247,159 L184,159 L184,127 L238,127 L238,110 L113,110 L113,127 L166,127 L166,159 L105,159 M76,209 L94,209 L94,97 L76,97 L76,135 Q66,129 42,115 Q28,106 22,103 Q19,109 12,121 Q57,144 76,155 M18,185 L31,197 Q53,179 64,168 L50,154 Q47,157 42,162 Q34,171 18,185"/> 
            <glyph glyph-name="视" unicode="&#x89C6;" horiz-adv-x="251" d=" M156,159 L175,159 Q175,117 174,101 Q174,88 172,74 L187,74 L187,11 Q186,-6 203,-5 L215,-5 Q228,-6 230,6 Q232,18 232,40 Q237,39 243,36 Q249,34 251,33 Q249,15 247,-1 Q242,-22 218,-22 L199,-22 Q168,-22 168,8 L168,57 Q153,-4 87,-31 Q81,-23 74,-15 Q155,14 155,101 Q156,120 156,159 M106,194 L227,194 L227,46 L209,46 L209,178 L125,178 L125,46 L106,46 M9,141 L9,158 L87,158 L87,140 Q75,119 59,98 L59,-28 L41,-28 L41,76 Q29,63 14,48 Q11,58 7,69 Q45,103 66,141 M36,199 L53,208 Q62,193 72,174 L55,165 Q44,185 36,199 M60,82 L72,93 Q85,80 100,63 L86,51 Q82,57 71,69 Q64,77 60,82"/> 
            <glyph glyph-name="角" unicode="&#x89D2;" horiz-adv-x="229" d=" M8,128 Q53,162 81,210 L101,205 Q95,196 89,187 L186,187 L186,170 Q175,158 163,145 L228,145 L228,5 Q229,-25 200,-25 Q184,-25 165,-25 Q164,-11 162,-6 Q166,-6 176,-6 Q187,-7 193,-7 Q211,-8 210,7 L210,30 L142,30 L142,-17 L123,-17 L123,30 L54,30 Q50,3 27,-29 Q18,-21 12,-16 Q30,6 35,25 Q40,45 40,86 L40,131 Q37,128 31,122 Q25,117 23,115 Q14,124 8,128 M161,170 L76,170 Q71,164 61,153 Q56,148 54,145 L140,145 Q145,150 154,161 Q159,167 161,170 M142,79 L142,47 L210,47 L210,79 M210,127 L142,127 L142,96 L210,96 M58,79 Q58,61 57,47 L123,47 L123,79 M58,127 L58,96 L123,96 L123,127"/> 
            <glyph glyph-name="计" unicode="&#x8BA1;" horiz-adv-x="248" d=" M156,207 L176,207 L176,124 L248,124 L248,106 L176,106 L176,-28 L156,-28 L156,106 L86,106 L86,124 L156,124 M108,37 Q109,24 109,16 Q106,14 98,9 Q55,-18 46,-25 L34,-8 Q43,0 42,12 L42,108 L8,108 L8,125 L62,125 L62,8 Q91,27 108,37 M43,204 Q71,178 85,164 L68,150 Q47,173 28,191"/> 
            <glyph glyph-name="设" unicode="&#x8BBE;" horiz-adv-x="249" d=" M91,84 L91,100 L222,100 L222,84 Q205,43 175,18 Q202,0 249,-9 Q246,-12 239,-22 Q236,-27 235,-28 Q189,-13 159,5 Q132,-11 76,-30 Q68,-18 63,-13 Q116,1 144,18 Q118,44 103,84 M192,178 L132,178 L132,171 Q135,130 91,105 Q84,115 77,120 Q115,139 113,171 L113,196 L211,196 L211,147 Q211,136 222,136 L249,136 Q247,127 247,118 L215,118 Q192,118 192,142 M91,42 Q91,32 93,20 Q87,16 77,11 Q47,-6 44,-13 L32,1 Q41,10 40,23 L40,109 L9,109 L9,127 L59,127 L59,19 Q61,20 66,24 Q82,34 91,42 M201,84 L121,84 Q135,51 160,29 Q187,50 201,84 M43,199 Q58,185 79,162 L62,149 Q52,164 29,188"/> 
            <glyph glyph-name="起" unicode="&#x8D77;" horiz-adv-x="248" d=" M9,121 L59,121 L59,155 L18,155 L18,173 L59,173 L59,207 L78,207 L78,173 L119,173 L119,155 L78,155 L78,121 L123,121 L123,103 L85,103 L85,66 L122,66 L122,48 L85,48 L85,2 Q102,-3 126,-3 Q147,-4 190,-3 Q237,-3 248,-2 Q244,-13 242,-21 Q202,-21 118,-21 Q59,-18 38,20 Q33,-5 19,-29 Q11,-24 4,-19 Q28,22 28,89 L46,88 Q45,63 42,45 Q52,23 67,12 L67,103 L9,103 M153,56 Q151,39 169,41 L209,41 Q222,40 223,55 Q225,67 226,85 Q236,81 244,78 Q244,73 242,58 Q241,53 241,51 Q240,22 210,24 L166,24 Q133,22 135,53 L135,127 L210,127 L210,176 L130,176 L130,193 L229,193 L229,109 L153,109"/> 
            <glyph glyph-name="超" unicode="&#x8D85;" horiz-adv-x="248" d=" M9,121 L58,121 L58,156 L18,156 L18,173 L58,173 L58,207 L76,207 L76,173 L113,173 L113,156 L76,156 L76,121 L116,121 L116,103 L83,103 L83,65 L118,65 L118,48 L83,48 L83,2 Q101,-2 126,-3 Q147,-4 190,-3 Q237,-3 248,-2 Q247,-5 246,-10 Q244,-16 242,-21 Q202,-21 118,-21 Q60,-18 39,20 Q31,-9 19,-29 Q14,-18 8,-7 Q27,26 29,88 L47,87 Q46,63 43,44 Q53,23 65,13 L65,103 L9,103 M131,95 L232,95 L232,16 L131,16 M119,180 L119,196 L235,196 Q235,192 234,181 Q233,162 232,150 Q231,112 200,113 Q182,112 172,112 Q171,125 169,131 Q171,131 177,131 Q190,130 197,130 Q215,130 215,151 Q216,169 216,180 L170,180 Q170,132 130,103 Q125,111 118,119 Q153,139 153,180 M148,79 L148,33 L215,33 L215,79"/> 
            <glyph glyph-name="身" unicode="&#x8EAB;" horiz-adv-x="249" d=" M10,66 L43,66 L43,182 L103,182 Q105,197 106,209 L126,207 Q124,197 121,182 L206,182 L206,83 Q221,94 237,107 L249,93 Q243,88 230,79 Q214,67 206,61 L206,9 Q207,-26 172,-25 Q155,-26 134,-26 Q133,-20 131,-11 Q130,-8 130,-6 Q140,-7 166,-7 Q189,-8 188,10 L188,48 Q116,0 20,-29 Q15,-17 9,-11 Q94,10 157,50 L10,50 M61,89 L61,66 L183,66 Q185,68 188,70 L188,89 M61,166 L61,143 L188,143 L188,166 M61,127 L61,105 L188,105 L188,127"/> 
            <glyph glyph-name="软" unicode="&#x8F6F;" horiz-adv-x="251" d=" M8,34 Q23,35 63,39 L63,78 L15,78 L15,93 Q28,125 38,155 L12,155 L12,171 L43,171 Q50,193 54,210 L73,206 Q71,202 69,192 Q64,178 61,171 L112,171 L112,155 L56,155 Q44,118 33,94 L63,94 L63,143 L80,143 L80,94 L113,94 L113,78 L80,78 L80,41 Q108,45 119,46 Q118,36 118,29 Q114,29 104,27 Q88,26 80,25 L80,-28 L63,-28 L63,23 Q52,21 29,18 Q16,17 10,16 M162,140 L181,140 Q181,133 181,117 Q180,101 180,94 Q197,12 251,-12 Q244,-21 238,-29 Q191,-2 173,58 Q165,7 103,-30 Q98,-22 91,-14 Q157,20 161,92 Q162,111 162,140 M101,113 Q127,151 146,210 L165,205 Q163,201 161,193 Q158,186 151,169 L246,169 L246,153 L221,106 L202,110 L224,152 L144,152 Q132,127 118,103 Q111,108 101,113"/> 
            <glyph glyph-name="轴" unicode="&#x8F74;" horiz-adv-x="236" d=" M165,205 L183,205 L183,160 L236,160 L236,-27 L218,-27 L218,-11 L130,-11 L130,-27 L112,-27 L112,160 L165,160 M8,37 Q20,38 49,41 Q30,39 57,42 L57,82 L14,82 L14,98 Q19,110 28,134 Q33,148 36,155 L10,155 L10,171 L42,171 Q50,192 54,209 L72,205 Q66,190 60,171 L103,171 L103,155 L54,155 Q38,115 31,98 L57,98 L57,142 L74,142 L74,98 L97,98 L97,82 L74,82 L74,44 Q83,46 100,48 Q102,48 103,48 Q102,38 101,31 Q100,31 98,31 Q89,30 74,27 L74,-29 L57,-29 L57,25 Q46,24 25,20 Q14,19 9,18 M183,66 L183,4 L218,4 L218,66 M130,66 L130,4 L165,4 L165,66 M218,143 L183,143 L183,82 L218,82 M130,143 L130,82 L165,82 L165,143"/> 
            <glyph glyph-name="运" unicode="&#x8FD0;" horiz-adv-x="248" d=" M170,89 L185,99 Q210,68 236,29 L217,16 Q212,24 206,35 Q157,32 108,26 Q100,25 91,22 L82,39 Q88,42 96,53 Q115,82 130,113 L78,113 L78,131 L242,131 L242,113 L153,113 Q137,84 113,45 Q124,45 153,47 Q184,49 196,50 Q188,63 172,86 Q171,88 170,89 M109,-2 Q127,-3 176,-2 Q231,-2 248,-1 Q244,-11 241,-20 Q134,-21 106,-20 Q72,-19 49,7 Q28,-11 18,-24 L8,-3 Q15,2 35,19 Q38,22 40,24 L40,105 L9,105 L9,123 L60,123 L60,21 Q78,0 109,-2 M94,194 L228,194 L228,175 L94,175 M35,206 Q42,198 67,165 Q71,161 72,159 Q71,159 70,158 Q59,152 55,148 Q35,177 20,196"/> 
            <glyph glyph-name="还" unicode="&#x8FD8;" horiz-adv-x="248" d=" M80,189 L243,189 L243,171 L177,171 Q168,147 157,129 L166,129 L166,7 L146,7 L146,111 Q125,78 77,43 Q71,50 64,58 Q131,104 156,171 L80,171 M106,-4 Q128,-5 179,-4 Q236,-4 248,-3 Q245,-11 241,-22 Q227,-23 182,-22 Q130,-22 104,-21 Q67,-20 46,5 Q36,-3 17,-26 L4,-8 Q14,0 38,23 L38,104 L9,104 L9,122 L57,122 L57,20 Q72,-3 106,-4 M191,126 Q208,109 243,71 Q246,67 248,65 L232,51 Q200,89 177,113 M37,203 Q52,185 71,157 Q63,152 54,145 Q32,179 22,193"/> 
            <glyph glyph-name="迟" unicode="&#x8FDF;" horiz-adv-x="249" d=" M102,194 L225,194 L225,100 L120,100 Q117,46 88,10 Q81,16 73,24 Q105,54 102,134 M109,-2 Q198,-2 249,-1 Q244,-10 241,-21 Q141,-21 107,-20 Q69,-21 49,7 Q34,-6 18,-24 L7,-5 Q17,3 34,18 Q38,21 40,23 L40,105 L9,105 L9,123 L59,123 L59,22 Q76,-1 109,-2 M121,134 Q121,125 121,118 L207,118 L207,176 L121,176 M142,76 L153,90 Q169,79 206,53 Q229,37 240,29 L227,13 Q182,48 142,76 M35,206 Q42,198 67,165 Q71,161 72,159 Q71,159 70,158 Q59,152 55,148 Q35,177 20,196"/> 
            <glyph glyph-name="适" unicode="&#x9002;" horiz-adv-x="249" d=" M77,144 L152,144 L152,176 Q123,174 90,174 Q89,181 87,191 Q154,191 231,197 L234,179 Q206,178 171,176 L171,144 L247,144 L247,127 L171,127 L171,95 L226,95 L226,15 L97,15 L97,95 L152,95 L152,127 L77,127 M106,-4 Q191,-4 249,-3 Q248,-6 246,-13 Q243,-19 242,-22 Q145,-22 103,-21 Q62,-21 46,5 Q34,-5 16,-26 L6,-7 Q11,-3 22,7 Q33,18 38,22 L38,104 L9,104 L9,122 L57,122 L57,20 Q69,-5 106,-4 M116,79 L116,32 L208,32 L208,79 M37,203 Q46,193 65,167 Q69,161 71,158 L54,146 Q38,173 22,193"/> 
            <glyph glyph-name="通" unicode="&#x901A;" horiz-adv-x="248" d=" M100,164 L110,176 Q142,160 156,152 L199,179 L83,179 L83,195 L229,195 L229,178 L172,144 L231,144 L231,37 Q232,8 204,7 Q185,6 178,7 Q178,8 177,10 Q176,22 174,26 Q175,26 176,26 Q189,24 198,24 Q215,23 214,41 L214,50 L167,50 L167,11 L150,11 L150,50 L104,50 L104,8 L87,8 L87,144 L142,144 Q130,150 100,164 M106,-4 Q128,-5 179,-4 Q236,-4 248,-3 Q245,-11 241,-22 Q227,-23 182,-22 Q130,-22 104,-21 Q72,-21 47,6 Q37,-2 17,-26 L5,-9 Q15,1 38,23 L38,104 L9,104 L9,122 L57,122 L57,22 Q75,-2 106,-4 M167,89 L167,65 L214,65 L214,89 M104,89 L104,65 L150,65 L150,89 M214,129 L167,129 L167,104 L214,104 M37,203 Q52,185 71,157 Q63,152 54,145 Q32,179 22,193 M104,129 L104,104 L150,104 L150,129"/> 
            <glyph glyph-name="配" unicode="&#x914D;" horiz-adv-x="248" d=" M19,145 L52,145 L52,177 L12,177 L12,193 L140,193 L140,177 L100,177 L100,145 L135,145 L135,-26 L119,-26 L119,-10 L35,-10 L35,-27 L19,-27 M148,194 L234,194 L234,94 L170,94 L170,15 Q168,-6 190,-4 L206,-4 Q224,-5 226,10 Q229,28 230,48 Q237,44 248,40 Q247,21 244,6 Q240,-22 206,-21 L186,-21 Q151,-23 153,13 L153,111 L217,111 L217,178 L148,178 M102,71 Q84,70 84,93 L84,130 L68,130 Q69,82 48,57 Q47,58 42,62 Q37,66 35,67 L35,47 L119,47 L119,71 M35,32 L35,3 L119,3 L119,32 M119,130 L100,130 L100,96 Q99,85 109,86 L119,86 M35,130 L35,69 Q53,87 52,130 M68,177 L68,145 L84,145 L84,177"/> 
            <glyph glyph-name="野" unicode="&#x91CE;" horiz-adv-x="248" d=" M15,60 L64,60 L64,88 L18,88 L18,195 L126,195 L126,88 L81,88 L81,60 L130,60 L130,44 L81,44 L81,10 Q123,14 134,16 Q134,14 134,11 Q133,4 133,0 Q72,-6 10,-12 L8,5 Q17,5 54,8 Q60,9 64,9 L64,44 L15,44 M148,153 L160,164 Q174,152 186,139 L219,178 L139,178 L139,194 L240,194 L240,175 L198,127 L206,119 L199,113 L248,113 L248,100 Q241,79 231,57 Q221,60 213,62 Q220,76 228,97 L196,97 L196,4 Q198,-27 168,-25 Q146,-25 141,-25 Q140,-17 138,-5 Q156,-7 166,-7 Q180,-8 179,7 L179,97 L134,97 L134,113 L188,113 Q170,134 148,153 M35,134 L35,104 L64,104 L64,134 M81,134 L81,104 L110,104 L110,134 M35,179 L35,149 L64,149 L64,179 M110,179 L81,179 L81,149 L110,149"/> 
            <glyph glyph-name="量" unicode="&#x91CF;" horiz-adv-x="248" d=" M37,99 L220,99 L220,32 L136,32 L136,17 L229,17 L229,5 L136,5 L136,-8 L248,-8 L248,-21 L8,-21 L8,-8 L120,-8 L120,5 L27,5 L27,17 L120,17 L120,32 L37,32 M39,198 L218,198 L218,135 L39,135 M10,124 L247,124 L247,111 L10,111 M55,161 L55,148 L201,148 L201,161 M55,186 L55,173 L201,173 L201,186 M136,60 L136,44 L203,44 L203,60 M54,60 L54,44 L120,44 L120,60 M203,87 L136,87 L136,71 L203,71 M54,87 L54,71 L120,71 L120,87"/> 
            <glyph glyph-name="镜" unicode="&#x955C;" horiz-adv-x="249" d=" M98,109 L226,109 L226,32 L189,32 L189,1 Q188,-8 202,-8 L216,-8 Q226,-9 229,2 Q231,9 232,25 Q235,24 241,22 Q246,20 249,19 Q248,16 248,12 Q247,5 244,-3 Q240,-25 218,-24 L198,-24 Q171,-25 172,0 L172,32 L149,32 Q150,-11 86,-30 Q81,-20 77,-14 Q134,-2 132,32 L98,32 M9,78 L39,78 L39,111 L25,111 L25,126 Q24,125 22,121 Q19,118 18,116 Q13,124 7,131 Q30,163 40,207 L58,204 Q57,201 55,195 Q53,187 47,172 L87,172 L87,156 L40,156 Q34,142 25,127 L80,127 L80,111 L57,111 L57,78 L87,78 L87,62 L57,62 L57,6 Q62,10 72,17 Q82,25 86,28 Q87,25 88,19 Q90,13 90,10 Q85,6 74,-1 Q63,-9 57,-13 Q50,-18 44,-24 L32,-9 Q40,-1 39,11 L39,62 L9,62 M147,202 L164,209 Q170,195 176,183 L232,183 L232,168 L197,168 L211,161 Q209,158 203,151 Q198,144 195,140 L242,140 L242,125 L85,125 L85,140 L132,140 Q130,142 127,147 Q120,157 117,161 L129,168 L95,168 L95,183 L157,183 Q153,192 147,202 M114,94 L114,77 L209,77 L209,94 M114,63 L114,46 L209,46 L209,63 M148,146 L138,140 L176,140 Q185,153 194,168 L131,168 Q136,162 144,151 Q147,148 148,146"/> 
            <glyph glyph-name="门" unicode="&#x95E8;" horiz-adv-x="233" d=" M100,172 L100,191 L231,191 L231,9 Q233,-25 195,-25 Q174,-25 159,-25 Q159,-24 158,-21 Q157,-10 155,-5 Q162,-5 175,-6 Q187,-6 192,-6 Q212,-7 211,12 L211,172 M26,159 L46,159 L46,-28 L26,-28 M37,197 L51,209 Q65,196 85,175 L70,161 Q53,180 37,197"/> 
            <glyph glyph-name="阔" unicode="&#x9614;" horiz-adv-x="239" d=" M99,138 Q98,147 96,154 Q147,155 199,159 L201,142 Q200,142 198,142 Q179,140 158,140 L158,110 L209,110 L209,94 L158,94 L158,67 L195,67 L195,0 L102,0 L102,67 L141,67 L141,94 L91,94 L91,110 L141,110 L141,139 Q126,138 99,138 M97,176 L97,193 L237,193 L237,4 Q239,-28 206,-26 Q198,-27 182,-27 Q181,-23 180,-16 Q178,-11 178,-8 Q196,-9 204,-9 Q220,-10 219,5 L219,176 M20,161 L38,161 L38,-27 L20,-27 M119,52 L119,15 L179,15 L179,52 M44,0 Q56,24 72,68 Q79,63 88,60 Q80,41 66,3 Q63,-2 62,-5 M33,197 L46,209 Q53,202 65,191 Q74,182 78,178 L63,165 Q47,185 33,197 M41,110 L54,121 Q59,116 69,106 Q78,96 83,91 L70,79 Q67,82 62,88 Q49,102 41,110 M56,150 L68,161 Q83,147 96,132 L83,121 Q81,123 78,127 Q64,143 56,150"/> 
            <glyph glyph-name="面" unicode="&#x9762;" horiz-adv-x="244" d=" M11,194 L244,194 L244,177 L134,177 L121,143 L231,143 L231,-28 L213,-28 L213,-14 L42,-14 L42,-28 L24,-28 L24,143 L101,143 Q102,145 104,152 Q110,168 113,177 L11,177 M213,127 L173,127 L173,0 L213,0 M42,127 L42,0 L82,0 L82,127 M99,32 L99,0 L155,0 L155,32 M99,80 L99,48 L155,48 L155,80 M99,127 L99,95 L155,95 L155,127"/> 
            <glyph glyph-name="顿" unicode="&#x987F;" horiz-adv-x="245" d=" M17,142 L34,142 L34,73 L55,73 L55,165 L9,165 L9,181 L55,181 L55,206 L72,206 L72,181 L116,181 L116,165 L72,165 L72,73 L92,73 L92,143 L109,143 L109,58 L72,58 L72,5 Q78,8 90,14 Q104,21 113,25 Q113,12 114,7 Q87,-4 70,-15 Q61,-21 58,-24 L47,-7 Q56,0 55,11 L55,58 L17,58 M131,146 L170,146 L177,178 L122,178 L122,194 L245,194 L245,178 L197,178 L188,146 L235,146 L235,30 L218,30 L218,130 L148,130 L148,28 L131,28 M175,120 L192,120 L192,81 Q192,58 188,40 Q226,6 244,-12 L230,-27 Q223,-19 202,2 Q187,16 181,23 Q171,1 131,-28 Q128,-24 117,-13 Q179,18 175,79"/> 
            <glyph glyph-name="高" unicode="&#x9AD8;" horiz-adv-x="247" d=" M49,152 L206,152 L206,101 L49,101 M40,-27 L22,-27 L22,85 L233,85 L233,4 Q235,-25 204,-25 Q187,-25 172,-25 Q171,-18 169,-10 Q168,-8 168,-7 Q180,-7 199,-7 Q217,-8 215,6 L215,70 L40,70 M73,54 L183,54 L183,1 L73,1 M115,204 L133,208 Q136,197 140,184 L247,184 L247,168 L9,168 L9,184 L120,184 Q119,187 117,196 Q116,201 115,204 M68,136 L68,116 L188,116 L188,136 M91,39 L91,16 L165,16 L165,39"/> 
            <glyph glyph-name="！" unicode="&#xFF01;" horiz-adv-x="79" d=" M73,26 L55,26 Q54,114 49,201 L79,201 Q78,181 77,142 Q75,66 73,26 M77,5 L77,-23 L52,-23 L52,5"/> 
            <glyph glyph-name="，" unicode="&#xFF0C;" horiz-adv-x="78" d=" M52,-37 L43,-28 Q61,-15 62,11 L45,11 L45,44 L78,44 Q78,36 78,15 Q78,-20 52,-37"/> 
        </font>
</defs>
</svg>
