<?xml version="1.0" standalone="no"?>
<!DOCTYPE svg PUBLIC "-//W3C//DTD SVG 1.1//EN" "http://www.w3.org/Graphics/SVG/1.1/DTD/svg11.dtd" >
<svg xmlns="http://www.w3.org/2000/svg">
    <defs>
        <font id="">
            <font-face font-family=""
                       units-per-em="256"
                       ascent="229"
                       descent="-64"
                       bbox="-14 -64 269 229"
                    />
            <missing-glyph horiz-adv-x="0" />
            
            <glyph glyph-name="%" unicode="&#x25;" horiz-adv-x="232" d=" M59,-15 L79,-15 L190,195 L170,195 M59,106 Q83,108 84,143 Q83,178 59,179 Q35,178 34,142 Q35,108 59,106 M59,196 Q100,195 101,142 Q100,92 58,90 Q18,93 16,142 Q18,194 59,196 M189,0 Q214,1 215,37 Q214,72 190,73 Q166,73 165,36 Q166,3 189,0 M190,89 Q231,87 232,36 Q231,-14 188,-15 Q149,-12 147,36 Q148,87 190,89"/> 
            <glyph glyph-name="+" unicode="&#x2B;" horiz-adv-x="153" d=" M153,100 L153,81 L94,81 L94,22 L74,22 L74,81 L15,81 L15,100 L74,100 L74,159 L94,159 L94,100"/> 
            <glyph glyph-name="0" unicode="&#x30;" horiz-adv-x="144" d=" M77,176 Q36,173 35,90 Q35,4 78,5 Q121,4 121,90 Q121,177 77,176 M79,-12 Q12,-11 12,90 Q13,191 78,194 Q143,192 144,90 Q143,-10 79,-12"/> 
            <glyph glyph-name="1" unicode="&#x31;" horiz-adv-x="105" d=" M84,-9 L105,-9 L105,194 L90,194 Q77,162 31,141 L31,120 Q62,132 84,152"/> 
            <glyph glyph-name="2" unicode="&#x32;" horiz-adv-x="142" d=" M140,-7 L140,10 L35,10 Q48,36 89,66 Q142,102 139,141 Q135,192 79,194 Q30,195 13,146 L33,136 Q44,173 75,175 Q115,174 116,138 Q117,111 72,78 Q28,46 9,6 L9,-7"/> 
            <glyph glyph-name="3" unicode="&#x33;" horiz-adv-x="143" d=" M101,97 Q134,109 135,142 Q133,192 76,194 Q26,193 14,144 L36,137 Q43,174 77,175 Q109,174 111,142 Q109,105 66,104 Q60,104 56,104 L56,86 Q60,86 74,86 Q117,84 120,48 Q120,6 75,6 Q38,6 32,47 L9,41 Q21,-12 77,-12 Q140,-9 143,46 Q141,85 101,97"/> 
            <glyph glyph-name="4" unicode="&#x34;" horiz-adv-x="144" d=" M28,58 L96,58 L96,161 Q96,160 94,157 Q93,154 92,152 Q76,131 28,58 M144,40 L116,40 L116,-9 L96,-9 L96,40 L4,40 L4,52 L100,194 L116,194 L116,58 L144,58"/> 
            <glyph glyph-name="5" unicode="&#x35;" horiz-adv-x="144" d=" M42,109 L48,170 L134,170 L134,190 L31,190 L19,85 L34,82 Q47,103 78,104 Q120,102 122,56 Q120,7 77,5 Q39,6 33,48 L11,42 Q22,-12 79,-12 Q142,-10 144,58 Q140,121 82,124 Q60,124 42,109"/> 
            <glyph glyph-name="6" unicode="&#x36;" horiz-adv-x="144" d=" M33,67 Q34,6 81,4 Q119,6 121,54 Q120,102 81,103 Q42,101 33,67 M140,149 L120,142 Q112,177 82,176 Q32,175 32,93 Q48,120 84,121 Q140,118 144,56 Q140,-7 81,-12 Q10,-12 10,85 Q11,194 83,194 Q127,192 140,149"/> 
            <glyph glyph-name="8" unicode="&#x38;" horiz-adv-x="147" d=" M78,87 Q38,85 34,43 Q38,7 79,4 Q120,7 124,41 Q121,85 78,87 M79,176 Q46,174 43,142 Q44,105 79,103 Q112,104 114,140 Q111,173 79,176 M51,95 Q21,109 19,140 Q23,191 79,194 Q133,190 138,140 Q136,108 108,95 Q145,81 147,41 Q144,-10 79,-12 Q13,-10 11,43 Q14,82 51,95"/> 
            <glyph glyph-name="A" unicode="&#x41;" horiz-adv-x="188" d=" M56,71 L131,71 L98,156 Q97,161 94,170 Q91,161 89,156 M164,-9 L139,52 L48,52 L24,-9 L0,-9 L81,191 L105,191 L188,-9"/> 
            <glyph glyph-name="B" unicode="&#x42;" horiz-adv-x="171" d=" M97,84 L42,84 L42,9 L101,9 Q148,9 148,48 Q145,82 97,84 M94,171 L42,171 L42,104 L94,104 Q135,106 139,140 Q137,170 94,171 M104,-9 L21,-9 L21,191 L99,191 Q159,188 163,141 Q160,104 123,97 L123,96 Q168,89 171,45 Q168,-7 104,-9"/> 
            <glyph glyph-name="G" unicode="&#x47;" horiz-adv-x="200" d=" M114,94 L200,94 L200,21 Q175,-12 114,-12 Q20,-7 15,88 Q19,190 110,194 Q177,193 199,135 L174,129 Q158,173 109,174 Q45,168 39,89 Q44,12 113,6 Q158,6 178,30 L178,75 L114,75"/> 
            <glyph glyph-name="I" unicode="&#x49;" horiz-adv-x="48" d=" M26,-9 L48,-9 L48,191 L26,191"/> 
            <glyph glyph-name="M" unicode="&#x4D;" horiz-adv-x="214" d=" M191,-9 L214,-9 L214,191 L184,191 L126,45 Q121,32 118,18 L117,18 Q113,34 109,46 L51,191 L21,191 L21,-9 L42,-9 L42,131 Q42,147 40,173 L41,174 Q43,165 47,149 L110,-9 L123,-9 L187,148 Q191,158 194,174 L195,173 Q195,170 194,162 Q191,137 191,132"/> 
            <glyph glyph-name="P" unicode="&#x50;" horiz-adv-x="175" d=" M102,171 L44,171 L44,92 L102,92 Q150,93 151,133 Q149,170 102,171 M106,72 L44,72 L44,-9 L22,-9 L22,191 L108,191 Q169,188 175,132 Q174,73 106,72"/> 
            <glyph glyph-name="S" unicode="&#x53;" horiz-adv-x="176" d=" M143,133 L167,140 Q155,195 90,195 Q24,192 20,141 Q16,99 92,84 Q153,72 148,44 Q146,7 97,6 Q42,4 35,56 L12,48 Q24,-14 98,-12 Q167,-9 172,43 Q176,90 94,105 Q42,116 43,141 Q45,174 92,175 Q132,175 143,133"/> 
            <glyph glyph-name="X" unicode="&#x58;" horiz-adv-x="186" d=" M186,-9 L108,93 L179,191 L152,191 L104,120 Q98,111 94,104 Q93,105 92,108 Q88,116 86,120 L37,191 L11,191 L80,93 L1,-9 L29,-9 L87,69 Q88,71 91,75 Q93,80 94,81 Q97,76 101,69 L157,-9"/> 
            <glyph glyph-name="d" unicode="&#x64;" horiz-adv-x="136" d=" M114,55 L114,78 Q111,119 76,122 Q32,121 31,62 Q32,6 73,4 Q113,5 114,55 M136,-8 L114,-8 L114,13 Q103,-12 67,-11 Q12,-8 10,62 Q13,137 72,140 Q98,139 114,115 L114,191 L136,191"/> 
            <glyph glyph-name="e" unicode="&#x65;" horiz-adv-x="145" d=" M35,75 L122,75 Q120,119 79,121 Q38,117 35,75 M122,37 L144,31 Q132,-13 80,-12 Q13,-9 11,62 Q14,137 79,140 Q143,138 145,62 Q145,58 145,57 L34,57 Q36,8 79,5 Q113,5 122,37"/> 
            <glyph glyph-name="h" unicode="&#x68;" horiz-adv-x="138" d=" M137,85 L137,-8 L115,-8 L115,82 Q115,123 82,123 Q43,118 40,81 L40,-9 L18,-9 L18,191 L40,191 L40,115 Q57,140 87,141 Q138,142 137,85"/> 
            <glyph glyph-name="m" unicode="&#x6D;" horiz-adv-x="216" d=" M215,87 L215,-8 L194,-8 L194,82 Q195,124 164,123 Q130,120 127,81 L127,-8 L106,-8 L106,82 Q107,124 77,123 Q43,120 39,83 L39,-8 L18,-8 L18,137 L39,137 L39,115 Q55,141 79,141 Q116,141 124,110 Q140,141 167,141 Q216,142 215,87"/> 
            <glyph glyph-name="n" unicode="&#x6E;" horiz-adv-x="137" d=" M137,85 L137,-8 L116,-8 L116,82 Q115,122 82,123 Q43,118 39,81 L39,-8 L18,-9 L18,137 L39,137 L39,115 Q56,140 87,141 Q137,141 137,85"/> 
            <glyph glyph-name="o" unicode="&#x6F;" horiz-adv-x="145" d=" M78,123 Q32,122 31,62 Q32,6 78,4 Q121,6 122,63 Q119,119 78,123 M77,-12 Q12,-8 9,61 Q11,138 79,140 Q142,137 145,64 Q144,-11 77,-12"/> 
            <glyph glyph-name="r" unicode="&#x72;" horiz-adv-x="98" d=" M89,113 L98,133 Q86,141 74,140 Q50,139 40,111 L39,111 L39,137 L18,137 L18,-9 L39,-9 L39,70 Q39,94 48,105 Q59,119 71,119 Q80,119 89,113"/> 
            <glyph glyph-name="与" unicode="&#x4E0E;" horiz-adv-x="247" d=" M47,94 L59,208 L79,208 L75,170 L247,170 L247,152 L73,152 L70,113 L230,113 Q229,99 226,57 Q224,29 223,18 Q221,-26 168,-23 Q146,-24 116,-24 Q114,-7 112,-3 Q127,-4 167,-4 Q200,-5 202,19 Q204,27 207,79 Q208,91 208,94 M8,57 L187,57 L187,38 L8,38"/> 
            <glyph glyph-name="亮" unicode="&#x4EAE;" horiz-adv-x="249" d=" M51,152 L204,152 L204,102 L51,102 M177,52 L177,6 Q176,-8 192,-7 L210,-7 Q226,-8 227,4 Q230,12 231,32 Q240,28 249,26 Q248,20 247,10 Q246,3 245,0 Q241,-27 213,-25 L189,-25 Q157,-27 159,5 L159,37 L92,37 Q97,-17 18,-30 Q17,-27 14,-21 Q11,-15 10,-12 Q79,-4 74,36 L74,52 M18,86 L238,86 L238,48 L220,48 L220,70 L36,70 L36,48 L18,48 M15,185 L120,185 Q119,189 117,196 Q114,203 113,206 L131,210 Q136,198 139,185 L242,185 L242,168 L15,168 M68,137 L68,118 L186,118 L186,137"/> 
            <glyph glyph-name="位" unicode="&#x4F4D;" horiz-adv-x="249" d=" M206,133 L227,126 Q219,101 201,51 Q188,13 184,0 L249,0 L249,-17 L73,-17 L73,0 L163,0 Q186,64 206,133 M7,91 Q41,142 60,208 L80,203 Q70,171 58,144 L58,-29 L40,-29 L40,107 Q30,87 16,69 Q14,74 9,87 Q7,90 7,91 M144,203 L163,210 Q175,175 177,169 L159,164 L244,164 L244,146 L78,146 L78,164 L157,164 Q154,175 144,203 M112,130 Q127,88 146,25 L126,18 Q108,83 93,124"/> 
            <glyph glyph-name="免" unicode="&#x514D;" horiz-adv-x="248" d=" M9,-13 Q83,11 105,60 L37,60 L37,124 Q35,122 31,119 Q28,117 20,110 Q19,111 16,115 Q10,123 7,126 Q52,156 87,209 L105,202 Q103,199 99,193 Q94,186 92,183 L187,183 L187,166 L160,140 L218,140 L218,60 L146,60 L146,12 Q144,-6 166,-5 L205,-5 Q223,-6 225,9 Q228,21 229,44 Q239,41 248,38 Q247,20 243,4 Q239,-23 209,-22 L161,-22 Q124,-25 128,11 L128,60 L126,60 Q105,2 22,-31 Q15,-21 9,-13 M199,123 L137,123 Q136,98 131,77 L199,77 M55,123 L55,77 L112,77 Q118,98 119,123 M162,167 L79,167 Q79,166 78,166 Q66,152 53,140 L135,140"/> 
            <glyph glyph-name="全" unicode="&#x5168;" horiz-adv-x="249" d=" M125,211 L145,206 Q144,205 143,202 Q141,200 140,198 Q187,143 249,120 Q242,109 236,100 Q223,106 208,115 L208,98 L138,98 L138,61 L217,61 L217,43 L138,43 L138,0 L238,0 L238,-16 L18,-16 L18,0 L118,0 L118,43 L40,43 L40,61 L118,61 L118,98 L49,98 L49,114 Q47,113 43,110 Q28,101 19,97 Q14,105 7,115 Q85,154 125,211 M129,184 Q99,147 51,115 L208,115 Q160,146 129,184"/> 
            <glyph glyph-name="八" unicode="&#x516B;" horiz-adv-x="249" d=" M148,198 L168,198 Q176,40 249,-4 Q240,-14 232,-23 Q158,31 148,198 M80,195 L102,194 Q95,38 23,-25 Q15,-17 6,-8 Q78,54 80,195"/> 
            <glyph glyph-name="内" unicode="&#x5185;" horiz-adv-x="229" d=" M119,207 L139,207 Q139,200 138,184 Q138,171 138,165 L227,165 L227,7 Q229,-23 195,-23 Q169,-24 157,-24 Q155,-13 153,-3 Q158,-3 170,-3 Q184,-4 191,-4 Q208,-5 207,9 L207,147 L138,147 Q137,115 128,94 L138,103 Q170,77 201,47 L186,31 Q167,52 126,89 Q113,59 64,28 Q62,32 55,41 Q51,45 51,46 Q120,78 118,147 L48,147 L48,-26 L29,-26 L29,165 L118,165 Q119,179 119,207"/> 
            <glyph glyph-name="别" unicode="&#x522B;" horiz-adv-x="235" d=" M25,194 L135,194 L135,113 L25,113 M16,84 L55,84 Q55,89 56,100 Q56,107 56,109 L75,109 Q74,94 74,84 L137,84 Q137,47 134,13 Q133,-24 96,-22 Q77,-24 65,-22 Q65,-19 63,-14 Q62,-6 61,-2 Q79,-4 93,-4 Q114,-5 116,16 Q118,42 118,67 L73,67 Q71,5 21,-29 Q15,-22 8,-13 Q52,16 54,67 L16,67 M215,207 L234,207 L234,5 Q235,-25 203,-25 Q184,-27 166,-25 Q165,-15 162,-4 Q165,-4 175,-4 Q190,-5 196,-5 Q216,-6 215,13 M43,177 L43,130 L117,130 L117,177 M165,182 L183,182 L183,28 L165,28"/> 
            <glyph glyph-name="升" unicode="&#x5347;" horiz-adv-x="247" d=" M170,207 L189,207 L189,104 L247,104 L247,86 L189,86 L189,-27 L170,-27 L170,86 L92,86 Q97,4 25,-30 Q23,-27 18,-22 Q14,-16 11,-13 Q77,15 73,86 L9,86 L9,104 L73,104 L73,169 Q63,168 43,166 Q27,165 18,164 Q17,172 15,183 Q90,188 146,197 L151,179 Q139,177 114,174 Q100,172 92,171 L92,104 L170,104"/> 
            <glyph glyph-name="卡" unicode="&#x5361;" horiz-adv-x="246" d=" M109,208 L128,208 L128,172 L230,172 L230,154 L128,154 L128,116 L246,116 L246,97 L12,97 L12,116 L109,116 M136,74 Q190,49 231,27 L220,9 Q158,43 128,58 L128,-28 L108,-28 L108,89 L128,89 L128,61"/> 
            <glyph glyph-name="双" unicode="&#x53CC;" horiz-adv-x="249" d=" M118,172 L118,190 L232,190 L232,172 Q222,83 188,39 Q212,10 249,-6 Q247,-8 233,-24 Q192,2 176,24 Q151,-4 102,-30 Q97,-23 89,-13 Q135,7 164,39 Q131,84 125,172 M14,143 L29,152 Q32,147 39,138 Q53,116 73,85 Q88,125 92,171 L11,171 L11,190 L112,190 L112,171 Q102,106 85,66 Q93,55 106,33 Q113,20 117,14 L101,1 Q86,28 75,46 Q56,11 22,-22 Q19,-19 12,-12 Q8,-9 7,-8 Q45,26 64,64 Q46,93 14,143 M212,172 L143,172 Q149,93 176,55 Q204,95 212,172"/> 
            <glyph glyph-name="合" unicode="&#x5408;" horiz-adv-x="249" d=" M44,77 L212,77 L212,-29 L194,-29 L194,-13 L63,-13 L63,-29 L44,-29 M124,210 L144,207 Q142,203 139,200 Q185,144 249,120 Q242,109 236,100 Q219,108 199,121 L199,108 L57,108 L57,120 Q48,113 26,101 Q21,98 19,97 Q14,105 7,115 Q88,154 124,210 M63,60 L63,3 L194,3 L194,60 M128,184 Q103,152 64,125 L194,125 Q153,154 128,184"/> 
            <glyph glyph-name="器" unicode="&#x5668;" horiz-adv-x="248" d=" M140,50 L218,50 Q151,59 129,95 L127,95 Q115,63 41,50 L114,50 L114,-25 L97,-25 L97,-12 L46,-12 L46,-26 L29,-26 L29,48 Q23,46 16,46 Q15,48 12,53 Q7,61 6,63 Q95,72 108,95 L16,95 L16,111 L115,111 Q117,119 118,129 L136,129 Q135,119 133,111 L174,111 Q173,113 169,118 Q167,122 166,124 L182,130 Q183,127 188,119 Q192,114 193,111 L242,111 L242,95 L149,95 Q177,67 248,66 Q248,65 247,64 Q241,53 238,47 Q236,47 232,48 Q228,48 226,49 L226,-26 L209,-26 L209,-12 L157,-12 L157,-25 L140,-25 M140,194 L225,194 L225,132 L140,132 M29,194 L114,194 L114,132 L29,132 M157,35 L157,1 L209,1 L209,35 M46,35 L46,1 L97,1 L97,35 M157,179 L157,147 L209,147 L209,179 M46,179 L46,147 L97,147 L97,179"/> 
            <glyph glyph-name="图" unicode="&#x56FE;" horiz-adv-x="234" d=" M21,198 L234,198 L234,-28 L216,-28 L216,-16 L39,-16 L39,-28 L21,-28 M39,181 L39,0 L216,0 L216,181 M47,122 Q82,148 102,178 L118,171 Q114,164 108,158 L193,158 L193,143 Q174,120 150,105 Q177,94 211,91 Q209,86 205,77 Q206,79 203,73 Q161,81 133,95 Q102,79 51,68 Q49,75 43,85 Q82,91 115,105 Q96,119 84,132 Q72,119 59,110 Q49,120 47,122 M65,29 L70,45 Q78,44 98,41 Q167,31 186,26 L180,8 Q131,20 65,29 M90,60 L95,77 Q99,76 108,75 Q154,67 170,64 L164,47 Q126,55 90,60 M170,142 L97,142 Q112,125 133,114 Q156,127 170,142"/> 
            <glyph glyph-name="处" unicode="&#x5904;" horiz-adv-x="249" d=" M70,204 Q65,180 59,159 L123,159 L123,141 Q114,73 89,34 Q111,9 141,2 Q175,-3 249,0 Q243,-14 242,-20 Q177,-22 139,-15 Q102,-8 78,18 Q63,-1 25,-30 Q14,-19 9,-15 Q45,8 65,35 Q48,61 37,100 Q33,91 25,74 Q22,68 20,65 Q15,72 7,82 Q36,134 51,207 M156,207 L175,207 L175,125 L185,137 Q207,122 246,92 L233,75 Q209,97 175,121 L175,9 L156,9 M103,141 L53,141 Q50,134 48,126 Q58,81 76,51 Q99,87 103,141"/> 
            <glyph glyph-name="外" unicode="&#x5916;" horiz-adv-x="250" d=" M6,83 Q45,143 63,209 L83,203 Q77,184 70,165 L135,165 L135,149 Q121,28 26,-27 Q20,-19 14,-10 Q104,41 115,147 L63,147 Q56,130 47,115 Q59,107 80,90 Q87,85 90,82 L77,66 Q54,88 39,99 Q38,96 35,91 Q24,72 17,63 Q11,75 6,83 M159,207 L178,207 L178,-28 L159,-28 M178,118 L191,132 Q229,103 250,86 L237,68 Q218,85 181,115 Q179,117 178,118"/> 
            <glyph glyph-name="好" unicode="&#x597D;" horiz-adv-x="248" d=" M110,15 L95,0 Q89,5 77,16 Q71,21 68,24 Q55,1 20,-25 Q15,-18 9,-9 Q37,10 55,36 Q35,53 18,67 Q29,107 34,139 L8,139 L8,157 L37,157 Q39,166 41,183 Q44,200 45,208 L64,206 Q63,199 60,184 Q58,165 56,157 L102,157 L102,141 Q96,75 78,40 Q87,33 105,19 Q108,16 110,15 M168,137 Q181,148 207,169 Q191,156 212,174 L110,174 L110,191 L239,191 L239,172 Q228,162 200,139 Q191,132 187,128 L187,99 L248,99 L248,82 L187,82 L187,6 Q188,-24 155,-24 Q151,-24 144,-24 Q132,-25 124,-24 Q124,-20 122,-9 Q121,-6 121,-4 Q130,-5 153,-5 Q168,-6 168,8 L168,82 L101,82 L101,99 L168,99 M83,139 L53,139 Q46,100 38,72 Q51,63 63,52 Q79,84 83,139"/> 
            <glyph glyph-name="存" unicode="&#x5B58;" horiz-adv-x="249" d=" M92,209 L112,204 Q111,201 108,193 Q105,186 104,182 L247,182 L247,164 L96,164 Q82,132 65,105 L65,-27 L46,-27 L46,78 Q33,61 18,46 Q16,51 9,60 Q7,62 7,63 Q48,107 75,164 L10,164 L10,182 L82,182 Q88,196 92,209 M92,120 L92,137 L231,137 L231,118 Q206,98 177,78 L177,71 L249,71 L249,54 L177,54 L177,3 Q180,-26 147,-25 Q136,-26 115,-26 Q114,-21 112,-13 Q111,-9 111,-7 Q113,-7 122,-7 Q138,-8 145,-8 Q160,-9 159,5 L159,54 L75,54 L75,71 L159,71 L159,87 Q183,102 204,120"/> 
            <glyph glyph-name="密" unicode="&#x5BC6;" horiz-adv-x="247" d=" M7,65 Q40,74 74,88 L74,93 L74,144 L91,144 L91,96 Q150,123 192,154 L203,139 Q151,103 96,79 Q100,74 112,74 L159,74 Q174,74 177,86 Q177,87 178,90 Q179,101 180,109 Q182,109 184,108 Q193,105 199,103 Q196,89 194,78 Q190,57 161,58 L108,58 Q85,58 78,71 Q73,69 64,66 Q47,59 16,48 Q14,52 11,58 Q8,63 7,65 M118,53 L137,53 L137,-1 L200,-1 L200,44 L218,44 L218,-28 L200,-28 L200,-18 L37,-18 L37,44 L55,44 L55,-1 L118,-1 M112,204 L131,210 Q133,203 138,190 Q140,185 141,183 L239,183 L239,140 L220,140 L220,166 L36,166 L36,140 L17,140 L17,183 L120,183 Q119,187 115,195 Q113,201 112,204 M45,139 L62,132 Q53,111 38,84 Q22,91 20,92 Q31,106 45,139 M201,120 L215,131 Q232,113 247,92 L231,80 Q226,88 209,110 Q203,117 201,120 M104,151 L116,162 Q131,152 145,137 L132,124 Q113,143 104,151"/> 
            <glyph glyph-name="寸" unicode="&#x5BF8;" horiz-adv-x="245" d=" M169,207 L189,207 L189,161 L245,161 L245,142 L189,142 L189,22 Q191,-22 144,-22 Q122,-22 93,-22 Q93,-18 89,-4 Q88,-1 88,0 Q99,-1 139,-1 Q172,-4 169,25 L169,142 L12,142 L12,161 L169,161 M56,122 Q68,109 100,74 Q107,65 111,61 L94,48 Q71,76 41,110"/> 
            <glyph glyph-name="对" unicode="&#x5BF9;" horiz-adv-x="249" d=" M31,145 Q37,136 52,114 Q65,95 71,86 Q86,122 90,163 L14,163 L14,181 L110,181 L110,163 Q100,103 84,67 Q99,45 122,10 L104,0 Q100,6 92,19 Q80,37 74,47 Q55,13 19,-21 Q15,-14 5,-4 Q43,28 62,66 Q59,71 53,80 Q27,120 16,135 M119,155 L200,155 L200,207 L219,207 L219,155 L249,155 L249,136 L219,136 L219,13 Q221,-24 184,-24 Q163,-24 149,-24 Q148,-14 145,-3 Q147,-3 156,-3 Q172,-4 180,-4 Q202,-6 200,16 L200,136 L119,136 M124,106 L140,115 Q149,102 169,68 Q172,63 174,60 L156,49 Q153,54 146,67 Q132,93 124,106"/> 
            <glyph glyph-name="屏" unicode="&#x5C4F;" horiz-adv-x="248" d=" M66,102 L114,102 Q104,115 94,127 L104,134 L53,134 L53,101 Q53,48 47,23 Q41,-1 21,-28 Q19,-27 13,-23 Q7,-18 5,-17 Q24,8 29,31 Q35,54 35,100 L35,194 L235,194 L235,134 L190,134 L202,127 Q199,124 193,116 Q186,106 182,102 L234,102 L234,86 L193,86 L193,52 L248,52 L248,35 L193,35 L193,-28 L175,-28 L175,35 L120,35 Q117,-2 78,-30 Q77,-28 69,-20 Q65,-17 64,-16 Q99,6 102,35 L55,35 L55,52 L103,52 Q104,59 104,71 L104,86 L66,86 M53,178 L53,151 L217,151 L217,178 M122,72 Q122,61 122,52 L175,52 L175,86 L122,86 M132,110 L121,102 L162,102 Q176,122 184,134 L111,134 Q117,127 115,129 Q129,114 132,110"/> 
            <glyph glyph-name="展" unicode="&#x5C55;" horiz-adv-x="248" d=" M144,10 Q144,5 144,-7 Q141,-8 135,-10 Q108,-19 101,-22 Q95,-24 83,-29 L72,-15 Q79,-12 78,3 L78,56 L50,56 Q48,7 21,-29 Q20,-28 18,-25 Q11,-17 7,-14 Q23,5 28,29 Q33,51 33,100 L33,197 L231,197 L231,141 L51,141 L51,109 Q51,88 51,71 L101,71 L101,98 L61,98 L61,114 L101,114 L101,135 L118,135 L118,114 L168,114 L168,135 L186,135 L186,114 L232,114 L232,98 L186,98 L186,71 L243,71 L243,56 L141,56 Q152,37 167,24 Q183,32 210,46 Q215,49 217,50 L227,35 Q219,31 182,14 Q204,1 248,-6 Q243,-11 235,-23 Q152,-5 122,56 L96,56 L96,-4 Q98,-3 107,-1 Q127,4 144,10 M51,181 L51,157 L213,157 L213,181 M118,98 L118,71 L168,71 L168,98"/> 
            <glyph glyph-name="属" unicode="&#x5C5E;" horiz-adv-x="241" d=" M90,11 Q98,12 116,12 Q133,13 142,13 L142,35 L81,35 L81,-28 L65,-28 L65,48 L142,48 L142,64 L77,64 L77,108 L142,108 L142,123 Q129,123 103,122 Q76,122 65,121 Q65,123 63,129 Q62,134 61,136 Q130,136 231,140 L234,126 Q215,125 157,123 L157,108 L223,108 L223,64 L157,64 L157,48 L239,48 L239,0 Q241,-27 212,-27 Q200,-27 184,-27 Q184,-21 180,-11 Q183,-11 190,-11 Q201,-12 209,-12 Q223,-13 222,0 L222,35 L157,35 L157,14 Q162,14 172,15 Q181,15 185,15 Q182,21 179,27 L193,32 Q196,27 201,17 Q208,4 210,0 L196,-6 Q195,-5 194,-2 Q192,1 191,2 Q180,1 156,0 Q111,-1 93,-3 M36,198 L234,198 L234,151 L53,151 L53,110 Q53,56 47,27 Q41,0 22,-29 Q14,-23 8,-18 Q25,7 31,32 Q36,56 36,108 M53,184 L53,165 L219,165 L219,184 M208,95 L157,95 L157,77 L208,77 M92,95 L92,77 L142,77 L142,95"/> 
            <glyph glyph-name="工" unicode="&#x5DE5;" horiz-adv-x="245" d=" M11,6 L117,6 L117,167 L25,167 L25,186 L231,186 L231,167 L138,167 L138,6 L245,6 L245,-12 L11,-12"/> 
            <glyph glyph-name="形" unicode="&#x5F62;" horiz-adv-x="249" d=" M11,104 L44,104 L44,173 L18,173 L18,191 L150,191 L150,173 L121,173 L121,104 L158,104 L158,87 L121,87 L121,-27 L102,-27 L102,87 L62,87 Q65,10 20,-29 Q8,-17 5,-15 Q28,7 36,27 Q44,47 44,87 L11,87 M62,173 L62,104 L102,104 L102,173 M249,55 Q211,9 149,-28 Q146,-23 136,-14 Q135,-13 135,-13 Q192,15 235,67 M242,125 Q207,87 160,54 Q154,61 147,69 Q191,96 228,137 M238,193 Q205,156 158,129 Q154,135 146,144 Q190,168 224,206"/> 
            <glyph glyph-name="待" unicode="&#x5F85;" horiz-adv-x="248" d=" M93,174 L155,174 L155,208 L174,208 L174,174 L236,174 L236,157 L174,157 L174,123 L246,123 L246,106 L82,106 L82,123 L155,123 L155,157 L93,157 M191,98 L210,98 L210,75 L248,75 L248,58 L210,58 L210,3 Q211,-26 177,-25 Q165,-26 142,-26 Q141,-21 140,-13 Q138,-7 138,-5 Q156,-6 173,-6 Q192,-7 191,9 L191,58 L82,58 L82,75 L191,75 M7,65 Q42,96 66,144 L83,135 Q72,117 61,101 L61,-29 L43,-29 L43,76 Q30,61 16,46 Q12,55 7,65 M8,140 Q42,168 66,209 L83,199 Q53,154 18,124 Q17,127 13,132 Q10,138 8,140 M100,39 L114,50 Q115,49 117,47 Q130,33 145,15 L129,3 Q115,23 100,39"/> 
            <glyph glyph-name="快" unicode="&#x5FEB;" horiz-adv-x="246" d=" M144,207 L163,207 Q163,183 163,164 L222,164 L222,88 L246,88 L246,70 L167,70 Q186,16 243,-9 Q237,-17 229,-27 Q170,7 153,62 Q144,10 84,-29 Q83,-28 80,-24 Q72,-14 70,-13 Q130,24 138,70 L83,70 L83,88 L141,88 Q144,108 144,147 L98,147 L98,164 L144,164 M44,207 L62,207 L62,155 L75,163 Q78,159 84,149 Q97,131 101,125 L85,115 Q81,124 64,149 Q63,152 62,153 L62,-28 L44,-28 M203,147 L163,147 Q163,140 162,128 Q162,98 160,88 L203,88 M18,151 L35,149 Q28,106 24,87 Q12,90 7,91 Q14,120 18,151"/> 
            <glyph glyph-name="性" unicode="&#x6027;" horiz-adv-x="249" d=" M159,208 L178,208 L178,154 L241,154 L241,137 L178,137 L178,79 L237,79 L237,62 L178,62 L178,-1 L249,-1 L249,-18 L80,-18 L80,-1 L159,-1 L159,62 L96,62 L96,79 L159,79 L159,137 L119,137 Q110,114 99,93 Q91,99 82,103 Q105,141 116,192 L135,188 Q131,170 125,154 L159,154 M42,208 L61,208 L61,161 L73,167 Q74,165 77,160 Q88,140 93,129 L78,121 Q76,126 71,136 Q65,149 61,156 L61,-29 L42,-29 M20,153 L36,150 Q34,137 29,113 Q26,96 24,88 Q21,89 16,90 Q10,92 7,92 Q16,122 20,153"/> 
            <glyph glyph-name="感" unicode="&#x611F;" horiz-adv-x="250" d=" M190,202 L203,211 Q213,199 222,187 L210,178 L244,178 L244,163 L173,163 Q177,120 187,100 Q201,118 213,148 L229,141 Q212,104 195,84 Q199,77 205,71 Q217,58 224,72 Q228,86 232,103 Q241,99 250,96 Q245,78 238,60 Q222,31 194,55 Q188,63 183,69 Q181,67 176,63 Q170,57 154,44 Q151,49 142,58 Q161,72 174,84 Q161,110 157,163 L51,163 L51,138 Q54,76 22,36 Q21,38 19,41 Q15,46 10,51 Q35,80 34,138 L34,178 L155,178 Q154,183 154,192 Q153,202 153,207 L170,207 Q170,202 171,192 Q171,183 172,178 L207,178 Q195,196 190,202 M68,114 L142,114 L142,60 L68,60 M70,41 L89,41 L89,10 Q87,-7 108,-6 L149,-6 Q167,-7 169,6 Q172,18 174,32 Q182,29 193,25 Q191,19 189,8 Q187,1 186,-1 Q180,-24 153,-23 L103,-23 Q69,-24 70,8 M60,145 L148,145 L148,131 L60,131 M37,42 L54,35 Q40,0 27,-17 Q20,-13 11,-8 Q28,17 37,42 M84,100 L84,75 L125,75 L125,100 M202,27 L216,37 Q226,25 247,-2 L231,-14 Q218,6 202,27 M109,44 L122,54 Q127,48 137,38 Q146,27 151,21 L135,9 Q122,29 109,44"/> 
            <glyph glyph-name="戏" unicode="&#x620F;" horiz-adv-x="248" d=" M100,-8 Q135,12 159,37 Q148,72 145,121 L109,117 L106,134 L144,138 Q143,170 141,207 L161,207 Q161,199 163,141 L242,150 L244,133 L164,123 Q166,79 174,52 Q196,78 215,112 L232,103 Q208,62 181,32 Q189,9 206,-2 Q220,-12 224,2 Q229,20 230,40 Q235,37 248,33 Q246,11 242,-4 Q236,-28 219,-27 Q205,-28 193,-16 Q176,-2 167,17 Q150,0 114,-22 Q103,-11 100,-8 M29,143 Q49,116 67,88 Q77,120 83,160 L13,160 L13,178 L102,178 L102,160 Q94,105 79,70 Q87,57 101,34 Q109,21 113,15 L96,4 Q94,7 91,12 Q78,36 70,49 Q54,17 19,-20 Q14,-14 5,-4 Q41,29 58,67 Q35,105 14,133 M177,189 L188,202 Q204,192 226,176 Q228,174 229,173 L216,158 Q213,160 206,166 Q189,181 177,189"/> 
            <glyph glyph-name="手" unicode="&#x624B;" horiz-adv-x="248" d=" M25,171 Q25,180 23,190 Q135,192 223,199 L226,179 Q184,176 138,175 L138,130 L227,130 L227,111 L138,111 L138,68 L248,68 L248,48 L138,48 L138,6 Q140,-25 108,-24 Q96,-25 67,-25 Q65,-14 62,-3 Q79,-4 101,-4 Q121,-5 119,10 L119,48 L9,48 L9,68 L119,68 L119,111 L26,111 L26,130 L119,130 L119,174 Q54,172 25,171"/> 
            <glyph glyph-name="扩" unicode="&#x6269;" horiz-adv-x="247" d=" M6,79 Q7,79 8,80 Q22,84 43,89 L43,146 L9,146 L9,162 L43,162 L43,207 L62,207 L62,162 L94,162 L94,146 L62,146 L62,94 Q77,99 92,103 Q92,91 93,84 Q91,83 86,82 Q71,78 62,75 L62,4 Q63,-24 35,-24 Q28,-25 14,-25 Q13,-12 10,-5 Q24,-6 31,-6 Q44,-7 43,6 L43,70 Q17,62 8,59 M125,151 L125,101 Q125,51 117,25 Q110,-1 87,-29 Q83,-26 75,-20 Q71,-17 70,-16 Q93,8 100,32 Q107,55 107,102 L107,169 L176,169 Q169,183 159,200 L177,208 Q192,181 195,175 L181,169 L247,169 L247,151"/> 
            <glyph glyph-name="技" unicode="&#x6280;" horiz-adv-x="249" d=" M97,98 L97,114 L159,114 L159,151 L96,151 L96,168 L159,168 L159,207 L178,207 L178,168 L244,168 L244,151 L178,151 L178,114 L230,114 L230,99 Q210,49 183,21 Q203,4 249,-9 Q248,-10 245,-13 Q237,-23 235,-27 Q197,-12 168,8 Q138,-14 92,-31 Q87,-24 79,-14 Q130,3 155,22 Q130,47 113,98 M7,80 Q21,84 42,91 L42,142 L10,142 L10,159 L42,159 L42,206 L61,206 L61,159 L89,159 L89,142 L61,142 L61,96 Q75,101 88,105 Q88,93 89,86 Q87,85 81,84 Q68,80 61,77 L61,3 Q63,-25 34,-25 Q26,-26 14,-26 Q14,-24 12,-16 Q10,-8 9,-5 Q15,-6 31,-6 Q43,-7 42,5 L42,71 Q23,65 9,60 M209,98 L132,98 Q147,55 169,33 Q195,58 209,98"/> 
            <glyph glyph-name="拍" unicode="&#x62CD;" horiz-adv-x="234" d=" M101,174 L139,174 Q146,191 152,210 L172,205 Q170,201 167,193 Q165,188 158,174 L234,174 L234,-27 L215,-27 L215,-11 L120,-11 L120,-27 L101,-27 M7,79 Q13,81 25,84 Q37,88 43,89 L43,143 L10,143 L10,160 L43,160 L43,206 L62,206 L62,160 L90,160 L90,143 L62,143 L62,95 Q75,100 90,104 Q89,95 89,85 Q83,84 71,80 Q65,78 62,77 L62,4 Q64,-25 35,-24 Q30,-25 14,-25 Q12,-13 10,-4 Q21,-6 33,-6 Q44,-7 43,5 L43,70 Q24,64 10,59 M120,73 L120,4 L215,4 L215,73 M120,156 L120,90 L215,90 L215,156"/> 
            <glyph glyph-name="持" unicode="&#x6301;" horiz-adv-x="249" d=" M7,78 Q9,78 12,79 Q23,81 41,86 L41,143 L9,143 L9,160 L41,160 L41,207 L60,207 L60,160 L91,160 L91,143 L60,143 L60,90 Q65,91 74,94 Q83,96 87,97 Q87,95 88,88 Q88,82 88,79 Q85,78 76,76 Q66,74 60,72 L60,0 Q62,-26 34,-26 Q28,-27 13,-27 Q13,-26 13,-24 Q12,-18 9,-7 Q22,-7 31,-7 Q42,-8 41,1 L41,67 Q37,66 29,63 Q15,59 9,58 M88,122 L158,122 L158,156 L102,156 L102,173 L158,173 L158,207 L177,207 L177,173 L233,173 L233,156 L177,156 L177,122 L249,122 L249,104 L88,104 M191,96 L210,96 L210,71 L247,71 L247,54 L210,54 L210,0 Q211,-27 183,-26 Q166,-26 151,-26 Q149,-17 146,-7 Q162,-8 178,-8 Q192,-8 191,3 L191,54 L89,54 L89,71 L191,71 M104,40 L118,50 Q138,29 148,14 L132,3 Q121,21 104,40"/> 
            <glyph glyph-name="指" unicode="&#x6307;" horiz-adv-x="247" d=" M103,92 L231,92 L231,-28 L212,-28 L212,-13 L121,-13 L121,-28 L103,-28 M7,78 Q24,81 41,86 L41,143 L10,143 L10,161 L41,161 L41,208 L60,208 L60,161 L90,161 L90,143 L60,143 L60,91 Q65,92 75,95 Q84,97 89,98 Q89,86 90,80 Q75,77 60,72 L60,0 Q62,-27 34,-26 Q19,-26 13,-26 Q13,-23 11,-16 Q10,-9 9,-6 Q13,-6 21,-7 Q28,-7 31,-7 Q42,-7 41,1 L41,67 Q24,63 9,58 M101,208 L119,208 L119,171 Q178,182 234,198 L240,182 Q184,167 119,154 L119,146 Q118,127 139,128 L204,128 Q222,127 225,143 Q228,154 229,168 Q238,165 247,162 Q246,153 243,139 Q243,140 242,135 Q237,111 207,112 L134,112 Q99,111 101,142 M121,31 L121,1 L212,1 L212,31 M121,75 L121,46 L212,46 L212,75"/> 
            <glyph glyph-name="提" unicode="&#x63D0;" horiz-adv-x="250" d=" M103,197 L224,197 L224,108 L103,108 M67,-18 Q102,9 104,62 L122,60 Q121,47 118,36 Q134,1 157,-2 L157,72 L82,72 L82,88 L246,88 L246,72 L175,72 L175,45 L236,45 L236,29 L175,29 L175,-4 Q179,-4 183,-4 Q199,-5 228,-4 Q243,-4 250,-4 Q247,-12 244,-21 Q208,-21 176,-21 Q130,-21 112,15 Q103,-8 82,-29 Q75,-23 67,-18 M7,79 Q22,85 39,93 L39,145 L9,145 L9,162 L39,162 L39,207 L57,207 L57,162 L88,162 L88,145 L57,145 L57,101 Q71,109 85,115 Q85,110 87,97 Q84,95 77,92 Q64,86 57,82 L57,0 Q59,-26 31,-26 Q21,-26 10,-26 Q10,-20 8,-6 Q15,-7 28,-7 Q40,-8 39,2 L39,73 Q23,66 9,58 M121,182 L121,160 L207,160 L207,182 M121,145 L121,123 L207,123 L207,145"/> 
            <glyph glyph-name="支" unicode="&#x652F;" horiz-adv-x="248" d=" M120,209 L140,209 L140,174 L245,174 L245,156 L140,156 L140,120 L207,120 L207,103 Q185,55 146,23 Q181,3 248,-6 Q245,-9 238,-20 Q235,-25 234,-27 Q165,-13 129,10 Q92,-11 20,-30 Q13,-16 9,-11 Q85,5 113,22 Q79,50 58,103 L34,103 L34,120 L120,120 L120,156 L10,156 L10,174 L120,174 M185,103 L79,103 Q96,58 129,33 Q168,63 185,103"/> 
            <glyph glyph-name="智" unicode="&#x667A;" horiz-adv-x="233" d=" M48,80 L210,80 L210,-28 L192,-28 L192,-17 L66,-17 L66,-28 L48,-28 M142,189 L233,189 L233,97 L142,97 M46,210 L63,207 Q59,197 53,186 L126,186 L126,171 L88,171 Q88,157 86,145 L133,145 L133,130 L85,130 Q109,114 133,97 L122,83 Q118,86 110,92 Q98,101 77,117 Q65,90 19,70 Q14,79 8,86 Q56,102 64,130 L12,130 L12,145 L68,145 Q70,157 70,171 L43,171 Q35,159 23,147 Q21,149 17,154 Q13,158 11,160 Q35,180 46,210 M159,173 L159,112 L216,112 L216,173 M66,64 L66,38 L192,38 L192,64 M66,23 L66,-2 L192,-2 L192,23"/> 
            <glyph glyph-name="术" unicode="&#x672F;" horiz-adv-x="250" d=" M6,12 Q71,55 105,132 L13,132 L13,149 L119,149 L119,208 L138,208 L138,149 L244,149 L244,132 L151,132 Q186,57 250,19 Q249,18 246,15 Q239,6 235,0 Q169,47 138,128 L138,-29 L119,-29 L119,128 Q90,47 20,-3 Q18,-1 14,2 Q9,9 6,12 M164,195 L178,206 Q196,189 214,168 L198,156 Q195,159 190,165 Q174,186 164,195"/> 
            <glyph glyph-name="机" unicode="&#x673A;" horiz-adv-x="251" d=" M135,174 L135,108 Q135,53 126,25 Q118,-4 92,-31 Q89,-28 82,-21 Q79,-18 77,-16 Q100,7 108,32 Q116,58 116,108 L116,192 L205,192 L205,14 Q204,-2 215,-1 L218,-1 Q228,-2 229,11 Q231,20 232,45 Q233,50 233,52 Q241,48 251,46 Q250,35 248,15 Q247,8 247,5 Q243,-21 219,-20 L214,-20 Q185,-22 186,11 L186,174 M6,54 Q34,95 46,143 L9,143 L9,160 L47,160 L47,207 L65,207 L65,160 L99,160 L99,143 L65,143 L65,103 L75,113 Q92,98 104,85 L91,72 Q90,73 88,75 Q77,89 65,99 L65,-27 L47,-27 L47,101 Q35,62 15,35 Q14,38 10,45 Q7,51 6,54"/> 
            <glyph glyph-name="标" unicode="&#x6807;" horiz-adv-x="251" d=" M45,207 L63,207 L63,159 L95,159 L95,143 L63,143 L63,101 L73,111 Q82,103 100,86 L87,72 Q81,79 63,99 L63,-28 L45,-28 L45,102 Q35,68 15,36 Q14,39 9,48 Q7,52 6,54 Q33,94 44,143 L10,143 L10,159 L45,159 M95,122 L246,122 L246,105 L180,105 L180,4 Q181,-26 150,-25 Q134,-25 120,-25 Q120,-23 119,-20 Q117,-10 116,-5 Q125,-6 146,-6 Q162,-7 161,6 L161,105 L95,105 M106,193 L234,193 L234,176 L106,176 M196,73 L212,82 Q225,58 248,9 Q247,12 251,4 L232,-2 Q230,1 226,10 Q208,50 196,73 M120,81 L138,74 Q119,34 98,-3 Q89,1 80,5 Q102,39 120,81"/> 
            <glyph glyph-name="核" unicode="&#x6838;" horiz-adv-x="250" d=" M84,33 Q133,58 166,91 Q155,90 135,88 Q125,87 121,87 Q110,86 103,83 L95,101 Q104,105 111,114 Q121,126 143,156 L94,156 L94,173 L168,173 Q165,177 151,201 L167,210 Q175,198 186,181 L172,173 L248,173 L248,156 L164,156 Q156,143 136,118 Q129,109 126,105 Q134,105 152,107 Q172,108 181,109 Q195,126 205,145 L222,136 Q177,62 97,17 Q95,19 91,24 Q86,31 84,33 M8,55 Q34,96 44,143 L9,143 L9,160 L44,160 L44,208 L62,208 L62,160 L90,160 L90,143 L62,143 L62,100 L70,108 Q73,105 80,99 Q85,95 99,82 L86,70 Q74,82 62,94 L62,-29 L44,-29 L44,97 Q34,61 15,34 Q12,44 8,55 M91,-14 Q176,20 228,98 L244,89 Q222,57 198,33 Q216,19 247,-7 Q249,-9 250,-10 L236,-25 Q222,-11 194,13 Q188,18 185,21 Q155,-5 104,-30 Q99,-23 91,-14"/> 
            <glyph glyph-name="框" unicode="&#x6846;" horiz-adv-x="246" d=" M100,193 L243,193 L243,176 L118,176 L118,-2 L246,-2 L246,-18 L100,-18 M6,54 Q31,90 44,144 L10,144 L10,161 L44,161 L44,208 L62,208 L62,161 L92,161 L92,144 L62,144 L62,107 L71,114 Q79,107 91,92 Q95,88 97,86 L83,75 Q72,89 62,101 L62,-29 L44,-29 L44,100 Q33,62 15,35 Q13,40 8,49 Q7,53 6,54 M132,148 L237,148 L237,132 L193,132 L193,97 L232,97 L232,81 L193,81 L193,44 L242,44 L242,27 L126,27 L126,44 L176,44 L176,81 L137,81 L137,97 L176,97 L176,132 L132,132"/> 
            <glyph glyph-name="清" unicode="&#x6E05;" horiz-adv-x="249" d=" M105,-27 L87,-27 L87,94 L230,94 L230,2 Q231,-26 199,-25 Q177,-25 166,-25 Q165,-22 164,-13 Q163,-9 163,-7 Q168,-7 177,-7 Q188,-8 196,-8 Q213,-9 212,3 L212,15 L105,15 M85,156 L150,156 L150,173 L77,173 L77,187 L150,187 L150,209 L167,209 L167,187 L244,187 L244,173 L167,173 L167,156 L238,156 L238,141 L167,141 L167,124 L249,124 L249,109 L71,109 L71,124 L150,124 L150,141 L85,141 M105,47 L105,30 L212,30 L212,47 M16,-20 Q29,15 42,72 Q51,68 61,64 Q52,32 36,-27 M105,79 L105,62 L212,62 L212,79 M17,190 L29,203 Q39,197 68,171 Q70,170 71,169 L57,155 Q36,175 17,190 M7,127 L19,141 Q45,123 61,110 L48,94 Q27,114 7,127"/> 
            <glyph glyph-name="游" unicode="&#x6E38;" horiz-adv-x="248" d=" M189,86 L218,116 L158,116 L158,131 Q153,122 147,114 Q142,120 135,127 Q160,161 177,210 L196,206 Q189,188 181,172 L247,172 L247,156 L173,156 Q165,142 159,132 L240,132 L240,115 L207,81 L207,73 L248,73 L248,57 L207,57 L207,4 Q208,-24 179,-24 Q163,-24 155,-24 Q155,-18 152,-6 Q162,-6 177,-6 Q189,-7 189,6 L189,57 L145,57 L145,73 L189,73 M58,163 L145,163 L145,146 L95,146 Q95,127 95,110 L140,110 Q140,99 140,103 Q138,42 136,12 Q136,-22 105,-21 Q95,-21 87,-21 Q85,-10 83,-3 Q88,-3 97,-4 Q101,-4 102,-4 Q119,-5 119,10 Q122,50 122,94 L94,94 Q93,8 59,-29 Q58,-28 52,-23 Q47,-18 45,-16 Q66,11 71,40 Q78,68 78,146 L58,146 M36,72 Q45,68 55,65 Q39,2 33,-27 L13,-20 Q27,27 36,72 M17,142 Q18,141 20,140 Q48,119 55,112 L42,97 Q23,116 6,129 M27,203 Q52,183 61,174 L48,159 Q36,172 15,191 M87,203 L104,208 Q109,193 117,172 L100,166 Q94,184 87,203"/> 
            <glyph glyph-name="漂" unicode="&#x6F02;" horiz-adv-x="248" d=" M70,197 L242,197 L242,182 L187,182 L187,159 L235,159 L235,101 L74,101 L74,159 L122,159 L122,182 L70,182 M68,48 L244,48 L244,33 L166,33 L166,2 Q168,-26 135,-26 Q123,-26 109,-26 Q109,-23 107,-13 Q106,-9 106,-7 Q113,-8 134,-8 Q149,-9 148,3 L148,33 L68,33 M92,83 L221,83 L221,67 L92,67 M15,-22 Q26,9 39,69 Q48,65 57,62 Q55,54 50,33 Q38,-13 35,-28 M56,-4 Q85,7 109,27 L120,14 Q105,2 72,-16 Q68,-18 66,-19 Q62,-12 56,-4 M185,12 L195,26 Q205,20 234,3 Q244,-2 248,-4 L237,-19 Q214,-3 185,12 M8,128 L19,142 Q42,127 61,110 L48,95 Q31,111 8,128 M17,192 L29,205 Q36,200 57,181 Q66,173 68,171 L54,157 Q38,174 17,192 M90,144 L90,116 L122,116 L122,144 M219,144 L187,144 L187,116 L219,116 M138,144 L138,116 L170,116 L170,144 M138,182 L138,159 L170,159 L170,182"/> 
            <glyph glyph-name="焦" unicode="&#x7126;" horiz-adv-x="242" d=" M122,201 L136,210 Q148,197 158,182 L145,174 L236,174 L236,158 L153,158 L153,133 L226,133 L226,117 L153,117 L153,91 L226,91 L226,76 L153,76 L153,50 L239,50 L239,34 L62,34 L62,27 L43,27 L43,135 Q33,123 22,109 Q21,111 18,114 Q13,121 10,124 Q47,164 66,208 L83,202 Q77,188 69,174 L140,174 Q138,177 134,183 Q127,195 122,201 M62,76 L62,50 L134,50 L134,76 M62,158 L62,133 L134,133 L134,158 M62,117 L62,91 L134,91 L134,117 M41,23 L59,14 Q56,9 50,0 Q39,-19 32,-30 Q26,-26 16,-20 Q33,4 41,23 M200,14 L216,23 Q219,19 224,11 Q230,3 242,-17 L225,-27 Q213,-5 200,14 M141,15 L158,23 Q161,17 166,7 Q174,-9 178,-18 L160,-26 Q153,-6 141,15 M82,14 L100,20 Q101,17 103,12 Q112,-6 116,-20 L97,-26 Q89,0 82,14"/> 
            <glyph glyph-name="理" unicode="&#x7406;" horiz-adv-x="249" d=" M97,47 L159,47 L159,76 L102,76 L102,195 L233,195 L233,76 L177,76 L177,47 L238,47 L238,31 L177,31 L177,-2 L249,-2 L249,-19 L83,-19 L83,-2 L159,-2 L159,31 L97,31 M12,105 L42,105 L42,169 L9,169 L9,186 L92,186 L92,169 L60,169 L60,105 L91,105 L91,89 L60,89 L60,24 Q76,29 91,33 Q92,22 93,14 Q90,13 82,11 Q34,-1 12,-8 L6,10 Q23,15 42,19 L42,89 L12,89 M120,128 L120,91 L159,91 L159,128 M177,128 L177,91 L215,91 L215,128 M120,179 L120,143 L159,143 L159,179 M215,179 L177,179 L177,143 L215,143"/> 
            <glyph glyph-name="画" unicode="&#x753B;" horiz-adv-x="244" d=" M69,154 L187,154 L187,27 L69,27 M231,150 L231,-28 L213,-28 L213,-14 L24,-14 L24,150 L43,150 L43,0 L213,0 L213,150 M11,193 L244,193 L244,177 L11,177 M86,83 L86,43 L119,43 L119,83 M136,83 L136,43 L169,43 L169,83 M169,138 L136,138 L136,99 L169,99 M86,138 L86,99 L119,99 L119,138"/> 
            <glyph glyph-name="的" unicode="&#x7684;" horiz-adv-x="239" d=" M18,168 L42,168 Q52,191 57,208 L78,202 Q75,196 69,183 Q64,173 62,168 L111,168 L111,-23 L93,-23 L93,-4 L37,-4 L37,-25 L18,-25 M115,119 Q137,156 153,208 L174,203 Q173,200 171,194 Q168,186 161,168 L239,168 Q236,45 235,18 Q234,-26 186,-24 Q176,-24 161,-25 Q152,-25 149,-25 Q147,-13 145,-4 Q148,-4 156,-4 Q175,-5 187,-5 Q215,-7 216,22 Q218,52 219,150 L154,150 Q152,147 149,140 Q138,117 132,108 Q125,113 115,119 M37,73 L37,12 L93,12 L93,73 M37,150 L37,91 L93,91 L93,150 M136,102 L151,113 Q179,79 194,58 L176,45 Q158,72 136,102"/> 
            <glyph glyph-name="相" unicode="&#x76F8;" horiz-adv-x="237" d=" M110,191 L237,191 L237,-28 L219,-28 L219,-12 L129,-12 L129,-28 L110,-28 M6,54 Q34,92 47,142 L11,142 L11,158 L48,158 L48,207 L66,207 L66,158 L101,158 L101,142 L66,142 L66,100 L76,110 Q85,101 106,79 L93,66 Q75,88 66,97 L66,-28 L48,-28 L48,99 Q36,64 16,35 Q12,44 6,54 M129,50 L129,3 L219,3 L219,50 M129,175 L129,128 L219,128 L219,175 M129,112 L129,66 L219,66 L219,112"/> 
            <glyph glyph-name="码" unicode="&#x7801;" horiz-adv-x="239" d=" M14,185 L104,185 L104,167 L68,167 Q61,136 49,110 L96,110 L96,-19 L79,-19 L79,-3 L48,-3 L48,-22 L31,-22 L31,77 Q25,66 18,57 Q14,64 7,73 Q37,115 50,167 L14,167 M144,167 L138,96 L195,96 L203,176 L114,176 L114,193 L224,193 L213,96 L239,96 Q237,50 235,12 Q235,-23 197,-23 Q184,-24 164,-24 Q163,-9 161,-4 Q164,-4 174,-4 Q188,-5 196,-5 Q215,-6 217,14 Q219,45 219,79 L119,79 L126,167 M48,94 L48,12 L79,12 L79,94 M105,46 L208,46 L208,29 L105,29"/> 
            <glyph glyph-name="米" unicode="&#x7C73;" horiz-adv-x="249" d=" M7,2 Q76,40 103,93 L10,93 L10,111 L119,111 L119,205 L138,205 L138,111 L246,111 L246,93 L155,93 Q188,37 249,8 Q243,0 237,-8 Q168,29 138,90 L138,-28 L119,-28 L119,90 Q93,29 19,-13 Q19,-13 18,-12 Q12,-1 7,2 M31,180 L45,191 Q79,153 93,136 L77,123 Q60,145 31,180 M164,135 Q185,156 210,190 L226,179 Q224,177 221,173 Q203,149 179,122"/> 
            <glyph glyph-name="红" unicode="&#x7EA2;" horiz-adv-x="248" d=" M102,185 L240,185 L240,167 L180,167 L180,3 L248,3 L248,-14 L90,-14 L90,3 L161,3 L161,167 L102,167 M44,63 Q73,67 100,73 Q100,72 100,70 Q98,63 98,54 Q35,46 19,42 L15,60 Q32,71 58,110 Q25,109 13,106 L9,123 Q29,142 60,208 L80,201 Q48,148 31,124 Q57,124 68,125 Q70,128 75,136 Q83,149 88,156 L107,147 Q67,92 44,63 M7,10 Q32,15 78,24 Q93,27 101,28 Q101,24 100,18 Q100,12 100,9 Q63,3 13,-7"/> 
            <glyph glyph-name="级" unicode="&#x7EA7;" horiz-adv-x="249" d=" M66,-14 Q97,18 106,56 Q115,91 114,176 L93,176 L93,193 L214,193 L214,175 L190,126 L230,126 L230,109 Q215,63 192,31 Q215,9 249,-8 Q240,-17 234,-26 Q196,0 180,16 Q157,-8 121,-29 Q119,-27 115,-22 Q110,-16 107,-13 Q143,5 167,31 Q144,59 131,101 Q127,21 81,-28 Q79,-26 74,-21 Q69,-17 66,-14 M170,127 L193,176 L133,176 Q133,170 132,158 Q132,148 132,143 Q152,78 179,46 Q197,68 210,109 L170,109 M40,75 Q65,79 92,82 Q92,80 91,74 Q91,69 90,66 Q69,63 36,59 Q29,58 21,56 L13,72 Q19,75 25,82 Q35,93 52,119 Q48,119 40,119 Q32,118 28,118 Q26,118 21,117 Q17,117 14,116 L8,131 Q15,137 21,146 Q42,176 57,208 L74,201 Q51,160 31,132 Q36,133 47,133 Q56,134 62,134 Q72,149 81,166 L97,157 Q78,126 40,75 M6,21 Q16,23 37,26 Q72,33 88,36 Q87,29 87,19 Q74,16 46,10 Q21,5 11,3"/> 
            <glyph glyph-name="纹" unicode="&#x7EB9;" horiz-adv-x="250" d=" M98,163 L243,163 L243,146 L224,146 Q214,84 179,40 Q207,10 250,-7 Q249,-9 246,-13 Q240,-21 238,-25 Q193,-2 167,26 Q140,-3 91,-28 Q86,-20 79,-11 Q126,10 155,40 Q126,81 114,146 L98,146 M42,64 Q64,68 97,72 Q95,63 95,54 Q89,53 79,52 Q50,48 37,46 Q29,45 21,42 L14,60 Q14,60 15,61 Q23,67 27,73 Q41,90 55,111 Q51,111 43,110 Q35,109 30,108 Q25,108 17,105 Q16,105 16,105 L8,122 Q14,128 20,137 Q39,167 57,207 L74,200 Q53,160 31,124 Q39,125 57,126 Q52,126 66,127 Q74,141 81,154 L97,145 Q73,107 42,64 M167,55 Q199,95 206,146 L131,146 Q140,92 167,55 M7,12 Q62,21 100,28 Q98,19 98,10 Q89,8 73,6 Q32,0 11,-5 M147,200 L162,210 Q164,207 168,203 Q182,185 189,174 L172,164 Q168,171 160,182 Q152,194 147,200"/> 
            <glyph glyph-name="续" unicode="&#x7EED;" horiz-adv-x="246" d=" M168,115 L186,115 Q186,70 182,47 L246,47 L246,31 L177,31 Q177,30 176,27 Q177,29 175,26 Q204,11 244,-10 L232,-26 Q222,-20 196,-5 Q175,7 166,12 Q148,-9 90,-30 Q87,-25 78,-13 Q147,6 157,31 L91,31 L91,47 L163,47 Q168,66 168,115 M92,141 L158,141 L158,166 L102,166 L102,182 L158,182 L158,208 L176,208 L176,182 L234,182 L234,166 L176,166 L176,141 L244,141 L244,125 L233,92 Q226,93 216,93 L227,125 L92,125 M36,68 Q60,70 86,72 Q84,65 84,56 Q41,53 17,49 L11,67 Q18,71 28,84 Q34,91 45,109 Q48,114 50,116 Q28,116 13,114 L7,130 Q13,134 21,148 Q35,171 51,206 L70,198 Q45,155 29,131 Q35,131 46,132 Q56,132 60,132 Q69,148 77,163 L95,154 Q60,99 36,68 M9,11 Q68,20 87,23 Q86,9 86,5 Q85,5 83,5 Q29,-2 14,-6 M92,78 L100,91 Q114,84 109,86 Q134,73 141,69 L131,54 Q122,61 92,78 M110,105 L119,118 Q137,110 159,97 L149,82 Q129,95 110,105"/> 
            <glyph glyph-name="网" unicode="&#x7F51;" horiz-adv-x="233" d=" M43,-26 L25,-26 L25,194 L231,194 L231,5 Q233,-24 201,-25 Q187,-25 166,-25 Q165,-13 162,-6 Q164,-6 173,-6 Q187,-7 195,-7 Q214,-8 213,7 L213,176 L43,176 L43,25 Q64,56 79,86 Q72,99 57,124 Q50,137 46,143 L60,151 Q62,148 65,142 Q74,129 88,103 Q96,119 107,148 Q108,152 109,154 L125,148 Q113,115 99,86 Q102,81 108,70 Q121,49 126,38 L110,29 Q100,49 89,68 Q74,38 57,15 L43,24 M124,135 L138,143 Q144,134 158,110 Q163,102 165,98 Q180,127 189,152 L206,146 Q188,104 176,80 Q193,51 207,25 L191,16 Q187,23 178,39 Q170,54 166,62 Q165,60 162,56 Q144,23 134,11 L119,21 Q140,50 156,80 Q139,109 124,135"/> 
            <glyph glyph-name="美" unicode="&#x7F8E;" horiz-adv-x="248" d=" M30,134 L119,134 L119,156 L15,156 L15,173 L94,173 Q88,178 75,187 Q66,194 61,198 L72,211 Q90,199 108,186 L94,173 L159,173 L150,185 Q168,195 184,210 L198,196 Q179,181 165,173 L242,173 L242,156 L138,156 L138,134 L229,134 L229,118 L138,118 L138,95 L247,95 L247,78 L10,78 L10,95 L119,95 L119,118 L30,118 M248,-8 Q247,-10 243,-15 Q238,-23 234,-28 Q152,-12 128,34 Q108,-13 20,-30 Q15,-22 8,-12 Q93,0 109,37 L13,37 L13,54 L116,54 Q119,63 120,73 L139,73 Q138,69 137,62 Q135,57 135,54 L244,54 L244,37 L145,37 Q173,-1 248,-8"/> 
            <glyph glyph-name="耀" unicode="&#x8000;" horiz-adv-x="246" d=" M170,116 L185,121 Q187,118 189,111 Q192,105 193,101 L242,101 L242,87 L190,87 L190,66 L237,66 L237,52 L190,52 L190,31 L237,31 L237,17 L190,17 L190,-3 L246,-3 L246,-17 L130,-17 L130,-28 L115,-28 L115,68 Q113,65 108,60 Q103,54 100,51 Q99,52 96,55 Q95,57 89,62 Q116,85 135,122 L149,115 Q145,107 140,101 L177,101 Q174,109 170,116 M9,109 L47,109 L47,207 L62,207 L62,109 L100,109 L100,93 L79,93 L79,10 Q88,18 105,29 Q105,25 108,15 Q108,14 108,13 Q104,10 97,5 Q85,-2 79,-6 Q73,-11 68,-15 L58,-1 Q63,2 63,15 L63,93 L45,93 Q45,47 40,22 Q35,-2 19,-28 Q17,-26 14,-23 Q12,-20 6,-15 Q32,20 30,93 L9,93 M169,141 Q173,142 182,143 Q208,148 220,151 L220,182 L175,182 L175,196 L234,196 L234,115 L220,115 L220,138 Q196,132 173,126 M99,136 Q127,141 150,147 L150,182 L101,182 L101,196 L165,196 L165,120 L150,120 L150,134 Q126,128 102,122 M130,17 L130,-3 L175,-3 L175,17 M130,52 L130,31 L175,31 L175,52 M131,87 Q130,87 130,87 L130,66 L175,66 L175,87 M9,177 L22,183 Q31,158 40,130 L25,124 Q18,151 9,177 M68,130 Q79,154 86,182 L101,177 Q100,174 98,167 Q88,140 82,125 M110,170 L119,178 Q119,178 120,177 Q134,165 141,157 L131,148 Q121,160 110,170 M175,170 L185,178 Q195,170 206,157 L195,148 Q186,160 175,170"/> 
            <glyph glyph-name="能" unicode="&#x80FD;" horiz-adv-x="246" d=" M40,-26 L23,-26 L23,115 L120,115 L120,5 Q120,-23 92,-24 Q79,-24 69,-24 Q67,-14 65,-6 Q69,-6 76,-7 Q83,-7 86,-7 Q103,-8 102,7 L102,24 L40,24 M144,89 L162,89 L162,49 Q199,62 234,83 L246,66 Q206,45 162,29 L162,12 Q161,-6 178,-5 L206,-5 Q223,-6 225,6 Q227,17 227,35 Q239,30 246,28 Q246,27 246,26 Q244,7 242,1 Q240,-23 205,-22 L176,-22 Q143,-23 144,8 M145,207 L162,207 L162,163 Q198,176 229,195 L240,179 Q210,163 162,144 L162,135 Q161,114 179,116 L206,116 Q223,115 224,129 Q225,135 227,158 Q234,154 246,152 Q245,145 243,133 Q242,126 242,124 Q239,97 205,99 L176,99 Q143,98 145,131 M96,185 Q116,164 141,135 Q137,132 130,126 Q127,123 125,122 Q123,125 119,131 Q114,137 112,140 Q98,139 103,139 Q53,136 34,134 Q30,134 24,133 Q17,133 14,132 L8,150 Q17,153 25,162 Q48,186 64,211 L83,203 Q74,192 53,169 Q41,156 36,150 Q52,151 91,154 Q87,154 99,155 Q96,158 91,165 Q85,171 82,174 M40,62 L40,39 L102,39 L102,62 M40,100 L40,77 L102,77 L102,100"/> 
            <glyph glyph-name="自" unicode="&#x81EA;" horiz-adv-x="222" d=" M34,175 L100,175 Q101,180 103,193 Q104,203 105,208 L125,205 Q122,187 119,175 L222,175 L222,-28 L202,-28 L202,-13 L54,-13 L54,-28 L34,-28 M54,42 L54,2 L202,2 L202,42 M54,100 L54,60 L202,60 L202,100 M54,157 L54,117 L202,117 L202,157"/> 
            <glyph glyph-name="航" unicode="&#x822A;" horiz-adv-x="249" d=" M9,100 L24,100 L24,182 L49,182 Q50,185 51,192 Q53,203 55,209 L72,206 Q71,201 68,190 Q67,185 66,182 L100,182 L100,0 Q101,-25 76,-25 Q64,-25 55,-25 Q55,-23 54,-19 Q52,-12 51,-7 Q56,-8 72,-8 Q84,-9 83,2 L83,83 L40,83 L40,68 Q40,29 36,11 Q32,-8 20,-27 Q18,-26 13,-22 Q7,-18 5,-16 Q26,8 24,68 L24,83 L9,83 M148,103 L148,80 Q148,36 142,15 Q136,-6 116,-29 Q115,-28 110,-24 Q104,-19 102,-17 Q120,0 125,20 Q131,38 131,79 L131,120 L207,120 L207,7 Q206,-4 217,-3 L220,-3 Q229,-3 230,7 Q230,15 232,51 Q235,49 242,46 Q247,43 249,42 Q248,31 247,17 Q246,8 246,4 Q244,-21 219,-20 L212,-20 Q189,-21 190,4 L190,103 M109,170 L166,170 Q164,176 157,191 Q153,200 152,204 L169,209 Q171,205 177,193 Q182,180 184,176 L169,170 L241,170 L241,152 L109,152 M40,165 L40,100 L83,100 L83,165 M47,62 L62,68 Q66,60 74,34 Q76,28 77,25 L62,20 Q56,44 47,62 M47,146 L62,152 Q65,145 72,128 Q75,120 76,117 L61,112 Q56,127 47,146"/> 
            <glyph glyph-name="艺" unicode="&#x827A;" horiz-adv-x="247" d=" M223,53 Q232,49 243,47 Q239,17 237,7 Q233,-19 178,-20 Q130,-22 72,-20 Q40,-19 32,-1 Q25,18 49,36 Q96,68 162,101 L35,101 L35,119 L204,119 L204,100 Q122,62 63,23 Q48,12 52,5 Q57,-1 78,-2 Q132,-4 173,-2 Q218,-2 218,15 Q221,23 223,53 M160,208 L180,208 L180,176 L247,176 L247,158 L180,158 L180,132 L160,132 L160,158 L96,158 L96,132 L76,132 L76,158 L9,158 L9,176 L76,176 L76,208 L96,208 L96,176 L160,176"/> 
            <glyph glyph-name="英" unicode="&#x82F1;" horiz-adv-x="248" d=" M216,126 L216,62 L247,62 L247,46 L143,46 Q168,1 248,-9 Q243,-16 239,-27 Q151,-11 128,38 Q110,-5 19,-30 Q15,-21 9,-12 Q92,6 113,46 L9,46 L9,62 L40,62 L40,126 L119,126 L119,150 L138,150 L138,126 M163,208 L182,208 L182,179 L246,179 L246,163 L182,163 L182,141 L163,141 L163,163 L93,163 L93,141 L74,141 L74,163 L11,163 L11,179 L74,179 L74,208 L93,208 L93,179 L163,179 M138,110 Q138,101 137,86 Q137,70 136,62 L197,62 L197,110 M118,62 Q119,72 119,110 L59,110 L59,62"/> 
            <glyph glyph-name="解" unicode="&#x89E3;" horiz-adv-x="247" d=" M8,140 Q35,169 51,208 L68,203 Q66,199 62,191 Q59,186 58,184 L103,184 L103,169 L85,143 L116,143 L116,0 Q117,-26 91,-26 Q82,-26 70,-26 Q70,-22 69,-15 Q68,-10 68,-9 Q72,-10 88,-10 Q101,-11 100,2 L100,39 L78,39 L78,0 L62,0 L62,39 L41,39 Q41,0 21,-29 Q11,-21 8,-18 Q27,4 25,55 L25,135 Q22,131 17,126 Q15,129 10,138 Q8,139 8,140 M180,114 L198,114 L198,88 L241,88 L241,71 L198,71 L198,37 L247,37 L247,20 L198,20 L198,-29 L180,-29 L180,20 L123,20 L123,37 L180,37 L180,71 L151,71 Q149,64 143,51 Q141,47 140,45 Q131,50 124,52 Q138,76 145,111 L163,108 Q160,97 157,88 L180,88 M125,195 L234,195 Q234,174 232,152 Q231,122 201,122 Q186,122 176,122 Q176,125 173,140 Q176,140 185,140 Q195,139 199,139 Q214,139 215,153 Q215,158 216,167 Q216,175 216,179 L170,179 Q172,132 129,109 Q128,110 124,115 Q119,121 117,123 Q154,140 152,179 L125,179 M49,169 Q42,155 31,143 L66,143 L83,169 M78,84 L78,53 L100,53 L100,84 M100,129 L78,129 L78,98 L100,98 M41,84 L41,53 L62,53 L62,84 M41,129 L41,98 L62,98 L62,129"/> 
            <glyph glyph-name="识" unicode="&#x8BC6;" horiz-adv-x="250" d=" M98,191 L231,191 L231,74 L98,74 M117,174 L117,91 L213,91 L213,174 M93,52 Q93,50 94,47 Q94,45 97,32 Q80,21 55,0 Q49,-4 45,-9 L30,4 Q39,12 38,25 L38,109 L8,109 L8,126 L57,126 L57,24 Q75,37 93,52 M132,53 L148,42 Q118,4 84,-27 L69,-13 Q104,16 132,53 M177,40 L192,53 Q208,36 236,4 Q245,-6 250,-12 L234,-26 Q210,4 177,40 M44,203 Q49,198 58,188 Q75,170 81,163 L66,150 Q55,164 30,191"/> 
            <glyph glyph-name="质" unicode="&#x8D28;" horiz-adv-x="247" d=" M140,176 L158,176 L158,149 L241,149 L241,133 L158,133 L158,104 L224,104 L224,19 L206,19 L206,88 L93,88 L93,19 L75,19 L75,104 L140,104 L140,133 L60,133 L60,149 L140,149 M31,194 Q152,194 238,203 L243,185 Q170,180 50,177 L50,114 Q50,55 44,25 Q37,-6 20,-29 Q13,-21 5,-14 Q33,15 31,114 M159,75 Q159,53 154,33 Q164,28 185,18 Q229,-3 247,-11 L237,-28 Q201,-8 147,17 Q129,-13 56,-30 Q52,-23 46,-12 Q149,-1 141,75"/> 
            <glyph glyph-name="贴" unicode="&#x8D34;" horiz-adv-x="248" d=" M168,209 L186,209 L186,157 L248,157 L248,141 L186,141 L186,85 L235,85 L235,-29 L217,-29 L217,-15 L148,-15 L148,-29 L130,-29 L130,85 L168,85 M21,196 L114,196 L114,45 L96,45 L96,179 L38,179 L38,43 L21,43 M148,68 L148,0 L217,0 L217,68 M80,39 Q107,10 123,-4 L108,-17 Q94,0 68,25 Q59,0 22,-27 Q16,-19 9,-12 Q42,9 50,27 Q59,45 59,88 L59,158 L76,158 L76,89 Q76,51 69,29"/> 
            <glyph glyph-name="超" unicode="&#x8D85;" horiz-adv-x="248" d=" M9,121 L58,121 L58,156 L18,156 L18,173 L58,173 L58,207 L76,207 L76,173 L113,173 L113,156 L76,156 L76,121 L116,121 L116,103 L83,103 L83,65 L118,65 L118,48 L83,48 L83,2 Q101,-2 126,-3 Q147,-4 190,-3 Q237,-3 248,-2 Q247,-5 246,-10 Q244,-16 242,-21 Q202,-21 118,-21 Q60,-18 39,20 Q31,-9 19,-29 Q14,-18 8,-7 Q27,26 29,88 L47,87 Q46,63 43,44 Q53,23 65,13 L65,103 L9,103 M131,95 L232,95 L232,16 L131,16 M119,180 L119,196 L235,196 Q235,192 234,181 Q233,162 232,150 Q231,112 200,113 Q182,112 172,112 Q171,125 169,131 Q171,131 177,131 Q190,130 197,130 Q215,130 215,151 Q216,169 216,180 L170,180 Q170,132 130,103 Q125,111 118,119 Q153,139 153,180 M148,79 L148,33 L215,33 L215,79"/> 
            <glyph glyph-name="身" unicode="&#x8EAB;" horiz-adv-x="249" d=" M10,66 L43,66 L43,182 L103,182 Q105,197 106,209 L126,207 Q124,197 121,182 L206,182 L206,83 Q221,94 237,107 L249,93 Q243,88 230,79 Q214,67 206,61 L206,9 Q207,-26 172,-25 Q155,-26 134,-26 Q133,-20 131,-11 Q130,-8 130,-6 Q140,-7 166,-7 Q189,-8 188,10 L188,48 Q116,0 20,-29 Q15,-17 9,-11 Q94,10 157,50 L10,50 M61,89 L61,66 L183,66 Q185,68 188,70 L188,89 M61,166 L61,143 L188,143 L188,166 M61,127 L61,105 L188,105 L188,127"/> 
            <glyph glyph-name="输" unicode="&#x8F93;" horiz-adv-x="249" d=" M8,33 Q23,34 50,38 L50,79 L12,79 L12,95 Q13,98 15,105 Q25,136 30,155 L9,155 L9,171 L34,171 Q39,189 43,208 L61,204 Q57,188 52,171 L95,171 L95,155 L47,155 Q43,141 35,115 Q31,101 29,95 L50,95 L50,133 L66,133 L66,95 L90,95 L90,79 L66,79 L66,40 Q71,41 81,42 Q88,44 92,44 Q91,34 91,27 Q79,26 66,24 L66,-29 L50,-29 L50,22 Q46,21 38,20 Q19,17 10,16 M113,-28 L98,-28 L98,112 L162,112 L162,-2 Q163,-27 137,-27 Q129,-27 124,-27 Q124,-21 120,-11 Q127,-12 134,-12 Q147,-13 146,-1 L146,24 L113,24 M179,207 Q176,204 175,201 Q205,161 249,141 Q247,138 243,132 Q239,127 237,124 Q221,135 207,145 L207,132 L123,132 L123,142 Q110,130 93,120 Q89,126 81,135 Q130,160 160,209 M219,117 L235,117 L235,1 Q237,-27 205,-27 Q194,-27 185,-27 Q184,-18 182,-9 Q194,-11 205,-11 Q220,-12 219,2 M166,188 Q148,166 129,147 L204,147 Q183,165 166,188 M183,103 L198,103 L198,17 L183,17 M113,61 L113,38 L146,38 L146,61 M113,98 L113,75 L146,75 L146,98"/> 
            <glyph glyph-name="边" unicode="&#x8FB9;" horiz-adv-x="248" d=" M132,207 L153,207 Q153,204 153,193 Q152,174 152,163 L233,163 Q231,96 229,66 Q228,13 186,16 Q167,16 153,16 Q153,26 149,38 Q159,37 184,37 Q209,35 209,68 Q212,101 213,145 L151,145 Q150,48 83,12 Q77,22 69,28 Q132,62 131,145 L83,145 L83,163 L132,163 Q132,188 132,207 M109,-2 Q126,-3 174,-2 Q228,-2 248,-1 Q247,-3 245,-8 Q242,-17 241,-21 Q179,-21 153,-21 Q123,-21 106,-20 Q68,-20 49,7 Q35,-4 18,-24 L7,-5 Q16,2 35,19 Q38,22 40,23 L40,105 L9,105 L9,123 L60,123 L60,20 Q76,-1 109,-2 M35,206 Q38,202 45,194 Q60,174 68,163 L51,151 Q44,162 29,183 Q23,191 20,195"/> 
            <glyph glyph-name="通" unicode="&#x901A;" horiz-adv-x="248" d=" M100,164 L110,176 Q142,160 156,152 L199,179 L83,179 L83,195 L229,195 L229,178 L172,144 L231,144 L231,37 Q232,8 204,7 Q185,6 178,7 Q178,8 177,10 Q176,22 174,26 Q175,26 176,26 Q189,24 198,24 Q215,23 214,41 L214,50 L167,50 L167,11 L150,11 L150,50 L104,50 L104,8 L87,8 L87,144 L142,144 Q130,150 100,164 M106,-4 Q128,-5 179,-4 Q236,-4 248,-3 Q245,-11 241,-22 Q227,-23 182,-22 Q130,-22 104,-21 Q72,-21 47,6 Q37,-2 17,-26 L5,-9 Q15,1 38,23 L38,104 L9,104 L9,122 L57,122 L57,22 Q75,-2 106,-4 M167,89 L167,65 L214,65 L214,89 M104,89 L104,65 L150,65 L150,89 M214,129 L167,129 L167,104 L214,104 M37,203 Q52,185 71,157 Q63,152 54,145 Q32,179 22,193 M104,129 L104,104 L150,104 L150,129"/> 
            <glyph glyph-name="速" unicode="&#x901F;" horiz-adv-x="248" d=" M91,141 L152,141 L152,165 L79,165 L79,181 L152,181 L152,208 L169,208 L169,181 L245,181 L245,165 L169,165 L169,141 L230,141 L230,78 L169,78 L169,63 L178,74 Q209,54 244,29 L232,13 Q211,31 169,60 L169,2 L152,2 L152,63 Q124,34 84,10 Q75,22 71,26 Q112,46 144,78 L91,78 M106,-4 Q128,-5 179,-4 Q236,-4 248,-3 Q245,-11 241,-22 Q227,-23 182,-22 Q130,-22 104,-21 Q66,-20 46,5 Q36,-3 17,-26 L7,-5 Q28,14 38,23 L38,104 L9,104 L9,122 L57,122 L57,19 Q71,-3 106,-4 M108,125 L108,93 L152,93 L152,125 M212,125 L169,125 L169,93 L212,93 M35,203 Q50,185 69,157 Q64,154 53,146 Q52,145 52,145 Q30,179 20,193"/> 
            <glyph glyph-name="配" unicode="&#x914D;" horiz-adv-x="248" d=" M19,145 L52,145 L52,177 L12,177 L12,193 L140,193 L140,177 L100,177 L100,145 L135,145 L135,-26 L119,-26 L119,-10 L35,-10 L35,-27 L19,-27 M148,194 L234,194 L234,94 L170,94 L170,15 Q168,-6 190,-4 L206,-4 Q224,-5 226,10 Q229,28 230,48 Q237,44 248,40 Q247,21 244,6 Q240,-22 206,-21 L186,-21 Q151,-23 153,13 L153,111 L217,111 L217,178 L148,178 M102,71 Q84,70 84,93 L84,130 L68,130 Q69,82 48,57 Q47,58 42,62 Q37,66 35,67 L35,47 L119,47 L119,71 M35,32 L35,3 L119,3 L119,32 M119,130 L100,130 L100,96 Q99,85 109,86 L119,86 M35,130 L35,69 Q53,87 52,130 M68,177 L68,145 L84,145 L84,177"/> 
            <glyph glyph-name="金" unicode="&#x91D1;" horiz-adv-x="249" d=" M124,211 L146,206 Q145,205 143,203 Q141,200 140,199 Q183,149 249,125 Q240,113 236,107 Q225,111 205,122 Q202,124 200,125 L200,111 L137,111 L137,77 L224,77 L224,60 L137,60 L137,-1 L241,-1 L241,-19 L16,-19 L16,-1 L119,-1 L119,60 L32,60 L32,77 L119,77 L119,111 L55,111 L55,124 Q47,119 28,109 Q22,106 19,104 Q17,110 7,122 Q90,160 124,211 M129,186 Q100,153 61,129 L196,129 Q155,154 129,186 M161,16 Q173,26 198,53 L213,42 Q191,18 176,3 M45,42 L59,53 Q65,47 77,35 Q88,23 94,16 L78,3 Q59,27 45,42"/> 
            <glyph glyph-name="锁" unicode="&#x9501;" horiz-adv-x="248" d=" M7,133 Q36,168 49,208 L67,202 Q61,186 53,171 L94,171 L94,155 L43,155 Q36,142 26,129 L88,129 L88,113 L60,113 L60,79 L92,79 L92,63 L60,63 L60,9 Q65,12 76,18 Q87,24 93,27 Q93,15 94,7 Q73,-3 58,-11 Q54,-14 48,-19 L35,-2 Q44,4 43,14 L43,63 L9,63 L9,79 L43,79 L43,113 L26,113 L26,129 Q22,123 17,117 Q12,126 7,133 M101,138 L159,138 L159,207 L177,207 L177,138 L236,138 L236,24 L218,24 L218,121 L119,121 L119,24 L101,24 M159,108 L178,108 Q178,83 177,64 Q177,52 174,40 Q187,31 219,8 Q240,-7 248,-12 Q246,-14 242,-19 Q237,-24 234,-27 Q209,-7 167,23 Q148,-12 91,-32 Q85,-24 79,-15 Q158,6 159,66 Q159,83 159,108 M198,153 Q214,174 228,196 L244,186 Q232,168 212,143 M94,186 L109,195 Q124,176 139,154 L123,143 Q110,165 94,186"/> 
            <glyph glyph-name="长" unicode="&#x957F;" horiz-adv-x="248" d=" M10,109 L54,109 L54,208 L73,208 L73,109 L244,109 L244,90 L136,90 Q166,24 248,0 Q242,-8 234,-20 Q146,14 118,90 L73,90 L73,0 Q85,5 113,19 Q125,25 132,28 Q132,16 133,6 Q108,-2 78,-17 Q70,-22 60,-29 L45,-10 Q54,-3 54,6 L54,90 L10,90 M88,138 Q149,160 203,199 L216,184 Q156,145 97,121 Q93,129 88,138"/> 
            <glyph glyph-name="闪" unicode="&#x95EA;" horiz-adv-x="236" d=" M94,175 L94,193 L234,193 L234,8 Q236,-29 201,-27 Q191,-28 163,-28 Q162,-18 159,-8 Q178,-8 197,-8 Q217,-10 215,10 L215,175 M54,31 Q94,57 107,83 Q121,108 120,155 L140,155 Q140,127 135,104 Q141,98 151,87 Q185,52 201,34 L186,19 Q182,23 175,32 Q144,67 129,83 Q115,47 68,14 Q67,15 65,18 Q58,27 54,31 M23,161 L42,161 L42,-27 L23,-27 M33,197 L47,209 Q75,182 81,175 L65,161 Q45,184 33,197"/> 
            <glyph glyph-name="颜" unicode="&#x989C;" horiz-adv-x="248" d=" M130,193 L248,193 L248,177 L193,177 L186,144 L237,144 L237,26 L221,26 L221,128 L153,128 L153,26 L136,26 L136,144 L168,144 L173,177 L130,177 M21,123 L80,123 Q86,135 98,163 L116,156 Q113,151 108,141 Q100,128 97,123 L128,123 L128,108 L38,108 L38,65 Q40,5 19,-28 Q12,-19 6,-12 Q22,10 21,67 M178,120 L195,120 L195,91 Q196,62 190,41 Q215,19 248,-13 L235,-27 Q227,-17 197,11 Q188,20 184,24 Q173,-3 127,-31 Q123,-24 115,-15 Q154,5 166,27 Q179,47 178,94 M58,202 L74,209 Q86,189 88,185 L78,180 L127,180 L127,165 L14,165 L14,180 L69,180 Q64,192 58,202 M47,-28 Q39,-16 37,-14 Q87,3 119,30 L130,17 Q87,-12 47,-28 M52,16 Q51,17 50,19 Q45,30 42,31 Q81,45 114,68 L124,55 Q84,29 52,16 M53,59 Q51,63 45,70 Q43,73 42,74 Q71,82 108,104 L118,91 Q91,75 53,59 M34,156 L49,163 Q54,156 63,140 Q66,134 67,132 L50,124 Q46,136 34,156"/> 
            <glyph glyph-name="额" unicode="&#x989D;" horiz-adv-x="251" d=" M8,101 Q37,128 52,162 L68,157 Q67,155 64,149 Q61,144 59,141 L114,141 L114,126 Q102,106 89,91 Q96,88 109,81 Q122,75 128,71 L118,56 Q96,69 77,79 Q62,66 34,54 L111,54 L111,-22 L94,-22 L94,-11 L46,-11 L46,-24 L29,-24 L29,52 Q23,49 15,47 Q9,59 6,62 Q42,74 60,88 Q55,90 46,95 Q41,98 38,99 L47,112 Q50,111 55,108 Q59,106 73,99 Q85,110 95,127 L50,127 Q38,106 21,90 Q19,91 14,96 Q10,100 8,101 M134,147 L170,147 L175,178 L130,178 L130,194 L246,194 L246,178 L194,178 L187,147 L238,147 L238,26 L221,26 L221,131 L151,131 L151,26 L134,26 M178,116 L195,116 Q195,83 194,72 Q193,38 185,21 L193,29 Q228,5 251,-12 L238,-26 Q219,-10 183,17 Q170,-8 127,-30 Q123,-24 115,-15 Q181,6 177,72 Q178,88 178,116 M59,206 L76,209 Q77,205 80,195 Q82,185 83,180 L125,180 L125,146 L109,146 L109,166 L30,166 L30,146 L14,146 L14,180 L65,180 Q64,185 62,193 Q60,202 59,206 M46,39 L46,2 L94,2 L94,39"/> 
            <glyph glyph-name="骁" unicode="&#x9A81;" horiz-adv-x="248" d=" M11,196 L88,196 L81,94 L94,94 Q92,37 89,10 Q89,-20 56,-21 Q47,-21 31,-21 Q31,-18 29,-12 Q28,-5 27,-2 Q36,-3 54,-3 Q72,-4 72,12 Q75,52 76,78 L14,78 L21,166 L38,166 L32,94 L63,94 L70,180 L11,180 M102,97 Q135,108 161,121 Q151,135 143,156 L100,148 L97,165 L138,172 Q136,178 133,192 Q131,200 130,205 L147,209 Q148,205 150,197 Q151,190 155,175 L230,189 L233,173 L161,159 Q167,142 176,130 Q195,142 213,159 L225,148 Q207,131 187,116 Q193,110 201,106 Q219,94 225,111 Q225,112 226,114 Q230,131 231,140 Q238,136 247,133 Q246,125 242,110 Q241,107 241,105 Q235,84 216,83 Q200,83 187,93 Q186,93 186,94 Q178,100 172,107 Q144,92 110,81 Q107,88 102,97 M104,70 L241,70 L241,53 L200,53 L200,5 Q199,-7 211,-6 L215,-6 Q227,-7 229,5 Q229,6 229,8 Q231,21 232,34 Q242,28 248,27 Q248,15 245,0 Q242,-24 218,-23 L208,-23 Q181,-24 182,3 L182,53 L151,53 Q151,47 150,41 Q151,-8 98,-30 Q90,-21 85,-14 Q135,2 133,41 Q133,46 134,53 L104,53 M8,42 Q38,47 70,54 Q69,44 69,36 Q34,29 10,23"/> 
            <glyph glyph-name="高" unicode="&#x9AD8;" horiz-adv-x="247" d=" M49,152 L206,152 L206,101 L49,101 M40,-27 L22,-27 L22,85 L233,85 L233,4 Q235,-25 204,-25 Q187,-25 172,-25 Q171,-18 169,-10 Q168,-8 168,-7 Q180,-7 199,-7 Q217,-8 215,6 L215,70 L40,70 M73,54 L183,54 L183,1 L73,1 M115,204 L133,208 Q136,197 140,184 L247,184 L247,168 L9,168 L9,184 L120,184 Q119,187 117,196 Q116,201 115,204 M68,136 L68,116 L188,116 L188,136 M91,39 L91,16 L165,16 L165,39"/> 
            <glyph glyph-name="龙" unicode="&#x9F99;" horiz-adv-x="247" d=" M13,160 L85,160 Q86,167 86,183 Q87,199 87,207 L106,207 Q106,181 104,160 L245,160 L245,141 L150,141 L150,56 Q186,85 212,124 L229,113 Q194,64 150,31 L150,15 Q148,-6 170,-3 L200,-3 Q220,-4 223,12 Q223,13 223,15 Q226,36 227,49 Q236,46 247,44 Q245,25 241,5 Q237,-23 202,-22 L167,-22 Q129,-23 130,11 L130,17 Q104,1 87,-6 Q85,-3 81,2 Q77,7 75,10 Q106,23 130,41 L130,141 L103,141 Q96,22 20,-29 Q14,-21 7,-14 Q77,31 83,141 L13,141 M153,194 L164,208 Q167,206 172,203 Q193,187 205,178 L192,163 Q181,172 153,194"/> 
            <glyph glyph-name="！" unicode="&#xFF01;" horiz-adv-x="79" d=" M73,26 L55,26 Q54,114 49,201 L79,201 Q78,181 77,142 Q75,66 73,26 M77,5 L77,-23 L52,-23 L52,5"/> 
            <glyph glyph-name="，" unicode="&#xFF0C;" horiz-adv-x="78" d=" M52,-37 L43,-28 Q61,-15 62,11 L45,11 L45,44 L78,44 Q78,36 78,15 Q78,-20 52,-37"/> 
        </font>
</defs>
</svg>
