<?xml version="1.0" standalone="no"?>
<!DOCTYPE svg PUBLIC "-//W3C//DTD SVG 1.1//EN" "http://www.w3.org/Graphics/SVG/1.1/DTD/svg11.dtd" >
<svg xmlns="http://www.w3.org/2000/svg">
    <defs>
        <font id="">
            <font-face font-family=""
                       units-per-em="256"
                       ascent="229"
                       descent="-64"
                       bbox="-14 -64 269 229"
                    />
            <missing-glyph horiz-adv-x="0" />
            
            <glyph glyph-name="-" unicode="&#x2D;" horiz-adv-x="154" d=" M154,80 L154,100 L15,100 L15,80"/> 
            <glyph glyph-name="0" unicode="&#x30;" horiz-adv-x="144" d=" M77,176 Q36,173 35,90 Q35,4 78,5 Q121,4 121,90 Q121,177 77,176 M79,-12 Q12,-11 12,90 Q13,191 78,194 Q143,192 144,90 Q143,-10 79,-12"/> 
            <glyph glyph-name="1" unicode="&#x31;" horiz-adv-x="105" d=" M84,-9 L105,-9 L105,194 L90,194 Q77,162 31,141 L31,120 Q62,132 84,152"/> 
            <glyph glyph-name="2" unicode="&#x32;" horiz-adv-x="142" d=" M140,-7 L140,10 L35,10 Q48,36 89,66 Q142,102 139,141 Q135,192 79,194 Q30,195 13,146 L33,136 Q44,173 75,175 Q115,174 116,138 Q117,111 72,78 Q28,46 9,6 L9,-7"/> 
            <glyph glyph-name="4" unicode="&#x34;" horiz-adv-x="144" d=" M28,58 L96,58 L96,161 Q96,160 94,157 Q93,154 92,152 Q76,131 28,58 M144,40 L116,40 L116,-9 L96,-9 L96,40 L4,40 L4,52 L100,194 L116,194 L116,58 L144,58"/> 
            <glyph glyph-name="5" unicode="&#x35;" horiz-adv-x="144" d=" M42,109 L48,170 L134,170 L134,190 L31,190 L19,85 L34,82 Q47,103 78,104 Q120,102 122,56 Q120,7 77,5 Q39,6 33,48 L11,42 Q22,-12 79,-12 Q142,-10 144,58 Q140,121 82,124 Q60,124 42,109"/> 
            <glyph glyph-name="6" unicode="&#x36;" horiz-adv-x="144" d=" M33,67 Q34,6 81,4 Q119,6 121,54 Q120,102 81,103 Q42,101 33,67 M140,149 L120,142 Q112,177 82,176 Q32,175 32,93 Q48,120 84,121 Q140,118 144,56 Q140,-7 81,-12 Q10,-12 10,85 Q11,194 83,194 Q127,192 140,149"/> 
            <glyph glyph-name="7" unicode="&#x37;" horiz-adv-x="143" d=" M143,176 L143,190 L13,190 L13,170 L116,170 Q56,82 41,-9 L65,-9 Q78,86 143,176"/> 
            <glyph glyph-name="8" unicode="&#x38;" horiz-adv-x="147" d=" M78,87 Q38,85 34,43 Q38,7 79,4 Q120,7 124,41 Q121,85 78,87 M79,176 Q46,174 43,142 Q44,105 79,103 Q112,104 114,140 Q111,173 79,176 M51,95 Q21,109 19,140 Q23,191 79,194 Q133,190 138,140 Q136,108 108,95 Q145,81 147,41 Q144,-10 79,-12 Q13,-10 11,43 Q14,82 51,95"/> 
            <glyph glyph-name="×" unicode="&#xD7;" horiz-adv-x="189" d=" M189,42 L176,29 L128,77 L80,29 L67,42 L115,90 L67,138 L80,151 L128,103 L176,151 L189,138 L141,90"/> 
            <glyph glyph-name="中" unicode="&#x4E2D;" horiz-adv-x="232" d=" M24,156 L118,156 L118,209 L138,209 L138,156 L232,156 L232,46 L213,46 L213,59 L138,59 L138,-30 L118,-30 L118,59 L43,59 L43,46 L24,46 M213,138 L138,138 L138,77 L213,77 M43,138 L43,77 L118,77 L118,138"/> 
            <glyph glyph-name="产" unicode="&#x4EA7;" horiz-adv-x="247" d=" M33,111 L147,111 Q162,130 177,159 L195,147 Q179,125 168,111 L240,111 L240,94 L52,94 L52,77 Q54,8 20,-29 Q14,-22 7,-13 Q35,12 33,77 M114,203 L133,209 Q134,207 136,201 Q141,187 143,180 L247,180 L247,163 L13,163 L13,180 L123,180 Q119,191 114,203 M63,149 L80,160 Q82,157 86,151 Q102,131 106,124 L89,112 Q75,135 63,149"/> 
            <glyph glyph-name="他" unicode="&#x4ED6;" horiz-adv-x="251" d=" M69,111 L93,118 L93,177 L112,177 L112,124 L153,136 L153,206 L172,206 L172,142 L235,161 Q235,143 233,111 Q232,94 232,86 Q233,48 202,49 Q191,49 183,49 Q183,53 180,66 Q179,68 179,69 Q190,68 200,68 Q213,67 214,87 Q216,121 216,137 L172,124 L172,20 L153,20 L153,118 L112,105 L112,17 Q112,-5 135,-3 L197,-3 Q224,-4 225,13 Q228,32 230,49 Q234,48 244,45 Q249,44 251,43 Q249,31 245,12 Q244,7 244,5 Q239,-22 202,-21 L131,-21 Q92,-22 93,13 L93,99 L72,92 M6,94 Q44,145 63,208 L82,202 Q71,170 57,141 L57,-28 L39,-28 L39,108 Q26,87 14,72 Q7,91 6,94"/> 
            <glyph glyph-name="体" unicode="&#x4F53;" horiz-adv-x="250" d=" M58,26 Q108,70 131,140 L75,140 L75,158 L145,158 L145,207 L164,207 L164,158 L239,158 L239,140 L178,140 Q202,65 250,32 Q245,28 236,14 Q183,64 164,140 L164,38 L202,38 L202,21 L164,21 L164,-28 L145,-28 L145,21 L107,21 L107,38 L145,38 L145,140 Q129,69 72,10 Q63,22 58,26 M6,91 Q42,139 62,208 L80,202 Q70,169 56,140 L56,-28 L38,-28 L38,105 Q36,101 31,94 Q27,87 15,71 Q14,72 12,78 Q7,90 6,91"/> 
            <glyph glyph-name="作" unicode="&#x4F5C;" horiz-adv-x="248" d=" M74,109 Q109,157 126,208 L145,204 Q139,186 131,170 L248,170 L248,152 L160,152 L160,110 L238,110 L238,92 L160,92 L160,49 L241,49 L241,32 L160,32 L160,-28 L141,-28 L141,152 L123,152 Q108,123 89,96 Q78,107 74,109 M7,88 Q40,134 63,207 L83,202 Q73,174 61,147 L61,-28 L42,-28 L42,108 Q28,84 16,67 Q12,76 7,88"/> 
            <glyph glyph-name="使" unicode="&#x4F7F;" horiz-adv-x="249" d=" M75,174 L151,174 L151,207 L169,207 L169,174 L247,174 L247,158 L169,158 L169,134 L234,134 L234,57 L216,57 L216,67 L167,67 Q164,36 151,17 Q182,-2 249,-8 Q242,-17 236,-28 Q172,-18 138,2 Q121,-13 77,-30 Q73,-22 64,-12 Q109,0 123,14 Q106,29 92,50 L108,59 Q120,41 135,28 Q145,43 148,67 L85,67 L85,134 L151,134 L151,158 L75,158 M8,92 Q45,147 59,208 L78,202 Q68,169 55,141 L55,-29 L37,-29 L37,105 Q36,103 33,99 Q23,80 16,71 Q12,82 8,92 M150,83 Q150,87 150,95 Q151,104 151,109 L151,118 L103,118 L103,83 M169,109 Q169,95 168,83 L216,83 L216,118 L169,118"/> 
            <glyph glyph-name="其" unicode="&#x5176;" horiz-adv-x="248" d=" M14,176 L51,176 L51,207 L69,207 L69,176 L187,176 L187,207 L205,207 L205,176 L242,176 L242,159 L205,159 L205,47 L248,47 L248,30 L9,30 L9,47 L51,47 L51,159 L14,159 M69,73 L69,47 L187,47 L187,73 M69,116 L69,90 L187,90 L187,116 M69,159 L69,133 L187,133 L187,159 M151,9 L162,26 Q169,23 185,16 Q232,-2 248,-10 L238,-29 Q204,-10 151,9 M92,25 L103,9 Q64,-12 18,-30 Q17,-27 13,-21 Q9,-14 8,-12 Q57,5 92,25"/> 
            <glyph glyph-name="务" unicode="&#x52A1;" horiz-adv-x="250" d=" M82,211 L100,203 Q97,200 92,193 Q89,188 87,186 L216,186 L216,169 Q188,140 153,122 Q195,106 250,103 Q243,92 237,83 Q174,92 132,111 Q86,93 15,79 Q11,88 5,96 Q65,105 111,122 Q85,138 67,162 Q43,136 25,121 Q18,128 12,134 Q53,166 82,211 M27,69 L98,69 Q98,70 98,71 Q100,82 100,95 L120,95 Q119,81 117,69 L214,69 Q214,59 212,37 Q211,26 211,21 Q212,-27 164,-24 Q142,-24 126,-24 Q126,-22 125,-18 Q124,-7 123,-4 Q129,-5 143,-5 Q155,-6 163,-6 Q192,-9 193,22 Q193,26 194,37 Q194,49 194,52 L114,52 Q102,-4 24,-31 Q18,-23 12,-15 Q83,7 94,52 L27,52 M189,169 L82,169 Q102,146 132,131 Q165,147 189,169"/> 
            <glyph glyph-name="助" unicode="&#x52A9;" horiz-adv-x="235" d=" M8,13 Q17,15 28,15 L28,191 L113,191 L113,26 Q122,28 129,29 Q129,27 129,21 Q128,15 128,12 Q114,10 70,4 Q26,-2 11,-4 M157,206 L176,206 Q176,204 176,197 Q175,171 175,155 L235,155 Q233,69 230,16 Q231,-25 195,-24 Q180,-24 164,-24 Q164,-19 162,-11 Q161,-4 161,-2 Q179,-4 191,-4 Q212,-5 212,19 Q216,81 216,138 L174,138 Q174,127 173,118 Q174,14 120,-29 Q115,-24 105,-16 Q155,19 155,118 Q155,121 155,127 Q156,134 156,138 L126,138 L126,155 L156,155 Q157,177 157,206 M46,18 Q54,19 71,21 Q88,23 96,24 L96,63 L46,63 M46,175 L46,135 L96,135 L96,175 M46,119 L46,79 L96,79 L96,119"/> 
            <glyph glyph-name="单" unicode="&#x5355;" horiz-adv-x="247" d=" M9,37 L119,37 L119,63 L33,63 L33,171 L84,171 Q80,176 70,186 Q62,195 57,200 L72,210 Q89,194 102,179 L89,171 L151,171 Q166,189 180,209 L198,200 Q194,195 186,186 Q178,176 174,171 L223,171 L223,63 L137,63 L137,37 L247,37 L247,20 L137,20 L137,-29 L119,-29 L119,20 L9,20 M137,109 L137,80 L205,80 L205,109 M51,109 L51,80 L119,80 L119,109 M205,154 L137,154 L137,125 L205,125 M51,154 L51,125 L119,125 L119,154"/> 
            <glyph glyph-name="南" unicode="&#x5357;" horiz-adv-x="245" d=" M118,207 L137,207 L137,179 L245,179 L245,162 L137,162 L137,137 L232,137 L232,0 Q232,-26 203,-27 Q187,-27 165,-27 Q163,-18 160,-7 Q166,-7 177,-7 Q189,-8 196,-8 Q214,-8 213,3 L213,121 L45,121 L45,-28 L26,-28 L26,137 L118,137 L118,162 L10,162 L10,179 L118,179 M55,38 L119,38 L119,65 L62,65 L62,80 L99,80 Q90,95 79,108 L93,118 Q95,115 101,108 Q104,105 115,90 L101,80 L138,80 Q145,90 157,110 Q160,115 162,118 L179,108 Q169,95 157,80 L195,80 L195,65 L138,65 L138,38 L203,38 L203,22 L138,22 L138,-23 L119,-23 L119,22 L55,22"/> 
            <glyph glyph-name="后" unicode="&#x540E;" horiz-adv-x="247" d=" M77,79 L225,79 L225,-27 L205,-27 L205,-12 L97,-12 L97,-27 L77,-27 M55,169 L55,136 L247,136 L247,118 L55,118 Q55,59 48,29 Q42,0 21,-29 Q12,-18 6,-13 Q24,10 29,36 Q35,60 35,118 L35,187 Q133,189 227,201 L234,182 Q114,170 55,169 M97,61 L97,4 L205,4 L205,61"/> 
            <glyph glyph-name="咨" unicode="&#x54A8;" horiz-adv-x="249" d=" M43,67 L214,67 L214,-29 L195,-29 L195,-15 L62,-15 L62,-29 L43,-29 M73,142 Q99,168 113,210 L133,206 Q131,201 126,191 Q124,185 123,183 L235,183 L235,166 L214,129 Q203,133 195,135 L214,166 L162,166 Q162,165 162,163 Q175,108 249,90 Q242,79 238,70 Q171,94 155,136 Q137,92 69,70 Q68,75 61,84 Q59,87 58,88 Q140,108 144,166 L114,166 Q104,148 89,130 Q80,138 73,142 M62,50 L62,0 L195,0 L195,50 M58,147 Q68,137 73,133 Q53,108 26,68 L10,81 Q40,119 58,147 M32,204 Q55,184 70,170 L56,156 Q44,170 19,192"/> 
            <glyph glyph-name="品" unicode="&#x54C1;" horiz-adv-x="235" d=" M45,197 L211,197 L211,109 L45,109 M21,82 L113,82 L113,-28 L94,-28 L94,-12 L39,-12 L39,-28 L21,-28 M143,82 L235,82 L235,-28 L217,-28 L217,-12 L162,-12 L162,-28 L143,-28 M64,180 L64,126 L192,126 L192,180 M162,65 L162,2 L217,2 L217,65 M39,65 L39,3 L94,3 L94,65"/> 
            <glyph glyph-name="售" unicode="&#x552E;" horiz-adv-x="243" d=" M123,203 L139,211 Q148,198 156,184 L148,180 L238,180 L238,165 L152,165 L152,147 L231,147 L231,132 L152,132 L152,114 L231,114 L231,100 L152,100 L152,82 L243,82 L243,67 L55,67 L55,57 L37,57 L37,139 Q28,129 18,117 Q16,120 12,127 Q8,131 7,133 Q43,167 62,209 L79,203 Q73,191 66,180 L136,180 Q135,182 132,188 Q130,191 123,203 M38,48 L221,48 L221,-28 L203,-28 L203,-16 L56,-16 L56,-28 L38,-28 M56,32 L56,-1 L203,-1 L203,32 M55,132 L55,114 L134,114 L134,132 M55,100 L55,82 L134,82 L134,100 M56,165 Q56,164 55,163 L55,147 L134,147 L134,165"/> 
            <glyph glyph-name="在" unicode="&#x5728;" horiz-adv-x="247" d=" M100,208 L121,205 Q120,201 116,192 Q113,183 111,178 L247,178 L247,161 L103,161 Q86,126 65,96 L65,-27 L47,-27 L47,72 Q33,56 19,42 Q15,51 7,60 Q53,100 82,161 L19,161 L19,178 L90,178 Q97,193 100,208 M150,145 L169,145 L169,96 L233,96 L233,79 L169,79 L169,6 L247,6 L247,-9 L74,-9 L74,6 L150,6 L150,79 L87,79 L87,96 L150,96"/> 
            <glyph glyph-name="实" unicode="&#x5B9E;" horiz-adv-x="245" d=" M8,-11 Q103,5 124,41 L12,41 L12,59 L132,59 Q141,85 141,146 L160,146 Q160,85 152,59 L245,59 L245,41 L145,41 Q144,38 142,35 Q150,32 171,22 Q226,-1 242,-8 L231,-26 Q219,-20 169,3 Q142,15 132,20 Q103,-10 20,-30 Q14,-20 8,-11 M115,204 L134,210 Q136,206 141,195 Q146,184 148,179 L133,174 L239,174 L239,131 L219,131 L219,156 L36,156 L36,131 L17,131 L17,174 L127,174 Q127,175 126,177 Q120,194 115,204 M48,109 Q50,108 54,106 Q89,89 100,82 L89,66 Q49,89 38,93 M70,144 Q92,134 121,117 L110,101 Q101,107 68,126 Q63,129 61,130"/> 
            <glyph glyph-name="客" unicode="&#x5BA2;" horiz-adv-x="248" d=" M90,163 L107,155 Q105,153 101,149 Q98,144 96,142 L205,142 L205,125 Q182,101 152,86 Q184,75 248,72 Q241,58 239,53 Q165,59 130,75 Q90,58 16,48 Q14,55 7,66 Q74,74 109,86 Q89,98 71,116 Q55,101 34,87 Q28,93 21,100 Q65,127 90,163 M50,49 L207,49 L207,-28 L189,-28 L189,-17 L68,-17 L68,-28 L50,-28 M115,207 L133,210 Q138,190 140,180 L237,180 L237,135 L219,135 L219,164 L38,164 L38,135 L20,135 L20,180 L122,180 Q121,182 120,187 Q117,200 115,207 M68,33 L68,-1 L189,-1 L189,33 M180,126 L86,126 Q106,105 131,94 Q159,106 180,126"/> 
            <glyph glyph-name="小" unicode="&#x5C0F;" horiz-adv-x="249" d=" M121,205 L141,205 L141,7 Q142,-26 108,-25 Q103,-25 90,-26 Q77,-26 72,-26 Q72,-25 72,-23 Q71,-15 68,-3 Q80,-4 102,-4 Q122,-5 121,12 M61,153 L83,146 Q58,79 28,21 Q17,27 8,32 Q38,85 61,153 M170,143 L189,152 Q213,107 249,34 L227,24 Q196,93 170,143"/> 
            <glyph glyph-name="帮" unicode="&#x5E2E;" horiz-adv-x="238" d=" M23,148 L67,148 Q68,155 68,162 L68,167 L16,167 L16,183 L68,183 L68,208 L84,208 L84,183 L135,183 L135,167 L84,167 L84,162 Q84,154 84,148 L128,148 L128,133 L83,133 Q82,123 79,114 L137,114 L137,98 L73,98 Q61,73 27,48 Q21,55 15,63 Q42,81 53,98 L13,98 L13,114 L61,114 Q64,123 66,133 L23,133 M121,83 L139,83 L139,62 L215,62 L215,15 Q218,-14 189,-14 Q181,-14 168,-13 Q160,-13 158,-13 Q156,-1 154,3 Q155,3 159,3 Q176,1 183,2 Q198,1 197,19 L197,47 L139,47 L139,-30 L121,-30 L121,47 L65,47 L65,-13 L47,-13 L47,62 L121,62 M232,178 Q225,165 212,147 Q236,131 238,110 Q237,83 206,83 Q202,83 193,84 Q184,84 181,84 Q180,90 177,97 Q176,101 176,102 Q194,100 206,100 Q220,100 220,110 Q217,131 190,143 Q204,162 212,178 L167,178 L167,72 L150,72 L150,194 L232,194"/> 
            <glyph glyph-name="常" unicode="&#x5E38;" horiz-adv-x="239" d=" M53,132 L204,132 L204,77 L138,77 L138,57 L227,57 L227,15 Q228,-10 198,-11 Q174,-11 169,-11 Q168,-2 166,6 Q180,5 193,5 Q209,4 208,18 L208,41 L138,41 L138,-29 L119,-29 L119,41 L51,41 L51,-11 L32,-11 L32,57 L119,57 L119,77 L53,77 M168,177 Q189,191 206,205 L220,191 Q200,176 183,165 L239,165 L239,123 L220,123 L220,149 L37,149 L37,123 L18,123 L18,165 L75,165 Q59,180 41,192 L52,205 Q67,195 89,179 L76,165 L119,165 L119,208 L138,208 L138,165 L178,165 M71,116 L71,92 L186,92 L186,116"/> 
            <glyph glyph-name="店" unicode="&#x5E97;" horiz-adv-x="248" d=" M128,153 L146,153 L146,125 L241,125 L241,109 L146,109 L146,74 L222,74 L222,-28 L204,-28 L204,-12 L93,-12 L93,-28 L75,-28 L75,74 L128,74 M124,206 L144,210 Q149,196 152,179 L248,179 L248,162 L51,162 L51,109 Q52,11 18,-30 Q9,-20 5,-16 Q33,16 31,105 L31,179 L132,179 Q129,193 124,206 M93,57 L93,3 L204,3 L204,57"/> 
            <glyph glyph-name="心" unicode="&#x5FC3;" horiz-adv-x="249" d=" M71,162 L90,162 L90,20 Q89,-2 112,-1 L159,-1 Q184,-3 186,16 Q186,20 187,27 Q189,42 190,52 Q202,48 210,45 Q207,23 204,7 Q199,-21 161,-20 L108,-20 Q70,-21 71,16 M207,143 Q209,139 213,132 Q237,83 249,55 L229,45 Q211,93 188,135 M35,135 L54,130 Q42,73 27,30 L8,38 Q26,91 35,135 M123,210 Q137,189 159,149 Q162,144 163,141 L143,131 Q127,168 106,201"/> 
            <glyph glyph-name="户" unicode="&#x6237;" horiz-adv-x="228" d=" M111,202 L129,211 Q131,207 137,199 Q145,186 149,179 L136,172 L228,172 L228,65 L209,65 L209,77 L56,77 Q54,12 22,-29 Q20,-27 14,-22 Q9,-17 6,-15 Q40,22 37,102 L37,172 L129,172 Q127,175 123,182 Q116,195 111,202 M57,155 L57,102 L57,95 L209,95 L209,155"/> 
            <glyph glyph-name="技" unicode="&#x6280;" horiz-adv-x="249" d=" M97,98 L97,114 L159,114 L159,151 L96,151 L96,168 L159,168 L159,207 L178,207 L178,168 L244,168 L244,151 L178,151 L178,114 L230,114 L230,99 Q210,49 183,21 Q203,4 249,-9 Q248,-10 245,-13 Q237,-23 235,-27 Q197,-12 168,8 Q138,-14 92,-31 Q87,-24 79,-14 Q130,3 155,22 Q130,47 113,98 M7,80 Q21,84 42,91 L42,142 L10,142 L10,159 L42,159 L42,206 L61,206 L61,159 L89,159 L89,142 L61,142 L61,96 Q75,101 88,105 Q88,93 89,86 Q87,85 81,84 Q68,80 61,77 L61,3 Q63,-25 34,-25 Q26,-26 14,-26 Q14,-24 12,-16 Q10,-8 9,-5 Q15,-6 31,-6 Q43,-7 42,5 L42,71 Q23,65 9,60 M209,98 L132,98 Q147,55 169,33 Q195,58 209,98"/> 
            <glyph glyph-name="持" unicode="&#x6301;" horiz-adv-x="249" d=" M7,78 Q9,78 12,79 Q23,81 41,86 L41,143 L9,143 L9,160 L41,160 L41,207 L60,207 L60,160 L91,160 L91,143 L60,143 L60,90 Q65,91 74,94 Q83,96 87,97 Q87,95 88,88 Q88,82 88,79 Q85,78 76,76 Q66,74 60,72 L60,0 Q62,-26 34,-26 Q28,-27 13,-27 Q13,-26 13,-24 Q12,-18 9,-7 Q22,-7 31,-7 Q42,-8 41,1 L41,67 Q37,66 29,63 Q15,59 9,58 M88,122 L158,122 L158,156 L102,156 L102,173 L158,173 L158,207 L177,207 L177,173 L233,173 L233,156 L177,156 L177,122 L249,122 L249,104 L88,104 M191,96 L210,96 L210,71 L247,71 L247,54 L210,54 L210,0 Q211,-27 183,-26 Q166,-26 151,-26 Q149,-17 146,-7 Q162,-8 178,-8 Q192,-8 191,3 L191,54 L89,54 L89,71 L191,71 M104,40 L118,50 Q138,29 148,14 L132,3 Q121,21 104,40"/> 
            <glyph glyph-name="指" unicode="&#x6307;" horiz-adv-x="247" d=" M103,92 L231,92 L231,-28 L212,-28 L212,-13 L121,-13 L121,-28 L103,-28 M7,78 Q24,81 41,86 L41,143 L10,143 L10,161 L41,161 L41,208 L60,208 L60,161 L90,161 L90,143 L60,143 L60,91 Q65,92 75,95 Q84,97 89,98 Q89,86 90,80 Q75,77 60,72 L60,0 Q62,-27 34,-26 Q19,-26 13,-26 Q13,-23 11,-16 Q10,-9 9,-6 Q13,-6 21,-7 Q28,-7 31,-7 Q42,-7 41,1 L41,67 Q24,63 9,58 M101,208 L119,208 L119,171 Q178,182 234,198 L240,182 Q184,167 119,154 L119,146 Q118,127 139,128 L204,128 Q222,127 225,143 Q228,154 229,168 Q238,165 247,162 Q246,153 243,139 Q243,140 242,135 Q237,111 207,112 L134,112 Q99,111 101,142 M121,31 L121,1 L212,1 L212,31 M121,75 L121,46 L212,46 L212,75"/> 
            <glyph glyph-name="操" unicode="&#x64CD;" horiz-adv-x="250" d=" M64,-6 Q109,9 142,39 L75,39 L75,54 L150,54 L150,66 L167,66 L167,54 L246,54 L246,39 L174,39 Q205,8 250,-4 Q244,-13 238,-20 Q188,0 167,28 L167,-29 L150,-29 L150,28 Q123,0 76,-22 Q69,-9 64,-6 M8,80 Q11,81 19,84 Q31,88 37,90 L37,145 L10,145 L10,162 L37,162 L37,207 L55,207 L55,162 L82,162 L82,145 L55,145 L55,97 Q59,99 67,102 Q74,105 78,106 Q78,102 78,87 Q77,86 73,85 Q63,80 55,78 L55,4 Q58,-26 29,-24 Q23,-25 9,-24 Q8,-14 6,-5 Q20,-6 27,-6 Q39,-8 37,4 L37,71 Q24,65 10,60 M102,197 L217,197 L217,142 L102,142 M169,128 L234,128 L234,73 L169,73 M85,128 L149,128 L149,73 L85,73 M119,183 L119,157 L200,157 L200,183 M184,114 L184,88 L219,88 L219,114 M101,113 L101,88 L134,88 L134,113"/> 
            <glyph glyph-name="支" unicode="&#x652F;" horiz-adv-x="248" d=" M120,209 L140,209 L140,174 L245,174 L245,156 L140,156 L140,120 L207,120 L207,103 Q185,55 146,23 Q181,3 248,-6 Q245,-9 238,-20 Q235,-25 234,-27 Q165,-13 129,10 Q92,-11 20,-30 Q13,-16 9,-11 Q85,5 113,22 Q79,50 58,103 L34,103 L34,120 L120,120 L120,156 L10,156 L10,174 L120,174 M185,103 L79,103 Q96,58 129,33 Q168,63 185,103"/> 
            <glyph glyph-name="服" unicode="&#x670D;" horiz-adv-x="250" d=" M113,193 L233,193 L231,157 Q232,123 193,125 Q178,125 162,125 Q162,128 160,135 Q159,141 158,144 Q173,143 190,143 Q214,141 213,158 L214,176 L132,176 L132,107 L234,107 L234,93 Q223,47 198,18 Q216,1 250,-11 Q242,-21 236,-28 Q206,-13 186,5 Q168,-11 142,-26 Q137,-18 132,-10 Q161,3 174,18 Q151,48 143,91 L132,91 L132,-28 L113,-28 M25,195 L93,195 L93,-1 Q94,-25 70,-25 Q61,-25 48,-25 Q47,-17 45,-8 Q50,-8 65,-8 Q77,-9 76,1 L76,55 L42,55 Q43,0 22,-28 Q16,-22 8,-15 Q27,7 25,59 M215,91 L159,91 Q167,57 186,31 Q207,58 215,91 M42,117 L42,70 L76,70 L76,117 M42,179 L42,133 L76,133 L76,179"/> 
            <glyph glyph-name="术" unicode="&#x672F;" horiz-adv-x="250" d=" M6,12 Q71,55 105,132 L13,132 L13,149 L119,149 L119,208 L138,208 L138,149 L244,149 L244,132 L151,132 Q186,57 250,19 Q249,18 246,15 Q239,6 235,0 Q169,47 138,128 L138,-29 L119,-29 L119,128 Q90,47 20,-3 Q18,-1 14,2 Q9,9 6,12 M164,195 L178,206 Q196,189 214,168 L198,156 Q195,159 190,165 Q174,186 164,195"/> 
            <glyph glyph-name="欢" unicode="&#x6B22;" horiz-adv-x="249" d=" M29,144 Q46,118 66,89 Q76,118 80,163 L14,163 L14,181 L99,181 L99,163 Q92,104 78,70 Q87,57 104,32 Q109,25 111,21 L94,9 Q91,14 85,24 Q75,41 69,50 Q54,17 19,-16 Q14,-9 7,0 Q41,34 57,69 Q27,115 15,134 M176,142 Q176,121 175,103 Q192,26 249,-8 Q244,-13 233,-26 Q184,10 169,63 Q157,10 92,-29 Q86,-22 78,-13 Q126,13 141,45 Q158,76 157,142 M99,112 Q120,154 132,209 L151,204 Q147,188 142,171 L243,171 L243,155 Q229,123 219,108 Q214,112 201,116 Q211,130 222,154 L137,154 Q128,128 117,104 Q110,109 99,112"/> 
            <glyph glyph-name="物" unicode="&#x7269;" horiz-adv-x="239" d=" M87,113 Q112,153 131,209 L148,203 Q142,185 134,167 L239,167 Q233,50 232,22 Q230,-23 189,-21 Q177,-21 161,-21 Q160,-17 159,-8 Q158,-2 157,0 Q175,-2 189,-2 Q212,-5 213,25 Q216,55 220,150 L201,150 Q195,23 115,-24 Q109,-17 103,-10 Q180,37 184,150 L162,150 Q154,65 99,19 Q97,21 94,24 Q92,27 85,33 Q139,75 144,150 L127,150 Q114,121 102,104 Q96,108 87,113 M54,207 L72,207 L72,152 L96,152 L96,136 L72,136 L72,85 Q84,90 96,94 Q98,83 99,76 Q97,75 92,73 Q87,71 72,66 L72,-29 L54,-29 L54,59 Q44,55 24,47 Q15,44 11,42 L8,63 Q14,65 26,69 Q44,75 54,79 L54,136 L32,136 Q28,114 20,94 Q13,100 5,104 Q18,140 22,184 L39,181 Q38,166 35,152 L54,152"/> 
            <glyph glyph-name="特" unicode="&#x7279;" horiz-adv-x="248" d=" M52,207 L70,207 L70,152 L101,152 L101,136 L70,136 L70,84 Q84,90 97,94 Q97,93 98,89 Q99,80 100,77 Q94,74 80,70 Q74,67 70,66 L70,-28 L52,-28 L52,59 Q32,52 11,44 L7,64 Q17,67 37,73 Q47,76 52,78 L52,136 L32,136 Q28,115 20,95 Q13,100 5,104 Q18,141 22,185 L39,182 Q38,167 35,152 L52,152 M159,208 L177,208 L177,174 L236,174 L236,158 L177,158 L177,122 L247,122 L247,105 L92,105 L92,122 L159,122 L159,158 L102,158 L102,174 L159,174 M97,73 L195,73 L195,99 L213,99 L213,73 L248,73 L248,56 L213,56 L213,3 Q214,-26 183,-26 Q158,-26 150,-26 Q150,-24 149,-20 Q147,-10 146,-5 Q148,-5 151,-5 Q164,-7 178,-7 Q196,-8 195,6 L195,56 L97,56 M110,39 L124,50 Q139,34 154,16 L139,4 Q125,22 110,39"/> 
            <glyph glyph-name="理" unicode="&#x7406;" horiz-adv-x="249" d=" M97,47 L159,47 L159,76 L102,76 L102,195 L233,195 L233,76 L177,76 L177,47 L238,47 L238,31 L177,31 L177,-2 L249,-2 L249,-19 L83,-19 L83,-2 L159,-2 L159,31 L97,31 M12,105 L42,105 L42,169 L9,169 L9,186 L92,186 L92,169 L60,169 L60,105 L91,105 L91,89 L60,89 L60,24 Q76,29 91,33 Q92,22 93,14 Q90,13 82,11 Q34,-1 12,-8 L6,10 Q23,15 42,19 L42,89 L12,89 M120,128 L120,91 L159,91 L159,128 M177,128 L177,91 L215,91 L215,128 M120,179 L120,143 L159,143 L159,179 M215,179 L177,179 L177,143 L215,143"/> 
            <glyph glyph-name="用" unicode="&#x7528;" horiz-adv-x="235" d=" M143,-25 L124,-25 L124,51 L53,51 Q49,2 24,-31 Q23,-30 21,-28 Q14,-19 9,-15 Q26,6 31,32 Q36,57 36,116 L36,194 L233,194 L233,5 Q235,-26 198,-26 Q183,-27 169,-27 Q169,-26 168,-23 Q167,-12 165,-6 Q169,-6 179,-6 Q191,-7 197,-7 Q216,-8 215,9 L215,51 L143,51 M143,114 L143,68 L215,68 L215,114 M215,176 L143,176 L143,131 L215,131 M55,114 Q55,87 54,68 L124,68 L124,114 M55,176 L55,131 L124,131 L124,176"/> 
            <glyph glyph-name="管" unicode="&#x7BA1;" horiz-adv-x="248" d=" M46,104 L209,104 L209,52 L63,52 L63,35 L214,35 L214,-28 L196,-28 L196,-18 L63,-18 L63,-28 L46,-28 M113,153 L129,159 Q133,153 139,141 Q140,138 141,137 L238,137 L238,100 L220,100 L220,122 L35,122 L35,100 L18,100 L18,137 L121,137 Q118,145 113,153 M196,20 L63,20 L63,-3 L196,-3 M55,210 L75,209 Q69,197 62,186 L133,186 L133,171 L75,171 Q79,167 89,157 Q93,152 95,150 L81,139 Q80,140 79,141 Q69,154 61,163 L72,171 L51,171 Q36,152 21,140 Q16,146 8,154 Q39,178 55,210 M162,210 L182,209 Q180,203 174,192 Q172,188 171,186 L248,186 L248,171 L186,171 Q190,167 198,159 Q204,152 206,150 L192,139 Q191,140 188,144 Q186,147 172,164 L183,171 L163,171 Q156,159 147,150 Q141,156 133,162 Q151,183 162,210 M63,89 L63,66 L191,66 L191,89"/> 
            <glyph glyph-name="米" unicode="&#x7C73;" horiz-adv-x="249" d=" M7,2 Q76,40 103,93 L10,93 L10,111 L119,111 L119,205 L138,205 L138,111 L246,111 L246,93 L155,93 Q188,37 249,8 Q243,0 237,-8 Q168,29 138,90 L138,-28 L119,-28 L119,90 Q93,29 19,-13 Q19,-13 18,-12 Q12,-1 7,2 M31,180 L45,191 Q79,153 93,136 L77,123 Q60,145 31,180 M164,135 Q185,156 210,190 L226,179 Q224,177 221,173 Q203,149 179,122"/> 
            <glyph glyph-name="系" unicode="&#x7CFB;" horiz-adv-x="243" d=" M173,110 Q208,81 241,51 L225,39 Q217,47 206,58 Q166,56 140,56 L140,5 Q141,-25 110,-25 Q94,-25 80,-25 Q80,-21 77,-9 Q76,-7 76,-6 Q78,-6 86,-6 Q99,-7 106,-7 Q123,-8 122,7 L122,55 Q81,54 55,52 Q44,52 28,50 L21,67 Q36,70 50,78 Q84,93 119,113 Q106,112 77,111 Q63,110 56,110 Q44,109 36,107 L29,123 Q41,127 51,133 Q68,143 104,166 Q113,172 118,175 Q103,174 76,173 Q42,171 26,170 Q26,176 22,188 Q146,194 227,201 L232,184 Q174,179 128,176 L140,168 Q97,142 65,125 Q79,126 114,127 Q135,128 145,128 Q174,145 194,160 L211,147 Q140,104 63,68 Q135,70 189,73 Q184,78 172,88 Q163,95 159,99 M164,31 L176,44 Q195,31 232,5 Q239,0 243,-2 L229,-17 Q225,-14 218,-8 Q195,10 164,31 M71,43 L87,32 Q54,4 22,-17 Q11,-6 8,-3 Q37,13 71,43"/> 
            <glyph glyph-name="线" unicode="&#x7EBF;" horiz-adv-x="249" d=" M91,88 L144,95 Q141,114 140,132 L97,127 L94,144 L139,150 Q139,152 139,155 Q137,196 137,207 L156,207 Q156,179 158,152 L239,161 L241,144 L159,134 Q161,115 162,98 L245,110 L247,93 L165,81 Q167,62 172,48 Q174,42 175,37 Q200,56 218,80 L233,68 Q212,42 182,19 Q190,3 206,-4 Q221,-13 226,4 Q226,6 227,8 Q229,22 231,39 Q234,37 249,32 Q244,4 242,-4 Q236,-26 219,-27 Q204,-28 190,-17 Q175,-5 167,9 Q134,-10 92,-27 Q88,-20 80,-10 Q126,5 159,26 Q159,27 158,30 Q156,34 155,37 Q148,62 146,78 L94,71 M39,63 Q60,65 90,68 Q90,65 89,60 Q88,54 87,51 Q79,50 65,49 Q45,47 17,43 L11,61 Q18,64 25,73 Q33,83 51,111 Q28,111 11,109 L7,126 Q9,128 17,138 Q40,173 56,209 L74,201 Q51,159 29,126 Q51,126 61,127 Q66,135 75,152 Q74,150 78,157 L96,150 Q65,100 39,63 M8,9 Q39,13 94,23 Q94,19 93,13 Q93,7 93,5 Q85,4 66,0 Q29,-5 14,-8 M177,194 L187,207 Q199,199 219,184 Q222,181 224,180 L212,166 Q196,181 177,194"/> 
            <glyph glyph-name="联" unicode="&#x8054;" horiz-adv-x="248" d=" M10,190 L111,190 L111,173 L96,173 L96,39 Q106,40 118,43 Q118,35 119,26 Q115,26 108,24 Q100,23 96,22 L96,-28 L79,-28 L79,18 Q62,15 29,9 Q16,6 10,5 L7,24 Q16,26 26,27 L26,173 L10,173 M105,94 L162,94 Q162,101 162,108 L162,138 L112,138 L112,156 L176,156 Q190,177 206,207 L223,199 Q210,177 196,156 L237,156 L237,138 L180,138 L180,109 Q180,101 180,94 L245,94 L245,77 L182,77 Q199,20 248,-9 Q241,-17 235,-26 Q187,9 173,54 Q162,8 113,-29 Q111,-27 107,-22 Q102,-16 99,-13 Q154,20 160,77 L105,77 M43,29 Q49,30 59,32 Q72,35 79,36 L79,70 L43,70 M43,122 L43,86 L79,86 L79,122 M43,173 L43,138 L79,138 L79,173 M121,197 L135,207 Q150,190 163,172 L147,161 Q136,179 121,197"/> 
            <glyph glyph-name="自" unicode="&#x81EA;" horiz-adv-x="222" d=" M34,175 L100,175 Q101,180 103,193 Q104,203 105,208 L125,205 Q122,187 119,175 L222,175 L222,-28 L202,-28 L202,-13 L54,-13 L54,-28 L34,-28 M54,42 L54,2 L202,2 L202,42 M54,100 L54,60 L202,60 L202,100 M54,157 L54,117 L202,117 L202,157"/> 
            <glyph glyph-name="色" unicode="&#x8272;" horiz-adv-x="247" d=" M7,128 Q52,162 82,210 L101,205 Q95,194 87,185 L183,185 L183,168 L154,136 L220,136 L220,56 L55,56 L55,16 Q54,-3 78,-2 L196,-2 Q221,-4 223,15 Q226,26 227,44 Q232,42 242,38 Q246,37 247,37 Q245,20 242,8 Q236,-21 201,-20 L73,-20 Q35,-21 36,13 L36,128 Q28,122 19,114 Q17,117 12,123 Q8,126 7,128 M55,119 L55,73 L119,73 L119,119 M201,119 L138,119 L138,73 L201,73 M159,168 L74,168 Q61,151 44,136 L132,136"/> 
            <glyph glyph-name="见" unicode="&#x89C1;" horiz-adv-x="248" d=" M117,162 L137,162 L137,137 Q137,104 133,80 L151,80 L151,11 Q150,-6 169,-5 L201,-5 Q222,-6 224,8 Q226,17 228,47 Q230,46 236,44 Q246,41 248,40 Q248,37 247,30 Q244,9 243,1 Q240,-25 206,-23 L166,-23 Q130,-24 131,8 L131,70 Q118,8 23,-30 Q18,-23 9,-13 Q74,12 95,43 Q118,73 117,137 M39,198 L217,198 L217,47 L198,47 L198,180 L59,180 L59,46 L39,46"/> 
            <glyph glyph-name="订" unicode="&#x8BA2;" horiz-adv-x="249" d=" M94,188 L249,188 L249,170 L194,170 L194,13 Q196,-23 157,-23 Q129,-24 117,-24 Q116,-18 113,-3 Q115,-3 123,-3 Q141,-4 152,-4 Q176,-6 174,17 L174,170 L94,170 M106,52 Q108,39 111,31 Q95,20 62,-3 Q56,-8 48,-16 L33,-1 Q43,5 42,23 L42,106 L7,106 L7,124 L62,124 L62,20 Q87,37 106,52 M37,204 Q63,180 80,163 L64,148 Q47,168 23,190"/> 
            <glyph glyph-name="询" unicode="&#x8BE2;" horiz-adv-x="239" d=" M96,132 L185,132 L185,17 L96,17 M66,129 Q96,165 116,210 L135,204 Q132,198 126,186 Q123,181 122,178 L239,178 Q237,90 235,18 Q235,-26 191,-24 Q169,-24 157,-24 Q157,-22 156,-14 Q155,-7 154,-4 Q167,-6 190,-6 Q217,-8 216,18 Q220,86 220,160 L111,160 Q94,132 82,118 Q81,119 73,124 Q68,128 66,129 M83,27 Q83,14 84,6 Q60,-8 39,-25 L28,-8 Q37,0 36,12 L36,107 L8,107 L8,124 L55,124 L55,8 Q72,19 83,27 M114,34 L167,34 L167,67 L114,67 M114,115 L114,82 L167,82 L167,115 M31,203 Q60,174 70,163 L54,150 Q34,175 18,191"/> 
            <glyph glyph-name="账" unicode="&#x8D26;" horiz-adv-x="251" d=" M115,112 L135,112 L135,206 L153,206 L153,112 L246,112 L246,94 L190,94 Q203,26 251,-2 Q249,-4 246,-7 Q243,-11 237,-19 Q185,19 174,94 L153,94 L153,0 Q165,6 187,18 Q187,9 189,0 Q160,-14 137,-30 L126,-14 Q136,-4 135,6 L135,94 L115,94 M21,198 L106,198 L106,45 L89,45 L89,180 L38,180 L38,43 L21,43 M55,159 L72,159 L72,107 Q72,74 69,50 Q76,42 89,26 Q108,3 116,-5 L100,-18 Q89,-1 64,30 Q57,0 20,-28 Q14,-21 7,-13 Q36,7 45,30 Q55,53 55,100 M219,193 L234,182 Q208,153 173,124 L161,136 Q193,163 219,193"/> 
            <glyph glyph-name="购" unicode="&#x8D2D;" horiz-adv-x="238" d=" M21,194 L103,194 L103,124 Q126,160 139,209 L158,204 Q152,188 146,171 L238,171 Q238,84 236,19 Q236,-25 188,-23 Q168,-23 151,-23 Q148,-8 147,-3 Q164,-5 188,-5 Q218,-7 218,22 Q220,57 220,154 L139,154 Q130,133 120,115 Q109,121 103,123 L103,45 L86,45 L86,177 L38,177 L38,43 L21,43 M53,156 L70,156 L70,107 Q70,69 66,45 Q89,21 114,-4 L99,-17 Q93,-10 78,7 Q66,20 61,26 Q54,0 20,-28 Q14,-21 7,-14 Q35,5 44,29 Q53,50 53,100 M167,95 L184,100 Q189,82 198,54 Q203,36 206,27 L187,22 L184,36 Q174,35 155,34 Q143,32 138,32 Q128,31 117,28 L109,44 Q117,49 121,58 Q135,93 146,136 L165,132 Q150,85 136,49 Q157,51 179,52 Q175,73 167,95"/> 
            <glyph glyph-name="迎" unicode="&#x8FCE;" horiz-adv-x="249" d=" M155,185 L236,185 L236,65 Q237,35 210,35 Q200,34 182,34 Q182,38 181,44 Q180,51 179,54 Q185,52 203,52 Q219,51 218,67 L218,167 L173,167 L173,3 L155,3 M106,-4 Q136,-5 180,-5 Q222,-4 249,-3 Q247,-9 243,-19 Q242,-21 242,-22 Q184,-22 159,-22 Q130,-22 104,-21 Q64,-21 46,5 Q31,-8 17,-26 L7,-8 Q27,12 39,22 L39,104 L11,104 L11,122 L57,122 L57,20 Q69,-5 106,-4 M145,74 Q145,61 146,56 Q124,46 104,35 Q101,34 94,28 Q93,27 92,27 L81,42 Q89,50 88,62 L88,190 Q118,196 148,206 L156,188 Q154,187 148,186 Q119,178 105,176 L105,56 Q109,58 120,63 Q137,70 145,74 M31,205 Q49,185 67,159 Q59,154 50,147 Q30,178 16,194"/> 
            <glyph glyph-name="问" unicode="&#x95EE;" horiz-adv-x="237" d=" M76,135 L179,135 L179,38 L76,38 M97,175 L97,194 L235,194 L235,11 Q237,-28 198,-27 Q178,-27 164,-27 Q163,-23 162,-14 Q160,-9 160,-6 Q178,-8 195,-8 Q218,-10 216,12 L216,175 M93,117 L93,56 L162,56 L162,117 M21,161 L39,161 L39,-27 L21,-27 M33,197 L47,209 Q75,181 82,174 L66,160 Q45,184 33,197"/> 
            <glyph glyph-name="题" unicode="&#x9898;" horiz-adv-x="250" d=" M9,93 L121,93 L121,77 L80,77 L80,51 L119,51 L119,36 L80,36 L80,0 Q92,-3 108,-3 Q165,-5 250,-3 Q247,-10 243,-21 Q186,-21 159,-21 Q126,-21 104,-20 Q57,-20 37,15 Q31,-5 18,-29 Q12,-23 5,-16 Q25,15 27,66 L44,63 Q43,50 41,38 Q53,16 64,7 L64,77 L9,77 M24,198 L109,198 L109,111 L24,111 M122,196 L243,196 L243,180 L187,180 L182,153 L230,153 L230,50 L214,50 L214,137 L146,137 L146,50 L131,50 L131,153 L165,153 L170,180 L122,180 M172,127 L188,127 L188,94 Q188,72 184,56 Q187,53 194,48 Q211,36 236,15 L223,2 Q196,25 178,40 Q165,14 127,0 Q125,2 122,7 Q118,11 116,13 Q177,32 172,93 M40,147 L40,125 L93,125 L93,147 M40,184 L40,162 L93,162 L93,184"/> 
        </font>
</defs>
</svg>
