<?xml version="1.0" standalone="no"?>
<!DOCTYPE svg PUBLIC "-//W3C//DTD SVG 1.1//EN" "http://www.w3.org/Graphics/SVG/1.1/DTD/svg11.dtd" >
<svg xmlns="http://www.w3.org/2000/svg">
    <defs>
        <font id="">
            <font-face font-family=""
                       units-per-em="1000"
                       ascent="882"
                       descent="-241"
                       bbox="-61 -241 1003 882"
                    />
            <missing-glyph horiz-adv-x="0" />
            
            <glyph glyph-name="0" unicode="&#x30;" horiz-adv-x="488" d=" M266,726 Q485,720 488,359 Q485,-4 266,-10 Q48,-6 44,359 Q48,719 266,726 M266,654 Q124,651 123,359 Q123,63 266,62 Q409,63 409,359 Q408,651 266,654"/> 
            <glyph glyph-name="2" unicode="&#x32;" horiz-adv-x="461" d=" M461,0 L48,0 L48,48 Q75,87 196,233 Q247,295 279,334 Q374,447 371,538 Q370,652 242,653 Q169,653 90,603 L71,672 Q159,727 258,726 Q444,720 450,537 Q452,424 336,290 Q312,260 261,201 Q190,119 155,73 L461,73"/> 
            <glyph glyph-name="4" unicode="&#x34;" horiz-adv-x="496" d=" M415,0 L337,0 L337,170 L28,170 L28,235 L329,715 L415,715 L415,241 L496,241 L496,170 L415,170 M105,241 L337,241 L337,613"/> 
            <glyph glyph-name="5" unicode="&#x35;" horiz-adv-x="463" d=" M442,715 L442,642 L177,642 L168,450 Q199,459 237,459 Q455,454 463,225 Q454,-2 212,-10 Q135,-10 62,26 L80,94 Q157,60 215,62 Q377,70 384,225 Q382,384 213,386 Q147,386 92,371 L111,715"/> 
            <glyph glyph-name="K" unicode="&#x4B;" horiz-adv-x="546" d=" M160,0 L80,0 L80,714 L160,714 L160,383 L437,714 L528,714 L241,380 Q272,342 333,266 Q472,93 546,0 L445,0 L160,370"/> 
            <glyph glyph-name="s" unicode="&#x73;" horiz-adv-x="369" d=" M37,17 L57,83 Q117,58 180,58 Q288,61 290,131 Q293,186 186,228 Q39,281 42,382 Q54,503 220,510 Q288,508 349,485 Q345,469 338,438 Q335,427 334,421 Q277,442 219,442 Q124,439 118,382 Q115,334 229,290 Q369,234 368,134 Q361,-4 183,-10 Q95,-8 37,17"/> 
            <glyph glyph-name="、" unicode="&#x3001;" horiz-adv-x="366" d=" M305,-31 L140,162 L198,209 L366,20"/> 
            <glyph glyph-name="一" unicode="&#x4E00;" horiz-adv-x="933" d=" M65,341 L65,420 L933,420 L933,341"/> 
            <glyph glyph-name="万" unicode="&#x4E07;" horiz-adv-x="927" d=" M72,646 L72,718 L927,718 L927,646 L419,646 Q417,526 412,458 L814,458 L797,83 Q791,-72 643,-72 Q615,-72 549,-67 Q545,-67 543,-67 Q542,-25 524,14 Q584,3 632,3 Q715,3 718,93 L730,388 L405,388 Q375,71 145,-95 Q116,-64 69,-49 Q318,116 332,449 Q338,557 339,646"/> 
            <glyph glyph-name="专" unicode="&#x4E13;" horiz-adv-x="931" d=" M141,599 L141,668 L415,668 Q416,672 418,679 Q440,765 447,806 L526,785 Q518,742 496,668 L859,668 L859,599 L476,599 Q458,536 436,476 L931,476 L931,407 L411,407 Q377,322 362,292 L802,292 L802,234 Q736,132 625,20 Q686,-3 749,-33 L727,-106 Q508,-5 271,70 L307,132 Q414,101 551,49 Q641,137 706,226 L274,226 L274,285 Q300,335 328,407 L66,407 L66,476 L354,476 Q375,536 394,599"/> 
            <glyph glyph-name="世" unicode="&#x4E16;" horiz-adv-x="945" d=" M52,444 L52,516 L193,516 L193,770 L272,770 L272,516 L448,516 L448,791 L526,791 L526,516 L702,516 L702,791 L780,791 L780,516 L945,516 L945,444 L780,444 L780,149 L448,149 L448,444 L272,444 L272,14 L899,14 L899,-58 L193,-58 L193,444 M526,220 L702,220 L702,444 L526,444"/> 
            <glyph glyph-name="业" unicode="&#x4E1A;" horiz-adv-x="943" d=" M56,-48 L56,24 L348,24 L348,791 L426,791 L426,24 L573,24 L573,791 L650,791 L650,24 L943,24 L943,-48 M737,204 Q708,223 663,228 Q765,412 820,585 L892,553 Q833,370 737,204 M246,209 Q179,393 95,563 L173,580 Q256,416 315,252"/> 
            <glyph glyph-name="个" unicode="&#x4E2A;" horiz-adv-x="974" d=" M911,330 Q648,454 497,669 Q355,443 97,311 Q74,341 29,368 Q361,527 481,806 L552,774 Q549,768 542.5,754.5 Q536,741 533,734 Q704,500 974,401 Q937,375 911,330 M458,-96 L458,480 L540,480 L540,-96"/> 
            <glyph glyph-name="中" unicode="&#x4E2D;" horiz-adv-x="882" d=" M459,-96 L459,227 L193,227 L193,158 L116,158 L116,611 L459,611 L459,796 L538,796 L538,611 L882,611 L882,158 L805,158 L805,227 L538,227 L538,-96 M805,538 L538,538 L538,299 L805,299 M193,538 L193,299 L459,299 L459,538"/> 
            <glyph glyph-name="亮" unicode="&#x4EAE;" horiz-adv-x="938" d=" M234,396 L234,586 L764,586 L764,396 M133,-98 Q115,-65 78,-37 Q317,-10 315,131 L318,216 L674,216 L674,52 Q670,-8 730,-4 L802,-4 Q851,-6 864,47 Q871,81 875,112 Q899,85 938,71 Q933,42 927,22 Q908,-74 806,-68 L717,-68 Q598,-71 601,39 L601,155 L389,155 L385,112 Q385,-55 133,-98 M102,178 L102,339 L897,339 L897,179 L820,179 L820,279 L179,279 L179,178 M99,643 L99,705 L479,705 Q445,745 400,785 L480,807 Q545,750 576,706 L574,705 L899,705 L899,643 M309,451 L688,451 L688,531 L309,531"/> 
            <glyph glyph-name="人" unicode="&#x4EBA;" horiz-adv-x="972" d=" M896,-76 Q616,79 501,427 Q408,72 111,-86 Q79,-50 34,-27 Q398,149 447,580 Q457,678 455,796 L539,789 Q537,677 528,574 Q654,137 972,-8 Q933,-31 896,-76"/> 
            <glyph glyph-name="代" unicode="&#x4EE3;" horiz-adv-x="944" d=" M348,355 L334,422 L539,456 Q518,602 509,788 L587,798 Q592,624 616,469 L917,519 L929,453 L626,402 Q653,251 697,150 Q750,21 821,5 Q844,5 857,42 Q872,84 882,146 Q911,111 944,95 Q934,46 919,4 Q890,-82 826,-82 Q711,-69 635,100 Q581,217 550,389 M204,-96 L204,429 Q150,351 98,297 Q70,325 27,342 Q213,537 297,794 L371,756 Q332,648 280,555 L280,-96 M796,548 Q724,644 659,707 L723,741 Q794,672 851,592"/> 
            <glyph glyph-name="优" unicode="&#x4F18;" horiz-adv-x="943" d=" M330,466 L330,533 L538,533 L538,791 L613,791 L613,533 L921,533 L921,466 L612,466 Q608,115 357,-94 Q323,-65 281,-55 Q534,141 537,466 M193,-95 L193,453 Q150,390 100,337 Q70,365 33,376 Q204,563 283,798 L352,763 Q319,669 268,573 L268,-95 M739,-69 Q622,-71 624,48 L624,415 L696,415 L696,59 Q694,-1 749,1 L801,1 Q855,-3 868,69 Q872,93 881,147 Q912,114 943,103 Q940,79 931,38 Q905,-72 809,-69 M814,567 Q761,635 676,718 L738,751 Q810,683 865,617"/> 
            <glyph glyph-name="伙" unicode="&#x4F19;" horiz-adv-x="960" d=" M889,-90 Q704,55 634,284 Q568,40 365,-97 Q340,-67 297,-51 Q557,109 581,423 Q586,477 587,554 Q588,594 588,649.5 Q588,705 588,796 L664,788 Q664,570 659,478 Q709,131 960,-37 Q923,-48 889,-90 M192,-95 L192,453 Q148,387 99,338 Q75,369 33,380 Q196,545 281,797 L349,764 Q322,682 268,578 L268,-95 M805,332 Q773,351 733,348 Q808,488 838,631 L909,602 Q863,441 805,332 M426,292 L359,326 Q405,437 425,607 L492,586 Q469,405 426,292"/> 
            <glyph glyph-name="伴" unicode="&#x4F34;" horiz-adv-x="948" d=" M366,369 L366,436 L602,436 L602,795 L676,795 L676,436 L917,436 L917,369 L676,369 L676,220 L948,220 L948,152 L676,152 L676,-96 L602,-96 L602,152 L335,152 L335,220 L602,220 L602,369 M192,-96 L192,448 Q140,368 95,326 Q66,360 31,377 Q191,539 274,799 L341,766 Q317,682 266,577 L266,-96 M778,475 Q752,497 714,509 Q800,614 841,699 L904,661 Q836,541 778,475 M490,474 Q445,558 369,665 L436,692 Q503,602 549,516"/> 
            <glyph glyph-name="住" unicode="&#x4F4F;" horiz-adv-x="951" d=" M369,546 L369,615 L918,615 L918,546 L680,546 L680,325 L887,325 L887,257 L680,257 L680,18 L951,18 L951,-51 L335,-51 L335,18 L603,18 L603,257 L398,257 L398,325 L603,325 L603,546 M200,-95 L200,447 Q145,369 98,325 Q69,360 28,378 Q213,558 291,797 L365,758 Q330,665 277,569 L277,-95 M653,617 Q593,713 531,775 L608,799 Q672,731 717,657"/> 
            <glyph glyph-name="作" unicode="&#x4F5C;" horiz-adv-x="943" d=" M558,-96 L558,568 L542,568 Q473,437 393,350 Q369,369 320,382 Q485,558 556,803 L626,769 Q609,708 575,635 L943,635 L943,568 L633,568 L633,403 L895,403 L895,335 L633,335 L633,171 L920,171 L920,103 L633,103 L633,-96 M200,-96 L200,456 Q160,395 102,329 Q73,359 34,376 Q203,566 281,800 L352,762 Q323,678 276,585 L276,-96"/> 
            <glyph glyph-name="你" unicode="&#x4F60;" horiz-adv-x="947" d=" M190,-96 L190,449 Q143,381 99,339 Q77,366 31,386 Q195,545 281,799 L351,763 Q323,678 267,572 L267,-96 M855,416 Q821,427 781,423 L841,565 L507,565 Q460,478 405,413 Q373,438 329,443 Q464,596 516,797 L587,766 Q568,695 540,632 L921,632 L921,576 M560,-90 Q526,-90 480,-86 Q484,-47 462,-11 Q505,-17 542,-18 Q601,-21 598,40 L598,470 L673,470 L673,29 Q673,-91 560,-90 M882,27 Q815,182 745,301 L818,319 Q896,185 947,66 M382,35 Q349,54 306,56 Q407,187 443,327 L511,304 Q472,161 382,35"/> 
            <glyph glyph-name="像" unicode="&#x50CF;" horiz-adv-x="966" d=" M380,379 L380,536 Q367,525 352,516 Q327,542 292,556 Q447,652 523,799 L583,768 Q568,740 549,714 L811,714 L811,668 L726,580 L886,580 L886,379 L595,379 Q588,372 580,364 Q638,322 672,258 Q779,308 845,366 L900,327 Q847,285 791,255 Q840,100 966,26 Q927,11 897,-17 Q791,68 737,227 Q715,216 692,207 Q709,155 710,80 Q714,-95 553,-90 Q530,-90 502,-88 Q500,-49 480,-21 Q517,-28 544,-28 Q644,-35 639,82 Q639,108 636,130 Q512,13 329,-50 Q315,-23 277,0 Q477,57 622,193 Q612,221 597,247 Q500,157 333,97 Q316,126 280,144 Q454,190 566,290 Q551,308 532,324 Q453,264 337,224 Q336,225 335,227 Q315,258 287,272 Q424,311 508,379 M181,-96 L181,443 Q134,370 97,327 Q73,355 32,369 Q183,538 262,799 L330,768 Q303,677 250,569 L250,-96 M508,659 Q475,618 433,580 L638,580 L714,659 M818,525 L674,525 Q663,476 637,434 L818,434 M449,434 L562,434 Q594,476 609,525 L449,525"/> 
            <glyph glyph-name="光" unicode="&#x5149;" horiz-adv-x="936" d=" M69,364 L69,431 L467,431 L467,796 L544,796 L544,431 L929,431 L929,364 L650,364 L650,62 Q649,4 706,5 L787,5 Q841,4 856,64 Q861,82 870,135 Q872,141 872,144 Q903,115 936,102 Q931,74 921,36 Q896,-69 795,-67 L698,-67 Q574,-68 575,48 L575,364 L416,364 L416,360 Q427,24 105,-97 Q90,-69 47,-37 Q354,54 341,360 L341,364 M683,477 Q656,500 617,510 Q721,619 792,741 L858,708 Q785,587 683,477 M327,481 Q248,595 146,704 L213,733 Q299,641 380,532"/> 
            <glyph glyph-name="全" unicode="&#x5168;" horiz-adv-x="973" d=" M227,386 L227,444 Q160,404 92,375 Q71,406 32,432 Q342,564 488,812 L554,777 Q545,761 535,745 Q712,540 973,456 Q933,422 914,387 Q656,496 498,690 Q398,554 240,453 L771,453 L771,386 L536,386 L536,232 L788,232 L788,167 L536,167 L536,2 L893,2 L893,-66 L106,-66 L106,2 L461,2 L461,167 L210,167 L210,232 L461,232 L461,386"/> 
            <glyph glyph-name="共" unicode="&#x5171;" horiz-adv-x="941" d=" M114,526 L114,595 L284,595 L284,795 L363,795 L363,595 L636,595 L636,795 L714,795 L714,595 L885,595 L885,526 L714,526 L714,294 L941,294 L941,226 L58,226 L58,294 L284,294 L284,526 M363,526 L363,294 L636,294 L636,526 M147,-100 Q123,-67 83,-47 Q247,45 356,183 L419,137 Q298,-7 147,-100 M864,-95 Q731,32 583,139 L642,184 Q786,82 906,-29"/> 
            <glyph glyph-name="兽" unicode="&#x517D;" horiz-adv-x="947" d=" M167,350 L167,671 L368,671 Q313,729 259,772 L327,802 Q395,744 441,696 L405,671 L552,671 Q619,742 660,802 L732,780 Q694,727 642,671 L831,671 L831,350 M195,-96 L195,174 L803,174 L803,-96 L728,-96 L728,-46 L270,-46 L270,-96 M53,231 L53,292 L947,292 L947,231 M270,116 L270,12 L728,12 L728,116 M240,404 L465,404 L465,485 L240,485 M533,404 L758,404 L758,485 L533,485 M240,617 L240,536 L465,536 L465,617 M758,617 L533,617 L533,536 L758,536"/> 
            <glyph glyph-name="创" unicode="&#x521B;" horiz-adv-x="895" d=" M280,-67 Q156,-68 157,57 L157,462 L497,462 L497,267 Q498,152 381,153 Q347,153 312,158 Q310,188 296,225 Q343,218 372,218 Q427,217 427,275 L427,399 L228,399 L228,62 Q229,1 296,0 L414,0 Q484,-3 499,58 Q509,89 514,122 Q542,89 574,77 Q567,40 559,18 Q532,-72 424,-67 M772,-86 Q743,-86 689,-80 Q687,-36 672,-4 Q728,-13 764,-13 Q824,-15 822,50 L822,795 L894,795 L894,37 Q895,-85 772,-86 M556,466 Q464,556 329,667 Q233,513 93,414 Q64,451 35,466 Q234,603 317,803 L383,773 Q379,763 369,742 Q365,732 363,727 Q482,634 594,531 M635,143 L635,682 L704,682 L704,143"/> 
            <glyph glyph-name="利" unicode="&#x5229;" horiz-adv-x="878" d=" M79,445 L79,512 L296,512 L296,668 Q235,658 146,651 Q130,692 106,715 Q336,730 486,779 L532,721 Q469,699 370,680 L370,512 L555,512 L555,445 L370,445 L370,355 L398,370 Q486,276 551,188 L503,137 Q447,215 370,307 L370,-95 L296,-95 L296,324 Q220,170 120,72 Q84,97 46,103 Q202,252 281,445 M753,-88 Q717,-88 672,-82 Q669,-43 650,-6 Q709,-15 744,-15 Q806,-16 805,52 L805,784 L878,784 L878,40 Q876,-86 753,-88 M621,129 L621,662 L690,662 L690,129"/> 
            <glyph glyph-name="刻" unicode="&#x523B;" horiz-adv-x="893" d=" M67,596 L67,661 L330,661 Q286,717 227,775 L296,800 Q358,741 400,684 L369,661 L588,661 L588,596 L340,596 Q283,502 209,422 L380,425 Q418,476 452,540 L507,504 Q376,258 109,118 Q89,145 49,166 Q213,238 329,365 L189,359 Q156,358 123,348 L94,414 Q127,424 164,464 Q211,516 262,596 M768,-86 Q724,-86 687,-80 Q683,-33 669,-5 Q671,-5 674,-6 Q728,-13 757,-13 Q822,-15 819,47 L819,793 L891,793 L891,36 Q893,-88 768,-86 M551,-67 Q474,21 389,97 Q264,-19 117,-84 Q96,-58 57,-34 Q359,96 528,374 L579,331 Q519,232 438,146 Q522,73 593,-5 M648,136 L648,676 L716,676 L716,136"/> 
            <glyph glyph-name="前" unicode="&#x524D;" horiz-adv-x="929" d=" M143,-94 L143,498 L493,498 L493,19 Q496,-91 396,-87 Q378,-87 333,-83 Q330,-82 328,-82 Q325,-48 307,-15 Q358,-22 378,-22 Q422,-25 420,27 L420,106 L218,106 L218,-94 M63,578 L63,642 L364,642 Q306,705 238,762 L305,798 Q380,735 431,673 L395,642 L566,642 Q641,728 679,800 L751,769 Q710,705 657,642 L929,642 L929,578 M744,-89 Q726,-89 681,-85 Q670,-83 665,-83 Q661,-42 639,-10 Q695,-18 725,-18 Q774,-19 773,34 L773,510 L848,510 L848,26 Q851,-92 744,-89 M596,82 L596,460 L666,460 L666,82 M218,435 L218,327 L420,327 L420,435 M218,271 L218,163 L420,163 L420,271"/> 
            <glyph glyph-name="十" unicode="&#x5341;" horiz-adv-x="940" d=" M59,352 L59,427 L458,427 L458,796 L539,796 L539,427 L940,427 L940,352 L539,352 L539,-96 L458,-96 L458,352"/> 
            <glyph glyph-name="即" unicode="&#x5373;" horiz-adv-x="899" d=" M483,-14 Q467,17 423,83 L193,-26 Q159,-46 138,-66 L98,0 Q123,26 122,73 L122,737 L490,737 L490,309 L194,309 L194,57 L383,142 Q365,170 330,217 Q320,230 316,236 L379,266 Q471,146 539,31 M587,-96 L587,731 L899,731 L899,155 Q899,32 784,32 Q742,33 715,37 Q716,72 701,110 Q738,102 773,102 Q830,101 829,168 L829,664 L661,664 L661,-96 M194,373 L420,373 L420,493 L194,493 M194,672 L194,553 L420,553 L420,672"/> 
            <glyph glyph-name="合" unicode="&#x5408;" horiz-adv-x="965" d=" M204,-96 L204,286 L800,286 L800,-96 L723,-96 L723,-36 L280,-36 L280,-96 M92,374 Q73,404 32,432 Q342,563 489,809 L556,775 Q553,770 546,758.5 Q539,747 535,741 Q718,534 965,456 Q927,424 906,388 Q656,495 499,687 Q347,486 92,374 M280,220 L280,31 L723,31 L723,220 M268,397 L268,464 L744,464 L744,397"/> 
            <glyph glyph-name="同" unicode="&#x540C;" horiz-adv-x="875" d=" M128,-96 L128,734 L875,734 L875,46 Q874,-89 750,-90 Q719,-90 659,-83 Q655,-42 637,-7 Q695,-16 729,-16 Q800,-18 798,55 L798,666 L204,666 L204,-96 M273,498 L273,562 L730,562 L730,498 M324,93 L324,393 L678,393 L678,93 M395,157 L607,157 L607,328 L395,328"/> 
            <glyph glyph-name="器" unicode="&#x5668;" horiz-adv-x="964" d=" M145,-96 L145,202 Q140,201 129,200 Q100,197 84,196 Q70,227 39,254 Q294,270 398,367 L87,367 L87,427 L442,427 Q460,469 465,512 L535,494 Q528,459 517,427 L702,427 Q668,453 635,474 L692,502 Q750,465 787,428 L785,427 L911,427 L911,367 L586,367 Q729,268 964,270 Q935,235 925,199 Q890,202 858,206 L858,-96 L790,-96 L790,-42 L603,-42 L603,-96 L535,-96 L535,208 L845,208 Q623,239 507,367 L487,367 Q407,246 179,208 L464,208 L464,-96 L396,-96 L396,-42 L212,-42 L212,-96 M538,503 L538,753 L856,753 L856,503 M146,503 L146,753 L462,753 L462,503 M603,150 L603,16 L790,16 L790,150 M212,150 L212,16 L396,16 L396,150 M606,561 L788,561 L788,695 L606,695 M214,561 L394,561 L394,695 L214,695"/> 
            <glyph glyph-name="多" unicode="&#x591A;" horiz-adv-x="893" d=" M250,125 Q225,156 192,178 Q455,259 603,428 L668,400 Q645,371 605,331 L893,331 L893,276 Q727,-59 179,-102 Q166,-70 131,-36 Q390,-15 549,57 Q483,118 433,152 L495,189 Q541,158 616,91 Q734,160 804,267 L527,267 Q403,176 250,125 M157,294 Q139,330 106,355 Q300,384 462,452 Q410,498 354,537 L416,573 Q483,526 529,483 Q658,550 738,637 L403,637 Q325,553 213,484 Q182,514 145,528 Q339,639 436,807 L509,779 Q478,728 459,704 L842,704 L842,648 Q641,379 157,294"/> 
            <glyph glyph-name="大" unicode="&#x5927;" horiz-adv-x="961" d=" M885,-83 Q607,54 499,350 Q424,65 115,-90 Q86,-57 41,-33 Q393,125 446,452 L99,452 L99,525 L451,525 Q457,641 455,795 L535,788 Q536,658 529,525 L897,525 L897,452 L535,452 Q640,112 961,-13 Q919,-37 885,-83"/> 
            <glyph glyph-name="好" unicode="&#x597D;" horiz-adv-x="951" d=" M416,-8 Q368,40 296,102 Q237,10 130,-78 Q98,-56 54,-43 Q180,59 239,149 Q158,216 103,256 Q133,351 168,529 L61,529 L61,594 L180,594 Q198,710 208,795 L280,782 Q271,701 252,594 L424,594 L424,536 Q411,316 333,166 Q397,114 458,59 M440,316 L440,385 L667,385 L667,501 Q755,580 819,661 L488,661 L488,728 L920,728 L920,668 Q836,557 740,470 L740,385 L951,385 L951,316 L740,316 L740,40 Q744,-90 615,-86 Q578,-86 539,-80 Q537,-39 518,-5 Q565,-14 605,-14 Q669,-17 667,53 L667,316 M353,529 L241,529 Q212,372 184,282 Q205,266 252,231 Q268,219 277,212 Q337,329 353,529"/> 
            <glyph glyph-name="将" unicode="&#x5C06;" horiz-adv-x="948" d=" M427,325 Q406,359 372,379 Q502,413 598,464 Q539,512 490,545 L543,587 Q597,551 658,497 Q749,556 810,632 L544,632 Q487,576 406,526 Q385,554 349,570 Q512,667 587,800 L652,770 Q628,731 601,696 L903,696 L903,636 Q754,412 427,325 M95,94 L37,145 L250,363 L250,794 L323,794 L323,-96 L250,-96 L250,263 M363,248 L363,313 L744,313 L744,427 L819,427 L819,313 L948,313 L948,248 L819,248 L819,27 Q818,-85 708,-86 Q680,-86 620,-79 Q615,-40 595,-7 Q660,-16 695,-16 Q745,-17 744,39 L744,248 M161,415 Q120,530 55,652 L124,673 Q184,553 224,448 M562,40 Q509,106 431,179 L493,216 Q567,148 618,85"/> 
            <glyph glyph-name="小" unicode="&#x5C0F;" horiz-adv-x="958" d=" M125,82 Q84,99 38,102 Q161,303 216,578 L293,547 Q232,267 125,82 M417,-88 Q372,-88 327,-81 Q325,-41 304,-2 Q358,-12 397,-12 Q470,-14 468,53 L468,791 L549,791 L549,42 Q550,-89 417,-88 M888,79 Q777,372 683,553 L763,572 Q872,355 958,124"/> 
            <glyph glyph-name="就" unicode="&#x5C31;" horiz-adv-x="953" d=" M121,267 L121,506 L475,506 L475,267 L341,267 L341,15 Q344,-85 250,-82 Q217,-82 191,-78 Q186,-40 173,-12 Q217,-18 234,-18 Q273,-20 271,28 L271,267 M514,465 L514,527 L617,527 L617,796 L688,796 L688,527 L932,527 L932,465 L688,465 Q686,402 684,369 Q684,358 682,347 Q659,81 477,-98 Q452,-72 406,-61 Q622,127 616,465 M792,-76 Q692,-77 693,28 L693,406 L761,406 L761,33 Q760,-11 800,-10 L834,-10 Q872,-12 882,47 Q889,82 892,121 Q921,90 953,79 Q949,44 944,25 Q926,-79 840,-76 M53,584 L53,647 L305,647 Q269,703 212,772 L288,797 Q334,744 378,679 L313,647 L534,647 L534,584 M190,325 L405,325 L405,446 L190,446 M98,-19 Q72,1 33,8 Q111,101 153,215 L214,192 Q169,67 98,-19 M835,569 Q771,661 723,712 L781,740 Q843,676 886,609 M454,58 Q416,133 376,192 L434,217 Q477,157 508,94"/> 
            <glyph glyph-name="尽" unicode="&#x5C3D;" horiz-adv-x="969" d=" M907,124 Q651,230 538,449 L274,449 Q266,234 109,94 Q74,122 35,133 Q207,272 199,500 L199,747 L824,747 L824,449 L619,449 Q731,265 969,190 Q932,165 907,124 M276,679 L276,518 L749,518 L749,679 M659,-108 Q415,8 251,56 L293,119 Q487,59 676,-34 M621,117 Q472,200 351,250 L394,305 Q505,262 641,186"/> 
            <glyph glyph-name="已" unicode="&#x5DF2;" horiz-adv-x="921" d=" M321,-58 Q173,-60 175,79 L175,523 L253,523 L253,413 L729,413 L729,662 L132,662 L132,734 L810,734 L810,340 L253,340 L253,90 Q253,17 325,17 L737,17 Q814,12 831,93 Q840,128 851,177 Q881,140 921,127 Q912,81 904,55 Q873,-62 746,-58"/> 
            <glyph glyph-name="师" unicode="&#x5E08;" horiz-adv-x="935" d=" M395,668 L395,734 L935,734 L935,668 L699,668 L699,521 L899,521 L899,152 Q900,43 801,44 Q774,44 744,49 Q741,84 726,117 Q764,111 787,111 Q831,109 830,165 L830,456 L699,456 L699,-96 L628,-96 L628,456 L503,456 L503,40 L434,40 L434,521 L628,521 L628,668 M169,-100 Q139,-72 98,-61 Q210,36 243,131 Q280,223 279,417 L279,796 L349,796 L349,413 Q363,55 169,-100 M114,153 L114,698 L183,698 L183,153"/> 
            <glyph glyph-name="张" unicode="&#x5F20;" horiz-adv-x="976" d=" M386,364 L386,430 L490,430 L490,795 L564,795 L564,430 L919,430 L919,364 L685,364 Q770,131 976,29 Q936,5 908,-31 Q705,96 622,364 L564,364 L564,29 L680,96 L717,45 L541,-64 Q525,-73 496,-100 L461,-37 Q491,-9 490,50 L490,364 M242,-79 Q213,-79 151,-73 Q148,-34 131,0 Q191,-10 230,-10 Q292,-9 294,54 L303,237 L97,237 L114,516 L305,516 L305,684 L89,684 L89,748 L375,748 L375,453 L181,453 L171,301 L375,301 L364,41 Q359,-78 242,-79 M640,484 Q611,505 575,516 Q718,629 806,767 L868,733 Q769,588 640,484"/> 
            <glyph glyph-name="录" unicode="&#x5F55;" horiz-adv-x="950" d=" M213,533 L213,597 L699,597 L699,687 L182,687 L182,753 L773,753 L773,442 L929,442 L929,376 L549,376 L549,358 Q585,282 636,219 Q737,284 820,365 L875,323 Q780,237 677,174 Q788,64 950,13 Q915,-10 891,-53 Q657,42 549,239 L549,21 Q550,-90 435,-89 Q394,-89 358,-83 Q357,-47 338,-11 Q386,-18 424,-18 Q478,-21 475,34 L475,376 L70,376 L70,442 L699,442 L699,533 M123,-47 L66,9 Q266,113 423,232 L467,189 Q307,57 123,-47 M313,197 Q234,266 145,321 L199,365 Q280,316 349,256"/> 
            <glyph glyph-name="影" unicode="&#x5F71;" horiz-adv-x="953" d=" M126,493 L126,755 L544,755 L544,493 L343,493 Q366,463 386,432 L618,432 L618,374 L50,374 L50,432 L304,432 Q286,458 268,480 L319,493 M129,144 L129,325 L542,325 L542,144 L381,144 L381,10 Q386,-93 282,-91 Q262,-91 224,-87 Q221,-42 207,-20 Q236,-26 270,-27 Q312,-29 310,18 L310,144 M595,-98 Q569,-64 532,-44 Q763,55 890,230 L953,188 Q820,9 595,-98 M635,497 Q612,525 573,546 Q741,642 847,779 L910,736 Q785,589 635,497 M635,222 Q614,253 577,274 Q748,360 857,493 L918,449 Q805,313 635,222 M197,194 L473,194 L473,275 L197,275 M195,545 L476,545 L476,601 L195,601 M195,703 L195,648 L476,648 L476,703 M114,-58 Q86,-37 44,-25 Q134,45 182,122 L246,93 Q192,8 114,-58 M530,-23 Q481,41 427,91 L490,122 Q545,70 584,20"/> 
            <glyph glyph-name="很" unicode="&#x5F88;" horiz-adv-x="962" d=" M895,-61 Q647,73 568,329 L491,329 L491,13 L637,84 L678,33 L489,-65 Q455,-82 439,-103 L401,-48 Q421,-26 419,23 L419,741 L845,741 L845,329 L635,329 Q669,243 709,190 Q813,259 866,313 L917,269 Q858,213 747,144 Q828,54 962,-3 Q919,-27 895,-61 M206,-96 L206,306 Q153,250 106,213 Q75,244 43,257 Q202,386 314,569 L367,521 Q323,448 278,391 L278,-96 M491,395 L775,395 L775,506 L491,506 M491,676 L491,568 L775,568 L775,676 M124,502 Q93,529 54,540 Q203,662 283,799 L341,753 Q253,611 124,502"/> 
            <glyph glyph-name="得" unicode="&#x5F97;" horiz-adv-x="951" d=" M397,430 L397,752 L862,752 L862,430 M349,301 L349,362 L920,362 L920,301 L805,301 L805,227 L951,227 L951,166 L805,166 L805,16 Q806,-91 694,-90 Q670,-90 626,-86 Q623,-44 608,-14 Q648,-21 684,-21 Q733,-23 731,32 L731,166 L312,166 L312,227 L731,227 L731,301 M188,-96 L188,318 Q141,267 94,228 Q70,261 38,276 Q192,401 290,573 L342,525 Q315,474 261,404 L261,-96 M468,694 L468,619 L790,619 L790,694 M468,489 L790,489 L790,565 L468,565 M115,501 Q86,527 50,540 Q200,663 273,801 L330,755 Q246,613 115,501 M535,-13 Q484,50 410,120 L473,153 Q541,92 587,35"/> 
            <glyph glyph-name="微" unicode="&#x5FAE;" horiz-adv-x="974" d=" M623,-96 Q594,-71 556,-59 Q683,27 743,139 Q698,241 675,351 Q660,317 642,288 Q616,315 587,325 Q687,489 719,791 L784,769 Q773,672 757,603 L945,603 L945,540 L884,540 Q882,290 814,139 Q876,27 974,-46 Q932,-65 908,-92 Q833,-23 778,72 Q719,-25 623,-96 M316,-67 Q282,-42 257,-34 Q350,50 348,178 Q351,242 348,312 L574,312 L574,115 L641,166 L682,123 L574,34 Q557,21 532,-11 L492,42 Q512,66 510,113 L510,252 L413,252 Q413,196 412,167 Q411,26 316,-67 M172,-96 L172,311 Q131,265 92,230 Q63,263 32,276 Q159,382 248,550 L301,506 Q277,455 241,402 L241,-96 M310,518 L310,731 L370,731 L370,577 L438,577 L438,795 L499,795 L499,577 L567,577 L567,731 L626,731 L626,518 M742,540 Q729,492 716,451 Q737,317 776,219 Q819,339 822,540 M111,517 Q80,544 48,555 Q164,655 231,796 L289,755 Q210,607 111,517 M304,385 L304,446 L618,446 L618,385"/> 
            <glyph glyph-name="忘" unicode="&#x5FD8;" horiz-adv-x="947" d=" M73,593 L73,662 L504,662 Q449,731 398,780 L479,804 Q536,748 592,676 L565,662 L923,662 L923,593 L290,593 L290,409 L832,409 L832,342 L214,342 L214,593 M417,-67 Q301,-67 301,43 L301,238 L377,238 L377,53 Q375,-2 428,0 L611,0 Q668,-3 683,53 Q692,76 702,124 Q730,90 765,75 Q753,28 745,7 Q717,-70 621,-67 M898,15 Q817,121 724,209 L787,246 Q881,158 947,73 M111,-19 L56,36 Q131,129 181,240 L236,196 Q184,78 111,-19 M575,129 Q511,202 429,272 L487,308 Q556,254 619,185"/> 
            <glyph glyph-name="性" unicode="&#x6027;" horiz-adv-x="948" d=" M414,337 Q377,353 342,356 Q432,510 467,731 L533,709 Q523,640 503,570 L632,570 L632,795 L707,795 L707,570 L917,570 L917,504 L707,504 L707,303 L884,303 L884,236 L707,236 L707,9 L948,9 L948,-58 L359,-58 L359,9 L632,9 L632,236 L438,236 L438,303 L632,303 L632,504 L483,504 Q454,412 414,337 M194,-96 L194,795 L268,795 L268,-96 M108,304 L43,336 Q83,427 99,589 L160,570 Q149,421 108,304 M333,440 Q307,521 271,596 L328,611 Q362,546 387,473"/> 
            <glyph glyph-name="怪" unicode="&#x602A;" horiz-adv-x="953" d=" M909,315 Q759,354 641,440 Q524,357 367,309 Q347,346 318,368 Q476,412 584,485 Q490,570 427,690 L377,690 L377,754 L864,754 L864,698 Q799,570 698,484 Q806,414 953,378 Q924,355 909,315 M392,174 L392,238 L601,238 L601,353 L672,353 L672,238 L883,238 L883,174 L672,174 L672,8 L949,8 L949,-58 L329,-58 L329,8 L601,8 L601,174 M197,-96 L197,795 L269,795 L269,-96 M779,690 L503,690 Q559,593 641,526 Q727,597 779,690 M105,306 L42,334 Q86,442 101,590 L162,571 Q146,415 105,306 M359,432 Q313,537 278,593 L337,611 Q376,550 412,466"/> 
            <glyph glyph-name="惊" unicode="&#x60CA;" horiz-adv-x="952" d=" M434,249 L434,521 L865,521 L865,249 L689,249 L689,20 Q688,-88 585,-89 Q549,-89 514,-84 Q514,-39 493,-10 Q533,-17 567,-18 Q617,-19 616,28 L616,249 M192,-95 L192,796 L264,796 L264,-95 M382,606 L382,670 L636,670 Q595,729 548,780 L621,808 Q661,766 716,690 L684,670 L928,670 L928,606 M506,311 L793,311 L793,459 L506,459 M387,-34 Q358,-6 320,3 Q425,89 483,197 L546,165 Q483,50 387,-34 M103,312 L39,338 Q82,459 92,593 L155,575 Q140,424 103,312 M899,-35 Q827,70 741,166 L804,196 Q893,102 952,15 M355,396 Q315,510 279,580 L334,598 Q376,520 406,428"/> 
            <glyph glyph-name="感" unicode="&#x611F;" horiz-adv-x="944" d=" M284,240 L284,430 L539,430 L539,242 Q607,286 668,347 Q616,453 592,618 L226,618 L226,482 Q230,291 133,162 Q108,187 64,196 Q160,311 155,483 L155,677 L584,677 Q579,730 577,794 L648,800 Q650,736 656,677 L797,677 Q758,721 707,761 L760,792 Q806,754 849,709 L813,677 L911,677 L911,618 L663,618 Q680,498 719,405 Q774,479 810,566 L867,534 Q816,421 750,341 Q756,331 768,314 Q773,307 775,303 Q805,266 827.5,266 Q850,266 865,302 Q866,307 870,319 Q881,354 885,375 Q910,342 938,329 Q926,287 913,258 Q883,194 827,195 Q766,194 713,272 Q710,275 705,282 Q702,285 701,287 Q650,238 589,195 Q569,223 534,239 Q535,239 535,240 M425,-68 Q305,-70 308,33 L308,168 L381,168 L381,42 Q381,-4 433,-4 L611,-4 Q667,-6 679,45 Q688,73 695,105 Q725,74 757,63 Q750,37 741,10 Q717,-71 618,-68 M132,-68 L70,-20 Q143,76 180,170 L240,130 Q200,25 132,-68 M263,495 L263,550 L556,550 L556,495 M886,-45 Q821,61 749,143 L819,168 Q888,90 944,2 M344,291 L478,291 L478,379 L344,379 M555,55 Q514,113 451,174 L516,202 Q559,161 610,98"/> 
            <glyph glyph-name="所" unicode="&#x6240;" horiz-adv-x="952" d=" M378,175 L378,234 L190,234 Q180,48 104,-78 Q78,-61 30,-56 Q128,84 124,341 L124,714 Q308,724 431,766 L476,706 Q380,673 193,653 L193,513 L446,513 L446,175 M486,-86 Q456,-65 412,-56 Q538,85 532,336 L532,712 Q742,721 869,763 L914,702 Q794,664 603,649 L603,456 L952,456 L952,392 L825,392 L825,-93 L754,-93 L754,392 L603,392 L603,336 Q608,72 486,-86 M193,338 Q193,317 192,296 L378,296 L378,450 L193,450"/> 
            <glyph glyph-name="拍" unicode="&#x62CD;" horiz-adv-x="894" d=" M441,-94 L441,656 L579,656 Q618,734 633,800 L708,782 Q688,720 658,656 L894,656 L894,-94 L820,-94 L820,-2 L516,-2 L516,-94 M70,537 L70,603 L207,603 L207,793 L280,793 L280,603 L392,603 L392,537 L280,537 L280,353 L377,389 L406,337 L280,286 L280,21 Q280,-89 167,-89 Q151,-89 114,-85 Q108,-84 105,-84 Q103,-48 88,-10 Q130,-18 157,-18 Q208,-19 207,35 L207,257 L76,204 L42,267 L207,326 L207,537 M516,298 L516,66 L820,66 L820,298 M516,589 L516,363 L820,363 L820,589"/> 
            <glyph glyph-name="择" unicode="&#x62E9;" horiz-adv-x="958" d=" M909,366 Q751,404 646,466 Q551,407 415,366 Q400,390 363,422 Q498,460 582,507 Q497,571 437,664 L476,685 L392,685 L392,749 L868,749 L868,692 Q799,579 706,508 Q804,456 958,429 Q927,400 909,366 M70,541 L70,604 L193,604 L193,796 L264,796 L264,604 L375,604 L375,541 L264,541 L264,355 L355,388 L383,336 L264,288 L264,26 Q264,-84 155,-84 Q128,-84 91,-79 Q88,-35 75,-8 Q77,-8 82,-9 Q127,-16 143,-16 Q195,-18 193,37 L193,261 L75,214 L39,275 L193,329 L193,541 M410,234 L410,297 L608,297 L608,396 L681,396 L681,297 L881,297 L881,234 L681,234 L681,130 L931,130 L931,67 L681,67 L681,-96 L608,-96 L608,67 L360,67 L360,130 L608,130 L608,234 M780,685 L504,685 Q560,601 644,545 Q729,603 780,685"/> 
            <glyph glyph-name="捉" unicode="&#x6349;" horiz-adv-x="962" d=" M428,419 L428,742 L873,742 L873,419 L695,419 L695,266 L907,266 L907,198 L695,198 L695,20 Q720,15 748,12 Q791,7 854.5,6 Q918,5 962,8 Q937,-28 934,-71 Q864,-71 771,-65 Q542,-47 470,99 Q434,-5 342,-95 Q315,-68 273,-57 Q440,81 436,345 L508,334 Q503,243 493,191 Q537,83 622,43 L622,419 M65,529 L65,593 L195,593 L195,796 L267,796 L267,593 L381,593 L381,529 L267,529 L267,357 L360,396 L391,344 L267,286 L267,21 Q267,-86 164,-86 Q134,-86 98,-82 Q96,-43 79,-10 Q120,-17 151,-17 Q197,-20 195,31 L195,253 L83,201 L39,263 L195,327 L195,529 M501,486 L800,486 L800,674 L501,674"/> 
            <glyph glyph-name="捕" unicode="&#x6355;" horiz-adv-x="947" d=" M620,-65 L620,114 L476,114 L476,-97 L407,-97 L407,507 L620,507 L620,597 L380,597 L380,663 L620,663 L620,795 L689,795 L689,663 L823,663 Q785,710 731,755 L789,785 Q841,742 878,696 L837,663 L947,663 L947,597 L689,597 L689,507 L904,507 L904,26 Q904,-87 802,-87 Q779,-87 746,-82 Q742,-46 726,-15 Q761,-21 786,-21 Q836,-22 835,36 L835,114 L689,114 L689,-65 M70,543 L70,608 L192,608 L192,796 L263,796 L263,608 L365,608 L365,543 L263,543 L263,374 L351,418 L383,367 L263,304 L263,19 Q264,-89 165,-88 Q141,-88 93,-82 Q90,-47 75,-12 Q123,-20 153,-20 Q194,-22 192,27 L192,267 L84,211 L40,268 L192,341 L192,543 M689,278 L689,176 L835,176 L835,278 M835,443 L689,443 L689,340 L835,340 M476,443 L476,340 L620,340 L620,443 M476,278 L476,176 L620,176 L620,278"/> 
            <glyph glyph-name="摄" unicode="&#x6444;" horiz-adv-x="966" d=" M353,696 L353,753 L917,753 L917,696 L828,696 L828,405 L933,408 L938,351 L828,349 L828,293 L760,293 L760,347 L357,339 L353,395 L440,397 L440,696 M65,532 L65,597 L182,597 L182,796 L249,796 L249,597 L346,597 L346,532 L249,532 L249,350 L324,385 L352,335 L249,282 L249,20 Q250,-88 146,-87 Q120,-87 87,-82 Q86,-47 71,-12 Q109,-19 134,-19 Q184,-21 182,30 L182,247 L84,197 L38,253 L182,319 L182,532 M916,-96 Q828,-60 769,-7 Q709,-59 615,-97 Q596,-73 563,-55 Q662,-16 724,37 Q667,105 637,204 L666,216 L626,216 L626,271 L898,271 L898,224 Q873,109 811,35 Q872,-13 966,-44 Q933,-65 916,-96 M580,-30 Q539,3 501,31 Q436,-42 335,-96 Q316,-73 279,-56 Q394,5 452,68 Q386,115 345,140 L386,180 Q424,159 488,114 Q520,159 533,216 L349,216 L349,271 L598,271 L598,221 Q580,142 537,79 Q552,68 579,46 Q600,30 609,23 M510,469 L510,398 L760,404 L760,469 M510,582 L510,518 L760,518 L760,582 M510,696 L510,631 L760,631 L760,696 M833,216 L693,216 Q718,136 767,79 Q817,140 833,216"/> 
            <glyph glyph-name="新" unicode="&#x65B0;" horiz-adv-x="948" d=" M765,-95 L765,405 L640,405 L640,342 Q643,64 535,-88 Q506,-70 460,-64 Q571,80 569,331 L569,699 Q759,713 870,757 L917,694 Q805,658 640,640 L640,469 L948,469 L948,405 L836,405 L836,-95 M61,404 L61,467 L326,467 Q389,557 411,618 L477,596 Q448,531 403,467 L534,467 L534,404 L350,404 L350,308 L517,308 L517,246 L350,246 L350,21 Q353,-80 247,-77 Q221,-77 190,-72 Q189,-36 174,-3 Q211,-10 236,-10 Q280,-11 279,36 L279,246 L91,246 L91,308 L279,308 L279,404 M94,627 L94,690 L299,690 Q269,736 233,778 L305,798 Q352,744 380,693 L374,690 L525,690 L525,627 M115,-11 Q84,9 46,13 Q128,105 164,203 L226,180 Q183,73 115,-11 M461,39 Q421,113 376,177 L433,199 Q485,132 514,73 M220,473 Q185,538 148,589 L214,610 Q250,561 281,501"/> 
            <glyph glyph-name="时" unicode="&#x65F6;" horiz-adv-x="949" d=" M107,-31 L107,725 L419,725 L419,-9 L348,-9 L348,61 L178,61 L178,-31 M460,523 L460,592 L748,592 L748,793 L822,793 L822,592 L949,592 L949,523 L822,523 L822,39 Q821,-82 693,-83 Q661,-83 607,-75 Q605,-36 588,0 Q649,-9 680,-9 Q750,-11 748,58 L748,523 M178,363 L178,129 L348,129 L348,363 M178,660 L178,426 L348,426 L348,660 M607,189 Q557,283 483,388 L547,414 Q598,344 664,229"/> 
            <glyph glyph-name="显" unicode="&#x663E;" horiz-adv-x="940" d=" M174,346 L174,751 L825,751 L825,346 L639,346 L639,5 L940,5 L940,-62 L58,-62 L58,5 L358,5 L358,346 M248,411 L750,411 L750,518 L248,518 M248,686 L248,579 L750,579 L750,686 M433,346 L433,5 L564,5 L564,346 M740,52 Q709,77 674,85 Q761,185 816,292 L879,252 Q826,156 740,52 M252,56 Q186,167 115,257 L182,286 Q259,191 308,105"/> 
            <glyph glyph-name="景" unicode="&#x666F;" horiz-adv-x="933" d=" M190,488 L190,753 L806,753 L806,488 L489,488 Q514,467 556,423 L933,423 L933,365 L65,365 L65,423 L463,423 Q462,424 460,426 Q437,448 410,472 L467,488 M203,129 L203,309 L796,309 L796,129 L545,129 L545,14 Q545,-92 436,-92 Q403,-92 361,-87 Q357,-42 342,-15 Q396,-22 423,-22 Q472,-25 470,31 L470,129 M276,181 L722,181 L722,257 L276,257 M264,539 L733,539 L733,596 L264,596 M264,701 L264,645 L733,645 L733,701 M128,-77 Q105,-42 75,-27 Q223,24 332,109 L379,65 Q267,-25 128,-77 M886,-72 Q768,-4 621,58 L665,107 Q801,52 912,-10"/> 
            <glyph glyph-name="晰" unicode="&#x6670;" horiz-adv-x="946" d=" M350,526 L350,588 L449,588 L449,793 L512,793 L512,588 L602,588 L602,526 L512,526 L512,429 L538,439 Q589,368 623,300 L579,258 Q557,310 512,381 L512,-96 L449,-96 L449,361 Q412,235 358,148 Q335,167 315,174 L315,20 L254,20 L254,80 L160,80 L160,-11 L99,-11 L99,738 L315,738 L315,201 Q404,333 443,526 M799,-94 L799,413 L706,413 L706,356 Q710,73 603,-77 Q567,-56 534,-50 Q643,86 639,356 L639,715 Q788,726 887,759 L930,702 Q832,671 706,658 L706,475 L946,475 L946,413 L866,413 L866,-94 M160,379 L160,142 L254,142 L254,379 M160,675 L160,440 L254,440 L254,675"/> 
            <glyph glyph-name="暗" unicode="&#x6697;" horiz-adv-x="951" d=" M92,-3 L92,719 L348,719 L348,26 L280,26 L280,80 L161,80 L161,-3 M445,-96 L445,318 L875,318 L875,-96 L805,-96 L805,-40 L516,-40 L516,-96 M374,390 L374,451 L563,451 Q520,522 470,581 L534,607 Q588,540 623,477 L583,451 L696,451 Q752,530 788,610 L853,584 Q814,510 771,451 L951,451 L951,390 M409,627 L409,687 L644,687 Q609,738 571,780 L640,802 Q703,726 725,687 L911,687 L911,627 M516,111 L516,17 L805,17 L805,111 M516,260 L516,166 L805,166 L805,260 M161,370 L161,144 L280,144 L280,370 M161,655 L161,432 L280,432 L280,655"/> 
            <glyph glyph-name="更" unicode="&#x66F4;" horiz-adv-x="948" d=" M92,682 L92,748 L912,748 L912,682 L547,682 L547,599 L836,599 L836,230 L539,230 Q525,125 474,58 Q539,34 632,21 Q717,10 802,5 Q885,1 948,4 Q921,-30 913,-77 Q738,-67 617,-48 Q509,-32 421,7 Q324,-66 100,-101 Q80,-63 46,-36 Q254,-8 344,45 Q259,96 186,174 L236,215 Q309,139 401,90 Q451,138 463,230 L180,230 L180,599 L470,599 L470,682 M255,295 L469,295 Q470,314 470,358 L470,384 L255,384 M545,295 L761,295 L761,384 L547,384 L547,357 Q547,334 545,295 M255,534 L255,447 L470,447 L470,534 M761,534 L547,534 L547,447 L761,447"/> 
            <glyph glyph-name="有" unicode="&#x6709;" horiz-adv-x="929" d=" M268,-96 L268,374 Q189,295 103,241 Q79,272 37,293 Q247,417 352,605 L86,605 L86,672 L386,672 Q416,741 429,801 L506,774 Q496,739 470,672 L929,672 L929,605 L437,605 Q410,552 372,499 L819,499 L819,24 Q817,-87 706,-88 Q675,-88 631,-84 Q628,-47 612,-12 Q647,-18 687,-18 Q743,-19 742,35 L742,106 L344,106 L344,-96 M344,271 L344,168 L742,168 L742,271 M344,433 L344,332 L742,332 L742,433"/> 
            <glyph glyph-name="机" unicode="&#x673A;" horiz-adv-x="974" d=" M385,-96 Q356,-69 312,-57 Q484,88 480,377 Q482,464 481,561 Q480,658 477,740 L803,740 L803,53 Q801,3 844,5 L857,5 Q891,2 900,54 Q909,96 917,155 Q939,131 974,114 Q968,56 960,25 Q940,-71 862,-67 L832,-67 Q726,-71 730,45 L730,672 L555,672 Q555,565 555,503 Q554,434 553,381 Q553,54 385,-96 M211,-96 L211,367 Q165,228 94,141 Q66,166 31,178 Q149,310 201,523 L67,523 L67,589 L211,589 L211,795 L282,795 L282,589 L415,589 L415,523 L282,523 L282,412 L321,426 Q376,363 423,289 L374,249 Q332,315 282,378 L282,-96"/> 
            <glyph glyph-name="每" unicode="&#x6BCF;" horiz-adv-x="949" d=" M54,268 L54,333 L229,333 L257,568 L806,568 L794,333 L949,333 L949,268 L791,268 L783,95 L889,95 L889,31 L780,31 Q773,-96 660,-93 Q624,-93 578,-89 Q576,-57 555,-24 Q612,-31 645,-31 Q700,-34 706,31 L193,31 L221,268 M296,268 L276,95 L709,95 L718,268 M325,504 L304,333 L721,333 L729,504 M142,459 Q112,485 69,495 Q225,633 295,806 L368,776 Q353,743 335,711 L883,711 L883,646 L298,646 Q233,542 142,459 M548,101 Q473,170 403,221 L457,258 Q527,210 590,150 M561,338 Q498,395 419,456 L472,492 Q554,432 601,387"/> 
            <glyph glyph-name="泽" unicode="&#x6CFD;" horiz-adv-x="959" d=" M913,353 Q735,395 616,463 Q493,389 329,347 Q316,375 279,401 Q438,444 551,505 Q458,571 391,667 L412,679 L345,679 L345,744 L852,744 L852,686 Q783,581 679,506 Q801,447 959,420 Q929,388 913,353 M367,235 L367,300 L575,300 L575,403 L651,403 L651,300 L859,300 L859,235 L651,235 L651,130 L925,130 L925,66 L651,66 L651,-96 L575,-96 L575,66 L295,66 L295,130 L575,130 L575,235 M151,-69 L83,-19 Q169,123 226,299 L283,257 Q233,87 151,-69 M762,679 L461,679 Q529,596 615,542 Q707,603 762,679 M281,591 Q209,663 116,726 L171,771 Q246,721 321,651 M224,357 Q138,428 51,477 L101,528 Q175,486 258,420"/> 
            <glyph glyph-name="深" unicode="&#x6DF1;" horiz-adv-x="965" d=" M320,284 L320,349 L574,349 L574,474 L645,474 L645,351 Q645,349 646,349 L908,349 L908,284 L680,284 Q784,122 965,37 Q926,15 903,-20 Q736,76 645,241 L645,-96 L574,-96 L574,238 Q491,77 318,-31 Q287,2 251,18 Q437,119 537,284 M816,558 L816,682 L400,682 L400,560 L329,560 L329,747 L886,747 L886,558 M138,-79 L71,-34 Q150,103 211,282 L272,240 Q210,52 138,-79 M394,398 Q368,423 329,432 Q439,520 503,623 L561,591 Q493,485 394,398 M827,403 Q749,491 641,587 L696,622 Q796,537 868,455 M214,349 Q126,418 41,468 L94,521 Q176,473 252,413 M259,594 Q180,664 98,719 L153,767 Q228,720 299,655"/> 
            <glyph glyph-name="清" unicode="&#x6E05;" horiz-adv-x="945" d=" M381,-96 L381,356 L849,356 L849,11 Q851,-91 751,-89 Q725,-89 687,-85 Q686,-52 672,-21 Q712,-27 735,-27 Q781,-31 778,22 L778,53 L452,53 L452,-96 M340,662 L340,719 L577,719 L577,796 L650,796 L650,719 L890,719 L890,662 L650,662 L650,597 L856,597 L856,540 L650,540 L650,474 L945,474 L945,418 L288,418 L288,474 L577,474 L577,540 L376,540 L376,597 L577,597 L577,662 M152,-85 L83,-37 Q159,90 224,286 L281,243 Q232,72 152,-85 M452,177 L452,107 L778,107 L778,177 M452,300 L452,231 L778,231 L778,300 M213,354 Q135,420 39,478 L92,529 Q177,480 250,418 M263,598 Q191,667 99,729 L153,776 Q237,721 304,658"/> 
            <glyph glyph-name="然" unicode="&#x7136;" horiz-adv-x="961" d=" M137,115 Q104,145 68,158 Q181,213 257,289 Q205,322 133,356 L177,399 Q251,366 299,335 Q326,367 353,411 Q286,446 226,471 L265,518 Q321,497 382,466 Q412,528 426,593 L255,593 Q197,491 124,423 Q90,447 52,456 Q200,585 264,797 L331,766 Q314,709 288,657 L501,657 L501,602 Q493,570 485,542 L610,542 Q617,654 614,795 L685,790 Q685,629 678,542 L909,542 L909,476 L688,476 Q755,275 961,181 Q924,163 893,126 Q717,228 651,400 Q605,224 445,131 Q417,159 373,173 Q568,279 602,476 L478,476 L478,520 Q393,253 137,115 M856,-102 Q777,35 726,101 L798,127 Q856,58 922,-57 M146,-98 L77,-56 Q152,29 195,131 L260,97 Q212,-17 146,-98 M610,-93 Q577,6 533,92 L605,106 Q655,13 680,-65 M394,-94 Q368,1 331,90 L404,101 Q438,24 465,-67 M819,569 Q767,640 702,708 L762,734 Q834,662 868,609"/> 
            <glyph glyph-name="照" unicode="&#x7167;" horiz-adv-x="940" d=" M135,169 L135,747 L405,747 L405,169 M487,170 L487,422 L865,422 L865,170 M755,466 Q725,466 698,469 Q696,501 681,532 Q714,526 747,526 Q801,524 804,583 L811,683 L659,683 Q641,506 492,436 Q470,465 429,478 Q576,535 590,683 L468,683 L468,744 L881,744 L870,576 Q866,464 755,466 M555,229 L797,229 L797,362 L555,362 M203,232 L337,232 L337,428 L203,428 M203,683 L203,489 L337,489 L337,683 M116,-97 L50,-50 Q115,25 162,132 L226,97 Q177,-18 116,-97 M876,-94 Q821,9 758,100 L829,126 Q890,45 940,-50 M383,-86 Q360,-2 316,95 L388,108 Q416,56 454,-57 M615,-82 Q577,20 538,93 L610,109 Q653,31 684,-50"/> 
            <glyph glyph-name="片" unicode="&#x7247;" horiz-adv-x="904" d=" M664,-93 L664,240 L265,240 Q243,52 122,-95 Q93,-72 44,-60 Q204,108 195,388 L195,768 L274,768 L274,543 L574,543 L574,796 L653,796 L653,543 L904,543 L904,472 L274,472 L274,386 Q274,347 272,312 L742,312 L742,-93"/> 
            <glyph glyph-name="现" unicode="&#x73B0;" horiz-adv-x="962" d=" M67,668 L67,733 L398,733 L398,668 L274,668 L274,434 L384,434 L384,371 L274,371 L274,135 L400,175 L427,121 L77,0 L37,64 L202,114 L202,371 L79,371 L79,434 L202,434 L202,668 M770,-70 Q666,-71 668,35 L668,223 Q604,13 365,-100 Q335,-68 299,-52 Q647,96 629,435 L629,600 L696,600 L696,428 Q696,341 679,267 L733,267 L733,44 Q732,-8 780,-7 L833,-7 Q881,-9 893,46 Q901,88 906,120 Q930,89 962,77 Q958,50 947,10 Q927,-72 839,-70 M806,208 L806,686 L519,686 L519,215 L448,215 L448,751 L876,751 L876,208"/> 
            <glyph glyph-name="界" unicode="&#x754C;" horiz-adv-x="967" d=" M178,363 L178,755 L819,755 L819,363 L574,363 Q736,248 967,209 Q935,176 920,141 Q792,168 687,222 L687,-90 L612,-90 L612,230 L670,230 Q579,278 497,350 Q432,285 333,230 L399,230 L399,170 Q402,-25 193,-101 Q169,-67 133,-47 Q336,18 324,178 L324,225 Q215,165 83,129 Q64,166 33,189 Q277,247 419,363 M745,691 L532,691 L532,589 L745,589 M532,427 L745,427 L745,529 L532,529 M252,691 L252,589 L464,589 L464,691 M252,427 L464,427 L464,529 L252,529"/> 
            <glyph glyph-name="留" unicode="&#x7559;" horiz-adv-x="884" d=" M164,-96 L164,339 L840,339 L840,-96 L765,-96 L765,-39 L240,-39 L240,-96 M756,388 Q729,388 687,393 Q686,426 671,461 Q721,455 744,455 Q800,453 801,511 L810,675 L673,675 Q665,446 515,353 Q485,377 445,389 Q597,469 603,675 L505,675 L505,740 L884,740 L872,496 Q869,386 756,388 M444,425 Q441,429 435,438 Q422,461 413,473 L185,389 Q163,381 133,359 L99,413 Q126,434 124,493 L124,729 Q318,742 437,783 L479,724 Q361,685 196,669 L196,466 L375,527 Q338,578 308,613 L369,638 Q454,538 496,469 M536,122 L536,22 L765,22 L765,122 M765,278 L536,278 L536,179 L765,179 M240,122 L240,22 L464,22 L464,122 M240,278 L240,179 L464,179 L464,278"/> 
            <glyph glyph-name="的" unicode="&#x7684;" horiz-adv-x="912" d=" M755,-86 Q715,-86 676,-82 Q673,-39 654,-6 Q707,-16 744,-16 Q821,-16 824,73 L838,576 L621,576 Q573,483 524,419 Q492,437 453,444 L453,-64 L382,-64 L382,13 L188,13 L188,-83 L117,-83 L117,632 L216,632 Q269,731 287,798 L357,773 Q328,692 296,632 L453,632 L453,445 Q568,592 629,801 L698,772 Q674,698 652,644 L912,644 L897,62 Q894,-87 755,-86 M188,293 L188,80 L382,80 L382,293 M188,565 L188,357 L382,357 L382,565 M672,178 Q600,287 532,364 L593,397 Q653,335 723,228"/> 
            <glyph glyph-name="相" unicode="&#x76F8;" horiz-adv-x="902" d=" M485,-92 L485,737 L902,737 L902,-91 L828,-91 L828,-9 L560,-9 L560,-92 M75,521 L75,588 L237,588 L237,794 L312,794 L312,588 L441,588 L441,521 L312,521 L312,418 L334,426 Q413,325 448,264 L403,219 Q371,270 312,355 L312,-96 L237,-96 L237,371 Q185,228 111,130 Q84,155 46,168 Q178,333 228,521 M560,220 L560,58 L828,58 L828,220 M560,445 L560,285 L828,285 L828,445 M560,669 L560,510 L828,510 L828,669"/> 
            <glyph glyph-name="看" unicode="&#x770B;" horiz-adv-x="927" d=" M168,685 Q163,716 136,746 Q494,739 816,778 L856,721 Q697,701 521,692 Q511,651 500,620 L844,620 L844,563 L478,563 Q463,526 445,492 L927,492 L927,434 L410,434 Q387,399 363,369 L821,369 L821,-96 L746,-96 L746,-37 L345,-37 L345,-96 L271,-96 L271,270 Q198,202 109,145 Q89,176 49,196 Q216,297 320,434 L71,434 L71,492 L360,492 Q382,526 398,563 L175,563 L175,620 L423,620 Q425,626 428,637 Q439,670 444,688 Q301,684 168,685 M345,82 L345,19 L746,19 L746,82 M345,313 L345,250 L746,250 L746,313 M345,197 L345,135 L746,135 L746,197"/> 
            <glyph glyph-name="稍" unicode="&#x7A0D;" horiz-adv-x="921" d=" M454,-96 L454,525 L639,525 L639,796 L713,796 L713,525 L905,525 L905,20 Q903,-87 798,-89 Q773,-89 731,-85 Q728,-49 710,-14 Q744,-20 783,-20 Q832,-21 831,29 L831,116 L527,116 L527,-96 M213,-96 L213,325 Q167,206 91,106 Q67,130 29,142 Q147,273 201,460 L66,460 L66,522 L213,522 L213,663 Q157,656 104,651 Q92,685 67,711 Q242,723 361,762 L399,705 Q357,691 282,675 L282,522 L411,522 L411,460 L282,460 L282,362 L317,378 Q377,312 425,244 L378,197 Q335,263 282,325 L282,-96 M527,289 L527,178 L831,178 L831,289 M527,461 L527,351 L831,351 L831,461 M815,564 Q776,586 751,591 Q818,671 857,759 L921,729 Q877,638 815,564 M536,567 Q482,659 422,728 L486,757 Q550,683 593,608"/> 
            <glyph glyph-name="稳" unicode="&#x7A33;" horiz-adv-x="954" d=" M447,362 L447,421 L813,421 L813,496 L436,496 L436,529 Q429,523 423,519 Q394,543 360,554 Q493,653 555,794 L618,766 Q604,738 589,714 L837,714 L837,663 L750,555 L882,555 L882,227 L428,227 L428,287 L813,287 L813,362 M213,-95 L213,324 Q168,204 98,111 Q69,134 29,137 Q150,273 199,456 L75,456 L75,518 L213,518 L213,664 Q162,654 109,649 Q99,675 70,704 Q241,721 348,764 L390,711 Q338,693 281,678 L281,518 L394,518 L394,456 L281,456 L281,354 L311,366 Q367,302 405,246 L359,204 Q320,263 281,311 L281,-95 M601,-67 Q501,-69 503,31 L503,163 L570,163 L570,35 Q569,-9 611,-8 L699,-8 Q745,-10 757,34 Q761,47 768,75 Q769,80 770,83 Q795,58 824,46 Q818,17 811,0 Q792,-71 709,-67 M551,654 Q507,594 465,555 L668,555 L748,654 M381,-52 L329,-13 Q388,67 424,169 L476,139 Q441,32 381,-52 M904,-11 Q842,96 787,163 L847,186 Q898,125 954,31 M672,76 Q630,151 590,198 L647,220 Q683,177 720,113"/> 
            <glyph glyph-name="笑" unicode="&#x7B11;" horiz-adv-x="944" d=" M204,387 Q196,422 173,450 Q550,452 796,487 L834,423 Q719,409 535,397 Q534,325 526,275 L915,275 L915,209 L557,209 Q654,37 944,-21 Q911,-47 887,-90 Q592,-14 500,177 Q418,-20 109,-95 Q91,-59 54,-32 Q359,31 432,209 L84,209 L84,275 L451,275 Q459,323 460,393 Q323,386 204,387 M531,505 Q506,523 459,533 Q564,642 613,800 L682,780 Q680,774 676,761 Q665,725 657,708 L920,708 L920,645 L627,645 Q588,568 531,505 M119,489 Q84,511 47,520 Q181,639 238,802 L309,781 Q296,745 278,708 L498,708 L498,645 L243,645 Q189,555 119,489 M355,485 Q308,541 250,594 L311,625 Q374,569 408,527 M756,499 Q706,554 648,600 L708,632 Q763,591 808,540"/> 
            <glyph glyph-name="米" unicode="&#x7C73;" horiz-adv-x="951" d=" M99,365 L99,435 L460,435 L460,795 L538,795 L538,436 L538,435 L901,435 L901,365 L579,365 Q717,153 951,49 Q907,22 884,-17 Q649,112 533,328 L538,302 L538,-96 L460,-96 L460,302 L463,324 Q349,112 115,-27 Q82,8 43,30 Q282,150 419,365 M660,481 Q626,513 600,521 Q702,609 784,720 L846,679 Q749,557 660,481 M342,484 Q251,588 158,674 L220,714 Q306,635 388,541"/> 
            <glyph glyph-name="素" unicode="&#x7D20;" horiz-adv-x="938" d=" M194,116 L165,177 Q207,183 253,203 Q257,204 264,208 Q368,249 436,278 L263,272 Q227,271 194,263 L170,318 Q211,326 258,347 Q308,370 372,406 L59,406 L59,464 L461,464 L461,531 L212,531 L212,588 L461,588 L461,654 L145,654 L145,713 L461,713 L461,795 L535,795 L535,713 L853,713 L853,654 L535,654 L535,588 L787,588 L787,531 L535,531 L535,464 L938,464 L938,406 L725,406 L770,373 Q600,284 372,191 Q368,190 361,188 Q346,184 339,182 L700,201 Q656,234 629,252 L682,286 Q746,246 861,154 L828,101 Q815,112 780,140 Q769,148 764,152 L549,141 L549,6 Q551,-93 443,-92 Q415,-92 378,-87 Q375,-49 359,-18 Q395,-25 427,-25 Q478,-28 475,21 L475,137 L293,129 Q242,126 194,116 M129,-80 Q105,-47 75,-30 Q218,26 327,103 L376,62 Q272,-14 129,-80 M877,-81 Q764,-8 623,58 L668,104 Q770,60 901,-18 M493,406 Q414,359 334,325 L556,332 Q661,381 704,406"/> 
            <glyph glyph-name="纵" unicode="&#x7EB5;" horiz-adv-x="974" d=" M909,-90 Q788,73 750,330 Q710,73 575,-93 Q550,-68 503,-54 Q685,146 705,536 Q711,648 709,790 L781,785 Q781,676 776,543 Q810,158 974,-38 Q936,-56 909,-90 M589,197 Q555,268 509,345 Q469,88 334,-87 Q304,-66 259,-56 Q318,14 359,94 L82,-11 L43,53 L333,149 L360,96 Q442,260 456,531 Q460,600 461,655.5 Q462,711 461,790 L532,784 Q532,646 526,514 Q524,477 521,443 Q595,332 640,248 M100,201 L65,261 Q100,276 127,311 Q179,376 225,448 L131,443 Q106,441 75,432 L45,486 Q79,503 97,534 Q175,650 236,795 L300,767 Q233,622 152,506 L262,510 Q292,561 324,621 L383,589 Q298,424 187,286 L342,311 L359,252 L165,220 Q135,214 100,201"/> 
            <glyph glyph-name="纹" unicode="&#x7EB9;" horiz-adv-x="967" d=" M104,165 L70,231 Q109,243 132,270 Q183,328 245,416 L138,410 Q110,408 79,397 L44,455 Q79,470 99,502 Q184,629 259,785 L328,752 Q250,598 165,473 L290,480 Q323,530 344,568 L387,543 L387,607 L930,607 L930,540 L827,540 Q805,303 700,148 Q803,38 967,-24 Q928,-49 902,-89 Q754,-19 654,89 Q552,-25 386,-98 Q358,-64 323,-45 Q507,31 606,147 Q509,273 452,472 L515,506 Q566,324 651,208 Q734,337 755,540 L393,540 L404,534 Q296,358 207,252 L371,272 L390,210 L171,180 Q140,177 104,165 M90,-61 L45,5 L374,116 L407,61 M677,617 Q621,678 525,761 L588,803 Q660,743 724,674"/> 
            <glyph glyph-name="线" unicode="&#x7EBF;" horiz-adv-x="953" d=" M429,477 L417,543 L569,567 Q562,671 560,793 L632,798 Q632,680 640,577 L885,616 L899,550 L646,511 Q652,446 661,390 L913,436 L925,371 L672,324 Q687,240 708,176 Q795,233 858,304 L903,252 Q828,171 731,109 Q747,74 765,46 Q800,-6 828,-4 Q854,-6 871,42 Q883,72 895,125 Q920,89 953,76 Q946,45 930,2 Q896,-81 834,-82 Q764,-83 712,-3 Q689,30 671,73 Q562,12 440,-21 Q416,19 388,38 Q531,75 645,137 Q621,203 600,311 L429,279 L412,344 L589,376 Q584,407 577,472 Q575,490 574,500 M108,180 L77,245 Q113,258 147,302 Q185,349 236,424 L135,419 Q102,417 79,408 L47,469 Q81,482 102,515 Q192,643 255,786 L323,759 Q254,616 160,482 L280,489 Q327,565 349,609 L410,577 Q305,393 206,268 L360,288 L375,225 L177,198 Q144,193 108,180 M94,-42 L54,21 L375,132 L407,80 M796,616 Q747,681 686,734 L745,766 Q808,708 846,660"/> 
            <glyph glyph-name="细" unicode="&#x7EC6;" horiz-adv-x="895" d=" M419,-73 L419,716 L895,716 L895,-73 L823,-73 L823,3 L491,3 L491,-73 M105,183 L75,247 Q112,261 143,304 Q185,356 231,426 L130,421 Q102,419 76,411 L49,468 Q79,483 100,517 Q182,640 247,793 L313,764 Q247,617 156,484 L271,489 Q314,562 337,611 L399,582 Q299,393 198,270 L357,289 L375,228 L174,199 Q135,194 105,183 M491,329 L491,71 L623,71 L623,329 M692,329 L692,71 L823,71 L823,329 M491,648 L491,397 L623,397 L623,648 M823,648 L692,648 L692,397 L823,397 M88,-49 L50,17 L369,116 L396,60"/> 
            <glyph glyph-name="络" unicode="&#x7EDC;" horiz-adv-x="968" d=" M403,255 Q387,288 351,313 Q507,364 607,438 Q548,491 505,543 Q465,491 436,464 Q413,484 373,498 Q502,621 570,800 L633,771 Q618,734 600,696 L866,696 L866,639 Q805,523 717,439 Q828,365 968,327 Q936,298 920,262 Q767,317 664,394 Q558,311 403,255 M455,-96 L455,268 L860,268 L860,-96 L787,-96 L787,-39 L528,-39 L528,-96 M99,181 L67,243 Q98,256 128,289 Q177,348 237,436 L141,430 Q101,426 77,418 L47,474 Q82,490 105,525 Q186,646 250,798 L317,769 Q238,602 161,493 L280,500 Q322,566 341,606 L402,577 Q306,405 188,265 L352,285 L368,227 L167,198 Q137,196 99,181 M528,204 L528,26 L787,26 L787,204 M84,-42 L49,26 L373,113 L398,54 M566,633 Q555,614 543,596 Q598,532 661,481 Q733,545 784,633"/> 
            <glyph glyph-name="绪" unicode="&#x7EEA;" horiz-adv-x="948" d=" M433,612 L433,673 L576,673 L576,796 L647,796 L647,673 L776,673 L776,612 L647,612 L647,491 L699,491 Q795,600 854,717 L916,683 Q858,580 788,491 L948,491 L948,428 L735,428 Q692,380 644,337 L873,337 L873,-96 L804,-96 L804,-46 L544,-46 L544,-96 L475,-96 L475,202 Q431,173 373,139 Q352,172 317,190 Q395,230 475,287 L475,337 L539,337 Q592,380 640,428 L374,428 L374,491 L576,491 L576,612 M104,185 L70,244 Q103,259 129,294 Q178,355 225,428 L134,423 Q108,421 76,412 L44,470 Q76,479 98,520 Q178,645 240,791 L303,766 Q237,614 152,487 L265,492 Q303,558 325,603 L385,573 Q288,392 189,270 L344,287 L359,227 L171,201 Q132,197 104,185 M544,118 L544,14 L804,14 L804,118 M569,277 Q563,273 553,265 Q547,260 544,258 L544,175 L804,175 L804,277 M79,-35 L44,31 L361,116 L385,59"/> 
            <glyph glyph-name="置" unicode="&#x7F6E;" horiz-adv-x="947" d=" M143,564 L143,751 L859,751 L859,564 L539,564 L529,508 L912,508 L912,455 L520,455 L509,399 L781,399 L781,-11 L947,-11 L947,-67 L52,-67 L52,-11 L208,-11 L208,399 L431,399 L441,455 L87,455 L87,508 L451,508 L462,564 M284,44 L284,-11 L705,-11 L705,44 M284,347 L284,293 L705,293 L705,347 M284,145 L284,91 L705,91 L705,145 M284,246 L284,192 L705,192 L705,246 M786,699 L640,699 L640,616 L786,616 M216,616 L361,616 L361,699 L216,699 M428,699 L428,616 L574,616 L574,699"/> 
            <glyph glyph-name="美" unicode="&#x7F8E;" horiz-adv-x="953" d=" M114,603 L114,666 L367,666 Q312,724 261,769 L329,800 Q402,737 438,695 L398,666 L551,666 Q627,741 665,802 L736,771 Q700,723 645,666 L885,666 L885,603 L537,603 L537,517 L816,517 L816,454 L537,454 L537,367 L937,367 L937,304 L62,304 L62,367 L461,367 L461,454 L183,454 L183,517 L461,517 L461,603 M107,145 L107,209 L451,209 Q459,249 459,281 L536,274 Q535,248 529,209 L892,209 L892,145 L556,145 Q670,4 953,-14 Q919,-50 908,-91 Q618,-55 500,113 Q402,-66 102,-95 Q85,-57 57,-28 Q359,0 431,145"/> 
            <glyph glyph-name="能" unicode="&#x80FD;" horiz-adv-x="944" d=" M128,-96 L128,433 L480,433 L480,15 Q483,-94 380,-90 Q360,-90 328,-88 Q325,-52 308,-20 Q338,-23 367,-23 Q411,-24 410,24 L410,87 L198,87 L198,-96 M681,-70 Q570,-73 573,38 L573,352 L644,352 L644,191 Q777,243 861,302 L911,249 Q805,185 644,125 L644,44 Q645,-4 691,-5 L805,-5 Q854,-7 868,49 Q876,74 883,111 Q913,77 944,65 Q941,49 934,22 Q932,16 931,13 Q908,-72 814,-70 M684,387 Q569,382 573,495 L573,794 L644,794 L644,628 Q777,683 865,745 L913,692 Q789,614 644,561 L644,501 Q645,454 692,453 L799,453 Q844,449 859,506 Q865,523 874,564 Q902,530 935,518 Q930,494 921,469 Q897,383 809,387 M489,472 Q487,476 482,484 Q473,498 469,505 L162,492 Q128,490 84,481 L57,548 Q96,557 133,598 Q210,685 281,805 L348,772 Q272,652 178,554 L427,564 Q380,627 344,668 L403,697 Q493,596 546,510 M198,374 L198,286 L410,286 L410,374 M198,230 L198,143 L410,143 L410,230"/> 
            <glyph glyph-name="脉" unicode="&#x8109;" horiz-adv-x="977" d=" M104,-95 Q69,-72 34,-66 Q113,45 112,261 L112,739 L370,739 L370,58 Q498,192 521,391 L400,391 L400,455 L584,455 L584,397 Q562,145 411,-7 Q401,2 376,16 Q372,18 370,19 Q368,-85 268,-82 Q245,-82 223,-80 Q215,-34 199,-8 Q233,-14 261,-14 Q304,-17 302,37 L302,218 L180,218 Q175,25 104,-95 M912,-13 Q764,111 700,323 L700,26 Q704,-90 586,-86 Q555,-86 523,-81 Q521,-43 505,-10 Q542,-18 579,-18 Q634,-20 632,33 L632,553 L446,553 L446,617 L700,617 L700,542 Q712,468 731,403 Q826,488 882,571 L942,533 Q865,430 754,337 Q827,153 977,41 Q938,17 912,-13 M180,447 L180,281 L302,281 L302,447 M180,674 L180,511 L302,511 L302,674 M734,629 Q611,710 513,754 L566,805 Q680,747 761,692"/> 
            <glyph glyph-name="腻" unicode="&#x817B;" horiz-adv-x="966" d=" M101,-92 Q71,-70 36,-61 Q113,47 110,265 L110,751 L337,751 L337,28 Q341,-88 246,-83 Q223,-83 203,-80 Q199,-40 183,-11 Q187,-11 194,-12 Q220,-16 232,-16 Q277,-18 276,37 L276,219 L171,219 Q168,16 101,-92 M365,590 L365,652 L716,652 Q716,675 716.5,721.5 Q717,768 717,792 L782,798 Q782,772 781,722 Q781,675 781,652 L941,652 L941,590 L781,590 Q782,286 815,135 Q832,3 874,-4 Q891,-3 902,37 Q913,69 919,104 Q935,80 966,60 Q960,36 948,-2 Q919,-85 870,-84 Q795,-77 763,80 Q719,226 717,590 M396,79 L396,335 L676,335 L676,85 L621,85 L621,282 L451,282 L451,79 M386,-91 Q369,-65 337,-45 Q498,11 508,142 Q512,182 512,244 L566,238 Q566,171 560,131 Q545,-21 386,-91 M172,453 L172,280 L276,280 L276,453 M172,687 L172,516 L276,516 L276,687 M392,385 L392,439 L680,439 L680,385 M416,487 L416,541 L656,541 L656,487 M693,-83 Q643,-37 540,35 L584,73 Q588,70 595,65 Q685,2 721,-28 M883,663 Q848,710 802,756 L850,781 Q887,749 922,702"/> 
            <glyph glyph-name="自" unicode="&#x81EA;" horiz-adv-x="822" d=" M179,-96 L179,679 L383,679 Q423,748 444,809 L529,790 Q504,730 475,679 L822,679 L822,-96 L745,-96 L745,-28 L255,-28 L255,-96 M255,187 L255,39 L745,39 L745,187 M255,399 L255,253 L745,253 L745,399 M255,612 L255,466 L745,466 L745,612"/> 
            <glyph glyph-name="艳" unicode="&#x8273;" horiz-adv-x="954" d=" M452,471 Q422,499 391,510 Q523,640 582,801 L646,766 Q629,727 611,690 L850,690 L850,640 L753,504 L899,504 L899,216 L534,216 L534,60 Q532,4 593,6 L798,6 Q862,2 875,71 Q882,96 891,141 Q922,112 954,98 Q948,64 942,43 Q915,-66 811,-64 L581,-64 Q459,-67 462,56 L462,480 Q460,479 457,475.5 Q454,472 452,471 M66,575 L66,640 L213,640 L213,796 L283,796 L283,640 L426,640 L426,575 L283,575 L283,432 L405,432 L405,369 L283,369 L283,222 L431,222 L431,157 L283,157 L283,-95 L213,-95 L213,157 L49,157 L49,222 L213,222 L213,369 L84,369 L84,432 L213,432 L213,575 M574,627 Q532,558 482,504 L672,504 L759,627 M828,441 L712,441 L712,278 L828,278 M534,441 L534,278 L650,278 L650,441"/> 
            <glyph glyph-name="节" unicode="&#x8282;" horiz-adv-x="939" d=" M397,-96 L397,362 L132,362 L132,431 L846,431 L835,142 Q832,-5 693,-2 Q650,-2 600,3 Q600,40 582,79 Q640,69 689,69 Q762,64 762,153 L770,362 L476,362 L476,-96 M59,606 L59,676 L301,676 L301,796 L377,796 L377,676 L619,676 L619,796 L694,796 L694,676 L939,676 L939,606 L694,606 L694,497 L619,497 L619,606 L377,606 L377,494 L301,494 L301,606"/> 
            <glyph glyph-name="表" unicode="&#x8868;" horiz-adv-x="956" d=" M309,-108 L272,-45 Q302,-21 300,33 L300,151 Q211,91 97,41 Q78,76 38,101 Q265,177 402,329 L79,329 L79,394 L459,394 L459,483 L183,483 L183,545 L459,545 L459,633 L133,633 L133,697 L459,697 L459,796 L537,796 L537,697 L867,697 L867,633 L537,633 L537,545 L816,545 L816,483 L537,483 L537,394 L919,394 L919,329 L494,329 Q439,262 375,208 L375,4 L541,74 L577,16 L365,-73 Q335,-85 309,-108 M897,-73 Q636,12 511,265 L568,305 Q607,222 660,162 Q766,227 816,282 L874,238 Q804,172 708,115 Q802,33 956,-10 Q921,-35 897,-73"/> 
            <glyph glyph-name="记" unicode="&#x8BB0;" horiz-adv-x="943" d=" M577,-67 Q442,-68 443,60 L443,432 L790,432 L790,666 L422,666 L422,735 L866,735 L866,363 L520,363 L520,70 Q519,4 583,5 L759,5 Q845,-3 865,89 Q866,93 868,102 Q876,136 879,156 Q909,124 943,107 Q936,76 925,42 Q896,-73 770,-67 M303,561 Q210,652 123,719 L182,766 Q265,703 346,621 M213,-79 L170,-18 Q200,13 198,74 L198,419 L52,419 L52,486 L272,486 L272,64 L374,140 L416,91 L262,-30 Q236,-49 213,-79"/> 
            <glyph glyph-name="超" unicode="&#x8D85;" horiz-adv-x="968" d=" M109,596 L109,659 L258,659 L258,795 L329,795 L329,659 L457,659 L457,596 L329,596 L329,471 L472,471 L472,408 L347,408 L347,274 L462,274 L462,212 L347,212 L347,57 Q438,9 583,4 Q797,-4 968,12 Q948,-23 941,-68 Q789,-71 604,-67 Q300,-61 178,120 Q148,6 95,-76 Q61,-51 30,-46 Q131,103 141,331 L207,320 Q204,256 193,198 Q235,140 276,106 L276,408 L76,408 L76,471 L258,471 L258,596 M510,88 L510,374 L885,374 L885,88 M771,431 Q742,431 716,434 Q715,470 696,503 Q726,497 763,497 Q819,496 819,555 L827,672 L682,672 Q673,493 539,401 Q519,426 480,442 Q612,520 615,672 L487,672 L487,738 L900,738 L889,548 Q882,431 771,431 M579,154 L815,154 L815,311 L579,311"/> 
            <glyph glyph-name="足" unicode="&#x8DB3;" horiz-adv-x="948" d=" M198,419 L198,747 L813,747 L813,419 L551,419 L551,260 L841,260 L841,193 L551,193 L551,12 Q569,9 588,8 Q667,1 764.5,1 Q862,1 948,7 Q927,-31 921,-71 Q780,-72 613,-65 Q373,-55 258,123 Q208,-12 109,-95 Q74,-70 31,-62 Q208,76 232,336 L305,319 Q298,259 284,207 Q359,77 475,32 L475,419 M274,486 L737,486 L737,679 L274,679"/> 
            <glyph glyph-name="路" unicode="&#x8DEF;" horiz-adv-x="970" d=" M469,485 Q441,512 413,523 L413,449 L311,449 L311,313 L413,313 L413,251 L311,251 L311,80 L419,109 L444,51 L69,-61 L36,4 L107,24 L107,354 L172,354 L172,41 L243,61 L243,449 L113,449 L113,740 L413,740 L413,528 Q522,641 584,800 L648,767 Q637,735 620,700 L879,700 L879,646 Q822,530 730,443 Q834,375 970,338 Q941,312 921,273 Q781,319 675,396 Q579,323 453,273 Q433,306 401,325 Q517,366 620,441 Q567,488 525,547 Q496,511 469,485 M480,-96 L480,266 L861,266 L861,-96 L789,-96 L789,-37 L553,-37 L553,-96 M553,202 L553,27 L789,27 L789,202 M180,510 L345,510 L345,678 L180,678 M795,636 L585,636 Q575,619 563,601 Q615,533 674,484 Q756,558 795,636"/> 
            <glyph glyph-name="这" unicode="&#x8FD9;" horiz-adv-x="951" d=" M333,545 L333,613 L901,613 L901,545 L770,545 Q744,403 672,298 Q800,201 869,143 L829,73 Q754,140 625,240 Q535,138 388,77 Q366,108 324,129 Q469,184 566,285 Q445,375 378,419 L430,466 Q506,416 611,342 Q674,431 697,545 M113,-77 L54,-26 Q110,39 182,103 L182,404 L54,404 L54,473 L254,473 L254,105 Q364,10 568,9 Q655,6 756.5,8.5 Q858,11 951,19 Q931,-25 925,-65 Q843,-67 744,-68 Q647,-68 576,-66 Q337,-63 219,45 Q178,8 113,-77 M239,551 Q166,647 98,715 L168,752 Q234,687 298,600 M614,624 Q559,697 489,768 L564,801 Q636,726 677,668"/> 
            <glyph glyph-name="选" unicode="&#x9009;" horiz-adv-x="952" d=" M765,88 Q653,86 655,193 L655,384 L551,384 Q551,163 372,74 Q345,104 306,121 Q485,197 479,384 L316,384 L316,449 L581,449 L581,580 L440,580 Q418,535 376,478 Q336,504 306,510 Q393,606 430,753 L496,727 Q484,682 469,644 L581,644 L581,796 L655,796 L655,644 L868,644 L868,580 L655,580 L655,449 L905,449 L905,384 L727,384 L727,197 Q726,152 772,153 L803,153 Q846,151 857,202 Q863,228 868,261 Q893,231 923,219 Q922,212 920,200 Q916,182 915,172 Q893,87 806,88 M111,-76 L55,-27 Q121,50 180,101 L180,410 L53,410 L53,476 L251,476 L251,102 Q362,8 565,6 Q652,3 755.5,5.5 Q859,8 952,16 Q927,-29 924,-66 Q699,-70 574,-67 Q333,-63 217,44 Q169,1 111,-76 M228,558 Q145,672 89,726 L157,761 Q229,685 284,607"/> 
            <glyph glyph-name="逝" unicode="&#x901D;" horiz-adv-x="955" d=" M112,-71 L56,-21 Q124,55 175,101 L175,409 L59,409 L59,473 L243,473 L243,104 Q348,11 560,6 Q649,2 756,5 Q861,7 955,16 Q930,-29 928,-66 Q859,-68 748,-68 Q631,-69 568,-67 Q326,-63 210,44 Q158,-8 112,-71 M778,72 L778,455 L681,455 Q680,212 583,79 Q550,100 516,108 Q621,239 616,489 L616,716 Q760,723 870,758 L911,701 Q809,670 682,660 L682,520 L939,520 L939,455 L845,455 L845,72 M312,568 L312,630 L413,630 L413,793 L480,793 L480,630 L570,630 L570,568 L480,568 L480,440 L555,470 L583,419 L480,374 L480,178 Q480,82 384,82 Q359,82 329,89 Q326,129 312,158 Q343,150 370,150 Q414,149 413,196 L413,344 L319,303 L283,363 L413,414 L413,568 M220,574 Q147,667 84,722 L151,761 Q235,679 276,622"/> 
            <glyph glyph-name="都" unicode="&#x90FD;" horiz-adv-x="933" d=" M122,621 L122,685 L268,685 L268,796 L339,796 L339,685 L464,685 L464,621 L339,621 L339,504 L373,504 Q471,607 540,733 L599,699 Q541,597 461,504 L579,504 L579,441 L403,441 Q362,400 314,360 L527,360 L527,-53 L457,-53 L457,0 L255,0 L255,-66 L185,-66 L185,265 Q136,234 85,207 Q63,238 29,257 Q185,333 307,441 L59,441 L59,504 L268,504 L268,621 M616,-96 L616,735 L929,735 L929,680 L802,409 Q931,286 933,163 Q931,21 793,19 Q760,19 733,24 Q728,66 714,98 Q756,89 786,89 Q859,92 862,165 Q860,272 722,396 L848,671 L687,671 L687,-96 M255,152 L255,59 L457,59 L457,152 M255,300 L255,209 L457,209 L457,300"/> 
            <glyph glyph-name="锐" unicode="&#x9510;" horiz-adv-x="964" d=" M440,280 L440,590 L667,590 Q755,708 797,798 L864,768 Q803,661 748,590 L875,590 L875,280 L767,280 L767,45 Q765,-7 812,-5 L844,-5 Q886,-7 896,44 Q903,73 909,119 Q934,87 964,78 Q959,46 952,17 Q934,-74 853,-68 L801,-68 Q697,-70 699,37 L699,280 L611,280 Q617,11 413,-96 Q387,-67 350,-52 Q461,8 500,78 Q541,147 542,280 M121,424 L121,458 Q118,454 113,447 Q107,438 92,421 Q63,447 30,456 Q149,597 210,803 L277,775 Q261,719 238,668 L388,668 L388,606 L210,606 Q179,543 141,487 L362,487 L362,424 L267,424 L267,300 L386,300 L386,238 L267,238 L267,58 L358,132 L398,86 L259,-32 Q235,-52 214,-76 L170,-22 Q201,6 199,67 L199,238 L72,238 L72,300 L199,300 L199,424 M509,343 L806,343 L806,525 L509,525 M577,603 Q511,695 450,762 L513,791 Q582,718 631,648"/> 
            <glyph glyph-name="陪" unicode="&#x966A;" horiz-adv-x="942" d=" M444,-95 L444,259 L878,259 L878,-95 L805,-95 L805,-32 L519,-32 L519,-95 M106,-96 L106,747 L381,747 L381,689 L282,445 Q382,349 381,228 Q377,104 261,101 Q234,101 207,105 Q205,139 187,172 Q222,165 247,165 Q315,166 315,234 Q312,340 208,432 L307,684 L174,684 L174,-96 M381,347 L381,412 L675,412 Q739,501 783,603 L849,577 Q801,481 754,412 L942,412 L942,347 M519,195 L519,32 L805,32 L805,195 M416,618 L416,682 L647,682 Q604,736 555,782 L628,807 Q687,749 730,691 L713,682 L909,682 L909,618 M568,419 Q518,509 473,570 L537,594 Q584,531 625,456"/> 
            <glyph glyph-name="难" unicode="&#x96BE;" horiz-adv-x="950" d=" M471,-96 L471,453 Q424,380 398,349 Q376,377 341,396 Q482,563 544,801 L612,773 Q586,689 555,617 L930,617 L930,553 L769,553 L769,424 L906,424 L906,363 L769,363 L769,233 L906,233 L906,172 L769,172 L769,37 L950,37 L950,-25 L541,-25 L541,-96 M364,47 Q311,135 266,201 Q201,69 107,-20 Q78,3 35,13 Q145,109 219,272 Q116,417 71,470 L134,500 Q179,450 250,351 Q293,478 308,619 L73,619 L73,685 L381,685 L381,624 Q356,427 300,280 Q375,171 417,97 M541,172 L541,37 L697,37 L697,172 M541,363 L541,233 L697,233 L697,363 M541,553 L541,424 L697,424 L697,553 M759,628 Q705,696 651,751 L713,781 Q774,720 811,672"/> 
            <glyph glyph-name="黑" unicode="&#x9ED1;" horiz-adv-x="928" d=" M162,415 L162,753 L835,753 L835,415 L535,415 L535,335 L853,335 L853,276 L535,276 L535,195 L928,195 L928,134 L68,134 L68,195 L462,195 L462,276 L138,276 L138,335 L462,335 L462,415 M762,692 L535,692 L535,474 L762,474 M235,474 L462,474 L462,692 L235,692 M135,-98 L69,-55 Q141,23 185,113 L246,80 Q205,-13 135,-98 M863,-95 Q796,19 745,84 L818,108 Q878,30 924,-53 M609,-88 Q576,5 536,78 L605,92 Q641,29 676,-57 M380,-89 Q362,-14 327,79 L397,88 Q425,26 449,-64 M614,508 Q591,526 564,537 Q621,589 676,659 L726,630 Q681,570 614,508 M384,512 Q315,587 268,629 L321,655 Q379,602 427,550"/> 
            <glyph glyph-name="，" unicode="&#xFF0C;" horiz-adv-x="298" d=" M298,74 L298,29 Q297,-58 246,-144 L204,-144 Q250,-66 249,-7 Q248,13 226,15 L203,15 L203,115 L251,115 Q296,113 298,74"/> 
        </font>
</defs>
</svg>
