<?xml version="1.0" standalone="no"?>
<!DOCTYPE svg PUBLIC "-//W3C//DTD SVG 1.1//EN" "http://www.w3.org/Graphics/SVG/1.1/DTD/svg11.dtd" >
<svg xmlns="http://www.w3.org/2000/svg">
    <defs>
        <font id="">
            <font-face font-family=""
                       units-per-em="256"
                       ascent="229"
                       descent="-64"
                       bbox="-14 -64 284 229"
                    />
            <missing-glyph horiz-adv-x="0" />
            
            <glyph glyph-name="0" unicode="&#x30;" horiz-adv-x="157" d=" M47,90 Q46,8 85,11 Q123,9 122,90 Q123,172 84,169 Q48,167 47,90 M12,90 Q14,196 84,198 Q157,198 157,90 Q156,-14 85,-16 Q12,-16 12,90"/> 
            <glyph glyph-name="1" unicode="&#x31;" horiz-adv-x="105" d=" M80,198 L105,198 L105,-13 L72,-13 Q72,47 72,139 Q53,125 19,111 L19,143 Q69,164 80,198"/> 
            <glyph glyph-name="2" unicode="&#x32;" horiz-adv-x="157" d=" M150,16 L150,-12 L9,-12 L9,8 Q32,50 76,82 Q120,113 118,137 Q118,167 82,167 Q54,166 45,133 L13,147 Q32,198 86,198 Q148,195 152,139 Q157,99 101,63 Q66,37 51,16 Q113,16 150,16"/> 
            <glyph glyph-name="3" unicode="&#x33;" horiz-adv-x="156" d=" M10,40 L44,48 Q48,13 81,12 Q122,11 121,49 Q118,79 81,80 L56,80 L56,109 L73,109 Q111,109 113,141 Q112,167 83,168 Q54,166 48,135 L14,143 Q28,197 82,198 Q146,197 148,140 Q148,110 115,97 Q155,81 156,47 Q152,-13 83,-16 Q21,-15 10,40"/> 
            <glyph glyph-name="4" unicode="&#x34;" horiz-adv-x="157" d=" M97,65 L97,142 L43,65 M157,65 L157,35 Q148,35 129,35 Q129,4 129,-13 L97,-13 Q97,4 97,35 Q43,35 4,35 L4,58 L104,198 L129,198 Q129,139 129,65 Q148,65 157,65"/> 
            <glyph glyph-name="5" unicode="&#x35;" horiz-adv-x="158" d=" M32,193 L147,193 L147,163 L60,163 L55,117 Q67,127 89,128 Q154,124 158,58 Q156,-14 86,-16 Q24,-16 12,41 L45,48 Q51,12 84,12 Q123,13 124,56 Q123,96 85,97 Q53,97 44,75 L19,80"/> 
            <glyph glyph-name="6" unicode="&#x36;" horiz-adv-x="156" d=" M87,11 Q121,12 122,55 Q121,96 87,97 Q45,96 44,59 Q45,12 87,11 M153,149 L121,140 Q113,169 88,168 Q43,169 44,104 Q60,126 90,126 Q153,123 156,56 Q152,-12 87,-16 Q9,-18 10,85 Q10,198 89,198 Q138,196 153,149"/> 
            <glyph glyph-name="7" unicode="&#x37;" horiz-adv-x="156" d=" M12,193 L156,193 L156,169 Q96,102 76,-13 L40,-13 Q57,84 113,163 Q51,163 12,163"/> 
            <glyph glyph-name="8" unicode="&#x38;" horiz-adv-x="160" d=" M86,10 Q122,12 125,42 Q124,80 85,81 Q48,78 46,44 Q49,13 86,10 M85,169 Q57,166 55,141 Q56,109 86,108 Q115,109 116,139 Q114,166 85,169 M123,95 Q158,82 160,42 Q157,-13 86,-16 Q14,-14 11,44 Q12,81 48,95 Q22,110 20,139 Q25,195 85,198 Q145,194 151,138 Q149,110 123,95"/> 
            <glyph glyph-name="9" unicode="&#x39;" horiz-adv-x="160" d=" M81,168 Q47,167 46,125 Q46,83 81,82 Q123,83 124,122 Q125,169 81,168 M16,30 L47,40 Q55,10 80,11 Q123,12 124,76 Q109,53 78,53 Q16,56 12,124 Q17,193 81,198 Q160,201 158,95 Q159,-17 79,-16 Q30,-14 16,30"/> 
            <glyph glyph-name="K" unicode="&#x4B;" horiz-adv-x="203" d=" M157,-13 L86,85 L53,52 L53,-13 L18,-13 L18,194 L53,194 L53,96 L151,194 L199,194 L109,107 L203,-13"/> 
            <glyph glyph-name="c" unicode="&#x63;" horiz-adv-x="151" d=" M148,96 L115,88 Q108,113 84,114 Q46,114 46,62 Q46,11 84,11 Q113,10 118,43 L151,36 Q139,-19 83,-17 Q13,-15 11,62 Q14,139 82,143 Q135,141 148,96"/> 
            <glyph glyph-name="人" unicode="&#x4EBA;" horiz-adv-x="248" d=" M228,-24 Q143,21 128,106 Q113,22 26,-27 Q18,-14 7,-2 Q103,47 110,148 Q112,172 112,208 L142,208 Q141,205 141,190 Q140,178 140,172 Q149,42 248,1 Q235,-13 228,-24"/> 
            <glyph glyph-name="元" unicode="&#x5143;" horiz-adv-x="249" d=" M10,99 L10,125 L246,125 L246,99 L171,99 L171,19 Q170,1 187,2 L198,2 Q215,1 218,19 Q221,43 222,55 Q227,52 240,48 Q246,46 249,45 Q248,41 247,33 Q245,16 243,8 Q239,-22 201,-21 L178,-21 Q143,-21 143,12 L143,99 L102,99 Q102,96 101,91 Q101,87 101,85 Q104,7 26,-29 Q20,-19 8,-5 Q76,24 73,87 Q73,92 73,99 M32,170 L32,197 L224,197 L224,170"/> 
            <glyph glyph-name="子" unicode="&#x5B50;" horiz-adv-x="249" d=" M7,76 L7,101 L116,101 L116,127 L186,172 L29,172 L29,197 L227,197 L227,166 L145,114 L145,101 L249,101 L249,76 L145,76 L145,12 Q146,-24 110,-24 Q90,-25 67,-25 Q65,-10 62,2 Q71,1 96,1 Q117,0 116,21 L116,76"/> 
            <glyph glyph-name="小" unicode="&#x5C0F;" horiz-adv-x="250" d=" M34,25 Q19,32 6,36 Q35,93 52,156 L81,148 Q61,87 34,25 M221,28 Q201,82 172,147 L199,156 Q212,126 242,56 Q248,44 250,38 M70,-24 Q69,-9 64,3 Q76,2 96,2 Q118,0 116,22 L116,208 L145,208 L145,13 Q147,-24 108,-24 Q89,-24 70,-24"/> 
            <glyph glyph-name="工" unicode="&#x5DE5;" horiz-adv-x="246" d=" M23,163 L23,190 L232,190 L232,163 L143,163 L143,13 L246,13 L246,-12 L10,-12 L10,13 L113,13 L113,163"/> 
            <glyph glyph-name="智" unicode="&#x667A;" horiz-adv-x="237" d=" M119,82 L219,82 L219,-29 L192,-29 L192,-18 L65,-18 L65,-29 L39,-29 L39,81 Q31,78 23,73 Q16,84 8,94 Q50,109 60,130 L10,130 L10,150 L65,150 Q67,160 67,172 L43,172 Q36,162 24,151 Q22,153 19,156 Q17,159 8,167 Q30,186 39,212 L63,210 Q60,200 55,192 L127,192 L127,172 L92,172 Q92,168 91,161 Q91,153 90,150 L134,150 L134,130 L87,130 Q98,123 121,109 Q129,104 133,102 M144,99 L144,194 L237,194 L237,99 M65,22 L65,0 L192,0 L192,22 M65,61 L65,40 L192,40 L192,61 M168,172 L168,120 L213,120 L213,172 M119,82 Q107,91 86,106 Q80,111 76,113 Q67,97 40,82"/> 
            <glyph glyph-name="机" unicode="&#x673A;" horiz-adv-x="249" d=" M98,-29 Q95,-26 87,-20 Q80,-13 76,-10 Q99,14 105,37 Q112,59 112,110 L112,197 L206,197 L206,12 Q206,1 213,2 L216,2 Q225,1 226,14 Q227,26 229,58 Q240,55 249,52 Q247,18 245,4 Q242,-21 218,-21 L206,-21 Q180,-21 180,7 L180,172 L138,172 L138,109 Q138,55 130,27 Q122,0 98,-29 M11,140 L11,164 L41,164 L41,210 L66,210 L66,164 L95,164 L95,140 L66,140 L66,108 L72,114 Q84,105 104,84 L88,66 Q85,70 77,78 Q70,86 66,90 L66,-28 L41,-28 L41,86 Q29,53 12,29 Q12,31 11,36 Q8,55 5,64 Q27,92 41,140"/> 
            <glyph glyph-name="盒" unicode="&#x76D2;" horiz-adv-x="250" d=" M9,-20 L9,0 L34,0 L34,55 L222,55 L222,0 L247,0 L247,-20 M238,130 Q207,139 177,154 L177,140 L78,140 L78,152 Q53,138 18,126 Q17,129 13,137 Q8,145 6,150 Q80,173 121,211 L153,208 L146,201 Q188,169 250,153 Q242,137 238,130 M46,70 L46,125 L210,125 L210,70 M72,107 L72,88 L184,88 L184,107 M129,186 Q110,170 87,157 L172,157 Q159,164 134,182 Q131,185 129,186 M196,34 L166,34 L166,0 L196,0 M113,34 L113,0 L143,0 L143,34 M60,34 L60,0 L89,0 L89,34"/> 
            <glyph glyph-name="米" unicode="&#x7C73;" horiz-adv-x="249" d=" M11,90 L11,115 L114,115 L114,209 L142,209 L142,115 L245,115 L245,90 L155,90 Q187,41 249,16 Q247,13 244,7 Q237,-5 234,-10 Q168,23 142,71 L142,-29 L114,-29 L114,70 Q86,23 22,-14 Q16,-4 6,9 Q69,42 101,90 M71,127 Q45,159 26,178 L47,195 Q52,190 63,178 Q84,156 93,146 M184,127 L164,145 Q186,168 208,196 L230,179 Q227,175 219,167 Q196,139 184,127"/> 
            <glyph glyph-name="能" unicode="&#x80FD;" horiz-adv-x="247" d=" M19,-27 L19,116 L122,116 L122,1 Q123,-24 97,-25 Q94,-25 85,-25 Q74,-26 69,-26 Q68,-21 67,-12 Q65,-6 65,-3 Q71,-4 87,-4 Q99,-4 99,4 L99,19 L42,19 L42,-27 M176,-24 Q144,-25 144,7 L144,88 L169,88 L169,55 Q205,69 231,84 L245,64 Q218,50 169,30 L169,12 Q169,-2 184,-1 L205,-1 Q220,-2 221,9 Q223,20 224,36 Q228,35 235,32 Q243,29 247,28 Q246,17 243,1 Q243,0 243,0 Q237,-24 210,-24 M176,99 Q144,99 144,131 L144,209 L169,209 L169,172 Q196,182 229,200 L243,181 Q207,163 169,148 L169,136 Q168,121 184,122 L204,122 Q219,121 221,134 Q223,147 224,159 Q226,158 231,157 Q237,155 247,151 Q246,138 242,123 Q238,99 209,99 M121,123 Q117,130 112,136 Q83,135 36,133 Q32,133 25,132 Q18,131 14,130 L5,152 Q15,157 22,166 Q42,186 58,213 L85,204 Q82,201 76,194 Q53,167 40,154 Q49,155 68,155 Q87,156 96,156 L79,178 L97,189 Q116,169 141,137 M42,96 L42,76 L99,76 L99,96 M42,58 L42,38 L99,38 L99,58"/> 
            <glyph glyph-name="顶" unicode="&#x9876;" horiz-adv-x="249" d=" M99,176 L99,199 L247,199 L247,176 L181,176 L175,148 L237,148 L237,29 L212,29 L212,125 L128,125 L128,27 L103,27 L103,148 L147,148 L153,176 M7,170 L7,195 L92,195 L92,170 L67,170 L67,8 Q68,-21 38,-21 Q28,-22 14,-22 Q12,-6 9,3 Q16,2 29,2 Q42,1 41,15 L41,170 M232,-27 Q215,-13 169,21 Q154,-7 94,-30 Q88,-18 80,-6 Q128,9 142,26 Q157,42 157,80 L158,110 L183,110 L182,81 Q182,60 178,44 Q188,37 210,21 Q238,0 249,-6"/> 
        </font>
</defs>
</svg>
