<?xml version="1.0" standalone="no"?>
<!DOCTYPE svg PUBLIC "-//W3C//DTD SVG 1.1//EN" "http://www.w3.org/Graphics/SVG/1.1/DTD/svg11.dtd" >
<svg xmlns="http://www.w3.org/2000/svg">
    <defs>
        <font id="">
            <font-face font-family=""
                       units-per-em="256"
                       ascent="223"
                       descent="-74"
                       bbox="-20 -74 266 223"
                    />
            <missing-glyph horiz-adv-x="0" />
            
            <glyph glyph-name="!" unicode="&#x21;" horiz-adv-x="90" d=" M65,30 Q42,29 41,7 Q42,-12 65,-13 Q86,-12 88,6 Q87,29 65,30 M60,47 L70,47 Q73,98 84,140 Q90,162 90,175 Q90,193 66,193 Q39,193 41,175 Q41,164 47,140 Q59,89 60,47"/> 
            <glyph glyph-name="%" unicode="&#x25;" horiz-adv-x="211" d=" M56,192 Q10,190 8,135 Q10,83 56,80 Q98,85 102,138 Q98,190 56,192 M55,186 Q76,187 72,136 Q72,133 72,125 Q74,86 56,87 Q39,87 38,128 Q38,134 38,137 Q35,187 55,186 M33,-8 L40,-14 L185,187 L178,193 M166,96 Q120,94 118,39 Q120,-12 166,-14 Q207,-9 211,42 Q207,94 166,96 M165,90 Q185,92 182,40 Q182,36 181,26 Q183,-8 166,-7 Q148,-8 147,32 Q147,38 147,41 Q144,91 165,90"/> 
            <glyph glyph-name="+" unicode="&#x2B;" horiz-adv-x="125" d=" M56,27 L75,27 L75,81 L125,81 L125,99 L75,99 L75,152 L56,152 L56,99 L6,99 L6,81 L56,81"/> 
            <glyph glyph-name="." unicode="&#x2E;" horiz-adv-x="63" d=" M39,38 Q61,36 63,14 Q61,-6 39,-8 Q17,-6 15,14 Q17,36 39,38"/> 
            <glyph glyph-name="0" unicode="&#x30;" horiz-adv-x="151" d=" M82,193 Q13,192 11,87 Q10,-14 82,-15 Q150,-14 151,87 Q150,192 82,193 M82,180 Q113,182 113,87 Q114,-4 82,-2 Q48,-3 50,91 Q49,180 82,180"/> 
            <glyph glyph-name="1" unicode="&#x31;" horiz-adv-x="128" d=" M36,-10 L128,-10 L128,0 Q102,1 101,29 L101,193 L39,179 L39,167 Q54,167 59,159 Q65,151 64,139 L64,29 Q64,1 36,0"/> 
            <glyph glyph-name="2" unicode="&#x32;" horiz-adv-x="150" d=" M150,52 L138,56 Q129,20 107,22 L40,22 Q51,52 91,71 Q149,99 147,141 Q145,194 83,193 Q21,192 18,145 Q17,124 36,124 Q54,125 57,144 Q62,181 83,180 Q108,179 108,145 Q107,113 74,88 Q16,46 15,-10 L140,-10"/> 
            <glyph glyph-name="3" unicode="&#x33;" horiz-adv-x="146" d=" M54,99 L54,85 Q108,84 108,39 Q108,-4 78,-2 Q57,-2 52,27 Q50,47 32,45 Q13,44 14,25 Q17,-13 78,-15 Q145,-14 146,39 Q146,86 87,93 Q141,101 142,143 Q141,194 80,193 Q22,192 18,150 Q17,131 36,130 Q55,132 57,149 Q58,182 80,181 Q103,181 104,144 Q105,102 54,99"/> 
            <glyph glyph-name="4" unicode="&#x34;" horiz-adv-x="149" d=" M62,-10 L146,-10 L146,0 Q120,0 121,25 L121,40 L149,40 L149,55 L121,55 L121,190 L94,190 L5,55 L5,40 L86,40 L86,25 Q87,0 62,0 M86,154 L86,55 L22,55 Q27,63 41,85 Q75,138 86,154"/> 
            <glyph glyph-name="5" unicode="&#x35;" horiz-adv-x="147" d=" M137,189 L31,189 L22,73 L33,68 Q51,97 76,97 Q110,96 109,46 Q108,-1 77,-2 Q56,-3 52,26 Q49,44 33,43 Q15,43 15,24 Q18,-13 77,-14 Q146,-13 147,51 Q146,109 86,113 Q56,115 37,94 L42,152 L137,152"/> 
            <glyph glyph-name="6" unicode="&#x36;" horiz-adv-x="150" d=" M87,181 Q99,182 105,155 Q109,136 125,137 Q143,138 144,157 Q141,192 88,193 Q15,194 14,81 Q14,-16 83,-15 Q149,-12 150,53 Q149,113 92,117 Q68,119 52,101 Q54,182 87,181 M82,102 Q111,103 111,51 Q111,-2 83,-2 Q51,-3 52,62 Q54,99 82,102"/> 
            <glyph glyph-name="8" unicode="&#x38;" horiz-adv-x="151" d=" M142,145 Q140,193 81,194 Q22,193 18,137 Q16,106 52,85 Q14,71 14,32 Q16,-15 78,-15 Q147,-15 149,41 Q151,78 107,100 Q143,114 142,145 M50,152 Q51,182 81,181 Q113,181 114,144 Q114,123 93,106 Q48,126 50,152 M116,28 Q114,-2 78,-2 Q42,-2 42,36 Q41,65 66,78 Q120,55 116,28"/> 
            <glyph glyph-name="9" unicode="&#x39;" horiz-adv-x="149" d=" M77,-2 Q61,-3 57,21 Q54,38 36,38 Q17,37 18,19 Q22,-13 77,-15 Q146,-15 149,94 Q145,192 80,193 Q14,189 13,122 Q14,62 70,58 Q94,57 110,74 Q107,-1 77,-2 M80,181 Q112,178 111,114 Q108,76 78,74 Q52,73 51,123 Q51,182 80,181"/> 
            <glyph glyph-name="A" unicode="&#x41;" horiz-adv-x="199" d=" M110,0 L110,-10 L199,-10 L199,0 Q185,0 179,6 Q173,12 169,27 L113,191 L93,189 Q86,171 69,123 Q34,23 24,7 Q23,1 1,0 L1,-10 L69,-10 L69,0 Q45,2 47,12 Q51,31 59,52 L120,52 L128,30 Q134,18 133,11 Q134,2 110,0 M115,68 L64,68 Q73,97 91,142 Q94,132 100,113 Q110,83 115,68"/> 
            <glyph glyph-name="B" unicode="&#x42;" horiz-adv-x="169" d=" M30,147 L30,28 Q33,0 7,0 L7,-10 L83,-10 Q169,-12 168,41 Q167,87 112,93 Q162,100 163,142 Q165,189 88,189 L7,189 L7,176 Q34,179 30,147 M83,99 L67,99 L67,176 L84,176 Q124,176 124,140 Q124,101 83,99 M82,0 L67,0 L67,86 L83,86 Q129,86 129,41 Q129,0 82,0"/> 
            <glyph glyph-name="D" unicode="&#x44;" horiz-adv-x="190" d=" M85,189 L8,189 L8,176 Q32,178 30,147 L30,29 Q31,0 7,0 L7,-10 L86,-10 Q190,-12 189,93 Q189,190 85,189 M83,0 L68,0 L68,175 L79,175 Q151,178 149,87 Q148,0 83,0"/> 
            <glyph glyph-name="F" unicode="&#x46;" horiz-adv-x="153" d=" M30,147 L30,29 Q32,-1 7,0 L7,-10 L92,-10 L92,0 Q65,-1 67,29 L67,85 L90,85 Q116,86 118,56 L130,56 L130,126 L118,126 Q114,98 90,99 L67,99 L67,175 L97,175 Q133,176 141,125 L153,130 L149,189 L8,189 L8,176 Q33,180 30,147"/> 
            <glyph glyph-name="G" unicode="&#x47;" horiz-adv-x="194" d=" M194,84 L115,84 L115,72 Q142,76 139,44 L139,4 Q124,-1 104,0 Q56,0 55,87 Q55,178 106,179 Q145,180 163,120 L175,125 L170,188 Q163,185 155,184 Q149,185 136,188 Q115,193 104,192 Q16,186 14,84 Q14,-11 103,-14 Q121,-14 145,-6 Q161,0 176,0 Q175,7 175,23 L175,45 Q174,74 194,72"/> 
            <glyph glyph-name="H" unicode="&#x48;" horiz-adv-x="206" d=" M122,0 L122,-10 L206,-10 L206,0 Q180,-1 182,29 L182,147 Q180,178 205,176 L205,189 L123,189 L123,176 Q146,178 145,147 L145,101 L68,101 L68,147 Q66,179 90,176 L90,189 L8,189 L8,176 Q34,179 31,147 L31,28 Q32,0 7,0 L7,-10 L91,-10 L91,0 Q66,1 68,28 L68,87 L145,87 L145,29 Q148,-1 122,0"/> 
            <glyph glyph-name="I" unicode="&#x49;" horiz-adv-x="92" d=" M91,189 L8,189 L8,176 Q33,178 31,147 L31,28 Q34,0 6,0 L6,-10 L92,-10 L92,0 Q66,0 69,28 L69,147 Q66,179 91,176"/> 
            <glyph glyph-name="K" unicode="&#x4B;" horiz-adv-x="194" d=" M186,176 L186,189 L113,189 L113,176 Q131,176 130,169 Q116,141 67,86 L67,147 Q65,178 90,176 L90,189 L8,189 L8,176 Q33,179 30,147 L30,28 Q33,-2 7,0 L7,-10 L91,-10 L91,0 Q65,1 67,27 L67,65 Q70,69 75,75 Q81,82 83,85 Q98,59 122,16 Q132,0 137,-10 L194,-10 L194,0 Q173,2 163,23 Q136,71 109,115 L135,146 Q158,176 186,176"/> 
            <glyph glyph-name="M" unicode="&#x4D;" horiz-adv-x="244" d=" M160,-10 L244,-10 L244,0 Q216,-1 220,28 L220,147 Q217,180 243,176 L243,189 L179,189 Q171,166 153,118 Q136,70 127,46 L75,189 L11,189 L11,176 Q37,179 34,147 L34,38 Q37,0 7,0 L7,-10 L73,-10 L73,0 Q42,-1 46,38 L46,155 L106,-3 L121,-3 Q136,34 166,111 Q178,144 184,160 L184,28 Q187,-1 160,0"/> 
            <glyph glyph-name="P" unicode="&#x50;" horiz-adv-x="164" d=" M30,147 L30,28 Q31,-1 7,0 L7,-10 L92,-10 L92,0 Q65,-1 67,29 L67,70 L78,70 Q164,67 162,132 Q163,190 87,189 L8,189 L8,176 Q33,179 30,147 M78,83 L67,83 L67,176 L79,176 Q122,176 122,131 Q122,85 78,83"/> 
            <glyph glyph-name="R" unicode="&#x52;" horiz-adv-x="184" d=" M30,147 L30,28 Q32,-2 7,0 L7,-10 L91,-10 L91,0 Q65,-1 67,28 L67,80 L75,80 Q96,82 105,58 Q115,34 130,-10 L184,-10 L184,0 Q169,2 164,14 Q162,20 156,33 Q153,41 151,45 Q136,84 101,86 Q160,90 161,140 Q163,191 84,189 L7,189 L7,176 Q33,179 30,147 M78,92 L67,92 L67,176 L79,176 Q122,177 121,136 Q121,94 78,92"/> 
            <glyph glyph-name="S" unicode="&#x53;" horiz-adv-x="143" d=" M134,129 L130,191 Q121,187 118,187 Q114,186 105,189 Q103,189 103,189 Q101,189 97,190 Q87,193 76,193 Q17,191 14,134 Q12,96 57,77 Q110,55 108,29 Q107,0 74,0 Q38,-1 26,58 L15,54 L18,-10 Q32,-6 47,-9 Q51,-10 59,-11 Q67,-13 74,-13 Q140,-12 142,45 Q143,84 89,108 Q43,128 47,150 Q51,179 76,180 Q106,181 123,124"/> 
            <glyph glyph-name="T" unicode="&#x54;" horiz-adv-x="172" d=" M41,0 L41,-10 L131,-10 L131,0 Q102,0 105,28 L105,175 Q147,174 161,113 L172,118 L168,189 L6,189 L1,117 L13,113 Q23,175 67,175 L67,29 Q70,-2 41,0"/> 
            <glyph glyph-name="U" unicode="&#x55;" horiz-adv-x="201" d=" M201,189 L134,189 L134,177 Q166,183 162,131 L162,68 Q161,0 114,0 Q66,0 66,62 L66,146 Q64,178 88,176 L88,189 L6,189 L6,176 Q30,177 29,146 L29,55 Q29,-14 103,-14 Q175,-15 175,68 L175,131 Q172,182 201,177"/> 
            <glyph glyph-name="W" unicode="&#x57;" horiz-adv-x="265" d=" M91,41 L67,143 Q65,149 64,159 Q63,162 63,164 Q61,175 85,176 L85,189 L2,189 L2,176 Q23,176 27,146 L66,-11 L89,-11 Q114,70 132,138 L171,-11 L194,-11 L232,135 Q240,177 265,176 L265,189 L198,189 L198,176 Q224,173 222,160 Q222,158 221,152 Q220,142 219,137 Q206,81 194,40 L158,185 L131,185"/> 
            <glyph glyph-name="X" unicode="&#x58;" horiz-adv-x="190" d=" M188,176 L188,189 L118,189 L118,176 Q138,174 136,168 Q132,153 115,128 Q108,118 105,113 L84,147 Q72,169 74,169 Q72,176 93,176 L93,189 L6,189 L6,176 Q25,175 38,153 Q46,140 62,112 Q74,92 80,82 Q74,73 61,53 Q48,34 41,24 Q26,2 3,0 L3,-10 L73,-10 L73,0 Q49,2 52,9 Q60,25 88,69 Q91,64 97,53 Q114,23 121,7 Q121,1 104,0 L104,-10 L190,-10 L190,0 Q168,2 154,27 Q147,42 129,71 Q118,91 113,100 L142,143 Q160,176 188,176"/> 
            <glyph glyph-name="a" unicode="&#x61;" horiz-adv-x="142" d=" M125,16 L125,89 Q128,135 76,133 Q22,131 19,100 Q18,83 36,82 Q54,81 56,99 Q58,122 75,120 Q90,120 90,89 L90,75 Q8,72 11,25 Q13,-12 50,-13 Q74,-14 91,3 Q92,-12 104,-12 Q109,-12 130,-9 Q138,-8 142,-8 L142,1 Q131,1 128,3 Q125,7 125,16 M90,62 L90,40 Q86,4 64,2 Q49,1 47,29 Q45,61 90,62"/> 
            <glyph glyph-name="c" unicode="&#x63;" horiz-adv-x="134" d=" M134,21 L124,28 Q112,1 86,0 Q48,0 48,63 Q48,122 76,121 Q89,122 94,97 Q98,82 112,81 Q129,82 130,99 Q127,133 76,134 Q11,131 10,56 Q11,-12 77,-15 Q112,-16 134,21"/> 
            <glyph glyph-name="g" unicode="&#x67;" horiz-adv-x="137" d=" M112,115 L133,115 L133,130 L93,130 Q84,133 68,133 Q14,132 13,79 Q14,52 35,40 Q9,26 11,11 Q12,-3 27,-11 Q9,-20 9,-35 Q9,-69 68,-69 Q136,-69 137,-19 Q137,-7 129,0 Q115,15 75,13 Q55,12 46,14 Q38,16 38,22 Q36,28 48,34 Q58,31 70,31 Q121,33 123,82 Q123,102 112,115 M68,120 Q87,122 87,81 Q87,44 70,44 Q49,43 49,84 Q48,121 68,120 M70,-15 Q95,-15 101,-19 Q113,-26 111,-33 Q108,-55 71,-56 Q35,-57 36,-28 Q36,-19 41,-15 Q50,-15 70,-15"/> 
            <glyph glyph-name="h" unicode="&#x68;" horiz-adv-x="167" d=" M92,-10 L167,-10 L167,0 Q143,0 146,26 L146,85 Q147,133 105,132 Q76,132 61,108 L61,139 Q61,178 62,193 L6,181 L6,170 Q28,173 26,141 L26,26 Q29,-2 6,0 L6,-10 L80,-10 L80,0 Q58,-1 61,26 L61,71 Q68,111 93,115 Q111,116 111,83 L111,26 Q113,-2 92,0"/> 
            <glyph glyph-name="i" unicode="&#x69;" horiz-adv-x="82" d=" M7,121 L7,110 Q28,113 26,82 L26,26 Q29,-2 5,0 L5,-10 L82,-10 L82,0 Q58,-2 61,26 L61,132 M44,195 Q25,195 24,173 Q25,152 44,151 Q63,152 64,173 Q63,194 44,195"/> 
            <glyph glyph-name="l" unicode="&#x6C;" horiz-adv-x="82" d=" M5,-10 L82,-10 L82,0 Q58,-2 62,28 L62,193 L6,179 L6,168 Q28,171 26,139 L26,28 Q29,-2 5,0"/> 
            <glyph glyph-name="m" unicode="&#x6D;" horiz-adv-x="244" d=" M171,-10 L244,-10 L244,0 Q222,-2 225,25 L225,85 Q225,133 182,132 Q155,134 139,107 Q132,132 103,132 Q76,132 60,108 L60,132 L6,121 L6,110 Q29,114 26,83 L26,25 Q27,-1 6,0 L6,-10 L79,-10 L79,0 Q59,0 60,25 L60,75 Q68,114 90,116 Q105,117 107,83 L107,25 Q109,-2 88,0 L88,-10 L160,-10 L160,0 Q141,-1 142,24 L142,79 Q149,114 170,116 Q189,117 189,83 L189,25 Q190,-1 171,0"/> 
            <glyph glyph-name="o" unicode="&#x6F;" horiz-adv-x="145" d=" M79,134 Q11,133 10,55 Q11,-13 77,-15 Q144,-14 145,57 Q143,132 79,134 M77,122 Q107,123 106,57 Q106,-2 78,-2 Q49,-4 49,60 Q48,124 77,122"/> 
            <glyph glyph-name="t" unicode="&#x74;" horiz-adv-x="91" d=" M55,174 L41,174 Q34,129 5,129 L5,115 L19,115 L19,19 Q20,-14 53,-14 Q71,-14 91,0 L84,11 Q75,2 69,2 Q54,2 54,27 L54,115 L84,115 L84,129 L54,129 Q54,136 55,158 Q55,172 55,174"/> 
            <glyph glyph-name="u" unicode="&#x75;" horiz-adv-x="157" d=" M157,-10 L157,0 Q147,0 144,3 Q141,7 141,22 L141,89 Q141,113 143,133 L88,123 L88,111 Q109,114 106,87 L106,54 Q99,7 76,4 Q57,2 58,35 L58,92 Q58,119 59,133 L4,124 L4,112 Q22,113 21,89 L21,29 Q21,-14 60,-14 Q84,-14 106,10 Q106,-2 107,-12"/> 
            <glyph glyph-name="、" unicode="&#x3001;" horiz-adv-x="101" d=" M21,50 L22,52 Q84,40 96,19 Q101,11 101,4 Q101,-7 93,-15 Q90,-20 83,-20 Q77,-20 74,-15 Q48,28 21,50"/> 
            <glyph glyph-name="一" unicode="&#x4E00;" horiz-adv-x="248" d=" M205,124 L244,94 Q248,91 247,89 Q245,86 239,86 L12,86 L12,93 L182,93"/> 
            <glyph glyph-name="下" unicode="&#x4E0B;" horiz-adv-x="252" d=" M97,-23 Q97,-16 98,-2 Q99,52 99,62 L99,176 L9,176 L9,182 L197,182 L215,207 L248,184 Q252,181 250,178 Q249,176 243,176 L139,176 L139,137 Q222,119 220,89 Q218,64 195,61 Q185,62 180,71 Q165,104 139,128 L139,62 Q139,59 139,46 Q140,9 140,-13 Q141,-20 132,-21 Q110,-23 97,-23"/> 
            <glyph glyph-name="不" unicode="&#x4E0D;" horiz-adv-x="247" d=" M10,25 L9,29 Q85,97 116,171 L13,171 L13,178 L194,178 L211,202 L243,179 Q247,176 245,173 Q244,171 238,171 L167,171 Q155,150 142,130 L150,129 Q156,129 156,125 Q157,122 145,116 L145,70 Q145,15 146,-12 Q147,-20 138,-21 Q128,-23 106,-24 Q106,-8 107,16 Q108,50 108,59 L108,90 Q70,52 10,25 M223,41 Q213,40 208,51 Q191,87 158,114 L161,118 Q247,99 246,68 Q244,44 223,41"/> 
            <glyph glyph-name="个" unicode="&#x4E2A;" horiz-adv-x="254" d=" M221,87 Q163,117 138,176 Q95,114 9,81 L7,85 Q59,128 90,180 Q91,181 92,184 Q100,200 102,208 L154,197 Q158,196 158,193 Q159,187 144,184 Q190,144 254,132 L254,127 Q235,122 221,87 M106,-24 Q108,18 108,61 L108,84 Q108,113 107,135 L154,131 Q160,131 160,128 Q161,122 148,117 L148,61 Q148,55 149,23 Q149,-8 149,-14 Q149,-21 145,-21 Q143,-21 137,-22 Q114,-24 106,-24"/> 
            <glyph glyph-name="主" unicode="&#x4E3B;" horiz-adv-x="251" d=" M193,105 L225,81 Q228,78 227,76 Q225,73 220,73 L148,73 L148,-6 L194,-6 L214,20 L247,-4 Q251,-7 249,-10 Q248,-12 242,-12 L7,-12 L7,-6 L107,-6 L107,73 L35,73 L35,80 L107,80 L107,145 L17,145 L17,151 L189,151 L207,176 L240,152 Q244,149 242,147 Q241,145 235,145 L148,145 L148,80 L175,80 M124,154 Q109,153 107,168 Q103,187 92,205 L93,207 Q153,204 151,179 Q149,156 124,154"/> 
            <glyph glyph-name="也" unicode="&#x4E5F;" horiz-adv-x="251" d=" M83,-12 Q45,-13 46,24 L46,104 L9,93 L7,99 L46,110 L46,131 Q46,133 46,141 Q45,167 45,187 L89,183 Q97,183 97,179 Q97,174 84,168 L84,122 L112,130 L112,155 Q112,158 112,167 Q111,189 111,205 L153,201 Q159,201 159,198 Q160,193 148,188 L148,141 L173,148 L183,170 L225,154 Q228,154 228,151 Q228,145 215,137 Q215,132 215,125 Q214,98 212,82 Q210,48 163,46 Q162,69 148,74 L148,50 Q148,43 142,41 Q136,40 119,38 Q112,37 110,37 Q110,45 110,43 Q112,102 112,115 L112,123 L84,115 L84,34 Q84,22 93,22 L191,22 Q205,22 212,38 L231,82 L235,81 L236,43 Q236,32 242,26 Q251,21 250,13 Q248,-11 201,-12 M178,143 L148,134 L148,83 L165,82 Q175,82 175,90 Q178,109 178,143"/> 
            <glyph glyph-name="人" unicode="&#x4EBA;" horiz-adv-x="251" d=" M205,-24 Q144,30 134,138 Q129,18 7,-25 L6,-21 Q94,50 93,162 Q93,178 92,202 L143,196 Q150,196 150,192 Q151,186 136,180 Q136,177 136,175 Q164,60 251,21 L250,16 Q225,13 205,-24"/> 
            <glyph glyph-name="传" unicode="&#x4F20;" horiz-adv-x="250" d=" M188,-26 Q181,-27 173,-18 Q144,12 102,32 L104,36 Q134,34 167,27 L190,69 L148,69 L138,55 Q136,56 130,58 Q112,66 103,71 Q99,73 103,77 Q107,80 110,88 Q111,91 113,97 Q114,103 115,106 L78,106 L78,113 L116,113 Q119,122 123,139 Q124,146 125,150 L88,150 L88,156 L126,156 L128,168 Q132,191 132,206 L179,198 Q185,198 184,195 Q183,188 171,185 L165,156 L195,156 L210,177 L238,157 Q242,155 240,152 Q239,150 233,150 L164,150 Q160,131 155,113 L200,113 L216,135 L246,114 Q250,111 248,109 Q246,106 240,106 L153,106 Q150,91 145,75 L186,75 L201,93 L239,69 Q242,67 242,65 Q242,58 229,58 Q205,39 180,23 Q210,13 210,-1 Q209,-25 188,-26 M37,-23 Q38,18 38,62 L38,100 Q33,94 20,82 Q13,75 10,72 L6,76 Q36,133 45,174 Q50,192 51,208 L97,197 Q101,197 101,194 Q101,188 88,184 Q80,160 68,141 L78,140 Q82,139 82,136 Q82,131 72,125 L72,-12 Q73,-21 65,-22 Q56,-23 37,-23"/> 
            <glyph glyph-name="位" unicode="&#x4F4D;" horiz-adv-x="252" d=" M35,-24 Q35,1 36,48 Q36,72 36,79 L36,95 Q32,91 23,82 Q14,72 9,67 L5,70 Q41,146 48,207 L95,196 Q100,196 100,192 Q100,186 87,183 Q80,165 66,138 L76,137 Q80,137 80,134 Q80,128 70,124 L70,-12 Q71,-21 62,-22 Q48,-24 35,-24 M214,18 L248,-5 Q252,-7 250,-10 Q249,-12 243,-12 L77,-12 L77,-6 L156,-6 Q176,68 180,138 L230,125 Q236,124 235,120 Q235,113 220,110 Q197,39 166,-6 L195,-6 M125,13 Q112,13 112,28 Q113,80 100,130 L103,131 Q155,79 153,42 Q150,16 125,13 M152,154 Q138,154 138,167 Q136,188 128,206 L130,208 Q178,197 177,176 Q174,156 152,154 M210,176 L245,153 Q249,150 247,147 Q246,145 240,145 L86,145 L86,152 L193,152"/> 
            <glyph glyph-name="低" unicode="&#x4F4E;" horiz-adv-x="254" d=" M218,129 L248,106 Q252,104 250,101 Q248,99 243,99 L195,99 Q198,57 218,27 Q222,22 225,28 L241,71 L245,70 L244,27 Q244,13 249,6 Q254,-1 253,-6 Q251,-22 234,-23 Q205,-22 184,13 Q176,26 170,42 Q155,28 140,16 Q174,10 173,-3 Q172,-23 151,-24 Q140,-24 140,-14 Q138,0 133,11 L111,-3 Q109,-16 104,-16 Q100,-17 98,-11 L80,21 Q92,25 91,37 L91,117 Q91,166 90,183 L127,174 Q184,190 208,207 L239,180 Q244,176 243,174 Q243,169 236,169 Q231,169 225,172 Q209,168 193,167 L193,151 Q193,124 194,105 L201,105 M33,-23 Q34,8 34,72 L34,99 Q22,86 8,72 L5,74 Q32,134 41,172 Q46,191 47,206 L91,194 Q96,193 96,190 Q95,185 83,182 Q74,160 63,140 L71,139 Q78,139 78,135 Q79,131 68,127 L68,-10 Q69,-21 60,-21 Q46,-24 33,-23 M168,47 Q162,71 160,99 L126,99 L126,35 M159,105 Q159,120 159,137 L159,163 Q154,163 143,163 Q132,162 126,162 L126,105"/> 
            <glyph glyph-name="你" unicode="&#x4F60;" horiz-adv-x="252" d=" M79,4 L75,7 Q99,67 102,103 L142,92 Q146,92 146,88 Q146,100 145,138 L186,135 Q193,134 193,131 Q191,124 182,120 L182,60 Q182,56 182,45 Q183,21 183,4 Q188,-21 133,-25 Q133,0 102,8 L103,12 L134,11 Q147,10 146,24 L146,87 Q146,83 135,80 Q120,41 79,4 M33,-23 Q34,18 34,62 L34,98 Q22,85 8,74 L5,76 Q44,152 49,207 L95,197 Q101,197 100,194 Q100,188 87,183 Q79,162 67,143 L75,142 Q81,141 80,138 Q81,133 69,127 L69,-12 Q70,-20 60,-22 Q54,-23 33,-23 M87,90 L82,93 Q102,137 109,174 Q113,194 113,207 L159,199 Q165,199 165,195 Q166,189 151,185 Q151,184 150,182 Q144,169 137,156 L198,156 L211,175 L247,153 Q251,150 251,147 Q252,141 239,141 Q218,123 200,112 L196,115 L202,150 L134,150 Q117,118 87,90 M225,11 Q212,10 210,24 Q200,71 184,101 L187,102 Q248,69 248,38 Q246,14 225,11"/> 
            <glyph glyph-name="储" unicode="&#x50A8;" horiz-adv-x="251" d=" M114,52 L112,56 Q125,67 137,77 Q137,79 137,82 Q136,86 136,89 L146,87 Q158,97 167,109 L120,109 L120,115 L148,115 L148,154 L125,154 L125,160 L148,160 Q148,164 148,178 Q147,198 147,206 L185,202 Q188,202 189,199 Q189,195 179,189 L179,161 L189,175 L202,165 Q208,175 212,187 L246,170 Q250,169 250,166 Q251,162 237,159 Q221,133 204,115 L214,115 L226,132 L247,116 Q251,113 249,111 Q248,109 242,109 L198,109 Q185,94 167,82 L175,80 L174,80 L191,80 L201,96 L234,83 Q238,82 238,79 Q238,73 229,68 L229,36 Q229,11 230,-13 Q230,-19 223,-21 Q211,-23 195,-24 L195,-2 L170,-2 L170,-13 Q170,-21 161,-22 Q160,-22 158,-22 Q148,-24 136,-24 Q137,0 137,25 L137,47 Q137,54 137,64 Q126,58 114,52 M31,-24 Q33,22 33,80 L33,95 Q23,79 9,63 L6,66 Q28,123 36,169 Q41,188 41,206 L82,198 Q88,196 88,194 Q88,189 76,186 Q69,164 60,144 L70,142 Q74,142 74,139 Q74,135 65,130 L65,108 L76,108 L86,125 L116,112 Q119,111 119,108 Q119,104 110,96 L110,40 L135,50 L137,47 Q113,16 98,1 Q97,-10 92,-10 Q89,-10 87,-5 L70,23 Q81,29 80,38 L80,102 L65,102 L65,-12 Q65,-21 56,-22 Q42,-24 31,-24 M101,136 Q90,136 89,147 Q85,169 78,184 L80,186 Q122,174 121,157 Q119,139 101,136 M170,35 L170,3 L195,3 L195,35 M195,73 L170,73 L170,41 L195,41 M195,151 L197,154 L179,154 L179,125 Q188,137 195,151"/> 
            <glyph glyph-name="内" unicode="&#x5185;" horiz-adv-x="243" d=" M24,-24 Q25,27 26,68 L26,117 Q26,124 26,143 Q25,162 25,170 L71,155 L107,155 L107,161 L107,167 Q107,196 106,205 L152,202 Q158,201 157,198 Q157,193 145,187 L145,179 Q145,167 144,155 L188,155 L199,176 L238,160 Q242,159 242,156 Q243,151 231,143 L231,89 Q231,79 231,54 Q232,24 232,10 Q234,-18 178,-24 Q180,0 139,12 L140,17 L183,15 Q194,15 194,27 L194,63 Q191,42 170,40 Q160,41 157,50 Q150,78 136,99 Q123,56 68,26 L63,29 Q109,81 107,149 L63,149 L63,-13 Q63,-21 56,-22 Q39,-24 24,-24 M194,149 L144,149 Q143,125 138,107 Q195,90 194,66"/> 
            <glyph glyph-name="到" unicode="&#x5230;" horiz-adv-x="249" d=" M188,-24 Q190,0 153,10 L154,14 L190,13 Q202,11 201,24 L201,153 Q201,193 200,205 L240,201 Q248,201 248,198 Q249,192 237,187 L237,107 Q237,34 238,6 Q240,-19 188,-24 M120,89 L148,69 Q152,67 150,64 Q148,62 142,62 L99,62 L99,28 Q122,29 105,28 Q122,29 150,32 L151,27 Q86,2 33,-7 Q30,-20 24,-20 Q21,-20 19,-15 L8,24 Q30,24 63,25 L63,59 L63,62 L18,62 L18,68 L63,68 L62,104 L105,100 Q110,100 110,97 Q109,91 99,87 L99,68 L105,68 M126,100 Q118,100 115,110 L112,122 Q83,109 42,102 Q38,88 33,90 Q29,89 28,94 L16,130 Q33,132 38,143 Q47,160 52,179 L14,179 L14,186 L104,186 L119,207 L151,186 Q155,184 153,181 Q151,179 145,179 L99,179 Q81,155 52,131 L108,133 Q102,145 92,159 L94,162 Q148,144 148,123 Q146,102 126,100 M153,33 Q154,74 154,93 L154,136 Q154,150 154,177 L189,174 Q196,174 197,170 Q197,165 187,160 L187,45 Q187,36 178,35 Q162,33 153,33"/> 
            <glyph glyph-name="刻" unicode="&#x523B;" horiz-adv-x="250" d=" M125,187 L153,166 L155,165 L155,170 L193,167 Q199,166 198,163 Q198,157 188,153 L188,43 Q188,34 181,33 Q168,30 154,30 Q154,56 154,78 Q152,75 142,75 Q131,58 110,36 Q151,26 152,7 Q150,-14 127,-16 Q118,-16 115,-5 Q111,18 103,29 Q71,-1 8,-21 L6,-18 Q73,26 103,82 Q110,95 114,104 L152,87 Q152,87 153,86 Q154,86 154,85 Q155,100 155,114 L155,161 Q155,161 154,160 Q152,159 149,159 L92,159 Q65,131 39,113 L76,112 Q78,115 81,122 Q82,125 83,126 Q89,138 93,149 L129,133 Q135,131 134,128 Q134,122 121,121 Q81,59 9,25 L7,29 Q42,60 68,98 Q49,89 32,84 Q30,73 25,73 Q21,72 19,79 L8,113 Q21,114 24,120 Q37,136 46,159 L7,159 L7,166 L71,166 Q63,167 63,176 Q60,193 51,205 L53,207 Q100,207 100,186 Q99,170 83,166 L109,166 M189,-25 Q189,0 155,8 L156,13 L189,11 Q202,9 202,25 L202,146 Q202,189 201,206 L244,202 Q250,202 249,198 Q250,193 238,188 L238,105 Q238,46 239,14 Q243,-21 189,-25"/> 
            <glyph glyph-name="功" unicode="&#x529F;" horiz-adv-x="248" d=" M59,-25 L56,-22 Q102,16 116,48 Q132,79 133,137 L99,137 L99,143 L133,143 Q133,151 133,158 L133,168 Q133,173 133,186 Q132,199 132,205 L176,202 Q181,202 181,198 Q180,191 170,188 L170,157 Q170,150 170,143 L194,143 L206,163 L243,147 Q248,145 248,142 Q248,136 236,129 Q236,90 231,25 Q230,-21 171,-24 Q174,6 131,15 L132,19 L176,16 Q191,15 194,34 Q200,80 200,137 L169,137 Q174,18 59,-25 M24,6 Q21,6 19,10 L5,51 Q20,51 35,55 L42,56 L42,163 L10,163 L10,169 L76,169 L92,193 L121,171 Q125,168 123,166 Q121,163 115,163 L77,163 L77,65 Q98,70 119,76 L121,72 Q69,38 30,16 Q30,7 24,6"/> 
            <glyph glyph-name="化" unicode="&#x5316;" horiz-adv-x="250" d=" M84,42 L82,47 Q93,55 116,72 Q121,76 123,78 L123,144 Q123,150 123,165 Q122,187 122,199 L167,196 Q171,196 172,193 Q172,187 160,181 L160,112 Q189,140 204,166 L240,141 Q244,138 244,135 Q245,129 227,131 Q192,97 160,78 L160,29 Q160,17 168,18 L197,18 Q208,17 211,28 L228,81 L233,80 L234,38 Q235,27 241,23 Q250,16 249,9 Q246,-14 206,-15 L154,-15 Q123,-15 123,12 L123,58 Q105,49 84,42 M41,-22 Q41,-16 41,-4 Q43,34 43,74 L43,100 Q27,83 8,68 L4,71 Q52,151 62,205 L106,192 Q112,190 111,187 Q110,181 97,179 Q85,154 71,135 L84,133 Q90,132 89,129 Q90,124 78,119 L78,-11 Q79,-19 69,-21 Q60,-22 41,-22"/> 
            <glyph glyph-name="升" unicode="&#x5347;" horiz-adv-x="253" d=" M15,143 L13,147 Q83,184 101,206 L139,184 Q144,181 144,177 Q143,172 136,172 Q132,172 128,173 Q115,167 100,162 L100,113 Q100,112 100,108 Q99,105 99,103 L151,103 L151,148 Q151,180 150,203 L197,200 Q201,199 201,196 Q201,191 189,185 L189,103 L197,103 L215,129 L249,104 Q253,102 251,99 Q249,97 243,97 L189,97 L189,62 Q189,58 189,31 Q190,-4 190,-12 Q190,-17 186,-18 Q168,-22 150,-22 Q150,-14 151,25 Q151,57 151,62 L151,97 L99,97 Q95,12 9,-26 L8,-23 Q59,27 60,97 L7,97 L7,103 L61,103 Q61,108 61,113 L61,151 Q40,146 15,143"/> 
            <glyph glyph-name="即" unicode="&#x5373;" horiz-adv-x="250" d=" M143,-24 Q144,10 144,54 L144,145 Q144,175 143,192 L183,182 L199,182 L209,201 L246,187 Q249,185 250,182 Q250,175 240,170 L240,86 Q240,69 240,39 Q241,13 195,10 Q195,31 178,39 L178,-13 Q178,-21 169,-22 Q157,-24 143,-24 M111,-2 Q100,-2 99,8 Q97,13 96,20 Q95,22 95,23 Q74,8 36,-12 Q36,-23 30,-24 Q26,-24 25,-20 L10,14 Q25,17 24,31 L24,140 Q24,187 23,191 L63,183 L88,183 L99,201 L134,187 Q138,185 138,182 Q137,175 127,170 L127,138 Q127,126 128,94 Q129,87 129,83 Q129,75 122,74 Q115,72 95,70 Q94,70 93,70 L93,85 L59,85 L59,27 L92,33 Q87,51 75,68 L77,69 Q131,45 132,21 Q131,0 111,-2 M205,176 L178,176 L178,46 L196,46 Q205,45 205,56 M93,176 L59,176 L59,137 L93,137 M59,131 L59,91 L93,91 L93,131"/> 
            <glyph glyph-name="双" unicode="&#x53CC;" horiz-adv-x="253" d=" M215,-23 Q182,8 170,28 Q138,-3 85,-25 L82,-22 Q131,17 155,58 Q138,102 132,178 L125,178 Q122,174 115,170 Q109,129 97,96 Q127,68 126,47 Q123,26 105,23 Q97,23 92,33 Q90,37 87,44 Q82,53 80,58 Q55,16 7,-19 L4,-16 Q45,45 61,92 Q42,122 17,152 L19,154 Q49,135 69,120 Q76,147 79,178 L13,178 L13,184 L74,184 L86,204 L122,187 Q126,186 126,184 L190,184 L202,206 L243,187 Q247,185 247,182 Q247,176 234,168 Q221,98 195,59 Q215,36 253,14 L252,10 Q227,5 215,-23 M195,178 L140,178 Q153,122 172,91 Q188,129 195,178"/> 
            <glyph glyph-name="口" unicode="&#x53E3;" horiz-adv-x="242" d=" M188,-10 L188,16 L70,16 L70,0 Q70,-6 63,-7 Q46,-11 27,-12 Q29,62 29,71 L29,124 Q29,153 29,161 Q29,172 28,184 L80,170 L182,170 L195,194 L236,177 Q242,176 242,171 Q242,166 229,157 L229,108 Q229,57 231,1 Q232,-4 223,-5 Q211,-8 188,-10 M188,164 L70,164 L70,23 L188,23"/> 
            <glyph glyph-name="只" unicode="&#x53EA;" horiz-adv-x="237" d=" M177,67 L177,79 L80,79 L80,75 Q81,67 71,65 Q57,62 41,62 Q42,84 42,127 L42,154 Q42,174 41,194 L87,181 L171,181 L183,201 L221,185 Q225,183 225,181 Q225,175 215,168 L215,153 Q215,101 216,78 Q216,70 207,70 Q194,67 177,67 M177,175 L80,175 L80,85 L177,85 M212,-23 Q199,-24 194,-11 Q175,29 143,59 L146,63 Q237,34 236,3 Q234,-20 212,-23 M23,-28 L20,-25 Q67,20 83,62 L131,40 Q134,40 134,36 Q134,29 118,28 Q84,-8 23,-28"/> 
            <glyph glyph-name="可" unicode="&#x53EF;" horiz-adv-x="250" d=" M106,37 L106,56 L72,56 L72,38 Q72,32 67,31 Q45,27 32,27 Q34,61 34,74 L34,115 Q34,141 33,151 L80,139 L102,139 L113,159 L152,143 Q156,141 156,138 Q157,134 145,125 L145,104 Q145,80 146,46 Q146,42 141,40 Q127,37 106,37 M157,-24 Q154,-6 146,0 Q139,6 109,15 L110,19 L158,18 Q176,18 175,33 L175,177 L11,177 L11,184 L189,184 L208,211 L246,186 Q250,183 248,180 Q246,177 239,177 L215,177 L215,86 Q215,42 217,14 Q217,-16 157,-24 M106,133 L72,133 L72,62 L106,62"/> 
            <glyph glyph-name="听" unicode="&#x542C;" horiz-adv-x="254" d=" M180,-22 Q181,7 182,57 L182,104 L152,104 Q154,16 73,-25 L70,-21 Q97,10 106,38 Q115,64 115,109 L115,141 Q115,165 114,186 L154,176 Q184,188 206,207 L240,182 Q244,179 244,177 Q244,171 237,171 Q232,171 226,173 Q194,166 152,163 L152,123 Q152,117 152,110 L205,110 L221,133 L251,110 Q254,108 253,106 Q251,104 247,104 L218,104 L218,57 Q218,25 218,-12 Q218,-17 214,-18 Q198,-22 180,-22 M65,32 L65,54 L51,54 L51,35 Q52,30 43,27 Q31,24 15,24 Q16,50 16,106 L16,144 Q16,166 16,186 L56,176 L61,176 L71,194 L106,178 Q110,176 110,174 Q111,169 99,161 L99,123 Q99,68 100,42 Q100,38 93,36 Q88,35 73,33 Q67,32 65,32 M65,170 L51,170 L51,60 L65,60"/> 
            <glyph glyph-name="喜" unicode="&#x559C;" horiz-adv-x="251" d=" M43,80 Q44,89 44,106 L44,112 Q44,124 44,135 L88,126 L162,126 L172,143 L210,129 Q216,127 215,124 Q215,119 205,113 L205,110 Q205,97 206,93 Q206,87 199,84 Q198,84 196,83 Q182,81 175,81 L185,78 Q192,77 191,73 Q191,67 179,67 Q172,62 157,56 L196,56 L214,81 L248,57 Q251,55 250,52 Q248,50 243,50 L7,50 L7,56 L78,56 Q75,59 74,63 Q73,73 68,81 Q60,80 43,80 M40,-24 Q40,-19 40,-8 Q41,3 41,9 L41,15 Q41,34 40,40 L86,32 L165,32 L176,49 L216,34 Q220,32 220,30 Q221,25 210,18 L210,15 Q210,11 211,-11 Q211,-17 205,-20 Q198,-22 176,-23 Q172,-24 170,-24 L170,-8 L81,-8 L81,-13 Q81,-22 72,-23 Q62,-24 40,-24 M205,201 L237,178 Q240,176 239,174 Q237,172 232,172 L144,172 L144,149 L180,149 L196,171 L227,150 Q230,147 229,145 Q227,143 222,143 L28,143 L28,149 L104,149 L104,168 L104,172 L14,172 L14,177 L104,177 Q104,197 103,206 L150,202 Q156,202 156,199 Q156,194 144,188 L144,177 L188,177 M170,26 L81,26 L81,-2 L170,-2 M166,120 L82,120 L82,94 L166,94 M82,89 Q82,88 81,86 Q81,85 81,85 Q110,84 110,70 Q109,61 100,56 L140,56 Q143,72 145,87 L166,83 L166,89"/> 
            <glyph glyph-name="器" unicode="&#x5668;" horiz-adv-x="253" d=" M27,118 Q28,147 28,161 L28,194 L66,185 L79,185 L89,202 L120,188 Q124,187 124,184 Q124,178 115,173 L115,166 Q115,156 115,137 Q115,133 114,130 L144,123 Q148,122 148,119 Q148,114 135,111 Q132,105 129,101 L172,101 Q169,102 168,108 Q167,118 161,126 L162,128 Q198,128 197,114 Q197,105 187,101 L202,101 L218,123 L248,102 Q252,100 250,97 Q249,95 243,95 L149,95 Q185,74 253,76 L252,72 Q240,66 235,38 L228,39 L225,35 L225,19 Q225,2 226,-9 Q226,-16 220,-17 Q213,-19 199,-20 Q194,-21 192,-21 L192,-4 L166,-4 L166,-10 Q167,-19 159,-19 Q154,-20 143,-21 Q137,-22 134,-22 Q134,2 134,19 L134,56 L173,46 L189,46 L190,49 Q157,63 141,95 L125,95 Q102,62 58,49 L66,46 L83,46 L93,62 L122,50 Q127,48 127,45 Q128,42 118,34 L118,17 Q118,13 118,6 Q119,-5 119,-12 Q120,-19 113,-20 Q101,-23 86,-23 L86,-4 L61,-4 L61,-12 Q61,-21 51,-22 Q35,-24 27,-24 Q28,-4 28,17 L28,40 L8,37 L7,41 Q62,70 80,95 L9,95 L9,101 L85,101 L88,105 Q94,115 98,127 Q91,126 83,126 L83,136 L61,136 L61,130 Q62,121 53,120 Q37,118 27,118 M193,125 L193,136 L167,136 Q168,130 160,129 Q150,126 135,126 Q135,149 135,167 L135,194 L173,185 L190,185 L200,201 L230,189 Q235,187 235,185 Q236,181 226,173 L226,166 Q226,155 227,137 Q228,130 221,129 Q208,126 193,125 M192,40 L166,40 L166,1 L192,1 M86,40 L61,40 L61,1 L86,1 M193,179 L167,179 L167,143 L193,143 M83,179 L61,179 L61,143 L83,143"/> 
            <glyph glyph-name="国" unicode="&#x56FD;" horiz-adv-x="247" d=" M199,-24 L199,-3 L57,-3 L57,-11 Q58,-20 47,-21 Q37,-23 20,-23 Q21,8 21,71 L21,135 Q21,177 20,196 L61,185 L194,185 L206,205 L241,190 Q247,188 246,185 Q247,179 235,172 L235,114 Q235,72 237,0 Q237,-8 237,-12 Q238,-21 232,-21 Q227,-22 211,-23 Q203,-24 199,-24 M169,49 Q159,48 157,58 Q155,73 148,83 L149,85 Q188,82 188,67 Q188,59 182,54 L199,42 L199,179 L57,179 L57,1 L199,1 L199,33 L198,33 L58,33 L58,38 L109,38 L109,93 L70,93 L70,99 L109,99 L109,143 L61,143 L61,149 L157,149 L171,168 L196,150 Q200,147 199,145 Q197,143 192,143 L143,143 L143,99 L157,99 L169,116 L192,99 Q195,97 194,95 Q193,93 188,93 L143,93 L143,38 L165,38 L172,49 Q171,49 169,49"/> 
            <glyph glyph-name="地" unicode="&#x5730;" horiz-adv-x="251" d=" M77,150 L98,134 Q97,149 97,183 L136,179 Q142,179 141,175 Q141,169 131,165 L131,120 L149,127 L149,153 Q149,194 148,205 L188,202 Q193,201 193,198 Q194,193 182,187 L182,139 L197,145 L207,164 L240,152 Q246,151 245,147 Q246,143 235,135 Q234,126 234,106 Q233,86 233,77 Q233,43 194,40 Q192,61 182,67 L182,41 Q182,32 173,31 Q168,30 154,28 Q150,27 148,27 Q149,55 149,111 L149,120 L131,113 L131,26 Q130,13 142,14 L199,14 Q215,14 220,27 L238,66 L241,65 L241,28 Q240,23 246,18 Q251,13 251,6 Q249,-16 200,-16 L133,-16 Q98,-17 98,18 L98,49 Q68,26 28,4 Q27,-8 21,-8 Q18,-9 17,-3 L6,36 Q12,36 29,39 Q17,37 32,40 L32,126 L8,126 L8,132 L32,132 L32,154 Q32,194 31,205 L72,202 Q77,202 77,198 Q78,193 66,188 L66,135 M77,92 L74,98 L98,107 L98,126 Q96,126 93,126 L66,126 L66,47 Q68,47 71,48 Q80,50 97,55 L98,53 L98,100 M201,139 L182,132 L182,74 L191,74 Q200,72 199,81 Q201,99 201,139"/> 
            <glyph glyph-name="处" unicode="&#x5904;" horiz-adv-x="252" d=" M17,48 L12,50 Q36,148 36,204 L82,197 Q88,197 88,193 Q89,187 75,183 Q72,167 67,152 L89,152 L101,172 L139,154 Q139,154 140,153 Q144,152 144,149 Q144,143 132,137 Q121,79 101,46 Q108,41 114,38 Q142,22 204,23 Q222,23 252,27 L251,22 Q235,14 229,-16 Q128,-18 94,13 Q89,17 83,23 Q61,-2 13,-26 L10,-23 Q47,13 66,49 Q56,73 50,105 Q40,80 17,48 M224,76 Q214,76 211,86 Q204,119 188,142 L188,120 Q188,74 188,41 Q188,36 184,35 Q162,31 149,31 Q150,60 150,113 L150,152 Q150,178 150,205 L195,202 Q199,201 199,198 Q200,193 188,188 L188,150 Q245,126 245,100 Q244,78 224,76 M56,118 Q65,92 76,74 Q87,103 93,146 L66,146 Q65,144 64,141 Q62,132 56,118"/> 
            <glyph glyph-name="外" unicode="&#x5916;" horiz-adv-x="251" d=" M68,65 Q57,65 57,76 Q56,94 50,105 Q34,80 10,57 L6,60 Q29,108 45,169 Q48,189 50,207 L96,198 Q101,198 101,195 Q102,188 88,184 Q87,180 83,171 Q80,162 78,157 L101,157 L113,177 L151,158 Q154,157 154,154 Q154,148 142,143 Q120,19 9,-24 L6,-20 Q52,15 79,68 Q74,65 68,65 M229,61 Q218,61 215,72 Q207,107 193,127 L193,63 Q193,59 193,35 Q194,-3 194,-14 Q193,-19 189,-20 Q173,-23 153,-23 Q154,14 155,71 L155,152 Q155,160 155,179 Q154,197 154,205 L198,201 Q205,201 205,198 Q205,191 193,187 L193,134 Q251,114 251,86 Q249,63 229,61 M75,151 Q67,131 55,113 Q84,106 90,92 Q101,119 105,151"/> 
            <glyph glyph-name="多" unicode="&#x591A;" horiz-adv-x="246" d=" M25,121 L23,125 Q81,168 99,209 L144,198 Q148,198 148,194 Q147,187 133,185 Q129,181 124,176 L156,176 L173,194 L211,171 Q215,169 215,166 Q215,159 200,158 Q178,132 148,114 L173,106 Q177,105 177,102 Q176,95 163,95 L154,85 L188,85 L204,104 L241,81 Q246,79 246,76 Q246,69 230,67 Q175,-19 18,-29 L17,-25 Q83,-6 124,17 Q117,19 115,26 Q112,42 106,50 Q76,35 33,24 L31,28 Q77,54 110,90 L116,96 Q72,76 17,69 L16,73 Q70,96 98,115 Q92,117 90,124 Q88,136 82,145 Q63,133 25,121 M191,79 L147,79 Q134,67 118,57 Q148,51 147,37 Q147,36 147,35 Q146,33 146,32 Q173,53 191,79 M159,170 L118,170 Q106,160 93,151 Q118,145 119,134 Q119,132 119,129 Q143,148 159,170"/> 
            <glyph glyph-name="大" unicode="&#x5927;" horiz-adv-x="253" d=" M205,-24 Q145,26 141,123 L140,123 Q134,10 7,-26 L5,-22 Q94,34 99,123 L11,123 L11,130 L100,130 Q101,145 101,162 Q101,197 100,205 L150,201 Q156,201 155,198 Q155,192 142,186 L142,173 Q142,149 140,130 L191,130 L211,157 L244,132 Q249,129 247,126 Q245,123 238,123 L149,123 Q173,51 253,19 L251,14 Q223,10 205,-24"/> 
            <glyph glyph-name="天" unicode="&#x5929;" horiz-adv-x="249" d=" M189,206 L221,184 Q226,182 224,179 Q222,177 216,177 L140,177 L140,145 Q140,125 138,108 L189,108 L208,134 L244,109 Q248,106 247,104 Q245,102 239,102 L146,102 Q174,45 249,24 L248,19 Q225,13 208,-22 Q145,13 138,102 L137,102 Q125,15 10,-26 L6,-22 Q87,36 96,102 L9,102 L9,108 L97,108 Q100,126 100,149 L100,177 L29,177 L29,183 L173,183"/> 
            <glyph glyph-name="奖" unicode="&#x5956;" horiz-adv-x="250" d=" M153,113 Q144,113 142,123 Q139,135 135,144 Q123,132 108,122 L105,125 L105,79 Q105,78 104,76 L149,70 Q154,70 154,67 Q155,61 143,57 L141,52 L191,52 L209,77 L244,54 Q248,51 246,48 Q245,46 239,46 L146,46 Q186,16 250,16 L250,12 Q231,5 223,-24 Q157,-8 139,46 Q122,-16 7,-25 L6,-21 Q83,7 98,46 L12,46 L12,52 L100,52 Q104,63 104,75 Q103,72 98,71 Q82,69 70,69 L71,119 Q55,101 35,86 Q35,75 30,75 Q28,75 26,79 L10,117 Q36,120 71,131 L71,134 L71,204 L110,201 Q116,201 115,198 Q115,192 105,189 L105,126 Q130,169 136,207 L175,197 Q180,195 180,192 Q180,186 167,185 Q165,181 162,176 L189,176 L203,195 L240,174 Q244,171 244,169 Q244,162 231,159 Q200,89 108,76 L106,80 Q140,98 155,113 Q155,113 153,113 M44,134 Q33,133 31,148 Q30,168 22,187 L24,189 Q67,174 66,156 Q64,136 44,134 M157,170 Q151,160 142,151 Q171,144 171,131 L171,130 Q184,146 193,170"/> 
            <glyph glyph-name="好" unicode="&#x597D;" horiz-adv-x="255" d=" M144,-24 Q144,1 114,8 Q108,-1 98,-1 Q90,-1 86,5 Q80,14 74,21 Q55,-3 9,-28 L7,-25 Q39,8 54,41 Q39,53 14,66 Q15,73 19,91 Q26,124 29,143 L7,143 L7,149 L30,149 L32,162 Q36,190 36,205 L78,199 Q82,199 82,195 Q81,189 70,185 Q69,179 67,167 Q64,155 63,149 L75,149 L86,168 L118,152 Q124,150 123,147 Q123,142 111,135 Q105,81 91,51 Q119,39 118,22 Q118,17 116,12 L143,12 Q154,9 153,25 L153,90 L106,90 L106,96 L153,96 L153,101 Q153,125 152,145 L176,142 L196,182 L110,182 L110,188 L193,188 L208,207 L246,183 Q249,181 249,178 Q250,173 235,171 Q217,156 191,141 L198,140 Q204,140 204,137 Q204,131 191,124 L191,96 L203,96 L220,120 L251,97 Q255,95 253,92 Q252,90 246,90 L191,90 L191,60 Q191,28 192,5 Q194,-20 144,-24 M46,64 Q50,62 60,60 Q61,60 62,60 Q74,94 78,143 L62,143 Q58,121 50,81 Q47,70 46,64"/> 
            <glyph glyph-name="如" unicode="&#x5982;" horiz-adv-x="248" d=" M202,-8 L202,16 L168,16 L168,-2 Q168,-8 158,-9 Q144,-13 133,-13 Q134,21 134,88 L134,115 Q134,160 133,177 L173,165 L197,165 L208,185 L243,170 Q247,168 247,165 Q248,160 237,153 L237,101 Q237,39 238,0 Q238,-3 232,-4 Q225,-6 206,-8 Q203,-8 202,-8 M6,-26 L4,-23 Q43,12 58,37 Q45,46 15,59 Q25,95 34,146 L8,146 L8,152 L35,152 L37,164 Q37,167 38,172 Q39,189 39,207 L84,202 Q85,202 86,202 Q90,201 90,198 Q89,192 76,187 L69,152 L83,152 L94,171 L128,155 Q132,154 132,151 Q131,145 122,139 Q113,74 97,47 Q128,36 127,19 Q126,-1 110,-3 Q103,-3 98,1 Q96,3 91,8 Q88,12 79,20 Q54,-6 6,-26 M202,159 L168,159 L168,22 L202,22 M50,61 Q53,60 58,59 Q64,57 67,56 Q83,90 87,146 L68,146 Q57,89 50,61"/> 
            <glyph glyph-name="子" unicode="&#x5B50;" horiz-adv-x="252" d=" M91,-25 Q93,2 45,13 L46,17 L90,15 Q106,13 106,29 L106,81 L106,89 L6,89 L6,95 L106,95 Q106,100 106,112 Q105,129 105,138 L137,135 L168,180 L32,180 L32,186 L164,186 L183,208 L224,181 Q229,178 229,175 Q229,167 210,167 Q174,143 153,133 L154,133 Q160,133 160,130 Q161,124 148,119 L148,95 L195,95 L213,121 L248,97 Q252,94 250,91 Q249,89 243,89 L148,89 L148,71 Q148,36 149,7 Q151,-20 91,-25"/> 
            <glyph glyph-name="存" unicode="&#x5B58;" horiz-adv-x="254" d=" M40,-24 Q42,28 42,64 L42,76 Q27,63 8,50 L5,54 Q17,69 37,98 Q40,104 42,106 L42,133 L56,131 Q65,147 71,162 L10,162 L10,168 L73,168 L76,176 Q82,191 84,208 L135,197 Q139,197 140,194 Q140,188 124,184 L116,168 L198,168 L214,191 L246,169 Q250,167 248,164 Q247,162 241,162 L113,162 Q98,135 79,112 L79,-13 Q80,-21 70,-23 Q61,-24 40,-24 M131,-24 Q133,0 98,10 L99,14 L133,13 Q144,11 143,23 L143,50 L143,62 L83,62 L83,68 L143,68 Q143,86 142,95 L174,92 L184,122 L101,122 L101,128 L180,128 L193,146 L233,124 Q237,121 237,119 Q238,112 222,111 Q201,99 185,91 L189,91 Q193,91 194,88 Q195,83 182,76 L182,68 L202,68 L218,91 L249,70 Q254,67 253,65 Q252,62 245,62 L182,62 Q182,44 183,6 Q185,-19 131,-24"/> 
            <glyph glyph-name="它" unicode="&#x5B83;" horiz-adv-x="251" d=" M87,-18 Q58,-18 58,9 L58,90 Q58,118 57,139 L105,135 Q109,135 109,132 Q110,127 98,121 L98,70 Q155,101 177,128 L211,100 Q217,96 216,93 Q216,85 199,89 Q150,69 98,58 L98,26 Q98,13 106,14 L178,14 Q193,13 199,30 L217,74 L221,73 L222,37 Q223,24 231,18 Q241,12 240,3 Q237,-17 188,-18 M27,114 Q12,115 10,132 Q9,143 20,149 Q36,159 40,181 L42,181 Q48,171 50,162 L118,162 Q111,165 109,174 Q105,195 98,203 L100,205 Q153,207 152,184 Q151,168 132,162 L194,162 L209,181 L247,155 Q251,153 251,150 Q250,143 234,144 Q216,131 195,122 L191,124 L199,156 L52,156 Q52,154 53,150 Q53,146 53,145 Q52,116 27,114"/> 
            <glyph glyph-name="安" unicode="&#x5B89;" horiz-adv-x="250" d=" M11,-25 L9,-21 Q83,4 109,29 Q84,39 46,48 Q58,72 69,97 L11,97 L11,103 L71,103 Q81,128 87,156 L133,145 Q137,144 137,141 Q137,134 124,133 Q118,118 112,103 L194,103 L211,127 L242,106 Q248,102 246,100 Q245,97 237,97 L195,97 Q185,62 168,38 Q184,34 197,29 Q224,18 226,0 Q224,-24 205,-26 Q198,-26 190,-19 Q172,-2 143,13 Q104,-15 11,-25 M28,121 Q11,122 10,141 Q10,152 19,157 Q36,167 41,185 L43,185 Q50,175 53,167 L112,167 Q108,169 107,175 Q105,192 96,204 L98,207 Q148,206 146,186 Q145,172 132,167 L193,167 L207,187 L245,164 Q250,161 250,158 Q250,153 235,151 Q222,142 199,130 Q195,128 193,127 L190,130 L197,161 L55,161 Q55,160 56,157 Q56,154 56,152 Q54,124 28,121 M86,51 Q107,49 126,46 Q143,68 151,97 L109,97 Q98,73 86,51"/> 
            <glyph glyph-name="完" unicode="&#x5B8C;" horiz-adv-x="248" d=" M9,-26 L7,-22 Q75,11 71,82 L15,82 L15,88 L190,88 L207,112 L241,89 Q245,87 243,84 Q241,82 236,82 L168,82 L168,25 Q168,14 176,14 L198,14 Q209,13 212,24 L227,61 L231,60 L232,30 Q232,21 237,17 Q246,12 246,3 Q243,-18 207,-19 L162,-19 Q131,-20 133,8 L133,82 L110,82 Q117,-8 9,-26 M29,122 Q11,123 10,142 Q10,153 19,158 Q36,169 41,187 L44,187 Q50,177 53,169 L112,169 Q108,171 106,178 Q104,191 95,204 L97,206 Q150,207 148,187 Q147,174 132,169 L193,169 L210,188 L245,162 Q248,159 248,156 Q247,150 234,150 Q221,143 197,135 L206,129 Q210,127 209,125 Q207,123 202,123 L52,123 L52,129 L158,129 L174,151 L190,140 L197,163 L55,163 Q56,158 56,152 Q54,125 29,122"/> 
            <glyph glyph-name="容" unicode="&#x5BB9;" horiz-adv-x="249" d=" M224,39 Q217,41 209,44 Q207,41 201,38 L201,33 Q201,14 202,-12 Q202,-19 197,-20 Q179,-24 162,-24 L162,-6 L90,-6 L90,-10 Q91,-21 82,-22 Q62,-24 50,-24 Q51,-7 51,23 L51,45 Q41,41 18,34 Q12,32 9,31 L7,34 Q64,73 90,104 Q102,118 107,129 L150,116 Q154,115 154,112 Q155,107 143,105 Q184,86 249,83 L248,79 Q230,70 224,39 M96,209 L97,211 Q147,210 146,189 Q145,177 133,172 L189,172 L204,193 L240,170 Q241,170 242,169 Q246,166 246,163 Q245,157 231,157 Q230,156 227,155 Q207,144 195,141 Q221,132 221,116 Q219,99 204,96 Q193,95 185,107 Q166,130 136,150 L137,153 Q167,149 185,144 L193,166 L54,166 Q55,160 55,154 Q53,127 31,125 Q14,126 13,145 Q12,156 24,164 Q39,173 41,191 L44,191 Q50,181 52,172 L111,172 Q106,175 106,181 Q104,197 96,209 M162,45 L90,45 L90,0 L162,0 M23,79 L21,82 Q65,124 78,159 L119,144 Q122,142 122,140 Q123,133 108,133 Q78,103 23,79 M95,51 L157,51 L166,67 Q148,80 134,99 Q111,74 77,56"/> 
            <glyph glyph-name="小" unicode="&#x5C0F;" horiz-adv-x="249" d=" M97,-24 Q100,2 52,16 L52,20 L100,18 Q111,18 111,30 L111,133 Q111,171 110,205 L158,201 Q163,201 163,198 Q163,192 151,187 L151,114 Q151,106 151,74 Q152,25 152,7 Q155,-18 97,-24 M5,14 Q34,70 44,115 Q47,133 45,120 Q47,133 49,149 L97,137 Q102,136 102,133 Q103,127 88,123 Q66,57 8,11 M221,23 Q209,22 205,39 Q195,96 165,148 L168,151 Q249,94 248,55 Q247,24 221,23"/> 
            <glyph glyph-name="就" unicode="&#x5C31;" horiz-adv-x="252" d=" M99,-24 L96,-21 Q151,32 154,126 L134,126 L134,129 Q133,126 127,124 L127,116 Q127,115 127,110 Q128,96 128,85 Q128,78 122,78 Q110,75 94,75 L94,65 Q132,54 131,36 Q130,18 113,17 Q104,18 103,27 Q100,44 94,57 L94,39 Q94,17 95,6 Q96,-22 53,-23 Q53,0 29,4 L29,8 Q25,3 13,-5 Q9,-9 7,-11 L4,-8 Q24,35 26,67 L60,56 L60,82 L55,82 Q55,76 48,75 Q30,73 21,73 Q22,92 22,110 L22,142 L55,135 L89,135 L98,151 L131,139 Q136,137 136,134 Q136,133 136,132 L155,132 Q155,141 155,150 L155,161 Q155,181 154,203 L193,199 Q199,199 199,195 Q199,191 189,186 L189,159 Q189,146 188,132 L206,132 L220,152 L248,132 Q252,130 250,128 Q249,126 243,126 L188,126 L187,111 L210,108 Q217,108 217,104 Q217,100 207,95 L207,19 Q207,8 212,9 L215,9 Q220,9 223,19 L235,60 L239,60 L240,24 Q240,15 246,11 Q252,7 252,1 Q251,-20 216,-20 L200,-20 Q176,-20 175,6 L175,58 Q159,9 99,-24 M118,184 L145,164 Q148,162 147,159 Q146,157 141,157 L12,157 L12,163 L72,163 Q62,164 61,175 Q58,192 51,202 L53,203 Q95,202 95,183 Q94,166 75,163 L103,163 M94,129 L55,129 L55,89 L94,89 M221,153 Q211,153 209,162 Q206,182 198,191 L199,194 Q238,187 238,170 Q237,155 221,153 M51,8 Q60,8 60,17 L60,45 Q59,45 57,45 Q47,26 30,8"/> 
            <glyph glyph-name="屡" unicode="&#x5C61;" horiz-adv-x="246" d=" M213,129 L237,113 Q241,110 239,107 Q238,105 232,105 L169,105 Q196,92 243,91 L242,87 Q231,84 223,63 L242,50 Q246,48 245,45 Q243,43 237,43 L202,43 Q196,27 187,15 Q226,10 225,-6 Q223,-23 207,-25 Q200,-25 194,-20 Q180,-11 162,-4 Q133,-22 51,-24 L50,-19 Q105,-7 127,4 Q106,9 78,13 Q74,13 77,15 Q87,30 96,43 L57,43 L57,49 L100,49 Q106,59 110,71 L148,65 Q151,65 152,62 Q152,57 140,54 Q139,51 137,49 L202,49 L212,62 Q175,74 160,105 Q160,98 161,82 Q161,73 155,72 Q139,69 126,70 L127,87 Q99,65 58,56 L56,60 Q90,81 109,105 L66,105 L66,112 L95,112 Q90,112 89,119 Q87,132 80,142 L82,144 Q119,141 119,127 Q118,114 104,112 L127,112 L127,115 Q127,133 126,149 L166,146 Q170,145 170,144 Q170,139 160,134 L160,112 L167,112 Q174,128 176,146 L207,136 Q207,136 208,136 Q210,135 210,133 Q210,128 200,127 Q191,118 178,112 L201,112 M9,-23 L6,-21 Q30,40 29,140 L29,164 Q29,171 28,201 L71,192 L194,192 L204,209 L240,195 Q243,195 243,192 Q243,187 234,181 L234,176 Q234,162 235,156 Q235,149 229,147 Q222,146 209,145 Q202,144 199,144 L199,154 L65,154 L65,142 Q68,35 9,-23 M199,186 L65,186 L65,161 L199,161 M115,19 Q121,19 133,18 Q142,18 146,18 Q154,25 164,43 L134,43 Q128,33 115,19"/> 
            <glyph glyph-name="工" unicode="&#x5DE5;" horiz-adv-x="253" d=" M198,200 L231,176 Q235,174 233,171 Q232,169 226,169 L147,169 L147,-2 L196,-2 L215,23 L249,0 Q253,-3 251,-6 Q248,-9 242,-9 L7,-9 L7,-2 L107,-2 L107,169 L24,169 L24,176 L181,176"/> 
            <glyph glyph-name="帧" unicode="&#x5E27;" horiz-adv-x="251" d=" M45,-23 L45,152 L37,152 L37,32 Q37,25 31,23 Q20,19 11,19 Q12,34 12,74 L12,128 Q12,148 12,167 L41,158 L43,158 Q43,166 42,183 Q42,198 42,205 L78,202 Q82,202 82,200 Q82,195 72,189 L72,158 L77,158 L85,173 L109,161 Q112,160 112,158 Q113,153 104,147 L104,42 Q106,26 78,23 Q79,40 70,43 L70,-13 Q71,-20 65,-21 Q65,-21 64,-21 Q51,-24 45,-23 M113,24 Q114,55 114,70 L114,104 Q114,112 114,142 L154,131 L156,131 L156,160 Q156,181 155,205 L194,202 Q200,200 200,198 Q200,194 190,189 L190,171 L205,171 L220,192 L247,173 Q251,170 250,167 Q248,165 242,165 L190,165 L190,131 L197,131 L207,148 L240,134 Q240,134 241,133 Q243,132 243,130 Q243,125 234,119 L234,92 Q234,90 235,78 Q235,59 236,45 Q237,36 229,34 Q217,33 201,31 L201,124 L147,124 L147,36 Q147,27 138,26 Q125,24 113,24 M95,-25 L93,-22 Q162,9 157,76 Q157,78 157,86 Q156,100 156,107 L196,104 Q200,104 200,101 Q200,95 191,91 Q191,55 183,30 Q251,21 249,-1 Q248,-22 229,-24 Q220,-25 215,-16 Q202,6 180,23 Q164,-13 95,-25 M80,152 L70,152 L70,50 L74,50 Q80,50 80,57"/> 
            <glyph glyph-name="应" unicode="&#x5E94;" horiz-adv-x="250" d=" M8,-27 L5,-24 Q21,8 26,34 Q31,62 31,110 L31,128 Q31,138 29,172 Q29,169 29,176 L74,166 L122,166 Q116,169 116,176 Q112,195 105,203 L107,205 Q160,206 157,187 Q156,171 140,166 L191,166 L209,191 L242,167 Q246,165 244,162 Q242,160 236,160 L66,160 L66,118 Q66,61 54,32 Q43,1 8,-27 M214,16 L246,-4 Q250,-7 248,-10 Q247,-12 241,-12 L41,-12 L41,-6 L151,-6 Q168,42 176,100 Q179,120 179,144 L228,134 Q233,133 233,130 Q234,124 220,120 Q201,47 166,-6 L197,-6 M141,49 Q128,50 126,63 Q125,100 107,137 L109,139 Q165,106 165,75 Q164,51 141,49 M97,20 Q85,20 84,35 Q84,71 72,106 L75,108 Q121,74 122,46 Q120,21 97,20"/> 
            <glyph glyph-name="度" unicode="&#x5EA6;" horiz-adv-x="251" d=" M90,80 Q90,99 90,110 L90,131 L63,131 Q67,21 10,-24 L7,-22 Q18,10 22,41 Q26,72 26,127 L26,141 Q26,144 26,158 Q25,179 25,186 L68,177 L121,177 Q119,179 119,183 Q116,198 110,206 L112,208 Q156,208 155,190 Q155,181 146,177 L193,177 L211,202 L247,178 Q251,175 249,172 Q247,170 241,170 L63,170 L63,137 L90,137 Q90,149 90,163 L130,160 Q134,160 135,157 Q135,152 125,147 L125,137 L160,137 Q160,140 160,146 Q159,157 159,163 L200,160 Q204,160 205,157 Q205,151 194,147 L194,137 L202,137 L217,157 L245,138 Q249,135 248,133 Q246,131 240,131 L194,131 L194,92 Q195,87 189,86 L183,84 L218,66 Q223,63 223,60 Q222,53 209,51 Q195,36 180,23 Q205,19 250,19 L249,13 Q229,5 223,-23 Q170,-14 144,0 Q100,-20 33,-24 L32,-20 Q90,-3 121,18 Q103,36 93,63 L70,63 L70,69 L169,69 L181,84 Q171,82 159,82 Q159,88 159,94 L125,94 L125,90 Q125,85 119,83 Q104,80 90,80 M171,63 L99,63 Q121,43 143,34 Q158,46 171,63 M160,100 L160,117 L160,131 L125,131 L125,100"/> 
            <glyph glyph-name="开" unicode="&#x5F00;" horiz-adv-x="251" d=" M206,207 L238,185 Q242,183 240,180 Q238,178 232,178 L188,178 L188,103 L196,103 L214,128 L247,104 Q251,101 249,99 Q247,97 241,97 L188,97 L188,62 Q188,10 189,-14 Q189,-21 185,-21 Q167,-24 149,-24 Q151,19 151,50 L151,97 L102,97 Q103,7 15,-24 L13,-21 Q65,24 65,97 L8,97 L8,103 L65,103 Q65,107 65,110 L65,178 L20,178 L20,184 L190,184 M102,112 Q102,108 102,103 L151,103 L151,178 L102,178"/> 
            <glyph glyph-name="影" unicode="&#x5F71;" horiz-adv-x="255" d=" M7,-16 L4,-13 Q24,14 30,40 L26,40 Q27,56 27,71 L27,79 Q27,90 26,98 L66,90 L102,90 L111,105 L145,93 Q149,91 149,88 Q150,84 141,78 L141,77 Q141,67 141,51 Q143,45 135,44 Q122,41 106,41 L106,49 L102,49 L102,39 L102,34 L104,36 Q148,32 148,13 Q146,-3 129,-5 Q118,-6 115,5 Q111,21 102,33 Q102,21 103,2 Q104,-22 59,-24 Q58,-1 41,1 Q37,0 28,-5 Q15,-12 7,-16 M23,124 Q24,136 24,165 L24,167 Q24,185 24,202 L64,193 L106,193 L116,210 L148,197 Q154,196 153,192 Q154,189 145,182 L145,178 Q145,163 146,136 Q146,132 141,131 Q141,131 140,131 Q139,130 138,130 L164,113 Q168,111 166,108 Q164,106 158,106 L10,106 L10,112 L73,112 Q71,114 71,118 Q70,129 65,136 L66,137 L59,137 L59,133 Q60,127 54,126 Q34,124 23,124 M123,-26 L121,-23 Q184,26 211,77 L251,55 Q255,52 255,49 Q255,43 240,43 Q197,-3 123,-26 M147,57 L145,61 Q186,105 206,145 L246,125 Q250,122 250,119 Q250,112 235,113 Q202,82 147,57 M151,127 L148,130 Q179,169 196,206 L237,187 Q241,185 241,181 Q241,175 226,175 Q196,147 151,127 M106,84 L62,84 L62,55 L106,55 M110,187 L59,187 L59,168 L110,168 M59,162 L59,142 L110,142 L110,162 M110,127 L110,137 L78,137 Q104,135 103,124 Q102,116 93,112 L121,112 L134,130 Q122,127 110,127 M56,42 Q55,42 53,42 Q44,40 34,40 L68,27 L68,49 L62,49 Q61,43 56,42 M58,6 Q68,4 68,14 L68,18 Q64,16 58,16 Q53,11 47,6"/> 
            <glyph glyph-name="快" unicode="&#x5FEB;" horiz-adv-x="255" d=" M215,-23 Q175,12 167,74 L164,74 Q157,11 76,-26 L73,-23 Q124,27 129,74 L79,74 L79,80 L130,80 Q133,101 133,132 L133,147 L103,147 Q110,141 110,133 Q109,115 92,114 Q82,114 80,126 Q80,142 74,154 L74,-11 Q75,-18 69,-19 Q67,-19 61,-20 Q46,-22 39,-22 Q41,39 41,85 L41,160 Q41,168 40,185 Q40,199 40,205 L80,202 Q85,201 85,198 Q86,194 74,189 L74,163 Q88,158 99,151 L99,154 L133,154 L133,155 Q133,165 132,184 Q132,199 132,205 L176,202 Q182,202 182,198 Q182,192 169,187 L169,154 L186,154 L197,172 L232,157 Q236,155 236,152 Q237,147 225,140 L225,83 L233,95 L252,80 Q255,78 254,76 Q252,74 248,74 L174,74 Q201,33 254,17 L253,13 Q230,7 215,-23 M17,87 Q3,88 2,104 Q2,113 9,121 Q23,134 24,162 L27,162 Q37,139 37,119 Q36,88 17,87 M169,144 Q169,104 165,80 L190,80 L190,147 L169,147"/> 
            <glyph glyph-name="性" unicode="&#x6027;" horiz-adv-x="254" d=" M87,120 Q78,120 77,131 Q76,151 72,161 L72,-14 Q73,-21 66,-22 Q50,-24 37,-24 Q39,15 39,68 L39,171 Q39,175 39,187 Q38,200 38,205 L78,202 Q84,201 83,198 Q82,192 72,189 L72,169 Q97,158 102,145 Q103,161 103,177 L149,168 Q150,168 150,168 Q150,186 148,206 L192,202 Q198,202 198,198 Q197,192 186,189 L186,135 L199,135 L215,158 L245,136 Q249,134 247,131 Q246,129 241,129 L186,129 L186,73 L197,73 L213,96 L243,74 Q247,72 245,69 Q244,67 239,67 L186,67 L186,-5 L199,-5 L217,19 L251,-5 Q254,-7 253,-9 Q251,-11 246,-11 L84,-11 L84,-5 L150,-5 L150,67 L106,67 L106,73 L150,73 L150,129 L132,129 Q119,96 88,60 L84,62 Q95,99 99,127 Q95,121 87,120 M16,86 Q2,87 2,104 Q2,115 8,122 Q21,135 23,157 L26,157 Q36,137 36,117 Q35,87 16,86 M141,154 Q138,144 135,135 L150,135 L150,159 Q147,156 141,154"/> 
            <glyph glyph-name="想" unicode="&#x60F3;" horiz-adv-x="250" d=" M197,65 L197,78 L160,78 L160,75 Q161,69 153,68 Q146,66 138,66 Q160,58 160,43 Q159,23 138,22 Q126,22 125,33 Q120,56 109,70 L111,72 Q118,71 124,69 Q124,80 125,110 Q125,129 125,134 L125,163 Q124,160 117,159 L84,159 L84,145 Q123,137 123,118 Q122,99 104,98 Q93,98 92,111 Q90,125 84,135 L84,127 Q84,109 85,69 Q86,62 80,61 Q62,59 48,59 L49,110 Q31,91 6,76 L3,78 Q34,122 46,159 L11,159 L11,166 L49,166 Q49,183 49,205 L88,202 Q94,202 94,198 Q94,195 84,189 L84,166 L86,166 L99,184 L122,167 Q125,166 125,164 L125,167 Q125,196 124,200 L168,189 L193,189 L203,207 L238,194 Q242,192 242,188 Q243,184 233,176 L233,138 Q233,92 234,74 Q234,69 230,68 Q216,65 197,65 M99,-19 Q66,-19 67,12 L67,28 Q67,48 66,58 L109,54 Q113,54 113,50 Q114,45 102,39 L102,22 Q101,11 111,12 L155,12 Q167,12 172,21 L185,49 L189,48 L191,25 Q192,16 197,13 Q203,8 203,2 Q201,-18 164,-19 M226,-2 Q214,-2 211,9 Q204,37 191,54 L193,56 Q250,44 249,20 Q248,-1 226,-2 M27,-9 Q10,-8 9,9 Q9,21 20,27 Q39,36 43,55 L46,55 Q55,38 55,24 Q54,-8 27,-9 M160,114 L160,84 L197,84 L197,114 M160,149 L160,120 L197,120 L197,149 M197,183 L160,183 L160,155 L197,155"/> 
            <glyph glyph-name="懂" unicode="&#x61C2;" horiz-adv-x="253" d=" M90,27 Q91,46 91,66 L91,79 Q91,94 91,108 L128,99 L144,99 L144,118 L84,118 L84,124 L144,124 L144,139 L94,139 Q90,128 80,127 Q72,127 72,135 Q71,150 67,161 L67,-12 Q67,-18 60,-21 Q46,-24 34,-24 Q35,13 35,66 L35,151 Q35,179 34,205 L72,202 Q78,202 78,199 Q79,193 67,189 L67,167 Q94,158 95,144 Q165,152 204,168 L229,150 Q233,148 233,145 Q232,139 218,142 Q211,142 199,141 Q185,141 179,140 L179,124 L207,124 L220,142 L247,125 Q251,123 249,120 Q248,118 242,118 L179,118 L179,99 L195,99 L203,115 L238,101 Q240,101 240,98 Q241,94 232,88 L232,79 Q232,70 232,45 Q233,37 226,35 Q225,35 224,34 Q221,33 215,33 L237,18 Q241,16 239,13 Q238,11 232,11 L179,11 L179,-10 L207,-10 L223,8 L249,-9 Q253,-11 251,-13 Q250,-15 244,-15 L76,-15 L76,-10 L144,-10 L144,11 L88,11 L88,17 L144,17 L144,37 L124,37 Q125,30 116,29 Q106,27 90,27 M114,156 Q114,159 114,166 Q115,173 115,177 L81,177 L81,182 L115,182 L115,185 L115,207 L151,203 Q155,203 155,199 Q155,196 147,192 L147,182 L171,182 L171,191 L171,207 L206,203 Q211,203 211,199 Q211,196 203,191 L203,182 L214,182 L225,199 L248,183 Q252,181 251,179 Q249,177 244,177 L203,177 L203,173 Q203,167 197,166 Q194,166 188,165 Q178,163 170,163 Q170,164 170,168 Q171,174 171,177 L147,177 L147,165 Q148,161 142,159 Q140,159 135,158 Q122,156 114,156 M16,90 Q4,91 4,108 Q5,117 8,123 Q19,136 21,163 L23,163 Q32,137 32,121 Q32,91 16,90 M199,31 L199,37 L179,37 L179,17 L199,17 L211,32 Q205,31 199,31 M199,93 L179,93 L179,71 L199,71 M179,65 L179,42 L199,42 L199,65 M124,65 L124,42 L144,42 L144,65 M124,93 L124,71 L144,71 L144,93"/> 
            <glyph glyph-name="戏" unicode="&#x620F;" horiz-adv-x="251" d=" M229,-23 Q203,-24 181,0 Q171,8 163,20 Q137,0 77,-19 L74,-15 Q120,11 150,43 Q136,78 133,122 L99,118 L99,124 L132,129 Q132,134 132,144 Q131,157 131,163 Q131,193 129,205 L174,201 Q178,200 179,198 Q178,192 168,188 Q168,150 169,134 L206,140 L216,158 Q212,156 207,156 Q197,155 195,165 Q191,182 182,192 L184,195 Q226,193 227,176 Q227,166 219,160 L248,146 Q251,144 250,142 Q249,139 244,138 L169,128 Q172,98 178,78 L185,90 Q192,103 197,122 L237,105 Q241,104 241,101 Q241,96 229,93 Q211,65 192,45 Q201,32 214,21 Q219,17 221,23 L235,62 L239,61 L240,22 Q240,10 244,5 Q249,0 249,-7 Q248,-22 229,-23 M89,17 Q79,16 77,26 Q76,29 74,35 Q72,41 66,53 Q43,20 9,-5 L5,-3 Q37,42 50,87 Q38,110 13,143 L16,146 Q40,130 58,115 Q62,138 65,163 L8,163 L8,169 L61,169 L72,188 L109,171 Q113,170 113,167 Q114,162 102,156 Q96,115 85,90 Q112,62 111,42 Q110,19 89,17"/> 
            <glyph glyph-name="手" unicode="&#x624B;" horiz-adv-x="249" d=" M95,-24 Q97,4 51,15 L52,19 L95,18 Q108,18 108,31 L108,58 L11,58 L11,64 L108,64 L108,113 L24,113 L24,119 L108,119 L108,161 Q80,158 23,156 L23,163 Q140,185 176,208 L217,179 Q219,179 219,176 Q218,168 201,174 Q176,168 146,164 L146,119 L183,119 L200,143 L232,121 Q236,118 235,116 Q233,113 227,113 L146,113 L146,109 Q146,93 146,64 L194,64 L212,89 L245,65 Q249,62 247,60 Q245,58 239,58 L147,58 L147,8 Q149,-19 95,-24"/> 
            <glyph glyph-name="打" unicode="&#x6253;" horiz-adv-x="251" d=" M100,167 L129,147 Q133,144 132,142 Q130,139 124,139 L81,139 L81,104 Q87,106 100,109 Q117,113 126,116 L128,112 Q105,97 81,84 L81,7 Q82,-18 37,-24 Q39,0 7,8 L8,13 L37,12 Q46,12 46,20 L46,67 Q37,62 28,59 Q28,47 21,46 Q18,46 17,50 Q17,50 17,51 L5,92 Q12,92 26,94 Q33,95 36,95 Q40,97 46,97 L46,139 L9,139 L9,145 L46,145 L46,149 Q46,179 45,205 L90,201 Q94,201 94,198 Q94,192 81,187 L81,145 L84,145 M214,201 L248,176 Q251,173 250,171 Q248,169 243,169 L207,169 L207,127 Q207,57 209,16 Q214,-20 150,-24 Q152,3 112,12 L113,17 L159,15 Q168,14 169,27 L169,169 L112,169 L112,175 L196,175"/> 
            <glyph glyph-name="找" unicode="&#x627E;" horiz-adv-x="252" d=" M229,-23 Q203,-24 181,0 Q169,10 162,23 Q129,2 87,-7 L85,-3 Q124,19 151,44 Q139,73 136,127 L94,121 L93,127 L135,133 Q135,147 135,163 Q135,188 132,206 L177,202 Q181,201 181,198 Q180,192 171,189 Q171,159 172,137 L206,142 L215,160 Q211,158 206,158 Q197,158 194,167 Q188,184 181,194 L182,196 Q226,195 226,177 Q226,169 219,163 L248,149 Q252,147 251,144 Q249,142 244,141 L173,132 Q174,97 180,77 L188,89 Q197,105 202,124 L240,107 Q245,106 244,102 Q243,98 232,95 Q216,68 193,47 Q202,32 215,22 Q220,18 221,23 L236,61 L239,60 L240,22 Q240,10 244,5 Q249,0 249,-7 Q248,-22 229,-23 M34,-24 Q36,0 7,8 L8,13 L34,12 Q45,11 44,22 L44,64 L28,57 Q26,46 21,46 Q18,46 17,51 L5,90 Q13,91 32,93 Q40,94 44,95 L44,144 L8,144 L8,150 L44,150 L44,152 Q43,190 42,205 L85,201 Q89,201 89,198 Q89,193 79,188 L79,150 L83,150 L96,168 L121,150 Q124,148 123,146 Q121,144 116,144 L79,144 L79,101 Q98,104 119,110 L121,106 Q99,93 79,82 L79,7 Q81,-19 34,-24"/> 
            <glyph glyph-name="接" unicode="&#x63A5;" horiz-adv-x="255" d=" M75,-25 L73,-21 Q129,0 146,16 Q124,24 94,28 Q92,29 93,32 Q100,41 110,60 Q112,64 113,66 L82,66 L82,72 L116,72 Q124,90 128,106 L165,96 Q170,95 170,92 Q170,84 157,83 L152,72 L200,72 L216,94 L247,73 Q251,71 249,68 Q248,66 242,66 L217,66 Q206,37 195,25 Q240,15 240,-4 Q238,-20 223,-23 Q218,-24 209,-17 Q193,-2 175,4 Q146,-17 75,-25 M19,47 Q16,47 15,51 L5,88 Q20,90 36,91 L36,142 L7,142 L7,148 L36,148 L36,154 Q36,190 35,205 L76,202 Q81,201 81,198 Q81,193 70,188 L70,149 L82,167 L106,149 Q110,147 108,144 Q107,142 101,142 L70,142 L70,97 Q84,100 99,103 L101,99 Q96,96 86,90 Q75,83 70,80 L70,1 Q71,-22 28,-24 Q30,1 5,7 L6,11 L27,10 Q36,10 36,21 L36,61 L26,57 Q25,47 19,47 M222,134 L251,114 Q255,111 254,109 Q252,106 246,106 L83,106 L83,113 L170,113 Q181,140 182,164 L219,154 Q223,152 223,149 Q223,143 212,143 Q198,124 183,113 L206,113 M216,194 L245,173 Q249,170 247,168 Q246,166 240,166 L92,166 L92,172 L156,172 Q148,174 147,182 Q146,196 138,205 L139,207 Q182,207 182,189 Q181,176 166,172 L200,172 M133,115 Q124,115 122,126 Q119,144 111,160 L113,162 Q155,152 155,135 Q153,116 133,115 M130,33 Q146,32 159,30 Q171,45 178,66 L149,66 Q144,58 135,41 Q132,36 130,33"/> 
            <glyph glyph-name="控" unicode="&#x63A7;" horiz-adv-x="256" d=" M19,48 Q16,48 14,53 L3,93 Q11,94 30,97 Q34,98 36,98 L36,142 L7,142 L7,148 L36,148 L36,154 Q36,183 35,206 L76,202 Q82,202 81,198 Q81,194 71,189 L71,152 L80,165 L90,155 L92,156 Q105,166 107,185 L110,185 Q111,182 113,177 Q117,171 118,167 L152,167 Q144,169 143,178 Q141,197 133,207 L135,208 Q181,208 181,187 Q179,171 162,167 L199,167 L213,187 L249,164 Q253,161 253,159 Q254,152 238,153 Q227,143 208,133 Q240,121 240,103 Q239,83 221,81 Q210,81 206,93 Q194,118 168,142 L170,145 Q173,144 179,142 Q185,141 196,137 L203,161 L120,161 Q121,156 121,151 Q120,127 99,125 Q85,126 84,142 L71,142 L71,107 L96,114 L98,111 Q83,98 71,89 L71,1 Q73,-21 28,-24 Q30,2 3,9 L4,13 L27,12 Q36,12 36,20 L36,67 Q35,66 31,64 Q28,62 26,61 Q25,47 19,48 M195,93 L223,72 Q227,69 226,67 Q224,64 218,64 L178,64 L178,-8 L202,-8 L220,16 L252,-6 Q256,-9 254,-11 Q252,-14 245,-14 L76,-14 L76,-8 L140,-8 L140,64 L103,64 L103,71 L179,71 M83,70 L80,73 Q112,105 127,146 L166,128 Q169,126 169,124 Q169,118 154,117 Q131,93 83,70"/> 
            <glyph glyph-name="提" unicode="&#x63D0;" horiz-adv-x="254" d=" M189,104 L189,115 L137,115 L137,108 Q137,102 131,102 Q117,99 102,98 L103,142 Q103,142 102,142 Q99,141 97,141 L71,141 L71,105 Q84,110 99,113 L101,110 Q86,97 71,86 L71,6 Q72,-21 25,-23 Q26,2 2,8 L3,13 L26,12 Q35,11 36,22 L36,64 L27,59 Q25,47 19,47 Q16,47 15,50 L2,92 Q16,92 36,97 L36,141 L9,141 L9,147 L36,147 L36,159 Q36,193 35,206 L77,202 Q82,202 82,199 Q82,193 71,188 L71,151 L80,164 L102,148 L103,147 L103,167 Q103,188 102,199 L144,188 L185,188 L196,207 L228,194 Q233,191 233,188 Q233,182 224,176 L224,167 Q224,145 226,113 Q226,109 224,108 L244,93 Q248,90 247,88 Q245,86 239,86 L185,86 L185,52 L198,52 L214,73 L241,54 Q245,50 243,48 Q242,46 235,46 L185,46 L185,10 Q223,10 254,16 L253,12 Q241,7 238,-19 Q232,-20 222,-20 Q215,-20 184,-20 Q142,-22 124,19 Q109,-9 70,-27 L67,-24 Q90,3 97,43 Q97,45 98,49 Q100,65 100,72 L143,65 Q146,64 146,61 Q147,57 135,53 Q132,41 129,31 Q138,21 150,16 L150,86 L84,86 L84,92 L201,92 L211,105 Q204,104 189,104 M137,149 L137,121 L189,121 L189,149 M189,182 L137,182 L137,155 L189,155"/> 
            <glyph glyph-name="播" unicode="&#x64AD;" horiz-adv-x="253" d=" M231,74 Q190,91 178,127 L176,127 L176,84 Q176,76 169,75 Q153,73 143,73 Q144,91 144,104 Q127,86 105,75 L127,69 L194,69 L203,84 L235,71 Q238,70 238,67 Q239,60 230,57 L230,32 Q230,29 230,14 Q231,-7 231,-14 Q231,-20 229,-20 Q213,-23 197,-23 L197,-7 L124,-7 L124,-14 Q124,-21 117,-22 Q115,-22 110,-23 Q96,-24 90,-24 Q91,-12 91,22 L91,44 Q91,53 91,68 Q89,67 84,65 Q76,61 70,59 L68,62 Q102,90 125,127 L84,127 L84,133 L115,133 Q110,134 110,140 Q108,151 101,164 Q100,167 99,168 L101,169 Q141,165 138,148 Q137,137 123,133 L144,133 L144,174 Q135,174 117,174 Q98,173 88,173 L87,177 Q170,193 204,208 L227,188 Q232,184 231,181 Q230,175 215,180 Q202,178 179,176 Q177,176 176,176 L176,133 L180,133 Q188,150 193,175 L223,164 Q227,163 227,160 Q227,155 218,155 Q206,143 190,133 L212,133 L225,150 L248,132 Q250,130 249,129 Q248,127 244,127 L185,127 Q208,112 253,110 L252,106 Q240,104 231,74 M26,-24 Q27,0 4,7 L5,11 L25,10 Q34,8 34,20 L34,63 L27,60 Q27,48 20,47 Q17,47 16,51 L5,95 Q19,97 34,98 L34,139 L7,139 L7,145 L34,145 L34,155 Q34,191 33,206 L73,202 Q78,202 78,199 Q78,194 67,189 L67,149 L77,163 L99,145 Q103,143 102,141 Q100,139 95,139 L67,139 L67,103 Q72,104 81,106 Q91,108 95,109 L97,106 Q82,94 67,84 L67,4 Q69,-21 26,-24 M176,27 L176,-1 L197,-1 L197,27 M124,27 L124,-1 L144,-1 L144,27 M197,63 L176,63 L176,33 L197,33 M124,63 L124,33 L144,33 L144,63"/> 
            <glyph glyph-name="撼" unicode="&#x64BC;" horiz-adv-x="252" d=" M72,163 L85,152 Q85,154 85,156 Q84,165 84,181 L117,174 L171,174 Q171,179 170,188 Q169,203 169,205 L205,201 Q208,201 208,198 Q207,193 200,190 Q200,181 200,174 L218,174 L222,179 Q216,181 216,185 Q214,195 208,202 L209,204 Q238,203 237,192 Q237,188 234,185 L249,174 Q252,172 251,170 Q249,168 244,168 L200,168 Q201,136 205,123 Q211,139 215,157 L248,143 Q248,143 249,143 Q251,142 251,140 Q251,135 240,134 Q231,111 217,94 Q220,90 223,85 Q224,83 226,83 Q227,84 228,86 L246,115 L248,113 L246,85 Q245,76 248,70 Q251,65 251,57 Q250,43 234,43 Q215,44 200,63 Q199,65 198,67 Q196,70 195,71 Q185,62 171,53 Q187,48 187,36 Q186,20 169,18 Q162,18 160,26 Q155,44 143,58 L144,60 Q150,58 159,57 Q162,56 163,56 Q177,72 186,87 Q180,100 177,115 Q175,113 172,111 L172,76 Q171,71 167,71 Q166,71 165,70 Q156,67 148,67 L148,76 L136,76 L136,69 Q137,64 130,63 Q127,61 118,61 Q115,60 113,60 L113,109 Q108,68 70,34 L67,37 Q81,68 83,101 Q81,99 76,95 Q73,92 63,84 L63,2 Q65,-21 24,-24 Q26,0 3,6 L4,10 L22,9 Q32,8 31,19 L31,62 L25,58 Q24,47 19,46 Q15,46 14,51 L4,91 Q18,92 31,95 L31,141 L7,141 L7,147 L31,147 L31,153 Q31,158 31,174 Q30,195 30,204 L67,200 Q73,200 73,197 Q73,192 63,187 L63,149 M140,-20 Q113,-22 115,4 L115,25 Q115,25 115,32 Q114,46 114,48 L149,45 Q152,44 152,41 Q152,38 145,34 L145,13 Q146,6 152,6 L175,6 Q184,6 186,13 L196,38 L199,37 L200,19 Q201,10 207,8 Q213,5 213,0 Q212,-20 182,-20 M230,-4 Q219,-5 217,5 Q215,22 204,45 L206,47 Q252,33 250,15 Q249,-2 230,-4 M85,-12 Q70,-11 69,4 Q69,14 79,20 Q93,26 99,42 L101,42 Q109,29 109,15 Q107,-10 85,-12 M115,138 Q115,134 114,129 L140,123 L145,123 L153,135 L175,124 Q173,133 173,142 L115,142 M152,165 L172,151 Q172,153 172,158 Q171,162 171,164 L171,168 L115,168 L115,148 L140,148 M84,109 Q85,122 85,137 L85,141 L63,141 L63,103 Q74,106 84,109 M148,116 L136,116 L136,82 L148,82"/> 
            <glyph glyph-name="放" unicode="&#x653E;" horiz-adv-x="252" d=" M215,167 L246,145 Q250,143 248,140 Q247,138 241,138 L229,138 Q222,78 197,42 Q219,26 252,17 L251,12 Q229,7 218,-22 Q185,0 174,16 Q144,-10 93,-26 L92,-22 Q139,12 158,42 Q149,63 144,96 Q135,83 124,69 L120,72 Q137,124 142,176 Q143,191 143,206 L187,198 Q193,196 193,193 Q193,187 181,185 Q176,163 168,144 L199,144 M105,178 L135,156 Q138,154 137,151 Q135,149 130,149 L68,149 L68,129 Q68,126 67,119 Q67,113 67,111 L81,111 L91,128 L125,114 Q129,113 129,109 Q129,103 119,98 Q118,76 115,33 Q114,24 114,19 Q113,-11 67,-14 Q68,5 45,13 L45,16 Q34,-1 8,-23 L4,-21 Q21,15 26,43 Q32,71 32,119 L32,149 L7,149 L7,155 L89,155 M86,104 L67,104 Q66,50 46,17 L68,16 Q80,16 81,28 Q85,71 86,104 M151,108 Q160,85 172,67 Q186,97 190,138 L166,138 Q159,122 151,108 M65,158 Q53,158 52,169 Q50,188 40,204 L42,206 Q88,198 88,179 Q86,160 65,158"/> 
            <glyph glyph-name="新" unicode="&#x65B0;" horiz-adv-x="253" d=" M104,-25 L101,-22 Q139,23 137,105 Q136,103 131,103 L84,103 L84,73 L95,73 L107,91 L131,74 Q134,72 133,69 Q131,67 126,67 L84,67 L84,55 L85,56 Q124,46 125,27 Q123,11 107,7 Q97,8 96,17 Q93,39 84,54 L84,46 Q85,26 86,6 Q88,-17 47,-23 Q47,-1 26,4 L27,8 Q24,4 16,-2 Q11,-7 9,-9 L5,-6 Q13,11 17,32 Q21,46 21,58 L51,50 L51,67 L10,67 L10,73 L51,73 L51,103 L7,103 L7,109 L72,109 Q79,138 79,159 L116,149 Q120,148 120,146 Q121,140 109,138 Q96,121 83,109 L100,109 L113,127 L136,110 Q136,110 137,109 Q137,109 137,108 Q137,116 137,123 L137,142 Q137,153 136,181 L172,173 Q196,187 209,204 L246,177 Q247,177 247,175 Q247,170 242,170 Q238,170 233,172 Q209,164 173,163 L173,126 Q173,116 173,107 L206,107 L221,128 L249,108 Q253,106 251,103 Q250,101 244,101 L225,101 L225,43 Q225,19 225,-13 Q225,-20 220,-21 Q209,-24 188,-24 Q188,-19 188,4 Q189,31 189,38 L189,101 L173,101 Q174,10 104,-25 M106,185 L129,168 Q133,166 131,164 Q130,162 124,162 L11,162 L11,168 L57,168 Q50,169 49,177 Q48,190 40,202 L41,205 Q84,204 85,187 Q83,172 67,168 L93,168 M42,112 Q33,112 31,122 Q30,139 22,153 L24,155 Q63,147 62,131 Q60,114 42,112 M42,7 Q51,5 51,17 L51,40 L47,39 Q39,21 27,8"/> 
            <glyph glyph-name="是" unicode="&#x662F;" horiz-adv-x="252" d=" M8,-27 L6,-24 Q38,5 46,42 Q46,43 47,45 Q50,65 49,76 L98,67 Q101,66 101,63 Q101,57 88,53 Q86,44 83,36 Q93,25 112,20 L112,84 L7,84 L7,91 L199,91 L216,115 L248,92 Q252,89 250,86 Q249,84 243,84 L150,84 L150,49 L178,49 L195,72 L224,50 Q228,48 226,45 Q225,43 219,43 L150,43 L150,15 Q197,15 249,20 L249,16 Q234,11 233,-18 Q190,-18 155,-18 Q99,-17 79,27 Q62,-9 8,-27 M48,100 Q49,117 49,145 L49,161 Q49,185 48,199 L94,189 L165,189 L175,207 L213,192 Q217,190 217,187 Q217,183 207,175 L207,158 Q207,138 208,113 Q208,107 202,105 Q197,104 183,103 Q173,102 169,102 L169,116 L86,116 L86,112 Q86,103 77,102 Q59,100 48,100 M169,183 L86,183 L86,156 L169,156 M86,150 L86,122 L169,122 L169,150"/> 
            <glyph glyph-name="智" unicode="&#x667A;" horiz-adv-x="247" d=" M11,70 L9,74 Q49,102 56,135 L13,135 L13,141 L57,141 Q60,154 60,172 L53,172 Q40,157 21,145 L18,147 Q30,175 34,205 L72,197 Q76,196 76,194 Q76,187 64,186 L58,178 L92,178 L104,195 L129,178 Q132,176 131,174 Q129,172 124,172 L95,172 Q94,154 91,141 L101,141 L113,159 L137,142 Q138,142 139,141 Q140,141 140,140 L140,150 Q140,162 140,190 L179,180 L199,180 L210,199 L243,184 Q247,183 247,180 Q247,176 238,169 L238,149 Q238,135 238,103 Q238,96 231,95 Q218,92 204,92 L204,109 L173,109 L173,100 Q173,94 164,91 Q163,91 160,91 Q149,89 139,89 Q140,110 140,129 L140,137 Q138,135 132,135 L90,135 Q89,133 88,129 Q86,125 85,123 Q134,121 132,101 Q130,84 114,82 Q106,82 102,89 Q96,104 82,117 Q72,98 49,86 L93,75 L166,75 L176,94 L215,79 Q218,78 218,76 Q219,72 209,63 L209,39 Q209,15 210,-13 Q210,-19 204,-21 Q189,-24 171,-24 L171,-7 L86,-7 L86,-13 Q86,-20 78,-21 Q62,-24 47,-24 Q48,-3 48,17 L48,45 Q48,56 48,85 Q33,78 11,70 M86,30 L86,-1 L171,-1 L171,30 M171,69 L86,69 L86,36 L171,36 M204,174 L173,174 L173,115 L204,115"/> 
            <glyph glyph-name="更" unicode="&#x66F4;" horiz-adv-x="250" d=" M180,55 L180,69 L142,69 Q137,41 127,28 Q170,15 250,20 L250,16 Q231,8 225,-23 Q145,-18 105,5 Q78,-13 8,-25 L7,-21 Q67,3 84,22 Q69,39 59,60 Q46,57 32,57 Q34,80 34,112 L34,125 Q34,133 33,164 L74,153 L107,153 L107,182 L9,182 L9,188 L196,188 L212,211 L243,191 Q248,188 246,185 Q244,182 237,182 L144,182 L144,153 L175,153 L186,171 L221,157 Q227,154 226,152 Q226,145 217,139 L217,122 Q217,119 217,104 Q218,75 218,65 Q218,59 213,59 Q200,55 180,55 M144,102 Q144,88 142,76 L180,76 L180,108 L144,108 M106,76 Q107,80 107,91 L107,108 L70,108 L70,76 M70,146 L70,114 L107,114 L107,146 M180,146 L144,146 L144,114 L180,114 M65,61 Q79,49 97,40 Q103,52 106,69 L70,69 L70,67 Q71,63 68,62"/> 
            <glyph glyph-name="有" unicode="&#x6709;" horiz-adv-x="249" d=" M59,-25 Q59,-14 60,19 Q60,39 60,43 L60,90 Q38,71 10,56 L8,59 Q49,104 74,161 L10,161 L10,167 L77,167 Q79,174 82,180 Q87,194 88,208 L137,196 Q141,196 141,192 Q141,187 127,184 Q126,180 122,173 Q121,169 120,167 L194,167 L212,192 L245,168 Q249,165 247,163 Q246,161 240,161 L116,161 Q107,142 94,125 L101,124 L167,124 L178,145 L218,130 Q223,127 223,124 Q223,118 211,110 L211,78 Q211,30 212,6 Q212,-20 160,-25 Q161,1 123,10 L124,15 L158,14 Q174,12 173,26 L173,44 L97,44 L97,-14 Q97,-20 92,-21 Q72,-25 59,-25 M97,81 L97,50 L173,50 L173,81 M173,118 L97,118 L97,87 L173,87"/> 
            <glyph glyph-name="本" unicode="&#x672C;" horiz-adv-x="250" d=" M165,55 L196,33 Q199,31 198,29 Q196,27 191,27 L147,27 Q147,9 147,-12 Q148,-20 137,-21 Q121,-24 106,-23 Q106,12 107,27 L64,27 L64,33 L107,33 Q107,59 107,81 L107,95 Q76,50 8,9 L5,13 Q64,75 90,144 L15,144 L15,151 L107,151 Q107,188 106,206 L153,202 Q158,202 159,199 Q159,193 146,188 L146,151 L190,151 L208,176 L243,152 Q247,149 245,146 Q243,144 237,144 L155,144 Q185,86 250,63 L249,58 Q229,55 212,21 Q159,63 149,144 L146,144 L146,123 Q146,103 147,72 Q147,47 147,33 L149,33"/> 
            <glyph glyph-name="机" unicode="&#x673A;" horiz-adv-x="255" d=" M7,30 L4,33 Q29,89 37,139 L7,139 L7,145 L42,145 L42,157 Q42,160 42,173 Q41,196 41,205 L81,201 Q88,201 88,198 Q88,193 77,188 L77,146 L89,164 L113,146 Q113,151 113,163 Q112,183 112,194 L153,184 L171,184 L182,203 L220,188 Q223,186 223,184 Q223,178 213,171 L213,24 Q213,18 217,17 L218,17 Q223,15 226,30 L237,77 L241,76 L242,35 Q242,22 248,19 Q255,14 254,6 Q252,-16 225,-17 L206,-17 Q176,-18 176,11 L176,177 L148,177 L148,119 Q153,10 85,-27 L81,-25 Q115,26 113,109 L113,139 L111,139 L77,139 L77,119 Q113,106 112,86 Q110,69 94,67 Q84,67 83,77 Q82,99 77,111 L77,-13 Q77,-21 70,-22 Q54,-24 40,-24 Q42,25 42,68 L42,75 Q25,50 7,30"/> 
            <glyph glyph-name="柄" unicode="&#x67C4;" horiz-adv-x="253" d=" M80,166 L103,149 Q106,146 105,144 Q103,141 98,141 L69,141 L69,117 Q95,106 97,91 L97,138 L135,127 L149,127 Q149,136 149,144 L149,174 L88,174 L88,180 L202,180 L218,203 L249,182 Q253,179 251,176 Q250,174 244,174 L182,174 L182,145 Q182,136 182,127 L200,127 L210,146 L244,131 Q248,130 248,127 Q248,121 238,115 L238,90 Q238,79 238,60 Q239,31 239,7 Q242,-20 194,-24 Q194,0 165,8 L166,12 L196,11 Q206,9 205,22 L205,44 Q199,39 194,39 Q183,39 183,49 Q180,69 174,85 Q164,53 131,24 L129,26 L129,-12 Q130,-19 121,-21 Q110,-24 95,-24 Q95,-18 95,-8 Q97,41 97,73 L97,84 Q93,72 81,71 Q75,71 73,79 Q73,100 69,110 L69,-11 Q70,-23 61,-23 Q52,-24 35,-24 Q36,7 36,72 Q25,51 7,30 L4,33 Q24,84 32,141 L7,141 L7,147 L36,147 L36,161 Q36,195 35,206 L76,202 Q79,202 79,199 Q78,193 69,189 L69,148 M129,30 Q147,66 149,121 L129,121 M205,121 L181,121 Q180,107 177,96 Q195,86 205,74"/> 
            <glyph glyph-name="次" unicode="&#x6B21;" horiz-adv-x="252" d=" M211,-24 Q167,14 161,77 Q152,-1 42,-27 L40,-23 Q124,24 123,91 Q125,107 123,125 Q105,98 77,73 L73,76 Q106,148 109,206 L162,194 Q167,194 167,190 Q167,184 153,181 Q146,166 140,153 L191,153 L204,172 L243,148 Q247,147 247,144 Q248,139 233,137 Q206,107 185,94 L181,97 L196,147 L137,147 Q135,144 132,138 Q128,132 126,129 L171,126 Q176,126 176,123 Q176,117 164,113 Q164,111 164,108 Q183,43 252,16 L250,11 Q228,7 211,-24 M39,-5 Q20,-4 19,11 Q19,18 22,30 Q25,39 25,47 Q27,62 6,72 L7,76 Q30,71 33,82 L88,174 L92,172 L61,85 Q55,70 55,57 Q56,47 59,36 Q59,34 60,31 Q63,23 63,14 Q61,-4 39,-5 M41,136 Q29,136 28,147 Q22,173 12,189 L13,191 Q66,182 65,161 Q63,138 41,136"/> 
            <glyph glyph-name="欢" unicode="&#x6B22;" horiz-adv-x="253" d=" M61,-25 L59,-22 Q109,9 125,36 Q142,65 142,113 Q142,121 142,131 Q123,102 108,86 L104,88 Q131,161 131,209 L178,200 Q183,200 183,197 Q183,191 168,187 Q164,173 158,162 L200,162 L213,179 L250,158 Q253,157 253,154 Q252,148 241,146 Q220,125 199,109 L195,111 L204,155 L155,155 Q151,145 143,133 L186,130 Q190,130 190,127 Q191,121 179,116 L179,114 Q198,45 253,20 L251,15 Q229,8 214,-24 Q181,12 176,80 Q170,0 61,-25 M91,20 Q81,20 77,31 Q73,44 67,56 Q47,28 8,0 L4,2 Q38,49 51,86 Q37,109 13,141 L16,145 Q42,129 60,115 Q66,139 69,168 L10,168 L10,175 L65,175 L76,194 L113,177 Q117,176 117,173 Q118,168 106,162 Q96,113 87,92 Q112,67 112,45 Q110,22 91,20"/> 
            <glyph glyph-name="比" unicode="&#x6BD4;" horiz-adv-x="250" d=" M169,30 Q168,17 180,18 L193,18 Q206,17 210,33 L227,76 L231,76 L232,37 Q231,25 238,22 Q247,17 247,9 Q246,-15 203,-15 L163,-15 Q130,-16 131,13 L131,147 Q131,183 130,199 L175,196 Q182,195 181,192 Q181,186 169,181 L169,105 Q196,136 208,163 L246,138 Q250,136 250,132 Q250,126 235,128 Q207,106 169,94 M42,-22 Q40,-23 36,-16 L19,20 Q31,25 31,38 L31,147 Q31,176 30,198 L76,195 Q82,195 82,192 Q82,185 69,180 L69,115 L81,115 L99,140 L129,117 Q133,114 131,112 Q129,109 123,109 L69,109 L69,34 L125,46 L127,42 Q100,19 51,-8 Q49,-21 42,-22"/> 
            <glyph glyph-name="清" unicode="&#x6E05;" horiz-adv-x="250" d=" M85,-24 Q86,3 86,32 L86,59 Q86,74 86,103 L129,93 L184,93 L195,110 L230,96 Q233,95 233,92 Q233,87 224,79 L224,61 Q224,41 225,5 Q227,-19 177,-24 Q179,0 146,6 L146,10 L177,9 Q188,7 188,19 L188,28 L122,28 L122,-13 Q122,-20 115,-21 Q101,-24 85,-24 M218,139 L246,119 Q250,117 249,114 Q247,112 241,112 L76,112 L76,118 L136,118 L136,142 L88,142 L88,148 L136,148 L136,165 L136,171 L81,171 L81,177 L136,177 L135,206 L175,203 Q182,202 182,199 Q184,195 173,190 L173,177 L201,177 L215,197 L242,178 Q246,176 244,173 Q243,171 237,171 L173,171 L173,148 L195,148 L208,166 L232,150 Q236,147 235,144 Q233,142 227,142 L173,142 L173,118 L203,118 M41,-23 Q20,-23 20,-5 Q20,3 23,14 Q23,14 23,15 Q26,27 26,36 Q28,47 7,54 L8,58 Q34,54 35,66 L81,165 L85,163 L61,69 Q57,45 57,38 Q57,27 60,15 Q64,1 64,-4 Q62,-22 41,-23 M122,58 L122,35 L188,35 L188,58 M188,87 L122,87 L122,64 L188,64 M57,154 Q45,154 41,165 Q38,184 25,200 L27,202 Q77,194 76,176 Q74,157 57,154 M34,99 Q23,99 20,109 Q17,130 5,145 L6,147 Q54,138 53,120 Q52,100 34,99"/> 
            <glyph glyph-name="游" unicode="&#x6E38;" horiz-adv-x="252" d=" M169,-24 Q170,1 147,5 Q142,-24 101,-24 Q102,1 84,7 Q73,-11 55,-26 L51,-24 Q80,34 79,137 L79,151 L63,151 L63,157 L125,157 L137,175 L157,159 Q163,183 164,204 L206,196 Q211,194 212,192 Q212,186 199,182 Q198,180 196,176 Q193,170 186,157 L206,157 L220,178 L248,158 Q251,156 250,153 Q248,151 243,151 L182,151 Q173,139 162,127 L201,127 L214,145 L247,124 Q250,122 250,119 Q250,114 238,114 Q226,104 209,93 L214,93 Q220,93 220,90 Q221,86 212,81 L212,62 L215,62 L227,79 L250,62 Q252,59 251,58 Q250,56 246,56 L212,56 L212,45 Q212,31 212,5 Q214,-20 169,-24 M35,-22 Q19,-21 18,-5 Q18,3 21,12 Q24,22 24,31 Q26,43 5,51 L6,55 Q28,51 31,63 L68,145 L72,143 L54,68 Q50,53 50,38 Q50,31 52,17 Q53,15 53,14 Q56,4 56,-3 Q55,-21 35,-22 M156,99 Q156,81 154,62 L177,62 Q177,75 177,97 L197,95 L205,121 L161,121 L161,126 Q157,123 152,118 L163,113 Q166,111 166,109 Q166,104 156,99 M123,106 L112,106 Q108,50 88,14 L106,12 Q114,12 116,19 Q121,53 123,106 M49,154 Q38,153 36,164 Q29,187 18,201 L20,203 Q70,195 69,175 Q67,156 49,154 M32,99 Q21,99 19,110 Q14,131 3,147 L4,149 Q52,141 51,121 Q49,101 32,99 M101,161 Q89,161 88,173 Q85,191 78,204 L79,205 Q122,198 122,181 Q121,163 101,161 M154,56 Q151,30 148,9 L166,8 Q178,9 177,18 L177,56 M119,112 L129,129 L146,121 Q152,136 155,151 L113,151 L113,142 Q113,136 112,126 Q112,116 112,112"/> 
            <glyph glyph-name="滑" unicode="&#x6ED1;" horiz-adv-x="254" d=" M38,-22 Q20,-21 19,-4 Q19,2 22,12 Q25,23 25,30 Q27,46 7,55 L8,58 Q30,54 34,67 L79,164 L83,163 L70,113 Q71,113 71,114 Q72,115 72,115 Q84,123 87,140 L89,140 Q95,131 97,124 L97,162 Q97,191 96,199 L133,190 L178,190 L187,206 L218,194 Q221,192 221,190 Q222,186 213,179 L213,132 L219,141 L249,121 Q253,119 253,116 Q254,110 239,110 Q230,104 218,101 L222,99 Q225,99 225,96 Q225,91 216,85 L216,65 Q216,46 217,4 Q220,-19 170,-24 Q172,-1 142,5 L143,9 L172,8 Q181,8 181,20 L181,30 L130,30 L130,-14 Q130,-19 126,-20 Q106,-24 95,-24 Q95,-6 96,21 Q96,31 96,33 L96,91 Q89,82 79,82 Q69,83 65,93 L59,70 Q54,50 54,41 Q54,30 58,17 Q62,4 62,-2 Q61,-21 38,-22 M177,97 L187,113 L207,105 L210,117 L99,117 Q100,113 100,108 Q100,106 100,103 L131,97 M41,164 Q36,186 24,200 L26,202 Q76,196 75,175 Q73,155 55,153 Q44,153 41,164 M32,102 Q22,102 19,113 Q14,136 3,150 L5,152 Q52,144 52,123 Q50,104 32,102 M182,184 L127,184 L127,163 L138,163 L146,176 L173,165 Q176,164 176,161 Q177,158 168,153 L168,123 L182,123 M181,91 L130,91 L130,66 L181,66 M130,60 L130,36 L181,36 L181,60 M141,156 L127,156 L127,123 L141,123"/> 
            <glyph glyph-name="片" unicode="&#x7247;" horiz-adv-x="252" d=" M148,-23 L148,76 L82,76 Q75,16 11,-24 L8,-21 Q49,32 47,120 L47,158 Q47,161 47,175 Q46,195 46,202 L91,199 Q96,199 97,196 Q96,189 85,184 L85,136 L134,136 L134,162 Q134,190 133,206 L178,203 Q185,202 185,199 Q185,193 172,188 L172,136 L198,136 L217,161 L248,137 Q252,134 250,132 Q249,130 243,130 L85,130 L85,120 Q85,100 83,82 L144,82 L154,102 L195,87 Q198,86 198,83 Q199,78 187,69 L187,40 Q187,0 188,-14 Q188,-19 181,-21 Q166,-23 148,-23"/> 
            <glyph glyph-name="牙" unicode="&#x7259;" horiz-adv-x="250" d=" M205,207 L235,185 Q239,183 238,180 Q236,178 230,178 L184,178 L184,105 L195,105 L214,131 L246,106 Q250,103 248,101 Q247,99 241,99 L184,99 L184,90 Q184,45 185,6 Q187,-20 131,-27 Q132,1 85,9 L86,14 L131,12 Q146,11 145,26 L145,79 Q94,21 7,-6 L5,-2 Q77,48 111,99 L70,99 L61,85 Q39,94 28,100 Q24,103 27,106 Q32,109 34,115 L38,139 Q40,155 40,165 L82,159 Q86,158 87,155 Q86,150 75,145 L68,105 L145,105 L145,178 L19,178 L19,184 L188,184"/> 
            <glyph glyph-name="犹" unicode="&#x72B9;" horiz-adv-x="252" d=" M194,-18 Q165,-19 166,14 L166,123 Q162,15 80,-25 L77,-22 Q129,36 131,126 L84,126 L84,132 L131,132 Q131,138 131,146 Q132,163 130,195 Q130,201 130,204 L174,201 Q180,200 180,197 Q180,192 168,187 Q168,157 167,132 L205,132 L219,152 L246,133 Q250,131 248,128 Q247,126 241,126 L201,126 L201,20 Q201,14 207,14 L210,14 Q218,13 221,24 L234,67 L239,66 L240,32 Q239,19 246,17 Q252,13 252,5 Q250,-17 218,-18 M7,115 L4,119 Q24,139 39,159 Q32,174 15,191 L17,193 Q36,183 49,173 Q56,184 65,203 Q66,205 66,206 L103,187 Q107,185 107,183 Q108,176 93,176 Q82,163 70,153 Q92,127 91,57 Q95,-19 36,-24 Q36,2 9,10 L10,14 L34,13 Q57,10 56,60 Q56,69 56,76 Q38,58 8,40 L6,43 Q36,84 52,123 Q51,127 50,133 Q49,136 49,138 Q31,127 7,115 M206,150 Q193,149 193,159 Q191,175 182,190 L184,193 Q226,188 226,170 Q225,151 206,150"/> 
            <glyph glyph-name="理" unicode="&#x7406;" horiz-adv-x="255" d=" M23,0 Q20,0 19,1 L4,44 Q16,44 30,47 Q31,47 32,47 L32,111 L9,111 L9,117 L32,117 L32,178 L8,178 L8,184 L58,184 L71,202 L94,185 Q94,191 94,198 L133,189 L194,189 L205,207 L239,193 Q243,191 243,188 Q243,184 233,175 L233,130 Q233,99 235,78 Q235,73 231,73 Q215,69 198,69 L198,82 L180,82 L180,41 L198,41 L213,63 L241,43 Q245,40 243,37 Q242,35 236,35 L180,35 L180,-8 L205,-8 L222,14 L253,-7 Q255,-9 255,-11 Q255,-14 248,-14 L67,-14 L67,-8 L146,-8 L146,35 L91,35 L91,41 L146,41 L146,82 L128,82 L128,76 Q128,71 124,70 Q109,66 93,66 Q94,84 94,111 L93,111 L67,111 L67,55 Q69,55 72,56 Q82,58 99,62 L101,59 Q65,30 30,11 Q29,0 23,0 M77,133 L94,119 L94,122 L94,155 L94,178 Q93,178 91,178 L67,178 L67,119 M180,133 L180,88 L198,88 L198,133 M198,183 L180,183 L180,139 L198,139 M128,133 L128,88 L146,88 L146,133 M128,183 L128,139 L146,139 L146,183"/> 
            <glyph glyph-name="用" unicode="&#x7528;" horiz-adv-x="238" d=" M10,-25 L7,-23 Q38,29 36,111 L36,146 Q36,168 35,196 L82,184 L186,184 L197,203 L235,188 Q238,187 238,184 Q238,178 228,172 L228,117 Q228,34 229,5 Q233,-20 181,-24 Q182,0 151,9 L152,14 L183,12 Q192,12 191,20 L191,65 L149,65 L149,-7 Q149,-16 142,-17 Q132,-19 111,-19 Q113,18 113,65 L69,65 Q62,11 10,-25 M191,178 L149,178 L149,128 L191,128 M149,122 L149,71 L191,71 L191,122 M72,113 Q72,96 70,71 L113,71 L113,74 L113,122 L72,122 M72,178 L72,128 L113,128 L113,178"/> 
            <glyph glyph-name="电" unicode="&#x7535;" horiz-adv-x="246" d=" M131,-18 Q101,-18 101,10 L101,54 L63,54 L63,37 Q63,33 59,32 Q42,27 27,27 Q27,34 28,61 Q28,87 28,93 L28,122 Q28,147 28,170 L68,159 L101,159 L101,160 Q101,195 100,206 L143,202 Q149,202 148,199 Q149,193 137,189 L137,159 L171,159 L182,178 L218,163 Q221,162 221,158 Q220,153 211,146 L211,111 Q211,67 212,49 Q212,45 209,44 Q193,40 176,39 L176,54 L137,54 L137,23 Q135,11 147,12 L192,12 Q208,10 212,26 L227,66 L231,65 L233,29 Q233,19 240,15 Q246,11 246,4 Q244,-17 204,-18 M137,104 L137,60 L176,60 L176,104 M63,104 L63,60 L101,60 L101,104 M176,153 L137,153 L137,110 L176,110 M63,153 L63,110 L101,110 L101,153"/> 
            <glyph glyph-name="画" unicode="&#x753B;" horiz-adv-x="252" d=" M158,17 L158,28 L100,28 L100,24 Q100,18 97,18 Q84,15 69,15 Q69,25 70,54 Q70,76 70,81 L70,124 Q70,158 69,163 L104,155 L154,155 L163,170 L195,158 Q198,156 198,154 Q198,149 188,143 L188,91 Q188,89 188,72 Q189,36 189,25 Q189,21 185,20 Q172,17 158,17 M48,-18 Q29,-8 18,0 Q16,0 16,1 Q16,3 18,4 Q23,9 23,19 L23,80 Q23,125 22,137 L62,134 Q68,133 68,130 Q67,123 57,119 L57,1 L201,1 L201,96 Q201,131 200,140 L242,136 Q246,136 247,133 Q246,127 235,122 L235,58 Q235,55 235,33 Q236,-4 236,-13 Q236,-17 233,-18 Q218,-21 201,-22 L201,-3 L60,-3 M219,210 L248,188 Q252,185 251,183 Q249,180 243,180 L10,180 L10,187 L202,187 M143,90 L143,34 L158,34 L158,90 M100,90 L100,34 L114,34 L114,90 M158,149 L143,149 L143,96 L158,96 M100,149 L100,96 L114,96 L114,149"/> 
            <glyph glyph-name="的" unicode="&#x7684;" horiz-adv-x="248" d=" M81,-5 L81,14 L56,14 L56,0 Q57,-9 47,-11 Q44,-12 34,-13 Q24,-14 20,-14 Q22,29 22,66 L22,99 Q22,131 21,162 L48,155 Q49,183 46,205 L88,199 Q94,199 93,196 Q92,190 82,187 Q72,168 60,153 L61,152 L76,152 L87,170 L119,156 Q123,154 123,151 Q123,148 116,141 Q115,139 114,138 L114,95 Q129,138 135,175 Q137,195 137,205 L185,195 Q189,195 189,191 Q190,185 176,181 Q170,166 163,153 L197,153 L208,173 L244,157 Q247,157 247,154 Q248,150 238,141 Q238,103 236,21 Q236,-21 177,-23 Q179,0 138,13 L139,17 L181,15 Q198,12 198,30 Q202,82 202,147 L160,147 Q151,131 141,117 Q189,100 188,78 Q186,55 165,53 Q152,53 151,65 Q145,94 136,111 Q127,98 115,87 L114,87 L114,81 Q114,75 114,47 Q115,12 115,2 Q115,0 109,-2 Q98,-5 81,-5 M56,81 L56,20 L81,20 L81,81 M81,146 L56,146 L56,87 L81,87"/> 
            <glyph glyph-name="盒" unicode="&#x76D2;" horiz-adv-x="253" d=" M49,60 Q50,77 50,95 L50,122 L89,115 L156,115 L166,132 L201,119 Q201,119 202,118 Q205,116 205,115 Q204,110 196,104 L196,98 Q196,91 196,77 Q197,69 188,67 Q186,67 186,67 L219,53 Q225,51 224,49 Q223,44 214,37 L214,-7 L225,7 L250,-10 Q253,-12 252,-15 Q250,-17 245,-17 L7,-17 L7,-11 L33,-11 L33,19 Q33,32 33,57 L73,49 L174,49 L183,67 Q180,66 172,66 Q164,65 161,65 L161,72 L85,72 Q85,64 76,63 Q75,63 71,62 Q57,60 49,60 M140,159 L167,140 Q170,138 169,136 Q168,134 163,134 L82,134 L82,140 Q56,126 9,110 L7,114 Q63,153 88,186 Q97,198 101,209 L148,198 Q153,198 154,195 Q154,189 140,187 Q139,186 139,186 Q187,158 250,157 L250,152 Q233,145 225,117 Q164,133 133,179 Q113,157 83,141 L126,141 M161,109 L85,109 L85,78 L161,78 M115,43 L115,-11 L131,-11 L131,43 M68,43 L68,-11 L84,-11 L84,43 M179,43 L163,43 L163,-11 L179,-11"/> 
            <glyph glyph-name="看" unicode="&#x770B;" horiz-adv-x="250" d=" M26,173 L25,177 Q123,191 181,211 L215,189 Q219,186 219,184 Q219,178 212,178 Q208,178 200,181 Q169,177 138,175 Q135,162 131,151 L173,151 L188,172 L217,152 Q221,149 219,146 Q217,144 211,144 L129,144 Q123,131 117,119 L197,119 L214,142 L246,120 Q250,118 248,115 Q247,113 241,113 L113,113 Q106,100 96,89 L106,85 L169,85 L181,104 L218,88 Q224,85 223,82 Q224,77 212,70 L212,49 Q212,39 213,9 Q214,-4 214,-12 Q214,-19 207,-20 Q200,-22 180,-23 Q176,-24 174,-24 L174,-7 L100,-7 L100,-12 Q101,-19 92,-20 Q85,-21 70,-23 Q63,-24 61,-24 Q62,-1 62,28 L62,53 L62,57 Q38,40 7,25 L5,28 Q54,73 74,113 L12,113 L12,119 L78,119 Q79,122 82,129 Q86,139 88,144 L30,144 L30,151 L90,151 Q93,161 96,173 Q62,173 26,173 M174,79 L100,79 L100,56 L174,56 M100,20 L100,-1 L174,-1 L174,20 M100,50 L100,26 L174,26 L174,50"/> 
            <glyph glyph-name="码" unicode="&#x7801;" horiz-adv-x="254" d=" M184,-23 Q187,0 148,10 L149,15 L189,13 Q201,13 204,24 Q204,28 205,37 Q207,69 207,84 L158,84 L147,70 Q144,72 130,80 Q121,84 118,86 Q114,89 118,92 Q123,95 123,103 L125,144 Q126,153 126,173 L165,168 Q170,167 170,164 Q171,160 159,155 L155,90 L180,90 L186,185 L119,185 L119,191 L182,191 L193,209 L229,195 Q232,194 232,191 Q231,184 221,179 L216,102 L220,109 L250,94 Q254,93 253,90 Q253,85 243,77 Q243,46 240,18 Q240,-19 184,-23 M9,52 L6,54 Q32,117 37,178 L10,178 L10,184 L77,184 L91,203 L117,184 Q120,182 119,180 Q117,178 112,178 L75,178 Q69,146 56,117 L63,115 L71,115 L81,132 L112,118 Q112,118 113,117 Q116,117 116,114 Q116,109 106,103 L106,18 Q107,9 98,8 Q92,7 75,7 L75,28 L59,28 L59,1 Q59,-4 49,-5 Q44,-6 33,-7 Q29,-8 26,-8 Q26,1 27,26 Q27,38 27,41 L27,71 Q24,68 18,62 Q12,55 9,52 M75,109 L59,109 L59,34 L75,34 M176,63 L201,43 Q204,41 202,39 Q201,37 197,37 L109,37 L109,43 L161,43"/> 
            <glyph glyph-name="种" unicode="&#x79CD;" horiz-adv-x="251" d=" M92,55 Q81,55 81,67 Q80,84 75,94 L75,-12 Q76,-21 67,-22 Q53,-24 40,-24 Q42,24 42,63 Q27,40 5,18 L2,21 Q24,68 37,123 L8,123 L8,129 L42,129 L42,166 Q35,165 19,164 Q11,163 7,163 L5,167 Q57,187 79,206 L112,183 Q115,180 114,178 Q114,173 108,173 Q103,173 98,175 Q94,174 87,173 Q79,171 75,170 L75,129 L76,129 L88,146 L110,131 Q110,148 110,161 L148,151 L157,151 Q157,185 156,204 L198,201 Q205,201 205,198 Q205,191 192,187 L192,151 L203,151 L214,170 L247,156 Q251,153 251,150 Q251,144 242,138 L242,112 Q242,104 243,76 Q243,53 243,47 Q244,41 236,40 Q231,39 218,38 Q211,37 208,37 L208,57 L192,57 Q192,51 192,33 Q193,1 193,-14 Q193,-20 186,-21 Q171,-24 156,-24 Q157,0 157,50 L157,57 L143,57 L143,44 Q144,37 133,36 Q123,33 109,33 L110,69 Q105,55 92,55 M208,145 L192,145 L192,63 L208,63 M143,145 L143,63 L157,63 L157,145 M106,123 L75,123 L75,104 Q105,96 110,81 L110,89 L110,118 L110,123 Q108,123 106,123"/> 
            <glyph glyph-name="秒" unicode="&#x79D2;" horiz-adv-x="251" d=" M97,58 Q87,58 85,70 Q84,92 79,102 L79,-12 Q80,-21 71,-22 Q57,-24 44,-24 Q44,-14 45,22 Q45,58 45,68 Q32,45 9,26 L6,28 Q30,82 40,129 L10,129 L10,135 L45,135 L45,168 Q24,166 9,166 L8,170 Q57,189 81,210 L114,186 Q117,183 117,180 Q117,176 110,176 Q106,176 100,178 Q90,175 79,173 L79,135 L91,152 L113,135 Q116,133 115,131 Q113,129 108,129 L79,129 L79,109 Q98,100 107,93 Q116,128 119,160 L155,150 L155,169 Q155,190 154,205 L192,201 Q199,201 199,198 Q199,193 190,188 L190,132 Q190,122 190,70 L190,68 Q197,79 204,104 L246,87 Q250,84 250,83 Q250,77 237,75 Q205,-7 92,-24 L90,-20 Q156,11 186,62 L184,61 Q165,58 154,58 Q155,97 155,128 L155,138 Q154,138 153,138 Q151,137 150,137 Q135,107 113,86 Q113,85 114,84 Q115,82 115,78 Q114,60 97,58 M232,103 Q221,103 218,114 Q210,142 193,166 L195,169 Q251,149 251,126 Q249,106 232,103"/> 
            <glyph glyph-name="箱" unicode="&#x7BB1;" horiz-adv-x="251" d=" M100,35 Q88,35 87,48 Q87,64 82,76 L82,57 Q82,8 83,-15 Q83,-20 77,-22 Q57,-24 48,-24 Q49,-1 49,42 Q31,20 8,3 L5,5 Q32,49 45,96 L12,96 L12,102 L49,102 L49,104 Q49,106 49,116 Q48,132 48,137 L87,133 Q92,133 92,130 Q92,125 82,121 L82,102 L85,102 L98,120 L120,103 L121,102 L121,134 L116,131 L113,134 Q126,153 133,169 Q131,168 129,168 L83,168 Q110,164 109,151 Q107,136 90,134 Q79,134 78,145 Q77,160 73,168 L67,168 Q44,144 12,125 L9,128 Q27,155 38,180 Q44,195 46,206 L90,197 Q94,196 94,193 Q92,188 80,185 Q79,184 76,180 Q74,177 72,175 L96,175 L110,194 L134,176 Q134,176 135,175 Q135,175 135,174 Q140,182 141,188 Q144,194 146,205 Q146,206 146,206 L189,197 Q193,196 193,193 Q194,187 179,184 Q176,179 171,174 L206,174 L220,194 L247,175 Q251,173 249,170 Q248,168 242,168 L178,168 Q204,164 204,151 Q202,133 184,132 Q174,132 172,144 Q171,158 165,168 Q149,152 122,134 L160,125 L194,125 L204,144 L239,130 Q243,128 243,125 Q243,119 234,113 L234,66 Q234,16 235,-11 Q236,-18 227,-19 Q213,-22 198,-22 L198,-5 L155,-5 L155,-13 Q155,-21 149,-22 Q144,-22 134,-23 Q123,-23 120,-24 Q121,13 121,53 L121,97 Q121,97 120,97 Q117,96 115,96 L82,96 L82,83 Q120,71 119,54 Q117,37 100,35 M155,36 L155,0 L198,0 L198,36 M155,78 L155,41 L198,41 L198,78 M198,120 L155,120 L155,83 L198,83"/> 
            <glyph glyph-name="米" unicode="&#x7C73;" horiz-adv-x="249" d=" M9,-7 L7,-4 Q55,42 87,104 L15,104 L15,111 L107,111 L107,144 Q107,180 106,205 L152,201 Q156,201 156,198 Q155,192 145,187 L145,111 L191,111 L209,136 L242,111 Q246,109 245,106 Q243,104 237,104 L153,104 Q187,57 249,38 L248,34 Q228,29 211,0 Q159,36 146,104 L145,104 L145,-13 Q146,-21 137,-22 Q120,-24 105,-24 Q105,-15 106,0 Q107,48 107,65 Q72,22 9,-7 M154,114 L150,117 Q170,155 175,192 L218,174 Q223,172 223,169 Q224,163 209,162 Q188,136 154,114 M68,119 Q58,119 55,130 Q48,162 35,185 L38,188 Q93,168 93,144 Q91,121 68,119"/> 
            <glyph glyph-name="系" unicode="&#x7CFB;" horiz-adv-x="240" d=" M16,-19 L14,-16 Q50,19 63,51 L107,37 Q111,36 111,33 Q112,27 97,27 Q87,17 76,10 L103,9 Q114,9 114,21 L114,62 Q76,56 48,54 Q46,44 40,44 Q37,44 35,51 L27,84 Q43,83 60,88 Q78,96 112,116 Q88,112 61,109 Q58,99 53,99 Q49,99 48,105 L40,137 Q55,137 63,142 Q79,153 91,167 Q60,166 26,166 L25,170 Q145,191 184,209 L222,182 Q225,180 225,177 Q225,172 217,172 Q213,172 205,174 Q162,170 136,169 L145,166 Q148,165 148,162 Q147,156 132,156 Q110,144 84,135 L140,134 Q146,139 152,143 Q160,150 171,162 Q173,165 174,166 L208,142 Q214,139 213,136 Q213,130 197,131 Q145,101 88,83 L188,87 Q181,99 172,111 L173,113 Q240,97 238,72 Q236,49 215,47 Q203,47 200,59 Q198,63 195,72 Q194,75 193,76 Q173,71 152,68 L152,45 Q152,28 152,3 Q152,-21 104,-26 Q104,0 74,6 L75,9 Q50,-5 16,-19 M216,-13 Q206,-14 198,-1 Q184,23 158,46 L159,48 Q239,39 238,10 Q236,-10 216,-13"/> 
            <glyph glyph-name="红" unicode="&#x7EA2;" horiz-adv-x="252" d=" M219,21 L249,0 Q252,-3 251,-5 Q249,-7 244,-7 L88,-7 L88,-1 L149,-1 L149,165 L109,165 L109,172 L198,172 L214,193 L242,173 Q245,170 244,168 Q242,165 237,165 L189,165 L189,-1 L201,-1 M33,32 Q30,33 29,36 L17,73 Q36,74 42,84 Q54,100 62,118 Q44,109 28,105 Q26,95 21,95 Q19,95 17,100 L7,133 Q20,135 23,142 Q41,174 46,207 L94,193 Q98,191 97,188 Q96,183 83,182 Q64,155 38,133 L70,134 Q71,136 72,139 Q79,155 81,164 L124,145 Q128,144 128,141 Q128,135 114,133 Q85,98 59,76 L121,78 L122,72 Q104,64 62,50 Q47,45 40,43 Q39,33 33,32 M26,-21 Q23,-22 21,-16 L8,24 Q59,27 123,39 L125,34 Q74,6 34,-8 Q31,-21 26,-21"/> 
            <glyph glyph-name="级" unicode="&#x7EA7;" horiz-adv-x="253" d=" M25,-12 Q22,-12 21,-8 L7,29 Q40,32 95,47 L97,44 Q116,92 115,180 L91,180 L91,186 L172,186 L183,204 L218,188 Q222,187 222,184 Q222,177 210,173 L193,123 L199,123 L210,141 L245,124 Q249,122 249,119 Q249,114 236,109 Q226,66 204,37 Q223,24 253,15 L252,11 Q231,6 219,-23 Q194,-7 177,10 Q148,-11 97,-27 L95,-23 Q137,3 162,33 Q149,57 143,103 Q134,20 62,-24 L59,-22 Q84,11 96,42 Q69,18 32,0 Q32,-12 25,-12 M21,98 Q18,98 17,102 L6,135 Q16,136 19,143 Q36,179 39,207 L80,196 Q84,194 84,191 Q85,185 70,183 Q56,159 35,137 L58,136 Q59,139 61,146 Q65,158 67,166 L105,153 Q109,151 109,149 Q109,143 97,140 Q80,110 52,79 L100,83 L101,79 Q71,61 41,48 Q39,39 34,38 Q31,38 29,43 L18,77 Q33,79 37,89 Q46,105 52,120 Q40,114 28,110 Q26,99 21,98 M185,104 Q175,108 156,120 Q153,121 153,123 Q153,125 156,127 Q162,131 164,136 L176,180 L148,180 Q148,149 146,124 Q160,82 179,59 Q194,84 202,117 L195,117"/> 
            <glyph glyph-name="统" unicode="&#x7EDF;" horiz-adv-x="252" d=" M33,34 Q30,35 29,38 L16,75 Q30,76 36,86 Q47,103 54,121 Q40,113 27,108 Q26,98 21,97 Q18,97 17,101 L5,133 Q15,134 19,140 Q28,159 36,185 Q38,196 40,207 L82,196 Q86,195 86,192 Q86,186 71,183 Q53,155 36,134 L59,135 Q67,155 68,163 L109,149 Q112,148 112,145 Q111,140 98,136 Q80,110 52,77 L97,80 L98,75 Q65,55 40,45 Q38,34 33,34 M106,79 Q102,80 102,83 L92,115 Q107,116 114,124 Q122,136 130,163 L88,163 L88,169 L204,169 L219,190 L248,170 Q252,167 251,165 Q249,163 242,163 L180,163 Q153,132 130,116 L193,118 Q186,133 175,148 L177,150 Q239,129 237,104 Q235,84 216,82 Q207,82 203,91 L198,104 Q166,98 111,90 Q111,80 106,79 M194,-18 Q166,-20 167,12 L167,85 L205,81 Q211,81 211,78 Q211,72 201,68 L201,20 Q201,10 207,11 L211,11 Q216,10 220,22 L232,58 L236,57 L238,28 Q237,16 244,13 Q252,9 252,2 Q251,-18 217,-18 M58,-26 L57,-23 Q114,7 114,59 Q115,67 115,86 L156,79 Q160,79 161,76 Q161,70 151,66 Q152,-11 58,-26 M28,-16 Q25,-16 24,-12 L11,28 Q20,28 41,31 Q52,33 77,38 Q93,41 100,42 L102,38 Q70,14 35,-4 Q33,-16 28,-16 M158,169 Q148,169 147,178 Q144,195 137,205 L138,207 Q184,206 181,188 Q179,171 158,169"/> 
            <glyph glyph-name="耗" unicode="&#x8017;" horiz-adv-x="251" d=" M210,147 L241,132 Q244,131 243,129 Q242,126 238,125 L187,116 L187,70 L204,73 L216,96 L248,80 Q251,79 250,77 Q249,75 246,74 L187,63 L187,25 Q186,14 196,15 L207,15 Q218,14 222,27 L234,57 L238,56 L239,31 Q239,21 244,17 Q251,13 251,5 Q250,-16 216,-17 L180,-17 Q149,-18 150,12 L150,57 L117,51 L115,57 L150,63 L150,109 L116,102 L115,109 L150,115 L150,154 Q132,151 113,148 L112,152 Q154,171 184,193 Q195,203 200,210 L237,183 Q240,180 240,179 Q240,175 234,175 Q229,175 224,176 Q206,167 187,163 L187,123 L199,126 M102,21 Q91,20 90,32 Q89,47 81,66 L81,-11 Q82,-21 73,-22 Q59,-24 45,-24 Q45,-18 45,-2 Q46,23 46,36 Q28,13 7,-3 L4,0 Q29,46 40,84 L9,84 L9,90 L47,90 L47,121 L17,121 L17,127 L47,127 L47,157 L13,157 L13,163 L47,163 Q47,167 47,180 Q46,198 46,206 L88,202 Q93,202 93,199 Q93,194 81,189 L81,163 L85,163 L97,180 L119,164 Q123,162 121,159 Q120,157 114,157 L81,157 L81,127 L83,127 L95,144 L117,128 Q121,126 119,123 Q118,121 112,121 L81,121 L81,90 L87,90 L99,106 L123,90 Q126,88 125,86 Q123,84 118,84 L81,84 L81,70 Q120,58 120,41 Q118,23 102,21"/> 
            <glyph glyph-name="耳" unicode="&#x8033;" horiz-adv-x="251" d=" M155,-24 L156,33 L10,24 L9,30 L52,33 L52,178 L16,178 L16,185 L189,185 L207,211 L242,187 Q247,184 245,181 Q243,178 236,178 L195,178 L195,48 L195,42 L196,42 L212,70 L247,48 Q251,45 249,42 Q247,39 242,39 L195,36 Q195,-8 196,-14 Q196,-21 189,-21 Q176,-24 155,-24 M156,40 L156,43 L156,81 L89,81 L89,35 M89,130 L89,87 L156,87 L156,130 M89,178 L89,136 L156,136 L156,178"/> 
            <glyph glyph-name="能" unicode="&#x80FD;" horiz-adv-x="248" d=" M22,116 Q18,115 16,122 L9,151 Q24,152 28,161 Q42,184 47,207 L86,197 Q90,197 90,194 Q90,187 78,187 Q65,170 41,151 L96,154 Q90,168 83,180 L84,182 Q134,162 132,141 Q130,124 115,122 Q104,123 102,132 Q102,134 101,139 Q100,143 99,145 Q61,133 28,125 Q28,121 25,118 L60,110 L83,110 L93,127 L126,114 Q131,113 131,110 Q132,104 121,98 L121,8 Q123,-20 81,-23 Q82,0 57,5 L58,9 L80,8 Q89,8 88,18 L88,37 L56,37 L56,-13 Q56,-18 51,-20 Q31,-24 21,-24 Q23,39 23,61 L23,116 M165,-16 Q135,-16 135,13 L135,50 Q135,73 134,95 L172,92 Q178,92 178,88 Q178,83 168,79 L168,54 Q194,75 204,91 L240,69 Q242,69 242,66 Q242,58 226,61 Q202,51 168,43 L168,25 Q168,13 176,13 L198,13 Q213,13 218,24 L231,54 L235,53 L236,27 Q236,19 241,16 Q248,10 248,4 Q246,-15 210,-16 M165,103 Q134,103 134,135 L134,158 Q134,183 133,204 L171,200 Q177,200 177,197 Q177,192 167,188 L167,163 Q189,180 204,200 L239,178 Q241,178 241,175 Q241,167 226,170 Q201,160 167,152 L167,144 Q167,132 175,132 L202,132 Q212,132 217,141 L229,167 L233,166 L234,145 Q234,138 241,135 Q247,132 247,124 Q245,104 209,103 M88,104 L56,104 L56,77 L88,77 M56,71 L56,44 L88,44 L88,71"/> 
            <glyph glyph-name="般" unicode="&#x822C;" horiz-adv-x="253" d=" M222,-24 Q194,-11 177,4 Q147,-15 109,-27 L107,-23 Q143,2 160,25 Q144,50 137,91 L130,91 L130,95 L122,90 L118,93 Q135,122 134,165 Q134,187 133,197 L170,187 L181,187 L190,204 L222,191 Q226,190 226,187 Q226,182 217,177 L217,148 Q218,142 221,142 Q226,142 229,147 Q230,150 232,150 Q233,150 236,147 Q243,141 251,131 Q253,127 253,125 Q252,112 226,112 L210,112 Q207,112 204,112 L237,96 Q241,93 241,90 Q242,85 227,80 Q217,51 202,30 Q223,19 253,13 L252,9 Q231,3 222,-24 M7,94 L7,100 L23,100 L23,103 L23,132 Q23,140 23,157 Q22,174 22,182 L49,173 Q51,192 49,206 L86,202 Q90,201 90,198 Q90,193 79,191 Q70,178 61,171 L81,171 L91,188 L122,176 Q126,175 126,170 Q126,166 117,159 L117,8 Q118,-21 75,-23 Q74,0 50,5 L50,9 L78,8 Q85,7 86,18 L86,94 L53,94 Q52,16 9,-26 L6,-24 Q23,23 23,94 M133,98 L188,98 L199,113 Q186,118 186,139 L186,181 L166,181 L166,172 Q168,118 133,98 M86,165 L54,165 L54,121 Q54,118 54,111 Q53,104 53,100 L86,100 M192,91 L143,91 Q156,66 175,49 Q185,69 192,91 M66,32 Q59,32 59,41 Q58,65 54,83 L56,84 Q84,66 82,49 Q81,33 66,32 M68,110 Q60,110 60,119 Q60,138 55,154 L57,155 Q83,142 83,127 Q82,111 68,110"/> 
            <glyph glyph-name="获" unicode="&#x83B7;" horiz-adv-x="252" d=" M9,68 L8,71 Q31,87 49,105 Q39,119 24,134 L27,138 Q29,137 33,135 Q47,128 61,118 Q63,119 64,122 Q65,123 66,125 Q75,138 79,145 L74,145 Q74,152 75,162 Q75,167 75,169 L8,169 L8,176 L75,176 L75,180 Q75,193 74,205 L111,202 Q118,202 118,199 Q118,195 109,190 L109,176 L146,176 Q146,186 146,205 L183,202 Q189,202 189,199 Q189,195 180,190 L180,183 L180,176 L203,176 L219,198 L248,177 Q252,174 250,171 Q249,169 243,169 L180,169 L180,156 Q180,153 176,151 Q161,148 146,147 L146,169 L109,169 L109,154 Q109,150 103,148 Q93,147 82,145 L112,127 Q115,126 115,122 Q115,117 103,118 Q91,108 81,100 Q99,78 99,38 Q102,-21 45,-26 Q44,-3 18,3 L19,7 L47,6 Q65,5 64,34 Q64,39 64,42 Q42,25 9,12 L7,15 Q43,50 59,81 L58,86 Q37,76 9,68 M208,-24 Q175,14 176,84 L174,84 Q171,3 86,-26 L83,-22 Q135,19 138,84 L95,84 L95,90 L138,90 L139,100 Q140,121 137,143 L177,139 Q184,139 184,136 Q185,131 175,126 L175,118 Q175,103 174,90 L210,90 L223,109 L249,90 Q252,88 250,86 Q249,84 244,84 L184,84 Q199,40 251,13 L249,8 Q227,4 208,-24 M206,103 Q195,102 194,113 Q192,129 186,139 L187,141 Q225,136 225,121 Q223,105 206,103"/> 
            <glyph glyph-name="蓝" unicode="&#x84DD;" horiz-adv-x="253" d=" M225,12 L249,-6 Q253,-8 251,-11 Q250,-13 244,-13 L7,-13 L7,-7 L36,-7 L36,31 Q36,50 35,63 L76,54 L174,54 L184,72 L218,58 Q222,56 222,53 Q223,48 213,41 L213,-3 M218,201 L246,181 Q249,178 248,176 Q246,174 241,174 L176,174 L177,164 Q177,158 171,157 Q160,154 142,154 L142,174 L104,174 L104,161 Q105,154 96,153 Q80,151 69,151 Q69,153 69,160 Q70,170 70,174 L9,174 L9,179 L70,179 L70,180 L70,184 Q70,197 70,206 L109,202 Q113,202 113,199 Q113,194 104,189 L104,179 L142,179 L142,180 Q142,185 141,195 Q141,203 141,206 L181,202 Q187,202 186,199 Q186,194 176,189 L176,187 L176,179 L202,179 M210,144 L238,125 Q242,122 240,119 Q238,117 232,117 L163,117 Q148,94 119,73 L116,75 Q137,120 140,153 L180,145 Q184,144 184,141 Q184,136 172,133 L166,123 L195,123 M80,61 Q80,66 81,88 Q81,106 81,109 L81,123 Q81,140 81,150 L119,147 Q123,147 123,144 Q123,138 114,134 L114,71 Q114,64 109,63 Q87,61 80,61 M29,72 Q30,83 30,105 L30,117 Q30,136 29,143 L67,140 Q71,140 71,137 Q71,131 62,127 L62,80 Q63,74 57,74 Q43,72 29,72 M192,70 Q183,70 179,80 Q172,98 162,108 L163,110 Q211,109 210,90 Q209,71 192,70 M70,48 L70,-7 L86,-7 L86,48 M178,48 L162,48 L162,-7 L178,-7 M116,48 L116,-7 L131,-7 L131,48"/> 
            <glyph glyph-name="装" unicode="&#x88C5;" horiz-adv-x="252" d=" M7,11 L6,15 Q54,41 84,72 L9,72 L9,79 L116,79 Q113,81 112,87 Q110,99 104,105 L106,108 Q149,109 149,93 Q148,82 138,79 L198,79 L215,102 L248,79 Q252,77 250,74 Q248,72 242,72 L199,72 L229,54 Q232,52 232,49 Q231,44 218,46 Q201,38 180,35 Q206,19 252,13 L252,9 Q233,4 224,-24 Q151,0 132,68 Q115,54 94,42 L94,13 L150,20 L152,16 Q107,-7 74,-21 Q73,-31 68,-31 Q65,-31 63,-27 Q63,-27 62,-26 L49,4 Q61,8 60,18 L60,27 Q36,18 7,11 M210,138 L239,116 Q242,114 241,112 Q239,110 234,110 L106,110 L106,116 L148,116 L148,142 L148,160 L103,160 L103,166 L148,166 Q148,187 147,205 L188,202 Q193,201 193,198 Q193,193 183,189 L183,166 L200,166 L215,188 L246,166 Q249,164 248,162 Q246,160 241,160 L183,160 L183,116 L195,116 M24,97 Q23,97 20,101 Q19,102 19,102 L8,137 Q27,139 66,147 L66,161 L66,205 L106,202 Q109,202 109,199 Q109,193 98,190 L98,181 Q98,130 99,104 Q99,96 95,95 Q89,94 75,93 Q68,92 65,92 Q65,116 65,134 Q55,125 36,112 Q32,109 30,107 Q29,98 24,97 M39,148 Q30,148 28,159 Q27,179 19,195 L21,197 Q61,184 60,169 Q59,149 39,148 M139,72 Q153,54 169,42 Q186,59 194,72"/> 
            </font>
</defs>
</svg>
