<?xml version="1.0" standalone="no"?>
<!DOCTYPE svg PUBLIC "-//W3C//DTD SVG 1.1//EN" "http://www.w3.org/Graphics/SVG/1.1/DTD/svg11.dtd" >
<svg xmlns="http://www.w3.org/2000/svg">
    <defs>
        <font id="">
            <font-face font-family=""
                       units-per-em="256"
                       ascent="223"
                       descent="-74"
                       bbox="-20 -74 266 223"
                    />
            <missing-glyph horiz-adv-x="0" />
            
            <glyph glyph-name="." unicode="&#x2E;" horiz-adv-x="63" d=" M39,38 Q61,36 63,14 Q61,-6 39,-8 Q17,-6 15,14 Q17,36 39,38"/> 
            <glyph glyph-name="0" unicode="&#x30;" horiz-adv-x="151" d=" M82,193 Q13,192 11,87 Q10,-14 82,-15 Q150,-14 151,87 Q150,192 82,193 M82,180 Q113,182 113,87 Q114,-4 82,-2 Q48,-3 50,91 Q49,180 82,180"/> 
            <glyph glyph-name="1" unicode="&#x31;" horiz-adv-x="128" d=" M36,-10 L128,-10 L128,0 Q102,1 101,29 L101,193 L39,179 L39,167 Q54,167 59,159 Q65,151 64,139 L64,29 Q64,1 36,0"/> 
            <glyph glyph-name="2" unicode="&#x32;" horiz-adv-x="150" d=" M150,52 L138,56 Q129,20 107,22 L40,22 Q51,52 91,71 Q149,99 147,141 Q145,194 83,193 Q21,192 18,145 Q17,124 36,124 Q54,125 57,144 Q62,181 83,180 Q108,179 108,145 Q107,113 74,88 Q16,46 15,-10 L140,-10"/> 
            <glyph glyph-name="3" unicode="&#x33;" horiz-adv-x="146" d=" M54,99 L54,85 Q108,84 108,39 Q108,-4 78,-2 Q57,-2 52,27 Q50,47 32,45 Q13,44 14,25 Q17,-13 78,-15 Q145,-14 146,39 Q146,86 87,93 Q141,101 142,143 Q141,194 80,193 Q22,192 18,150 Q17,131 36,130 Q55,132 57,149 Q58,182 80,181 Q103,181 104,144 Q105,102 54,99"/> 
            <glyph glyph-name="4" unicode="&#x34;" horiz-adv-x="149" d=" M62,-10 L146,-10 L146,0 Q120,0 121,25 L121,40 L149,40 L149,55 L121,55 L121,190 L94,190 L5,55 L5,40 L86,40 L86,25 Q87,0 62,0 M86,154 L86,55 L22,55 Q27,63 41,85 Q75,138 86,154"/> 
            <glyph glyph-name="5" unicode="&#x35;" horiz-adv-x="147" d=" M137,189 L31,189 L22,73 L33,68 Q51,97 76,97 Q110,96 109,46 Q108,-1 77,-2 Q56,-3 52,26 Q49,44 33,43 Q15,43 15,24 Q18,-13 77,-14 Q146,-13 147,51 Q146,109 86,113 Q56,115 37,94 L42,152 L137,152"/> 
            <glyph glyph-name="6" unicode="&#x36;" horiz-adv-x="150" d=" M87,181 Q99,182 105,155 Q109,136 125,137 Q143,138 144,157 Q141,192 88,193 Q15,194 14,81 Q14,-16 83,-15 Q149,-12 150,53 Q149,113 92,117 Q68,119 52,101 Q54,182 87,181 M82,102 Q111,103 111,51 Q111,-2 83,-2 Q51,-3 52,62 Q54,99 82,102"/> 
            <glyph glyph-name="7" unicode="&#x37;" horiz-adv-x="148" d=" M15,121 L26,116 Q34,155 55,154 L124,154 Q50,48 50,0 Q50,-15 72,-15 Q93,-15 93,4 Q91,83 148,167 L148,189 L23,189"/> 
            <glyph glyph-name="8" unicode="&#x38;" horiz-adv-x="151" d=" M142,145 Q140,193 81,194 Q22,193 18,137 Q16,106 52,85 Q14,71 14,32 Q16,-15 78,-15 Q147,-15 149,41 Q151,78 107,100 Q143,114 142,145 M50,152 Q51,182 81,181 Q113,181 114,144 Q114,123 93,106 Q48,126 50,152 M116,28 Q114,-2 78,-2 Q42,-2 42,36 Q41,65 66,78 Q120,55 116,28"/> 
            <glyph glyph-name="9" unicode="&#x39;" horiz-adv-x="149" d=" M77,-2 Q61,-3 57,21 Q54,38 36,38 Q17,37 18,19 Q22,-13 77,-15 Q146,-15 149,94 Q145,192 80,193 Q14,189 13,122 Q14,62 70,58 Q94,57 110,74 Q107,-1 77,-2 M80,181 Q112,178 111,114 Q108,76 78,74 Q52,73 51,123 Q51,182 80,181"/> 
            <glyph glyph-name="F" unicode="&#x46;" horiz-adv-x="153" d=" M30,147 L30,29 Q32,-1 7,0 L7,-10 L92,-10 L92,0 Q65,-1 67,29 L67,85 L90,85 Q116,86 118,56 L130,56 L130,126 L118,126 Q114,98 90,99 L67,99 L67,175 L97,175 Q133,176 141,125 L153,130 L149,189 L8,189 L8,176 Q33,180 30,147"/> 
            <glyph glyph-name="G" unicode="&#x47;" horiz-adv-x="194" d=" M194,84 L115,84 L115,72 Q142,76 139,44 L139,4 Q124,-1 104,0 Q56,0 55,87 Q55,178 106,179 Q145,180 163,120 L175,125 L170,188 Q163,185 155,184 Q149,185 136,188 Q115,193 104,192 Q16,186 14,84 Q14,-11 103,-14 Q121,-14 145,-6 Q161,0 176,0 Q175,7 175,23 L175,45 Q174,74 194,72"/> 
            <glyph glyph-name="K" unicode="&#x4B;" horiz-adv-x="194" d=" M186,176 L186,189 L113,189 L113,176 Q131,176 130,169 Q116,141 67,86 L67,147 Q65,178 90,176 L90,189 L8,189 L8,176 Q33,179 30,147 L30,28 Q33,-2 7,0 L7,-10 L91,-10 L91,0 Q65,1 67,27 L67,65 Q70,69 75,75 Q81,82 83,85 Q98,59 122,16 Q132,0 137,-10 L194,-10 L194,0 Q173,2 163,23 Q136,71 109,115 L135,146 Q158,176 186,176"/> 
            <glyph glyph-name="P" unicode="&#x50;" horiz-adv-x="164" d=" M30,147 L30,28 Q31,-1 7,0 L7,-10 L92,-10 L92,0 Q65,-1 67,29 L67,70 L78,70 Q164,67 162,132 Q163,190 87,189 L8,189 L8,176 Q33,179 30,147 M78,83 L67,83 L67,176 L79,176 Q122,176 122,131 Q122,85 78,83"/> 
            <glyph glyph-name="W" unicode="&#x57;" horiz-adv-x="265" d=" M91,41 L67,143 Q65,149 64,159 Q63,162 63,164 Q61,175 85,176 L85,189 L2,189 L2,176 Q23,176 27,146 L66,-11 L89,-11 Q114,70 132,138 L171,-11 L194,-11 L232,135 Q240,177 265,176 L265,189 L198,189 L198,176 Q224,173 222,160 Q222,158 221,152 Q220,142 219,137 Q206,81 194,40 L158,185 L131,185"/> 
            <glyph glyph-name="a" unicode="&#x61;" horiz-adv-x="142" d=" M125,16 L125,89 Q128,135 76,133 Q22,131 19,100 Q18,83 36,82 Q54,81 56,99 Q58,122 75,120 Q90,120 90,89 L90,75 Q8,72 11,25 Q13,-12 50,-13 Q74,-14 91,3 Q92,-12 104,-12 Q109,-12 130,-9 Q138,-8 142,-8 L142,1 Q131,1 128,3 Q125,7 125,16 M90,62 L90,40 Q86,4 64,2 Q49,1 47,29 Q45,61 90,62"/> 
            <glyph glyph-name="c" unicode="&#x63;" horiz-adv-x="134" d=" M134,21 L124,28 Q112,1 86,0 Q48,0 48,63 Q48,122 76,121 Q89,122 94,97 Q98,82 112,81 Q129,82 130,99 Q127,133 76,134 Q11,131 10,56 Q11,-12 77,-15 Q112,-16 134,21"/> 
            <glyph glyph-name="d" unicode="&#x64;" horiz-adv-x="156" d=" M85,182 L85,170 Q86,170 89,169 Q96,169 99,166 Q104,160 104,145 L104,120 Q92,132 71,132 Q14,131 12,54 Q13,-13 67,-14 Q90,-15 106,0 L108,-12 L156,-10 L156,0 Q138,-1 139,24 L139,139 Q139,156 141,193 M76,119 Q103,117 105,61 Q105,1 76,0 Q50,1 50,58 Q50,120 76,119"/> 
            <glyph glyph-name="h" unicode="&#x68;" horiz-adv-x="167" d=" M92,-10 L167,-10 L167,0 Q143,0 146,26 L146,85 Q147,133 105,132 Q76,132 61,108 L61,139 Q61,178 62,193 L6,181 L6,170 Q28,173 26,141 L26,26 Q29,-2 6,0 L6,-10 L80,-10 L80,0 Q58,-1 61,26 L61,71 Q68,111 93,115 Q111,116 111,83 L111,26 Q113,-2 92,0"/> 
            <glyph glyph-name="i" unicode="&#x69;" horiz-adv-x="82" d=" M7,121 L7,110 Q28,113 26,82 L26,26 Q29,-2 5,0 L5,-10 L82,-10 L82,0 Q58,-2 61,26 L61,132 M44,195 Q25,195 24,173 Q25,152 44,151 Q63,152 64,173 Q63,194 44,195"/> 
            <glyph glyph-name="l" unicode="&#x6C;" horiz-adv-x="82" d=" M5,-10 L82,-10 L82,0 Q58,-2 62,28 L62,193 L6,179 L6,168 Q28,171 26,139 L26,28 Q29,-2 5,0"/> 
            <glyph glyph-name="t" unicode="&#x74;" horiz-adv-x="91" d=" M55,174 L41,174 Q34,129 5,129 L5,115 L19,115 L19,19 Q20,-14 53,-14 Q71,-14 91,0 L84,11 Q75,2 69,2 Q54,2 54,27 L54,115 L84,115 L84,129 L54,129 Q54,136 55,158 Q55,172 55,174"/> 
            <glyph glyph-name="°" unicode="&#xB0;" horiz-adv-x="102" d=" M57,206 Q98,202 102,163 Q98,124 57,120 Q17,124 13,163 Q17,202 57,206 M57,189 Q34,187 32,163 Q34,138 57,136 Q81,138 83,163 Q81,187 57,189"/> 
            <glyph glyph-name="、" unicode="&#x3001;" horiz-adv-x="101" d=" M21,50 L22,52 Q84,40 96,19 Q101,11 101,4 Q101,-7 93,-15 Q90,-20 83,-20 Q77,-20 74,-15 Q48,28 21,50"/> 
            <glyph glyph-name="一" unicode="&#x4E00;" horiz-adv-x="248" d=" M205,124 L244,94 Q248,91 247,89 Q245,86 239,86 L12,86 L12,93 L182,93"/> 
            <glyph glyph-name="上" unicode="&#x4E0A;" horiz-adv-x="251" d=" M213,19 L247,-4 Q251,-7 250,-10 Q247,-13 241,-13 L8,-13 L8,-6 L98,-6 L98,150 Q98,183 97,205 L145,201 Q154,201 153,198 Q154,193 139,187 L139,113 L178,113 L197,139 L229,115 Q232,112 230,109 Q229,107 223,107 L139,107 L139,-6 L194,-6"/> 
            <glyph glyph-name="不" unicode="&#x4E0D;" horiz-adv-x="247" d=" M10,25 L9,29 Q85,97 116,171 L13,171 L13,178 L194,178 L211,202 L243,179 Q247,176 245,173 Q244,171 238,171 L167,171 Q155,150 142,130 L150,129 Q156,129 156,125 Q157,122 145,116 L145,70 Q145,15 146,-12 Q147,-20 138,-21 Q128,-23 106,-24 Q106,-8 107,16 Q108,50 108,59 L108,90 Q70,52 10,25 M223,41 Q213,40 208,51 Q191,87 158,114 L161,118 Q247,99 246,68 Q244,44 223,41"/> 
            <glyph glyph-name="个" unicode="&#x4E2A;" horiz-adv-x="254" d=" M221,87 Q163,117 138,176 Q95,114 9,81 L7,85 Q59,128 90,180 Q91,181 92,184 Q100,200 102,208 L154,197 Q158,196 158,193 Q159,187 144,184 Q190,144 254,132 L254,127 Q235,122 221,87 M106,-24 Q108,18 108,61 L108,84 Q108,113 107,135 L154,131 Q160,131 160,128 Q161,122 148,117 L148,61 Q148,55 149,23 Q149,-8 149,-14 Q149,-21 145,-21 Q143,-21 137,-22 Q114,-24 106,-24"/> 
            <glyph glyph-name="中" unicode="&#x4E2D;" horiz-adv-x="245" d=" M196,44 L196,64 L146,64 L146,49 Q146,35 148,-4 Q148,-11 148,-15 Q148,-21 143,-22 Q125,-24 106,-24 Q108,1 108,49 L108,64 L59,64 L59,54 Q59,49 55,48 Q47,46 30,45 Q23,44 21,44 Q23,69 23,98 L23,115 Q23,122 22,138 Q22,154 22,160 L67,148 L108,148 L108,153 Q108,180 106,206 L153,202 Q159,202 159,199 Q159,191 146,188 L146,148 L191,148 L203,168 L239,153 Q245,150 244,147 Q245,142 234,134 L234,111 Q234,73 235,54 Q236,50 231,48 Q216,44 196,44 M196,142 L146,142 L146,70 L196,70 M59,142 L59,70 L108,70 L108,142"/> 
            <glyph glyph-name="临" unicode="&#x4E34;" horiz-adv-x="251" d=" M205,-22 L205,1 L145,1 L145,-14 Q145,-20 138,-21 Q123,-23 111,-24 Q112,-6 112,27 L112,62 Q112,91 111,98 L151,88 L201,88 L211,106 L244,92 Q250,90 249,86 Q249,82 240,75 L240,42 Q240,1 241,-13 Q241,-18 238,-19 Q223,-22 205,-22 M62,-24 L62,151 Q62,192 61,204 L102,200 Q108,199 107,196 Q107,191 95,186 L95,63 Q95,13 96,-14 Q96,-21 89,-22 Q80,-24 62,-24 M16,3 Q18,70 18,85 L18,134 Q18,137 18,149 Q17,167 17,175 L56,172 Q60,172 60,169 Q60,163 50,160 L50,16 Q50,7 42,6 Q40,6 35,5 Q21,3 16,3 M100,97 L97,99 Q117,144 125,178 Q131,201 130,206 L176,196 Q182,194 181,191 Q181,185 167,182 Q166,180 163,175 Q159,166 155,161 L201,161 L217,184 L247,163 Q251,160 250,158 Q248,155 242,155 L152,155 Q129,119 100,97 M181,98 Q171,98 167,109 Q160,131 145,143 L147,145 Q202,141 201,120 Q200,100 181,98 M205,82 L190,82 L190,7 L205,7 M145,82 L145,7 L160,7 L160,82"/> 
            <glyph glyph-name="乐" unicode="&#x4E50;" horiz-adv-x="245" d=" M106,-25 Q106,3 73,10 L74,14 L106,13 Q121,12 120,26 L120,91 L75,91 L62,79 Q45,90 31,101 Q27,105 31,108 Q39,112 40,120 Q48,153 53,191 L95,175 Q166,193 195,210 L227,182 Q230,179 229,177 Q229,172 223,172 Q219,172 211,175 Q150,166 87,165 L72,97 L120,97 L120,100 Q120,124 119,151 L163,147 Q170,147 170,144 Q171,138 157,133 L157,97 L189,97 L209,123 L242,98 Q245,96 244,94 Q245,91 236,91 L157,91 L157,65 Q157,59 157,45 Q158,21 158,5 Q159,-21 106,-25 M216,-4 Q205,-4 200,8 Q188,40 163,67 L165,70 Q242,49 241,20 Q240,-3 216,-4 M17,-12 L14,-9 Q38,17 52,42 Q62,60 66,74 L109,57 Q113,56 113,53 Q114,47 97,46 Q65,8 17,-12"/> 
            <glyph glyph-name="也" unicode="&#x4E5F;" horiz-adv-x="251" d=" M83,-12 Q45,-13 46,24 L46,104 L9,93 L7,99 L46,110 L46,131 Q46,133 46,141 Q45,167 45,187 L89,183 Q97,183 97,179 Q97,174 84,168 L84,122 L112,130 L112,155 Q112,158 112,167 Q111,189 111,205 L153,201 Q159,201 159,198 Q160,193 148,188 L148,141 L173,148 L183,170 L225,154 Q228,154 228,151 Q228,145 215,137 Q215,132 215,125 Q214,98 212,82 Q210,48 163,46 Q162,69 148,74 L148,50 Q148,43 142,41 Q136,40 119,38 Q112,37 110,37 Q110,45 110,43 Q112,102 112,115 L112,123 L84,115 L84,34 Q84,22 93,22 L191,22 Q205,22 212,38 L231,82 L235,81 L236,43 Q236,32 242,26 Q251,21 250,13 Q248,-11 201,-12 M178,143 L148,134 L148,83 L165,82 Q175,82 175,90 Q178,109 178,143"/> 
            <glyph glyph-name="井" unicode="&#x4E95;" horiz-adv-x="254" d=" M145,-25 Q145,-8 146,32 Q146,58 146,64 L97,64 Q86,7 9,-26 L7,-22 Q51,19 59,64 L8,64 L8,71 L61,71 Q64,90 64,117 L64,138 L16,138 L16,145 L64,145 L64,149 Q64,155 64,172 Q63,194 63,204 L110,200 Q115,200 115,197 Q115,190 102,185 L102,145 L146,145 Q146,191 145,203 L191,200 Q197,200 197,197 Q197,191 185,186 L185,145 L193,145 L211,170 L243,147 Q248,144 246,141 Q244,138 237,138 L185,138 L185,92 Q185,91 185,88 Q184,78 185,71 L194,71 L214,99 L250,72 Q254,69 253,67 Q251,64 244,64 L185,64 Q185,4 186,-12 Q186,-21 179,-22 Q166,-25 145,-25 M102,119 Q102,92 99,71 L146,71 L146,138 L102,138"/> 
            <glyph glyph-name="交" unicode="&#x4EA4;" horiz-adv-x="249" d=" M212,-22 Q158,-6 129,17 Q90,-11 11,-24 L9,-20 Q73,8 107,40 Q88,63 78,97 Q51,78 22,66 L20,69 Q64,113 79,151 L119,134 Q123,132 123,130 Q123,123 108,123 Q96,111 82,100 Q103,76 125,60 Q128,63 131,68 Q133,71 134,72 Q143,84 152,107 L193,86 Q197,83 197,80 Q196,73 182,74 Q170,56 157,42 Q187,28 249,20 L249,15 Q224,7 212,-22 M212,190 L244,165 Q248,163 246,160 Q245,158 239,158 L17,158 L17,164 L118,164 Q110,167 110,174 Q108,190 100,205 L102,207 Q150,205 149,183 Q148,169 133,164 L193,164 M204,84 Q196,84 190,93 Q173,125 146,147 L147,150 Q230,132 226,107 Q224,86 204,84"/> 
            <glyph glyph-name="享" unicode="&#x4EAB;" horiz-adv-x="252" d=" M92,-25 Q93,0 50,8 L51,12 L92,10 Q107,9 106,22 L106,34 L6,34 L6,40 L106,40 Q105,48 105,66 L142,62 L162,81 L29,81 L29,87 L161,87 L177,100 L213,78 Q218,76 218,73 Q219,65 201,67 Q180,60 155,54 Q152,51 146,48 L146,40 L199,40 L216,64 L248,42 Q252,39 251,36 Q249,34 243,34 L146,34 Q146,20 147,6 Q150,-21 92,-25 M45,95 Q45,99 46,113 Q46,124 46,126 L46,135 Q46,154 45,161 L92,150 L161,150 L171,167 L210,153 Q210,153 211,152 Q215,150 215,147 Q216,142 204,136 L204,133 Q204,123 205,109 Q205,106 199,104 Q183,100 165,100 L165,109 L84,109 L84,104 Q84,98 79,98 Q76,98 71,97 Q53,95 45,95 M210,198 L243,175 Q247,172 246,170 Q244,167 238,167 L13,167 L13,174 L110,174 Q106,176 105,182 Q101,200 94,209 L96,211 Q146,213 145,191 Q145,180 132,174 L193,174 M165,144 L84,144 L84,115 L165,115"/> 
            <glyph glyph-name="人" unicode="&#x4EBA;" horiz-adv-x="251" d=" M205,-24 Q144,30 134,138 Q129,18 7,-25 L6,-21 Q94,50 93,162 Q93,178 92,202 L143,196 Q150,196 150,192 Q151,186 136,180 Q136,177 136,175 Q164,60 251,21 L250,16 Q225,13 205,-24"/> 
            <glyph glyph-name="介" unicode="&#x4ECB;" horiz-adv-x="252" d=" M19,-27 L17,-24 Q67,14 64,79 Q64,94 63,106 Q39,91 8,80 L6,83 Q61,130 88,180 Q97,200 98,207 L143,197 Q150,196 150,192 Q150,186 137,184 Q182,146 252,136 L251,131 Q232,124 220,92 Q208,98 197,104 Q196,100 186,95 L186,41 Q186,35 186,14 Q187,-7 187,-14 Q188,-21 185,-21 Q181,-21 173,-22 Q155,-24 148,-24 Q150,28 150,39 L150,68 Q150,84 149,104 Q148,109 148,112 L187,110 Q152,133 132,176 Q105,134 69,111 L107,108 Q113,108 112,105 Q113,99 101,95 L101,87 Q101,36 84,13 Q68,-10 19,-27"/> 
            <glyph glyph-name="低" unicode="&#x4F4E;" horiz-adv-x="254" d=" M218,129 L248,106 Q252,104 250,101 Q248,99 243,99 L195,99 Q198,57 218,27 Q222,22 225,28 L241,71 L245,70 L244,27 Q244,13 249,6 Q254,-1 253,-6 Q251,-22 234,-23 Q205,-22 184,13 Q176,26 170,42 Q155,28 140,16 Q174,10 173,-3 Q172,-23 151,-24 Q140,-24 140,-14 Q138,0 133,11 L111,-3 Q109,-16 104,-16 Q100,-17 98,-11 L80,21 Q92,25 91,37 L91,117 Q91,166 90,183 L127,174 Q184,190 208,207 L239,180 Q244,176 243,174 Q243,169 236,169 Q231,169 225,172 Q209,168 193,167 L193,151 Q193,124 194,105 L201,105 M33,-23 Q34,8 34,72 L34,99 Q22,86 8,72 L5,74 Q32,134 41,172 Q46,191 47,206 L91,194 Q96,193 96,190 Q95,185 83,182 Q74,160 63,140 L71,139 Q78,139 78,135 Q79,131 68,127 L68,-10 Q69,-21 60,-21 Q46,-24 33,-23 M168,47 Q162,71 160,99 L126,99 L126,35 M159,105 Q159,120 159,137 L159,163 Q154,163 143,163 Q132,162 126,162 L126,105"/> 
            <glyph glyph-name="住" unicode="&#x4F4F;" horiz-adv-x="252" d=" M207,100 L238,77 Q242,75 240,72 Q239,70 233,70 L173,70 L173,-10 L197,-10 L215,14 L249,-9 Q252,-12 251,-14 Q249,-16 244,-16 L75,-16 L75,-10 L134,-10 L134,70 L83,70 L83,76 L134,76 L134,140 L80,140 L80,146 L196,146 L213,171 L245,147 Q249,145 247,142 Q246,140 240,140 L173,140 L173,76 L190,76 M33,-24 Q34,15 34,62 L34,96 Q22,83 9,72 L6,75 Q32,128 44,173 Q50,196 51,208 L96,196 Q101,196 101,192 Q101,187 88,184 Q76,159 66,140 L73,139 Q78,139 79,135 Q79,131 69,126 L69,-12 Q70,-20 62,-22 Q48,-24 33,-24 M150,151 Q136,151 135,163 Q133,183 122,202 L123,204 Q177,196 176,174 Q173,153 150,151"/> 
            <glyph glyph-name="体" unicode="&#x4F53;" horiz-adv-x="254" d=" M132,-24 Q133,-2 133,26 L95,26 L95,32 L133,32 L133,61 L133,87 Q109,51 67,24 L67,-12 Q68,-20 59,-22 Q45,-24 31,-24 Q32,18 32,62 L32,97 Q20,84 7,73 L4,76 Q29,126 41,172 Q41,174 42,177 Q46,192 48,208 L95,196 Q99,196 99,192 Q99,187 87,184 Q76,159 64,140 L71,138 Q76,137 76,135 Q76,131 67,126 L67,32 Q107,89 120,140 L77,140 L77,146 L133,146 L133,151 Q133,182 132,204 L172,201 Q180,201 180,197 Q180,193 170,187 L170,146 L197,146 L213,169 L245,147 Q249,144 247,142 Q246,140 240,140 L178,140 Q203,91 254,67 L252,62 Q236,57 221,28 Q177,70 172,140 L170,140 L170,66 Q170,55 170,32 L175,32 L189,51 L213,33 Q217,31 215,28 Q213,26 208,26 L170,26 Q170,20 170,8 Q171,-6 171,-14 Q171,-21 165,-22 Q145,-24 132,-24"/> 
            <glyph glyph-name="你" unicode="&#x4F60;" horiz-adv-x="252" d=" M79,4 L75,7 Q99,67 102,103 L142,92 Q146,92 146,88 Q146,100 145,138 L186,135 Q193,134 193,131 Q191,124 182,120 L182,60 Q182,56 182,45 Q183,21 183,4 Q188,-21 133,-25 Q133,0 102,8 L103,12 L134,11 Q147,10 146,24 L146,87 Q146,83 135,80 Q120,41 79,4 M33,-23 Q34,18 34,62 L34,98 Q22,85 8,74 L5,76 Q44,152 49,207 L95,197 Q101,197 100,194 Q100,188 87,183 Q79,162 67,143 L75,142 Q81,141 80,138 Q81,133 69,127 L69,-12 Q70,-20 60,-22 Q54,-23 33,-23 M87,90 L82,93 Q102,137 109,174 Q113,194 113,207 L159,199 Q165,199 165,195 Q166,189 151,185 Q151,184 150,182 Q144,169 137,156 L198,156 L211,175 L247,153 Q251,150 251,147 Q252,141 239,141 Q218,123 200,112 L196,115 L202,150 L134,150 Q117,118 87,90 M225,11 Q212,10 210,24 Q200,71 184,101 L187,102 Q248,69 248,38 Q246,14 225,11"/> 
            <glyph glyph-name="元" unicode="&#x5143;" horiz-adv-x="251" d=" M7,-26 L6,-22 Q46,4 57,29 Q70,55 70,110 L12,110 L12,116 L193,116 L211,142 L245,117 Q249,114 247,112 Q246,110 240,110 L174,110 L174,27 Q173,15 184,16 L200,16 Q211,15 215,29 L230,71 L234,71 L236,35 Q237,23 242,19 Q251,14 250,6 Q248,-16 213,-17 L168,-17 Q136,-17 137,12 L137,110 L110,110 Q109,45 89,20 Q70,-6 7,-26 M188,206 L219,184 Q223,182 221,179 Q220,177 214,177 L39,177 L39,183 L172,183"/> 
            <glyph glyph-name="八" unicode="&#x516B;" horiz-adv-x="250" d=" M200,-22 Q144,52 140,176 Q140,186 134,200 L161,197 Q167,196 167,192 Q169,189 153,181 Q165,67 250,16 L248,12 Q223,9 200,-22 M10,-28 L7,-25 Q63,41 69,133 Q72,159 70,181 L123,173 Q128,173 128,168 Q129,162 114,156 Q107,18 10,-28"/> 
            <glyph glyph-name="内" unicode="&#x5185;" horiz-adv-x="243" d=" M24,-24 Q25,27 26,68 L26,117 Q26,124 26,143 Q25,162 25,170 L71,155 L107,155 L107,161 L107,167 Q107,196 106,205 L152,202 Q158,201 157,198 Q157,193 145,187 L145,179 Q145,167 144,155 L188,155 L199,176 L238,160 Q242,159 242,156 Q243,151 231,143 L231,89 Q231,79 231,54 Q232,24 232,10 Q234,-18 178,-24 Q180,0 139,12 L140,17 L183,15 Q194,15 194,27 L194,63 Q191,42 170,40 Q160,41 157,50 Q150,78 136,99 Q123,56 68,26 L63,29 Q109,81 107,149 L63,149 L63,-13 Q63,-21 56,-22 Q39,-24 24,-24 M194,149 L144,149 Q143,125 138,107 Q195,90 194,66"/> 
            <glyph glyph-name="到" unicode="&#x5230;" horiz-adv-x="249" d=" M188,-24 Q190,0 153,10 L154,14 L190,13 Q202,11 201,24 L201,153 Q201,193 200,205 L240,201 Q248,201 248,198 Q249,192 237,187 L237,107 Q237,34 238,6 Q240,-19 188,-24 M120,89 L148,69 Q152,67 150,64 Q148,62 142,62 L99,62 L99,28 Q122,29 105,28 Q122,29 150,32 L151,27 Q86,2 33,-7 Q30,-20 24,-20 Q21,-20 19,-15 L8,24 Q30,24 63,25 L63,59 L63,62 L18,62 L18,68 L63,68 L62,104 L105,100 Q110,100 110,97 Q109,91 99,87 L99,68 L105,68 M126,100 Q118,100 115,110 L112,122 Q83,109 42,102 Q38,88 33,90 Q29,89 28,94 L16,130 Q33,132 38,143 Q47,160 52,179 L14,179 L14,186 L104,186 L119,207 L151,186 Q155,184 153,181 Q151,179 145,179 L99,179 Q81,155 52,131 L108,133 Q102,145 92,159 L94,162 Q148,144 148,123 Q146,102 126,100 M153,33 Q154,74 154,93 L154,136 Q154,150 154,177 L189,174 Q196,174 197,170 Q197,165 187,160 L187,45 Q187,36 178,35 Q162,33 153,33"/> 
            <glyph glyph-name="升" unicode="&#x5347;" horiz-adv-x="253" d=" M15,143 L13,147 Q83,184 101,206 L139,184 Q144,181 144,177 Q143,172 136,172 Q132,172 128,173 Q115,167 100,162 L100,113 Q100,112 100,108 Q99,105 99,103 L151,103 L151,148 Q151,180 150,203 L197,200 Q201,199 201,196 Q201,191 189,185 L189,103 L197,103 L215,129 L249,104 Q253,102 251,99 Q249,97 243,97 L189,97 L189,62 Q189,58 189,31 Q190,-4 190,-12 Q190,-17 186,-18 Q168,-22 150,-22 Q150,-14 151,25 Q151,57 151,62 L151,97 L99,97 Q95,12 9,-26 L8,-23 Q59,27 60,97 L7,97 L7,103 L61,103 Q61,108 61,113 L61,151 Q40,146 15,143"/> 
            <glyph glyph-name="单" unicode="&#x5355;" horiz-adv-x="252" d=" M181,61 L181,71 L145,71 L145,48 L145,36 L198,36 L216,61 L248,38 Q252,35 250,32 Q249,30 243,30 L145,30 L146,-16 Q146,-22 142,-23 Q118,-25 106,-25 Q106,-9 108,30 L9,30 L9,36 L108,36 L108,46 L108,71 L71,71 L71,67 Q71,61 67,60 Q51,57 35,57 Q35,66 36,92 Q36,110 36,115 L36,133 Q36,138 36,151 Q35,166 35,172 L75,160 L137,160 Q145,190 146,209 L188,197 Q192,197 192,193 Q191,186 179,186 Q167,171 152,160 L177,160 L187,178 L223,164 Q227,162 227,159 Q227,155 217,147 L217,129 Q217,88 218,70 Q218,66 214,64 Q202,61 181,61 M93,162 Q83,162 82,170 Q78,189 68,205 L70,206 Q118,201 117,182 Q114,164 93,162 M145,113 L145,78 L181,78 L181,113 M71,113 L71,78 L108,78 L108,113 M181,154 L145,154 L145,119 L181,119 M71,154 L71,119 L108,119 L108,154"/> 
            <glyph glyph-name="厅" unicode="&#x5385;" horiz-adv-x="252" d=" M212,204 L246,180 Q250,178 249,175 Q247,173 241,173 L72,173 L72,110 Q76,12 9,-29 L6,-27 Q23,7 28,36 Q34,66 34,115 L34,135 Q34,149 32,191 L76,179 L194,179 M131,-24 Q133,3 89,12 L90,16 L131,15 Q143,15 143,28 L143,112 L77,112 L77,119 L196,119 L214,144 L248,120 Q252,117 250,114 Q249,112 243,112 L181,112 L181,85 Q181,70 182,38 Q182,14 182,5 Q184,-20 131,-24"/> 
            <glyph glyph-name="发" unicode="&#x53D1;" horiz-adv-x="251" d=" M9,-16 L7,-12 Q67,53 84,130 L61,130 L49,116 Q30,126 19,134 Q15,137 20,140 Q26,143 28,150 Q34,173 36,190 L74,184 Q79,182 79,179 Q79,174 69,172 Q68,167 64,154 Q61,142 59,136 L86,136 Q89,153 92,169 Q94,180 94,205 L141,199 Q147,199 147,195 Q147,188 134,185 Q130,158 124,136 L196,136 L215,160 L247,138 Q247,137 248,136 Q249,135 249,134 Q248,130 240,130 L123,130 Q121,119 113,99 Q112,95 111,93 L170,93 L185,112 L223,90 Q229,88 228,84 Q226,77 213,74 Q200,49 182,31 Q215,21 251,18 L250,14 Q229,7 218,-25 Q173,-9 151,7 Q114,-12 45,-24 L42,-20 Q108,7 130,28 Q118,45 106,82 Q80,23 9,-16 M188,149 Q176,148 174,159 Q166,182 155,193 L157,195 Q209,191 209,170 Q207,152 188,149 M175,87 L112,87 Q128,62 150,47 Q168,70 175,87"/> 
            <glyph glyph-name="受" unicode="&#x53D7;" horiz-adv-x="249" d=" M26,73 Q11,74 9,92 Q8,104 19,109 Q35,120 40,135 L43,135 Q46,130 50,121 Q51,119 51,118 L157,118 Q166,146 167,170 L210,158 Q215,157 215,153 Q215,148 202,146 Q186,130 170,118 L193,118 L208,136 L242,112 Q246,110 246,108 Q247,102 233,101 Q218,93 199,87 L208,81 Q212,79 212,76 Q212,70 197,66 Q183,45 165,30 Q200,24 249,23 L248,17 Q228,11 217,-23 Q161,-12 128,4 Q87,-15 11,-25 L10,-22 Q77,4 103,22 Q82,41 66,79 L47,79 L47,86 L156,86 L172,103 L191,91 L197,112 L52,112 Q52,108 52,105 Q50,76 26,73 M27,167 L26,173 Q138,187 191,207 L224,180 Q228,178 228,175 Q227,170 223,170 Q219,170 208,174 Q168,170 129,168 Q92,167 27,167 M160,79 L75,79 Q99,53 127,41 Q144,57 160,79 M126,123 Q114,123 113,133 Q111,152 105,165 L106,166 Q148,159 147,143 Q144,125 126,123 M74,120 Q64,120 62,130 Q61,148 54,162 L55,163 Q96,155 94,139 Q92,122 74,120"/> 
            <glyph glyph-name="变" unicode="&#x53D8;" horiz-adv-x="247" d=" M213,-25 Q157,-15 128,2 Q90,-17 18,-26 L17,-22 Q77,1 104,21 Q88,38 73,73 L51,73 L51,79 L153,79 L166,94 Q165,93 163,93 Q152,90 135,90 L135,167 L116,167 L116,100 Q116,92 109,91 Q91,89 81,89 Q81,111 82,125 Q55,94 9,69 L7,72 Q43,124 52,157 L82,140 L82,150 L82,167 L16,167 L16,173 L113,173 Q111,175 111,179 Q110,180 110,181 Q109,196 102,206 L103,207 Q148,207 149,189 Q148,177 139,173 L199,173 L214,194 L243,174 Q247,171 245,169 Q244,167 238,167 L171,167 L171,161 L171,147 L172,149 Q239,134 238,110 Q236,89 216,86 Q207,86 203,95 Q191,125 171,145 Q171,125 171,104 Q171,99 169,96 L204,75 Q207,73 207,70 Q207,64 191,60 Q178,42 163,27 Q193,20 245,17 L244,13 Q224,7 213,-25 M156,73 L81,73 Q105,50 127,40 Q142,55 156,73"/> 
            <glyph glyph-name="可" unicode="&#x53EF;" horiz-adv-x="250" d=" M106,37 L106,56 L72,56 L72,38 Q72,32 67,31 Q45,27 32,27 Q34,61 34,74 L34,115 Q34,141 33,151 L80,139 L102,139 L113,159 L152,143 Q156,141 156,138 Q157,134 145,125 L145,104 Q145,80 146,46 Q146,42 141,40 Q127,37 106,37 M157,-24 Q154,-6 146,0 Q139,6 109,15 L110,19 L158,18 Q176,18 175,33 L175,177 L11,177 L11,184 L189,184 L208,211 L246,186 Q250,183 248,180 Q246,177 239,177 L215,177 L215,86 Q215,42 217,14 Q217,-16 157,-24 M106,133 L72,133 L72,62 L106,62"/> 
            <glyph glyph-name="同" unicode="&#x540C;" horiz-adv-x="242" d=" M22,-24 Q22,-17 22,-3 Q24,62 24,82 L24,136 Q24,137 24,146 Q23,181 23,194 L62,185 L189,185 L200,205 L238,189 Q242,188 242,185 Q242,179 231,172 L231,111 Q231,100 233,12 Q237,-19 180,-24 Q183,1 143,11 L144,16 L181,15 Q196,14 195,27 L195,179 L60,179 L60,-13 Q60,-19 55,-20 Q41,-24 22,-24 M77,17 Q78,38 78,58 L78,85 Q78,87 78,95 Q77,111 77,118 L118,110 L138,110 L148,129 L183,115 Q186,113 186,110 Q186,104 177,97 L177,79 Q177,74 177,38 Q178,31 171,30 Q159,27 143,27 L143,44 L112,44 L112,29 Q113,21 104,20 Q91,17 77,17 M143,104 L112,104 L112,50 L143,50 M159,170 L191,148 Q195,146 193,143 Q191,141 185,141 L68,141 L68,147 L143,147"/> 
            <glyph glyph-name="听" unicode="&#x542C;" horiz-adv-x="254" d=" M180,-22 Q181,7 182,57 L182,104 L152,104 Q154,16 73,-25 L70,-21 Q97,10 106,38 Q115,64 115,109 L115,141 Q115,165 114,186 L154,176 Q184,188 206,207 L240,182 Q244,179 244,177 Q244,171 237,171 Q232,171 226,173 Q194,166 152,163 L152,123 Q152,117 152,110 L205,110 L221,133 L251,110 Q254,108 253,106 Q251,104 247,104 L218,104 L218,57 Q218,25 218,-12 Q218,-17 214,-18 Q198,-22 180,-22 M65,32 L65,54 L51,54 L51,35 Q52,30 43,27 Q31,24 15,24 Q16,50 16,106 L16,144 Q16,166 16,186 L56,176 L61,176 L71,194 L106,178 Q110,176 110,174 Q111,169 99,161 L99,123 Q99,68 100,42 Q100,38 93,36 Q88,35 73,33 Q67,32 65,32 M65,170 L51,170 L51,60 L65,60"/> 
            <glyph glyph-name="启" unicode="&#x542F;" horiz-adv-x="244" d=" M76,-24 Q77,0 77,27 L77,63 Q66,19 14,-19 L10,-16 Q31,18 38,47 Q45,76 45,128 L45,139 Q45,171 44,179 L92,168 L126,168 Q119,170 118,179 Q114,198 108,206 L109,208 Q159,209 159,187 Q158,172 142,168 L181,168 L192,189 L231,173 Q236,171 236,168 Q236,162 225,155 L225,152 Q225,150 225,141 Q226,119 226,108 Q226,101 218,100 Q202,97 185,97 L185,109 L84,109 Q84,94 81,81 L122,72 L189,72 L200,92 L240,75 Q244,73 244,70 Q244,64 232,56 L232,33 Q232,7 233,-13 Q233,-20 227,-21 Q211,-23 193,-24 L193,-2 L116,-2 L116,-13 Q116,-21 106,-22 Q90,-24 76,-24 M193,66 L116,66 L116,3 L193,3 M85,134 Q85,124 84,115 L185,115 L185,162 L85,162"/> 
            <glyph glyph-name="响" unicode="&#x54CD;" horiz-adv-x="250" d=" M90,-24 Q92,45 92,68 L92,168 L130,158 L134,158 Q136,187 134,206 L178,200 Q184,199 183,196 Q184,192 172,187 Q161,171 147,158 L198,158 L210,178 L245,163 Q249,162 249,159 Q250,154 238,146 L238,88 Q238,48 239,6 Q240,-18 189,-24 Q191,1 156,9 L156,13 L191,12 Q206,11 205,26 L205,152 L125,152 L125,-13 Q126,-21 117,-22 Q107,-24 90,-24 M53,33 L53,51 L40,51 L40,34 Q41,27 32,25 Q29,24 19,23 Q12,22 9,22 Q9,39 10,73 Q10,94 10,100 L10,131 Q10,158 9,172 L42,164 L50,164 L59,180 L87,167 Q91,166 90,163 Q91,160 82,153 L82,45 Q83,37 78,37 Q72,35 58,34 Q55,33 53,33 M170,31 L170,50 L159,50 L159,36 Q159,29 153,29 Q143,27 133,27 L133,131 L164,122 L166,122 L174,137 L200,125 Q204,124 204,121 Q204,118 196,111 L196,43 Q196,36 190,34 Q183,33 170,31 M53,158 L40,158 L40,57 L53,57 M170,116 L159,116 L159,56 L170,56"/> 
            <glyph glyph-name="喜" unicode="&#x559C;" horiz-adv-x="251" d=" M43,80 Q44,89 44,106 L44,112 Q44,124 44,135 L88,126 L162,126 L172,143 L210,129 Q216,127 215,124 Q215,119 205,113 L205,110 Q205,97 206,93 Q206,87 199,84 Q198,84 196,83 Q182,81 175,81 L185,78 Q192,77 191,73 Q191,67 179,67 Q172,62 157,56 L196,56 L214,81 L248,57 Q251,55 250,52 Q248,50 243,50 L7,50 L7,56 L78,56 Q75,59 74,63 Q73,73 68,81 Q60,80 43,80 M40,-24 Q40,-19 40,-8 Q41,3 41,9 L41,15 Q41,34 40,40 L86,32 L165,32 L176,49 L216,34 Q220,32 220,30 Q221,25 210,18 L210,15 Q210,11 211,-11 Q211,-17 205,-20 Q198,-22 176,-23 Q172,-24 170,-24 L170,-8 L81,-8 L81,-13 Q81,-22 72,-23 Q62,-24 40,-24 M205,201 L237,178 Q240,176 239,174 Q237,172 232,172 L144,172 L144,149 L180,149 L196,171 L227,150 Q230,147 229,145 Q227,143 222,143 L28,143 L28,149 L104,149 L104,168 L104,172 L14,172 L14,177 L104,177 Q104,197 103,206 L150,202 Q156,202 156,199 Q156,194 144,188 L144,177 L188,177 M170,26 L81,26 L81,-2 L170,-2 M166,120 L82,120 L82,94 L166,94 M82,89 Q82,88 81,86 Q81,85 81,85 Q110,84 110,70 Q109,61 100,56 L140,56 Q143,72 145,87 L166,83 L166,89"/> 
            <glyph glyph-name="器" unicode="&#x5668;" horiz-adv-x="253" d=" M27,118 Q28,147 28,161 L28,194 L66,185 L79,185 L89,202 L120,188 Q124,187 124,184 Q124,178 115,173 L115,166 Q115,156 115,137 Q115,133 114,130 L144,123 Q148,122 148,119 Q148,114 135,111 Q132,105 129,101 L172,101 Q169,102 168,108 Q167,118 161,126 L162,128 Q198,128 197,114 Q197,105 187,101 L202,101 L218,123 L248,102 Q252,100 250,97 Q249,95 243,95 L149,95 Q185,74 253,76 L252,72 Q240,66 235,38 L228,39 L225,35 L225,19 Q225,2 226,-9 Q226,-16 220,-17 Q213,-19 199,-20 Q194,-21 192,-21 L192,-4 L166,-4 L166,-10 Q167,-19 159,-19 Q154,-20 143,-21 Q137,-22 134,-22 Q134,2 134,19 L134,56 L173,46 L189,46 L190,49 Q157,63 141,95 L125,95 Q102,62 58,49 L66,46 L83,46 L93,62 L122,50 Q127,48 127,45 Q128,42 118,34 L118,17 Q118,13 118,6 Q119,-5 119,-12 Q120,-19 113,-20 Q101,-23 86,-23 L86,-4 L61,-4 L61,-12 Q61,-21 51,-22 Q35,-24 27,-24 Q28,-4 28,17 L28,40 L8,37 L7,41 Q62,70 80,95 L9,95 L9,101 L85,101 L88,105 Q94,115 98,127 Q91,126 83,126 L83,136 L61,136 L61,130 Q62,121 53,120 Q37,118 27,118 M193,125 L193,136 L167,136 Q168,130 160,129 Q150,126 135,126 Q135,149 135,167 L135,194 L173,185 L190,185 L200,201 L230,189 Q235,187 235,185 Q236,181 226,173 L226,166 Q226,155 227,137 Q228,130 221,129 Q208,126 193,125 M192,40 L166,40 L166,1 L192,1 M86,40 L61,40 L61,1 L86,1 M193,179 L167,179 L167,143 L193,143 M83,179 L61,179 L61,143 L83,143"/> 
            <glyph glyph-name="四" unicode="&#x56DB;" horiz-adv-x="243" d=" M24,-21 Q25,3 25,86 L25,124 Q25,155 24,189 L67,176 L190,176 L202,197 L239,180 Q243,178 243,176 Q243,169 231,162 L231,118 Q231,61 233,-5 Q233,-15 229,-16 Q209,-20 196,-20 L196,2 L60,2 L60,-10 Q60,-17 54,-18 Q40,-21 24,-21 M166,50 Q140,50 140,74 L140,170 L115,170 L115,134 Q119,64 60,30 L60,8 L196,8 L196,52 Q188,50 176,50 M60,39 Q85,81 83,133 L83,170 L60,170 M196,170 L173,170 L173,86 Q173,78 178,78 Q180,78 182,80 Q184,84 189,81 Q190,80 193,78 Q195,76 196,75"/> 
            <glyph glyph-name="团" unicode="&#x56E2;" horiz-adv-x="243" d=" M196,-24 L196,-3 L60,-3 L60,-13 Q61,-21 52,-22 Q40,-23 22,-23 Q24,27 24,80 L24,141 Q24,178 23,196 L69,186 L191,186 L202,206 L240,191 Q243,190 243,187 Q243,181 233,174 L233,111 Q233,53 234,-12 Q234,-21 228,-21 Q216,-24 196,-24 M118,9 Q118,33 87,42 L88,47 L116,46 Q128,44 127,56 L127,95 Q106,61 60,37 L60,1 L196,1 L196,122 Q195,120 190,120 L161,120 L161,102 Q161,97 161,83 Q162,58 162,43 Q165,16 118,9 M173,144 L195,127 L196,126 L196,180 L60,180 L60,45 Q89,79 103,120 L63,120 L63,126 L127,126 L127,130 Q127,138 126,172 L167,169 Q172,168 172,165 Q173,161 161,155 L161,127"/> 
            <glyph glyph-name="在" unicode="&#x5728;" horiz-adv-x="252" d=" M43,-24 Q45,-1 45,61 L45,66 Q27,51 5,39 L3,42 Q31,75 45,97 L45,116 L56,115 Q69,137 78,158 L13,158 L13,164 L80,164 L83,173 Q88,188 90,205 L137,194 Q142,192 142,190 Q142,184 127,181 Q124,173 120,164 L195,164 L213,190 L247,166 Q251,163 249,160 Q248,158 242,158 L117,158 Q104,130 82,101 L82,-12 Q82,-21 73,-22 Q55,-24 43,-24 M214,22 L248,-1 Q252,-4 250,-6 Q248,-8 242,-8 L84,-8 L84,-2 L138,-2 L138,78 L92,78 L92,84 L138,84 L138,93 Q138,122 137,144 L182,141 Q188,141 187,138 Q188,132 176,126 L176,84 L191,84 L208,107 L238,86 Q242,83 240,80 Q238,78 232,78 L176,78 L176,-2 L195,-2"/> 
            <glyph glyph-name="场" unicode="&#x573A;" horiz-adv-x="250" d=" M180,-24 Q182,1 154,9 Q129,-9 91,-27 L89,-23 Q160,35 167,107 L159,107 Q146,36 65,0 L63,2 Q113,52 124,98 L116,92 Q111,89 108,92 Q99,101 89,113 Q86,119 92,119 Q103,120 111,127 L166,183 L93,183 L93,189 L165,189 L181,206 L216,185 Q220,183 220,179 Q222,173 205,171 L143,113 L200,113 L212,133 L246,118 Q250,116 250,113 Q250,107 240,100 Q240,61 237,24 Q240,-20 180,-24 M21,3 Q17,3 16,8 L4,54 Q10,54 20,55 Q31,55 37,56 L37,131 L9,131 L9,137 L37,137 L37,154 Q37,165 36,182 Q36,197 36,206 L77,202 Q82,202 82,199 Q82,194 71,189 L71,137 L72,137 L83,155 L105,138 Q108,136 107,133 Q105,131 100,131 L71,131 L71,60 Q76,61 88,63 Q97,64 102,65 L104,61 Q68,34 28,15 Q28,4 21,3 M201,107 Q192,43 158,14 L183,12 Q200,11 200,26 Q205,66 205,107"/> 
            <glyph glyph-name="声" unicode="&#x58F0;" horiz-adv-x="251" d=" M7,-25 L6,-25 Q36,11 35,79 L35,85 Q35,112 34,120 L77,110 L179,110 L189,128 L228,113 Q232,112 232,109 Q232,104 221,96 L221,84 Q221,71 221,42 Q221,38 218,37 Q199,34 184,33 L184,51 L71,51 Q64,3 7,-25 M207,159 L237,139 Q241,136 239,134 Q237,132 231,132 L33,132 L33,138 L109,138 L109,161 Q109,163 109,168 L15,168 L15,175 L108,175 Q108,182 107,197 Q107,203 107,205 L155,202 Q161,202 160,199 Q159,191 148,188 L148,175 L201,175 L217,197 L248,175 Q251,173 250,170 Q248,168 243,168 L148,168 L148,138 L192,138 M184,104 L146,104 L146,57 L184,57 M73,78 Q73,66 72,57 L110,57 L110,104 L73,104"/> 
            <glyph glyph-name="大" unicode="&#x5927;" horiz-adv-x="253" d=" M205,-24 Q145,26 141,123 L140,123 Q134,10 7,-26 L5,-22 Q94,34 99,123 L11,123 L11,130 L100,130 Q101,145 101,162 Q101,197 100,205 L150,201 Q156,201 155,198 Q155,192 142,186 L142,173 Q142,149 140,130 L191,130 L211,157 L244,132 Q249,129 247,126 Q245,123 238,123 L149,123 Q173,51 253,19 L251,14 Q223,10 205,-24"/> 
            <glyph glyph-name="天" unicode="&#x5929;" horiz-adv-x="249" d=" M189,206 L221,184 Q226,182 224,179 Q222,177 216,177 L140,177 L140,145 Q140,125 138,108 L189,108 L208,134 L244,109 Q248,106 247,104 Q245,102 239,102 L146,102 Q174,45 249,24 L248,19 Q225,13 208,-22 Q145,13 138,102 L137,102 Q125,15 10,-26 L6,-22 Q87,36 96,102 L9,102 L9,108 L97,108 Q100,126 100,149 L100,177 L29,177 L29,183 L173,183"/> 
            <glyph glyph-name="奇" unicode="&#x5947;" horiz-adv-x="253" d=" M112,8 L112,19 L71,19 L71,8 Q71,3 65,1 Q51,-1 36,-1 Q36,3 37,18 Q37,33 37,38 L37,60 Q37,73 37,85 L78,77 L107,77 L117,94 L152,81 Q155,80 155,77 Q154,71 146,65 L146,47 Q146,34 146,17 Q146,14 144,12 Q137,10 117,9 Q114,8 112,8 M164,-24 Q164,0 130,4 L131,8 L164,7 Q174,7 174,17 L174,100 L8,100 L8,106 L199,106 L216,130 L249,107 Q253,105 251,102 Q250,100 244,100 L209,100 L209,77 Q209,51 211,9 Q215,-19 164,-24 M188,111 Q180,111 174,117 Q151,139 124,150 Q103,116 24,110 L23,114 Q81,133 93,165 L22,165 L22,172 L96,172 Q100,186 100,205 L143,199 Q149,199 148,196 Q149,191 137,187 Q136,178 134,172 L186,172 L202,193 L232,173 Q236,170 234,167 Q232,165 226,165 L132,165 Q131,164 130,160 Q128,157 127,155 Q207,150 204,130 Q203,112 188,111 M112,71 L71,71 L71,26 L112,26"/> 
            <glyph glyph-name="好" unicode="&#x597D;" horiz-adv-x="255" d=" M144,-24 Q144,1 114,8 Q108,-1 98,-1 Q90,-1 86,5 Q80,14 74,21 Q55,-3 9,-28 L7,-25 Q39,8 54,41 Q39,53 14,66 Q15,73 19,91 Q26,124 29,143 L7,143 L7,149 L30,149 L32,162 Q36,190 36,205 L78,199 Q82,199 82,195 Q81,189 70,185 Q69,179 67,167 Q64,155 63,149 L75,149 L86,168 L118,152 Q124,150 123,147 Q123,142 111,135 Q105,81 91,51 Q119,39 118,22 Q118,17 116,12 L143,12 Q154,9 153,25 L153,90 L106,90 L106,96 L153,96 L153,101 Q153,125 152,145 L176,142 L196,182 L110,182 L110,188 L193,188 L208,207 L246,183 Q249,181 249,178 Q250,173 235,171 Q217,156 191,141 L198,140 Q204,140 204,137 Q204,131 191,124 L191,96 L203,96 L220,120 L251,97 Q255,95 253,92 Q252,90 246,90 L191,90 L191,60 Q191,28 192,5 Q194,-20 144,-24 M46,64 Q50,62 60,60 Q61,60 62,60 Q74,94 78,143 L62,143 Q58,121 50,81 Q47,70 46,64"/> 
            <glyph glyph-name="娱" unicode="&#x5A31;" horiz-adv-x="254" d=" M8,-21 L6,-17 Q32,7 45,39 Q35,47 10,61 Q19,102 23,139 L7,139 L7,145 L24,145 Q29,183 29,205 L69,198 Q74,197 74,194 Q75,189 63,185 Q62,181 61,172 Q58,154 56,145 L62,145 L71,162 L102,148 Q106,146 106,143 Q106,138 97,133 Q89,72 77,46 Q101,35 101,22 Q100,3 83,0 Q76,0 71,8 Q67,16 62,20 Q46,0 8,-21 M221,82 L246,63 Q250,61 248,58 Q247,56 241,56 L186,56 Q208,25 254,15 L253,12 Q233,6 223,-24 Q185,2 178,56 Q167,-2 70,-23 L68,-19 Q129,11 140,56 L90,56 L90,62 L141,62 Q145,77 145,98 L106,98 L106,104 L198,104 L211,122 L236,104 Q240,102 239,100 Q237,98 232,98 L182,98 Q182,78 179,62 L207,62 M189,120 L189,133 L141,133 L141,126 Q141,120 135,119 Q120,116 106,116 Q107,132 107,154 L107,167 Q107,174 106,198 L146,189 L184,189 L194,206 L227,193 Q232,191 232,188 Q232,183 223,178 L223,169 Q223,152 224,131 Q225,127 219,125 Q204,120 189,120 M189,183 L141,183 L141,139 L189,139 M39,58 L51,55 Q60,83 66,139 L55,139 Q48,89 39,58"/> 
            <glyph glyph-name="它" unicode="&#x5B83;" horiz-adv-x="251" d=" M87,-18 Q58,-18 58,9 L58,90 Q58,118 57,139 L105,135 Q109,135 109,132 Q110,127 98,121 L98,70 Q155,101 177,128 L211,100 Q217,96 216,93 Q216,85 199,89 Q150,69 98,58 L98,26 Q98,13 106,14 L178,14 Q193,13 199,30 L217,74 L221,73 L222,37 Q223,24 231,18 Q241,12 240,3 Q237,-17 188,-18 M27,114 Q12,115 10,132 Q9,143 20,149 Q36,159 40,181 L42,181 Q48,171 50,162 L118,162 Q111,165 109,174 Q105,195 98,203 L100,205 Q153,207 152,184 Q151,168 132,162 L194,162 L209,181 L247,155 Q251,153 251,150 Q250,143 234,144 Q216,131 195,122 L191,124 L199,156 L52,156 Q52,154 53,150 Q53,146 53,145 Q52,116 27,114"/> 
            <glyph glyph-name="完" unicode="&#x5B8C;" horiz-adv-x="248" d=" M9,-26 L7,-22 Q75,11 71,82 L15,82 L15,88 L190,88 L207,112 L241,89 Q245,87 243,84 Q241,82 236,82 L168,82 L168,25 Q168,14 176,14 L198,14 Q209,13 212,24 L227,61 L231,60 L232,30 Q232,21 237,17 Q246,12 246,3 Q243,-18 207,-19 L162,-19 Q131,-20 133,8 L133,82 L110,82 Q117,-8 9,-26 M29,122 Q11,123 10,142 Q10,153 19,158 Q36,169 41,187 L44,187 Q50,177 53,169 L112,169 Q108,171 106,178 Q104,191 95,204 L97,206 Q150,207 148,187 Q147,174 132,169 L193,169 L210,188 L245,162 Q248,159 248,156 Q247,150 234,150 Q221,143 197,135 L206,129 Q210,127 209,125 Q207,123 202,123 L52,123 L52,129 L158,129 L174,151 L190,140 L197,163 L55,163 Q56,158 56,152 Q54,125 29,122"/> 
            <glyph glyph-name="客" unicode="&#x5BA2;" horiz-adv-x="249" d=" M31,131 Q15,132 14,150 Q14,162 25,167 Q42,177 45,193 L48,193 Q53,182 55,175 L114,175 Q111,178 110,185 Q106,200 99,208 L101,210 Q148,211 148,192 Q148,182 137,175 L193,175 L205,193 L245,169 Q248,167 248,165 Q249,158 234,158 Q209,145 195,142 L205,136 Q209,133 209,130 Q208,123 192,121 Q179,108 165,97 Q202,91 249,92 L248,88 Q233,79 227,51 Q200,54 179,59 L207,49 Q211,47 211,45 Q212,40 201,33 L201,28 Q201,14 201,-15 Q201,-21 195,-22 Q187,-23 163,-23 L163,-8 L93,-8 L93,-14 Q94,-21 87,-22 Q67,-24 55,-24 Q56,-6 56,24 L56,53 Q37,48 13,45 L11,49 Q68,68 107,93 Q97,103 88,118 Q66,97 27,80 L25,83 Q51,110 73,147 Q79,160 82,169 L56,169 Q56,168 57,165 Q57,163 57,161 Q56,133 31,131 M163,42 L93,42 L93,-2 L163,-2 M196,169 L84,169 L122,158 Q128,156 127,153 Q127,147 114,145 L111,142 L152,142 L168,159 L191,145 M130,76 Q107,65 65,55 L101,48 L158,48 L167,61 Q140,70 130,76 M155,135 L106,135 Q105,134 102,130 Q99,127 97,125 Q111,115 127,108 Q142,120 155,135"/> 
            <glyph glyph-name="家" unicode="&#x5BB6;" horiz-adv-x="250" d=" M209,-11 Q174,17 166,72 Q158,70 150,67 Q155,53 155,35 Q158,-20 98,-25 Q98,0 65,9 L65,10 Q53,5 26,-1 Q14,-4 8,-6 L7,-2 Q74,32 117,75 L116,80 Q71,52 10,35 L9,39 Q64,69 103,107 Q102,108 102,108 Q64,87 12,77 L11,80 Q65,109 87,133 L48,133 L48,139 L168,139 L183,159 L194,152 L199,166 L51,166 Q51,165 52,162 Q52,159 52,157 Q50,129 26,126 Q10,127 9,143 Q8,155 18,161 Q36,173 41,190 L43,190 Q47,181 50,172 L110,172 Q109,175 107,179 Q105,192 98,205 L99,207 Q145,207 145,187 Q145,178 136,172 L195,172 L209,192 L244,170 Q250,166 249,163 Q248,156 233,157 Q220,150 202,145 L211,139 Q215,137 213,135 Q212,133 206,133 L139,133 Q125,122 110,113 Q137,96 146,77 Q178,102 195,127 L227,101 Q231,99 231,96 Q232,90 214,92 Q195,83 175,76 Q199,39 246,25 L244,20 Q224,16 209,-11 M120,38 Q96,23 71,13 L96,12 Q121,10 120,36"/> 
            <glyph glyph-name="容" unicode="&#x5BB9;" horiz-adv-x="249" d=" M224,39 Q217,41 209,44 Q207,41 201,38 L201,33 Q201,14 202,-12 Q202,-19 197,-20 Q179,-24 162,-24 L162,-6 L90,-6 L90,-10 Q91,-21 82,-22 Q62,-24 50,-24 Q51,-7 51,23 L51,45 Q41,41 18,34 Q12,32 9,31 L7,34 Q64,73 90,104 Q102,118 107,129 L150,116 Q154,115 154,112 Q155,107 143,105 Q184,86 249,83 L248,79 Q230,70 224,39 M96,209 L97,211 Q147,210 146,189 Q145,177 133,172 L189,172 L204,193 L240,170 Q241,170 242,169 Q246,166 246,163 Q245,157 231,157 Q230,156 227,155 Q207,144 195,141 Q221,132 221,116 Q219,99 204,96 Q193,95 185,107 Q166,130 136,150 L137,153 Q167,149 185,144 L193,166 L54,166 Q55,160 55,154 Q53,127 31,125 Q14,126 13,145 Q12,156 24,164 Q39,173 41,191 L44,191 Q50,181 52,172 L111,172 Q106,175 106,181 Q104,197 96,209 M162,45 L90,45 L90,0 L162,0 M23,79 L21,82 Q65,124 78,159 L119,144 Q122,142 122,140 Q123,133 108,133 Q78,103 23,79 M95,51 L157,51 L166,67 Q148,80 134,99 Q111,74 77,56"/> 
            <glyph glyph-name="小" unicode="&#x5C0F;" horiz-adv-x="249" d=" M97,-24 Q100,2 52,16 L52,20 L100,18 Q111,18 111,30 L111,133 Q111,171 110,205 L158,201 Q163,201 163,198 Q163,192 151,187 L151,114 Q151,106 151,74 Q152,25 152,7 Q155,-18 97,-24 M5,14 Q34,70 44,115 Q47,133 45,120 Q47,133 49,149 L97,137 Q102,136 102,133 Q103,127 88,123 Q66,57 8,11 M221,23 Q209,22 205,39 Q195,96 165,148 L168,151 Q249,94 248,55 Q247,24 221,23"/> 
            <glyph glyph-name="就" unicode="&#x5C31;" horiz-adv-x="252" d=" M99,-24 L96,-21 Q151,32 154,126 L134,126 L134,129 Q133,126 127,124 L127,116 Q127,115 127,110 Q128,96 128,85 Q128,78 122,78 Q110,75 94,75 L94,65 Q132,54 131,36 Q130,18 113,17 Q104,18 103,27 Q100,44 94,57 L94,39 Q94,17 95,6 Q96,-22 53,-23 Q53,0 29,4 L29,8 Q25,3 13,-5 Q9,-9 7,-11 L4,-8 Q24,35 26,67 L60,56 L60,82 L55,82 Q55,76 48,75 Q30,73 21,73 Q22,92 22,110 L22,142 L55,135 L89,135 L98,151 L131,139 Q136,137 136,134 Q136,133 136,132 L155,132 Q155,141 155,150 L155,161 Q155,181 154,203 L193,199 Q199,199 199,195 Q199,191 189,186 L189,159 Q189,146 188,132 L206,132 L220,152 L248,132 Q252,130 250,128 Q249,126 243,126 L188,126 L187,111 L210,108 Q217,108 217,104 Q217,100 207,95 L207,19 Q207,8 212,9 L215,9 Q220,9 223,19 L235,60 L239,60 L240,24 Q240,15 246,11 Q252,7 252,1 Q251,-20 216,-20 L200,-20 Q176,-20 175,6 L175,58 Q159,9 99,-24 M118,184 L145,164 Q148,162 147,159 Q146,157 141,157 L12,157 L12,163 L72,163 Q62,164 61,175 Q58,192 51,202 L53,203 Q95,202 95,183 Q94,166 75,163 L103,163 M94,129 L55,129 L55,89 L94,89 M221,153 Q211,153 209,162 Q206,182 198,191 L199,194 Q238,187 238,170 Q237,155 221,153 M51,8 Q60,8 60,17 L60,45 Q59,45 57,45 Q47,26 30,8"/> 
            <glyph glyph-name="工" unicode="&#x5DE5;" horiz-adv-x="253" d=" M198,200 L231,176 Q235,174 233,171 Q232,169 226,169 L147,169 L147,-2 L196,-2 L215,23 L249,0 Q253,-3 251,-6 Q248,-9 242,-9 L7,-9 L7,-2 L107,-2 L107,169 L24,169 L24,176 L181,176"/> 
            <glyph glyph-name="布" unicode="&#x5E03;" horiz-adv-x="251" d=" M56,0 Q56,35 56,61 L56,79 Q39,65 7,46 L4,49 Q53,107 74,155 L12,155 L12,161 L77,161 Q81,170 84,179 Q86,186 88,199 Q89,204 90,207 L141,196 Q145,195 145,192 Q145,185 131,182 Q127,175 120,161 L196,161 L214,186 L247,162 Q251,159 249,157 Q248,155 242,155 L117,155 Q98,123 84,106 L96,103 L121,103 Q121,110 121,123 Q120,136 120,142 L162,138 Q167,138 167,135 Q168,130 156,124 L156,103 L183,103 L193,121 L228,107 Q232,106 232,103 Q232,99 222,91 L222,75 Q222,71 222,59 Q223,44 223,37 Q227,5 179,1 Q179,28 157,34 L158,38 L180,37 Q188,37 188,45 L188,97 L156,97 L156,67 Q156,7 157,-16 Q157,-22 152,-23 Q141,-25 120,-25 Q120,-6 121,26 Q121,43 121,49 L121,97 L91,97 L91,10 Q91,5 85,3 Q70,0 56,0"/> 
            <glyph glyph-name="干" unicode="&#x5E72;" horiz-adv-x="250" d=" M196,207 L230,183 Q235,180 233,178 Q231,175 224,175 L146,175 L146,101 L191,101 L211,129 L246,103 Q250,100 249,97 Q246,94 240,94 L146,94 L146,91 Q146,20 147,-14 Q147,-21 141,-21 Q130,-23 104,-23 Q106,44 106,86 L106,94 L7,94 L7,101 L106,101 L106,175 L23,175 L23,182 L178,182"/> 
            <glyph glyph-name="库" unicode="&#x5E93;" horiz-adv-x="251" d=" M108,55 Q94,63 79,75 Q76,77 76,80 Q76,82 79,83 Q87,87 91,95 Q94,100 102,120 L71,120 L71,126 L105,126 Q106,129 108,135 Q109,137 109,138 Q115,157 116,161 L157,150 Q161,150 161,146 Q161,141 148,138 L142,126 L195,126 L210,148 L239,127 Q243,125 241,122 Q240,120 235,120 L140,120 Q136,112 129,96 Q121,80 117,72 L139,72 L139,75 Q139,80 138,92 Q138,103 138,107 L180,104 Q185,104 185,101 Q185,95 175,91 L175,72 L188,72 L203,92 L230,73 Q233,72 232,70 Q233,67 224,66 L175,66 L175,41 L175,30 L201,30 L217,53 L248,31 Q251,28 250,26 Q248,24 243,24 L175,24 Q175,-1 176,-18 Q176,-25 170,-26 Q159,-27 137,-27 Q138,-19 138,-1 Q139,15 139,24 L58,24 L58,30 L139,30 L139,40 L139,66 L119,66 M214,194 L247,171 Q251,168 249,165 Q247,163 241,163 L67,163 L67,122 Q70,15 10,-26 L6,-24 Q21,9 25,36 Q30,62 30,109 L30,137 Q30,171 29,181 L75,169 L135,169 Q129,172 128,179 Q126,197 118,206 L120,208 Q167,208 167,188 Q167,174 152,169 L197,169"/> 
            <glyph glyph-name="底" unicode="&#x5E95;" horiz-adv-x="248" d=" M88,-24 Q87,-24 84,-22 Q84,-21 83,-20 L65,14 Q77,20 76,30 L76,105 Q76,129 75,149 L113,138 Q168,152 192,166 L225,143 Q228,141 228,138 Q228,133 222,133 Q220,133 214,134 Q218,133 212,135 Q207,135 196,133 Q185,132 179,131 Q179,107 183,89 L197,89 L213,112 L244,89 Q248,87 246,84 Q245,82 239,82 L184,82 Q191,48 214,25 Q218,20 222,26 L239,64 L242,63 L241,20 Q239,9 244,4 Q248,-1 248,-6 Q247,-22 229,-22 Q202,-21 178,10 Q155,40 150,82 L111,82 L111,26 L161,38 L163,35 Q146,22 131,11 Q162,6 162,-8 Q161,-25 143,-26 Q133,-26 131,-17 Q130,-1 124,6 Q109,-2 94,-11 Q94,-23 88,-24 M213,198 L244,177 Q248,174 247,172 Q245,169 239,169 L63,169 L63,124 Q67,13 6,-29 L3,-26 Q18,8 23,37 Q28,66 28,120 L28,136 Q28,168 27,188 L73,175 L121,175 Q121,176 120,178 Q120,180 119,181 Q118,193 111,204 L112,206 Q158,206 156,189 Q156,181 147,175 L196,175 M145,129 Q129,127 111,127 L111,89 L149,89 Q146,106 145,129"/> 
            <glyph glyph-name="庭" unicode="&#x5EAD;" horiz-adv-x="250" d=" M8,-26 L4,-24 Q31,35 29,124 L29,139 Q29,151 28,186 L70,176 L127,176 Q123,180 123,185 Q122,198 115,207 L116,208 Q160,209 158,190 Q158,181 150,176 L198,176 L214,198 L243,177 Q247,175 246,172 Q244,170 238,170 L63,170 L63,146 L81,146 L93,161 L120,147 Q124,145 124,142 Q123,137 114,133 L98,90 L101,90 L111,104 L137,92 L137,97 L163,97 L163,129 Q147,127 127,127 L126,131 Q181,148 206,167 L233,144 Q236,143 236,140 Q234,133 220,137 Q216,137 208,135 Q200,134 196,133 L196,97 L198,97 L210,114 L237,96 Q240,94 239,93 Q238,91 233,91 L196,91 L196,43 L200,43 L213,61 L240,43 Q243,41 242,39 Q240,37 236,37 L129,37 L129,43 L163,43 L163,91 L141,91 L143,90 Q145,89 145,86 Q144,81 136,77 Q127,47 114,27 Q134,15 179,16 Q218,17 250,21 L249,16 Q237,13 231,-17 Q210,-17 179,-17 Q128,-16 99,8 Q75,-11 41,-24 L38,-21 Q73,9 83,28 Q73,45 65,71 L68,72 Q80,55 91,43 Q98,56 103,83 L98,83 L91,71 Q78,76 65,84 Q62,86 64,90 Q70,92 72,99 L85,140 L63,140 L63,131 Q63,66 52,34 Q41,0 8,-26"/> 
            <glyph glyph-name="开" unicode="&#x5F00;" horiz-adv-x="251" d=" M206,207 L238,185 Q242,183 240,180 Q238,178 232,178 L188,178 L188,103 L196,103 L214,128 L247,104 Q251,101 249,99 Q247,97 241,97 L188,97 L188,62 Q188,10 189,-14 Q189,-21 185,-21 Q167,-24 149,-24 Q151,19 151,50 L151,97 L102,97 Q103,7 15,-24 L13,-21 Q65,24 65,97 L8,97 L8,103 L65,103 Q65,107 65,110 L65,178 L20,178 L20,184 L190,184 M102,112 Q102,108 102,103 L151,103 L151,178 L102,178"/> 
            <glyph glyph-name="影" unicode="&#x5F71;" horiz-adv-x="255" d=" M7,-16 L4,-13 Q24,14 30,40 L26,40 Q27,56 27,71 L27,79 Q27,90 26,98 L66,90 L102,90 L111,105 L145,93 Q149,91 149,88 Q150,84 141,78 L141,77 Q141,67 141,51 Q143,45 135,44 Q122,41 106,41 L106,49 L102,49 L102,39 L102,34 L104,36 Q148,32 148,13 Q146,-3 129,-5 Q118,-6 115,5 Q111,21 102,33 Q102,21 103,2 Q104,-22 59,-24 Q58,-1 41,1 Q37,0 28,-5 Q15,-12 7,-16 M23,124 Q24,136 24,165 L24,167 Q24,185 24,202 L64,193 L106,193 L116,210 L148,197 Q154,196 153,192 Q154,189 145,182 L145,178 Q145,163 146,136 Q146,132 141,131 Q141,131 140,131 Q139,130 138,130 L164,113 Q168,111 166,108 Q164,106 158,106 L10,106 L10,112 L73,112 Q71,114 71,118 Q70,129 65,136 L66,137 L59,137 L59,133 Q60,127 54,126 Q34,124 23,124 M123,-26 L121,-23 Q184,26 211,77 L251,55 Q255,52 255,49 Q255,43 240,43 Q197,-3 123,-26 M147,57 L145,61 Q186,105 206,145 L246,125 Q250,122 250,119 Q250,112 235,113 Q202,82 147,57 M151,127 L148,130 Q179,169 196,206 L237,187 Q241,185 241,181 Q241,175 226,175 Q196,147 151,127 M106,84 L62,84 L62,55 L106,55 M110,187 L59,187 L59,168 L110,168 M59,162 L59,142 L110,142 L110,162 M110,127 L110,137 L78,137 Q104,135 103,124 Q102,116 93,112 L121,112 L134,130 Q122,127 110,127 M56,42 Q55,42 53,42 Q44,40 34,40 L68,27 L68,49 L62,49 Q61,43 56,42 M58,6 Q68,4 68,14 L68,18 Q64,16 58,16 Q53,11 47,6"/> 
            <glyph glyph-name="想" unicode="&#x60F3;" horiz-adv-x="250" d=" M197,65 L197,78 L160,78 L160,75 Q161,69 153,68 Q146,66 138,66 Q160,58 160,43 Q159,23 138,22 Q126,22 125,33 Q120,56 109,70 L111,72 Q118,71 124,69 Q124,80 125,110 Q125,129 125,134 L125,163 Q124,160 117,159 L84,159 L84,145 Q123,137 123,118 Q122,99 104,98 Q93,98 92,111 Q90,125 84,135 L84,127 Q84,109 85,69 Q86,62 80,61 Q62,59 48,59 L49,110 Q31,91 6,76 L3,78 Q34,122 46,159 L11,159 L11,166 L49,166 Q49,183 49,205 L88,202 Q94,202 94,198 Q94,195 84,189 L84,166 L86,166 L99,184 L122,167 Q125,166 125,164 L125,167 Q125,196 124,200 L168,189 L193,189 L203,207 L238,194 Q242,192 242,188 Q243,184 233,176 L233,138 Q233,92 234,74 Q234,69 230,68 Q216,65 197,65 M99,-19 Q66,-19 67,12 L67,28 Q67,48 66,58 L109,54 Q113,54 113,50 Q114,45 102,39 L102,22 Q101,11 111,12 L155,12 Q167,12 172,21 L185,49 L189,48 L191,25 Q192,16 197,13 Q203,8 203,2 Q201,-18 164,-19 M226,-2 Q214,-2 211,9 Q204,37 191,54 L193,56 Q250,44 249,20 Q248,-1 226,-2 M27,-9 Q10,-8 9,9 Q9,21 20,27 Q39,36 43,55 L46,55 Q55,38 55,24 Q54,-8 27,-9 M160,114 L160,84 L197,84 L197,114 M160,149 L160,120 L197,120 L197,149 M197,183 L160,183 L160,155 L197,155"/> 
            <glyph glyph-name="感" unicode="&#x611F;" horiz-adv-x="251" d=" M8,33 L5,35 Q29,83 27,134 L27,154 Q27,162 26,172 Q26,180 26,184 L67,176 L145,176 Q143,192 141,206 L180,204 Q185,203 185,201 Q185,195 176,191 Q176,184 176,176 L216,176 L226,191 L247,176 Q250,174 249,172 Q247,170 243,170 L177,170 Q178,145 185,125 Q194,143 199,162 L237,147 Q240,145 240,142 Q240,136 227,135 Q212,110 200,98 Q206,91 214,86 Q220,81 222,88 L240,124 L244,123 L241,89 Q241,79 244,74 Q251,68 250,61 Q249,47 231,46 Q200,48 175,76 Q158,66 132,56 Q157,48 157,35 Q155,17 139,15 Q129,15 127,25 Q122,46 111,59 L113,61 Q124,60 131,57 L129,60 Q149,77 163,94 Q153,115 148,146 Q146,143 140,143 L61,143 Q64,71 8,33 M98,-20 Q69,-20 69,8 L69,18 Q69,43 68,53 L108,48 Q113,48 113,45 Q113,39 103,36 L103,19 Q102,9 113,10 L146,10 Q160,9 164,18 L179,46 L183,45 L184,23 Q184,15 189,12 Q198,7 198,1 Q196,-19 153,-20 M112,72 L112,81 L93,81 L93,74 Q93,70 86,68 Q81,67 71,66 Q66,65 63,65 Q63,84 63,100 L63,109 Q63,121 63,133 L95,124 L108,124 L116,138 L146,128 Q150,126 150,124 Q150,119 141,113 L141,81 Q141,76 138,76 Q127,72 112,72 M228,-10 Q216,-10 213,1 Q206,27 193,47 L195,48 Q248,33 248,12 Q246,-7 228,-10 M30,-14 Q14,-13 13,2 Q12,13 23,19 Q39,26 47,48 L49,48 Q57,33 57,18 Q56,-12 30,-14 M121,167 L145,150 L147,148 Q147,151 146,158 Q146,164 145,167 Q145,169 145,170 L61,170 L61,150 L109,150 M202,176 Q197,176 194,182 Q191,195 185,201 L186,203 Q220,203 219,189 Q218,177 202,176 M112,118 L93,118 L93,87 L112,87"/> 
            <glyph glyph-name="懂" unicode="&#x61C2;" horiz-adv-x="253" d=" M90,27 Q91,46 91,66 L91,79 Q91,94 91,108 L128,99 L144,99 L144,118 L84,118 L84,124 L144,124 L144,139 L94,139 Q90,128 80,127 Q72,127 72,135 Q71,150 67,161 L67,-12 Q67,-18 60,-21 Q46,-24 34,-24 Q35,13 35,66 L35,151 Q35,179 34,205 L72,202 Q78,202 78,199 Q79,193 67,189 L67,167 Q94,158 95,144 Q165,152 204,168 L229,150 Q233,148 233,145 Q232,139 218,142 Q211,142 199,141 Q185,141 179,140 L179,124 L207,124 L220,142 L247,125 Q251,123 249,120 Q248,118 242,118 L179,118 L179,99 L195,99 L203,115 L238,101 Q240,101 240,98 Q241,94 232,88 L232,79 Q232,70 232,45 Q233,37 226,35 Q225,35 224,34 Q221,33 215,33 L237,18 Q241,16 239,13 Q238,11 232,11 L179,11 L179,-10 L207,-10 L223,8 L249,-9 Q253,-11 251,-13 Q250,-15 244,-15 L76,-15 L76,-10 L144,-10 L144,11 L88,11 L88,17 L144,17 L144,37 L124,37 Q125,30 116,29 Q106,27 90,27 M114,156 Q114,159 114,166 Q115,173 115,177 L81,177 L81,182 L115,182 L115,185 L115,207 L151,203 Q155,203 155,199 Q155,196 147,192 L147,182 L171,182 L171,191 L171,207 L206,203 Q211,203 211,199 Q211,196 203,191 L203,182 L214,182 L225,199 L248,183 Q252,181 251,179 Q249,177 244,177 L203,177 L203,173 Q203,167 197,166 Q194,166 188,165 Q178,163 170,163 Q170,164 170,168 Q171,174 171,177 L147,177 L147,165 Q148,161 142,159 Q140,159 135,158 Q122,156 114,156 M16,90 Q4,91 4,108 Q5,117 8,123 Q19,136 21,163 L23,163 Q32,137 32,121 Q32,91 16,90 M199,31 L199,37 L179,37 L179,17 L199,17 L211,32 Q205,31 199,31 M199,93 L179,93 L179,71 L199,71 M179,65 L179,42 L199,42 L199,65 M124,65 L124,42 L144,42 L144,65 M124,93 L124,71 L144,71 L144,93"/> 
            <glyph glyph-name="戏" unicode="&#x620F;" horiz-adv-x="251" d=" M229,-23 Q203,-24 181,0 Q171,8 163,20 Q137,0 77,-19 L74,-15 Q120,11 150,43 Q136,78 133,122 L99,118 L99,124 L132,129 Q132,134 132,144 Q131,157 131,163 Q131,193 129,205 L174,201 Q178,200 179,198 Q178,192 168,188 Q168,150 169,134 L206,140 L216,158 Q212,156 207,156 Q197,155 195,165 Q191,182 182,192 L184,195 Q226,193 227,176 Q227,166 219,160 L248,146 Q251,144 250,142 Q249,139 244,138 L169,128 Q172,98 178,78 L185,90 Q192,103 197,122 L237,105 Q241,104 241,101 Q241,96 229,93 Q211,65 192,45 Q201,32 214,21 Q219,17 221,23 L235,62 L239,61 L240,22 Q240,10 244,5 Q249,0 249,-7 Q248,-22 229,-23 M89,17 Q79,16 77,26 Q76,29 74,35 Q72,41 66,53 Q43,20 9,-5 L5,-3 Q37,42 50,87 Q38,110 13,143 L16,146 Q40,130 58,115 Q62,138 65,163 L8,163 L8,169 L61,169 L72,188 L109,171 Q113,170 113,167 Q114,162 102,156 Q96,115 85,90 Q112,62 111,42 Q110,19 89,17"/> 
            <glyph glyph-name="手" unicode="&#x624B;" horiz-adv-x="249" d=" M95,-24 Q97,4 51,15 L52,19 L95,18 Q108,18 108,31 L108,58 L11,58 L11,64 L108,64 L108,113 L24,113 L24,119 L108,119 L108,161 Q80,158 23,156 L23,163 Q140,185 176,208 L217,179 Q219,179 219,176 Q218,168 201,174 Q176,168 146,164 L146,119 L183,119 L200,143 L232,121 Q236,118 235,116 Q233,113 227,113 L146,113 L146,109 Q146,93 146,64 L194,64 L212,89 L245,65 Q249,62 247,60 Q245,58 239,58 L147,58 L147,8 Q149,-19 95,-24"/> 
            <glyph glyph-name="打" unicode="&#x6253;" horiz-adv-x="251" d=" M100,167 L129,147 Q133,144 132,142 Q130,139 124,139 L81,139 L81,104 Q87,106 100,109 Q117,113 126,116 L128,112 Q105,97 81,84 L81,7 Q82,-18 37,-24 Q39,0 7,8 L8,13 L37,12 Q46,12 46,20 L46,67 Q37,62 28,59 Q28,47 21,46 Q18,46 17,50 Q17,50 17,51 L5,92 Q12,92 26,94 Q33,95 36,95 Q40,97 46,97 L46,139 L9,139 L9,145 L46,145 L46,149 Q46,179 45,205 L90,201 Q94,201 94,198 Q94,192 81,187 L81,145 L84,145 M214,201 L248,176 Q251,173 250,171 Q248,169 243,169 L207,169 L207,127 Q207,57 209,16 Q214,-20 150,-24 Q152,3 112,12 L113,17 L159,15 Q168,14 169,27 L169,169 L112,169 L112,175 L196,175"/> 
            <glyph glyph-name="扰" unicode="&#x6270;" horiz-adv-x="252" d=" M74,-25 L70,-21 Q122,32 123,129 L93,129 L93,135 L123,135 Q123,144 123,155 Q123,169 122,192 Q122,201 122,203 L164,200 Q170,200 169,197 Q169,189 159,187 Q159,157 158,135 L202,135 L219,157 L248,136 Q252,133 250,131 Q249,129 243,129 L197,129 L197,20 Q197,14 203,14 L208,14 Q216,13 218,24 L232,67 L236,66 L237,32 Q236,19 243,17 Q250,13 250,5 Q248,-17 216,-18 L190,-18 Q161,-19 162,14 L162,129 L158,129 Q157,15 74,-25 M19,48 Q15,48 14,54 L4,95 Q8,95 14,96 Q24,97 30,98 Q36,98 41,99 L41,144 L8,144 L8,150 L41,150 L41,153 Q41,159 41,177 Q40,197 40,205 L78,201 Q84,201 84,198 Q84,193 74,188 L74,150 L75,150 L88,168 L111,151 Q114,148 113,146 Q111,144 106,144 L74,144 L74,105 Q80,106 92,109 Q99,110 103,111 L104,108 Q89,96 74,88 L74,5 Q76,-19 33,-24 Q34,0 7,9 L8,13 L32,12 Q42,11 41,22 L41,68 L25,61 Q25,48 19,48 M196,148 Q184,148 183,157 Q179,176 171,189 L173,192 Q216,184 216,169 Q214,150 196,148"/> 
            <glyph glyph-name="抗" unicode="&#x6297;" horiz-adv-x="254" d=" M201,-19 Q173,-21 175,6 L175,117 L147,117 L147,88 Q147,40 132,17 Q118,-5 73,-25 L70,-21 Q114,18 110,87 L110,95 Q110,115 109,135 L153,123 L170,123 L181,143 L217,128 Q222,125 222,122 Q223,118 211,109 L211,20 Q212,15 215,15 Q220,14 222,23 L235,70 L239,70 L240,33 Q240,22 246,18 Q254,12 253,2 Q251,-18 217,-19 M20,47 Q17,48 16,51 L3,91 Q14,91 34,94 L39,95 L39,143 L9,143 L9,149 L39,149 L39,158 Q39,164 39,181 Q38,198 38,205 L81,202 Q86,202 86,198 Q85,192 74,189 L74,155 L83,168 L108,149 Q111,147 110,145 Q108,143 104,143 L74,143 L74,101 Q88,104 103,107 L104,103 Q101,101 95,97 Q81,88 74,83 L74,6 Q75,-21 29,-24 Q31,0 5,8 L6,12 L30,11 Q39,11 39,23 L39,65 Q33,62 27,60 Q26,47 20,47 M215,185 L244,163 Q248,160 246,157 Q245,155 239,155 L101,155 L101,162 L157,162 Q146,162 143,176 Q141,192 133,204 L134,206 Q181,206 181,182 Q179,164 160,162 L198,162"/> 
            <glyph glyph-name="拟" unicode="&#x62DF;" horiz-adv-x="249" d=" M78,164 L97,148 Q97,147 98,147 L98,148 Q98,154 97,176 Q97,192 97,195 L137,191 Q142,191 142,188 Q140,182 131,178 L131,57 L178,80 L181,76 Q152,40 117,10 Q117,0 110,-2 Q108,-2 105,0 Q104,1 104,1 L85,36 Q98,45 98,57 L98,143 Q98,143 96,143 Q94,142 93,142 L70,142 L70,104 Q75,105 85,107 Q90,108 93,109 L94,105 Q92,103 88,100 Q81,95 70,86 L70,1 Q71,-20 28,-24 Q28,0 6,8 L7,12 L27,12 Q36,12 36,22 L36,65 L26,60 Q24,47 18,47 Q15,47 14,52 L5,93 Q23,95 36,98 L36,142 L9,142 L9,148 L36,148 L36,153 Q36,159 36,177 Q35,197 35,205 L75,201 Q81,201 80,198 Q80,193 70,188 L70,152 M226,-19 Q216,-19 215,-8 Q211,15 202,35 Q179,0 113,-24 L110,-20 Q197,36 194,145 Q194,175 192,204 L235,200 Q241,200 241,197 Q242,192 230,187 Q230,151 229,133 Q226,73 206,40 Q249,24 249,2 Q247,-18 226,-19 M165,123 Q153,122 152,136 Q151,159 141,182 L142,184 Q188,168 188,146 Q186,125 165,123"/> 
            <glyph glyph-name="持" unicode="&#x6301;" horiz-adv-x="252" d=" M19,41 Q16,41 14,47 L5,87 Q12,87 30,90 Q35,91 37,91 L37,137 L9,137 L9,143 L37,143 L37,159 Q37,178 37,206 L78,202 Q84,202 83,199 Q84,195 72,189 L72,150 L80,163 L101,146 Q105,143 104,140 Q103,137 97,137 L72,137 L72,97 Q87,100 102,103 L104,99 Q102,98 99,96 Q87,87 72,79 L72,3 Q74,-21 27,-24 Q27,1 4,7 L5,11 L29,10 Q38,8 37,18 L37,60 L25,54 Q25,42 19,41 M224,93 L246,79 Q250,77 248,74 Q247,72 241,72 L212,72 L212,55 Q212,43 212,6 Q214,-20 160,-25 Q161,-2 129,7 L130,11 L165,9 Q177,8 176,22 L176,60 L176,72 L94,72 L94,78 L176,78 L175,109 L217,105 Q222,105 222,102 Q222,98 212,92 L212,78 L213,78 M210,180 L238,162 Q241,160 240,158 Q238,156 234,156 L178,156 L178,117 L202,117 L218,139 L249,118 Q252,115 250,113 Q249,111 243,111 L90,111 L90,117 L143,117 L143,156 L99,156 L99,162 L143,162 L143,166 Q143,172 142,187 Q142,201 142,205 L184,202 Q189,201 189,199 Q190,194 178,188 L178,162 L197,162 M125,18 Q115,18 113,28 Q108,49 99,64 L100,66 Q150,60 148,40 Q145,20 125,18"/> 
            <glyph glyph-name="提" unicode="&#x63D0;" horiz-adv-x="254" d=" M189,104 L189,115 L137,115 L137,108 Q137,102 131,102 Q117,99 102,98 L103,142 Q103,142 102,142 Q99,141 97,141 L71,141 L71,105 Q84,110 99,113 L101,110 Q86,97 71,86 L71,6 Q72,-21 25,-23 Q26,2 2,8 L3,13 L26,12 Q35,11 36,22 L36,64 L27,59 Q25,47 19,47 Q16,47 15,50 L2,92 Q16,92 36,97 L36,141 L9,141 L9,147 L36,147 L36,159 Q36,193 35,206 L77,202 Q82,202 82,199 Q82,193 71,188 L71,151 L80,164 L102,148 L103,147 L103,167 Q103,188 102,199 L144,188 L185,188 L196,207 L228,194 Q233,191 233,188 Q233,182 224,176 L224,167 Q224,145 226,113 Q226,109 224,108 L244,93 Q248,90 247,88 Q245,86 239,86 L185,86 L185,52 L198,52 L214,73 L241,54 Q245,50 243,48 Q242,46 235,46 L185,46 L185,10 Q223,10 254,16 L253,12 Q241,7 238,-19 Q232,-20 222,-20 Q215,-20 184,-20 Q142,-22 124,19 Q109,-9 70,-27 L67,-24 Q90,3 97,43 Q97,45 98,49 Q100,65 100,72 L143,65 Q146,64 146,61 Q147,57 135,53 Q132,41 129,31 Q138,21 150,16 L150,86 L84,86 L84,92 L201,92 L211,105 Q204,104 189,104 M137,149 L137,121 L189,121 L189,149 M189,182 L137,182 L137,155 L189,155"/> 
            <glyph glyph-name="插" unicode="&#x63D2;" horiz-adv-x="251" d=" M184,45 L184,51 L203,51 L203,92 L181,92 L181,99 L198,99 L207,118 L242,103 Q246,102 246,98 Q246,93 237,87 L237,55 Q237,22 237,-12 Q238,-19 230,-21 Q225,-22 212,-23 Q206,-24 203,-24 L203,-6 L121,-6 L121,-13 Q121,-20 117,-21 Q104,-24 88,-24 Q89,-1 89,47 L89,103 L114,97 Q126,109 131,122 L145,109 L145,131 L84,131 L84,137 L145,137 L145,169 Q134,168 107,167 Q95,166 88,166 L87,170 Q172,190 204,209 L231,186 Q235,184 235,180 Q235,174 220,178 Q200,174 179,172 L179,137 L205,137 L220,159 L247,140 Q251,137 249,134 Q247,131 241,131 L179,131 L179,0 L203,0 L203,45 M18,48 Q15,47 14,52 L5,92 Q8,93 15,94 Q27,97 34,99 L34,143 L8,143 L8,150 L34,150 L34,154 Q34,190 33,205 L72,202 Q78,202 78,199 Q79,193 67,189 L67,150 L78,166 L99,150 Q102,148 101,145 Q99,143 94,143 L67,143 L67,107 Q72,109 81,111 Q90,114 94,115 L97,112 Q80,98 67,89 L67,6 Q69,-20 26,-24 Q26,0 4,6 L5,11 L26,10 Q35,8 34,20 L34,66 L25,61 Q25,48 18,48 M121,44 L121,0 L145,0 L145,44 M130,65 L145,53 L145,93 Q145,93 144,93 Q140,92 129,91 Q124,90 121,90 L121,51"/> 
            <glyph glyph-name="搭" unicode="&#x642D;" horiz-adv-x="252" d=" M226,62 Q208,71 196,81 Q194,79 189,79 L122,79 Q105,68 71,54 L69,58 L69,3 Q71,-19 28,-24 Q29,1 5,10 L5,14 L26,13 Q36,12 35,22 L35,63 Q34,62 31,61 Q28,59 26,58 Q24,46 19,46 Q15,46 14,51 L4,91 Q19,92 35,95 L35,140 L8,140 L8,146 L35,146 L35,153 Q35,189 34,205 L75,201 Q80,201 80,198 Q79,192 69,189 L69,148 L78,161 L100,146 Q103,144 102,142 Q100,140 95,140 L69,140 L69,102 Q72,103 77,104 Q81,105 97,109 L98,105 Q92,100 81,92 Q73,86 69,83 L69,59 Q118,103 133,139 Q132,139 132,139 Q118,137 107,137 Q108,144 108,166 L81,166 L81,172 L108,172 L108,180 Q108,193 108,205 L145,201 Q151,201 150,198 Q150,194 140,189 L140,172 L170,172 L170,180 Q170,197 169,204 L208,201 Q212,201 212,198 Q212,194 204,189 L204,172 L207,172 L220,191 L246,174 Q250,171 248,168 Q247,166 241,166 L204,166 Q204,155 204,150 Q206,144 195,141 Q193,140 181,139 Q182,139 177,138 L180,138 Q184,138 184,134 Q185,130 173,129 L170,126 Q204,106 252,100 L251,95 Q236,89 226,62 M185,-24 L185,-5 L129,-5 L129,-15 Q130,-22 124,-22 Q111,-25 93,-25 Q93,-16 94,0 Q94,13 94,18 L94,34 Q94,59 93,62 L134,53 L179,53 L190,71 L226,57 Q230,57 230,53 Q230,49 220,41 L220,26 Q220,0 221,-15 Q222,-20 216,-21 Q201,-24 185,-24 M185,47 L129,47 L129,0 L185,0 M140,148 L170,140 L170,166 L140,166 M168,104 L184,93 Q173,106 165,120 Q150,100 129,86 L154,86"/> 
            <glyph glyph-name="撼" unicode="&#x64BC;" horiz-adv-x="252" d=" M72,163 L85,152 Q85,154 85,156 Q84,165 84,181 L117,174 L171,174 Q171,179 170,188 Q169,203 169,205 L205,201 Q208,201 208,198 Q207,193 200,190 Q200,181 200,174 L218,174 L222,179 Q216,181 216,185 Q214,195 208,202 L209,204 Q238,203 237,192 Q237,188 234,185 L249,174 Q252,172 251,170 Q249,168 244,168 L200,168 Q201,136 205,123 Q211,139 215,157 L248,143 Q248,143 249,143 Q251,142 251,140 Q251,135 240,134 Q231,111 217,94 Q220,90 223,85 Q224,83 226,83 Q227,84 228,86 L246,115 L248,113 L246,85 Q245,76 248,70 Q251,65 251,57 Q250,43 234,43 Q215,44 200,63 Q199,65 198,67 Q196,70 195,71 Q185,62 171,53 Q187,48 187,36 Q186,20 169,18 Q162,18 160,26 Q155,44 143,58 L144,60 Q150,58 159,57 Q162,56 163,56 Q177,72 186,87 Q180,100 177,115 Q175,113 172,111 L172,76 Q171,71 167,71 Q166,71 165,70 Q156,67 148,67 L148,76 L136,76 L136,69 Q137,64 130,63 Q127,61 118,61 Q115,60 113,60 L113,109 Q108,68 70,34 L67,37 Q81,68 83,101 Q81,99 76,95 Q73,92 63,84 L63,2 Q65,-21 24,-24 Q26,0 3,6 L4,10 L22,9 Q32,8 31,19 L31,62 L25,58 Q24,47 19,46 Q15,46 14,51 L4,91 Q18,92 31,95 L31,141 L7,141 L7,147 L31,147 L31,153 Q31,158 31,174 Q30,195 30,204 L67,200 Q73,200 73,197 Q73,192 63,187 L63,149 M140,-20 Q113,-22 115,4 L115,25 Q115,25 115,32 Q114,46 114,48 L149,45 Q152,44 152,41 Q152,38 145,34 L145,13 Q146,6 152,6 L175,6 Q184,6 186,13 L196,38 L199,37 L200,19 Q201,10 207,8 Q213,5 213,0 Q212,-20 182,-20 M230,-4 Q219,-5 217,5 Q215,22 204,45 L206,47 Q252,33 250,15 Q249,-2 230,-4 M85,-12 Q70,-11 69,4 Q69,14 79,20 Q93,26 99,42 L101,42 Q109,29 109,15 Q107,-10 85,-12 M115,138 Q115,134 114,129 L140,123 L145,123 L153,135 L175,124 Q173,133 173,142 L115,142 M152,165 L172,151 Q172,153 172,158 Q171,162 171,164 L171,168 L115,168 L115,148 L140,148 M84,109 Q85,122 85,137 L85,141 L63,141 L63,103 Q74,106 84,109 M148,116 L136,116 L136,82 L148,82"/> 
            <glyph glyph-name="支" unicode="&#x652F;" horiz-adv-x="250" d=" M9,-25 L8,-21 Q74,6 103,30 Q80,54 63,101 L33,101 L33,108 L105,108 L105,152 L11,152 L11,158 L105,158 L104,205 L151,201 Q156,201 156,198 Q156,192 145,187 L145,158 L190,158 L208,184 L244,159 Q248,157 247,154 Q245,152 239,152 L145,152 L145,108 L158,108 L174,130 L215,106 Q219,104 219,102 Q219,96 204,91 Q183,57 161,36 Q192,25 250,19 L249,14 Q230,10 217,-25 Q157,-9 126,9 Q83,-13 9,-25 M163,101 L71,101 Q99,66 125,51 Q146,73 163,101"/> 
            <glyph glyph-name="收" unicode="&#x6536;" horiz-adv-x="252" d=" M106,74 L104,76 L104,-13 Q104,-19 97,-20 Q81,-24 67,-24 L68,49 Q53,36 32,20 Q32,9 26,8 Q23,8 22,12 L8,50 Q20,56 19,64 L19,121 Q19,138 18,177 L58,173 Q62,173 62,169 Q63,165 52,160 L52,59 L68,61 L68,139 Q68,175 67,203 L111,199 Q116,199 116,195 Q116,189 104,184 L104,79 Q124,129 131,162 Q136,184 137,205 L185,195 Q190,193 190,190 Q190,185 177,182 Q173,171 164,152 Q162,147 161,145 L203,145 L219,168 L250,145 Q252,143 251,141 Q249,139 245,139 L227,139 Q218,76 197,43 Q218,29 252,20 L251,16 Q231,8 221,-23 Q191,-4 173,14 Q151,-5 107,-24 L104,-21 Q143,13 156,37 Q144,59 136,108 Q124,92 106,74 M157,139 Q151,127 142,116 Q155,86 170,67 Q181,94 187,139"/> 
            <glyph glyph-name="新" unicode="&#x65B0;" horiz-adv-x="253" d=" M104,-25 L101,-22 Q139,23 137,105 Q136,103 131,103 L84,103 L84,73 L95,73 L107,91 L131,74 Q134,72 133,69 Q131,67 126,67 L84,67 L84,55 L85,56 Q124,46 125,27 Q123,11 107,7 Q97,8 96,17 Q93,39 84,54 L84,46 Q85,26 86,6 Q88,-17 47,-23 Q47,-1 26,4 L27,8 Q24,4 16,-2 Q11,-7 9,-9 L5,-6 Q13,11 17,32 Q21,46 21,58 L51,50 L51,67 L10,67 L10,73 L51,73 L51,103 L7,103 L7,109 L72,109 Q79,138 79,159 L116,149 Q120,148 120,146 Q121,140 109,138 Q96,121 83,109 L100,109 L113,127 L136,110 Q136,110 137,109 Q137,109 137,108 Q137,116 137,123 L137,142 Q137,153 136,181 L172,173 Q196,187 209,204 L246,177 Q247,177 247,175 Q247,170 242,170 Q238,170 233,172 Q209,164 173,163 L173,126 Q173,116 173,107 L206,107 L221,128 L249,108 Q253,106 251,103 Q250,101 244,101 L225,101 L225,43 Q225,19 225,-13 Q225,-20 220,-21 Q209,-24 188,-24 Q188,-19 188,4 Q189,31 189,38 L189,101 L173,101 Q174,10 104,-25 M106,185 L129,168 Q133,166 131,164 Q130,162 124,162 L11,162 L11,168 L57,168 Q50,169 49,177 Q48,190 40,202 L41,205 Q84,204 85,187 Q83,172 67,168 L93,168 M42,112 Q33,112 31,122 Q30,139 22,153 L24,155 Q63,147 62,131 Q60,114 42,112 M42,7 Q51,5 51,17 L51,40 L47,39 Q39,21 27,8"/> 
            <glyph glyph-name="方" unicode="&#x65B9;" horiz-adv-x="250" d=" M16,-25 L13,-22 Q85,40 80,139 L80,150 L14,150 L14,156 L193,156 L211,182 L244,159 Q250,155 248,153 Q247,150 240,150 L120,150 L120,139 Q120,121 119,105 L169,105 L181,126 L220,110 Q226,107 226,104 Q226,97 214,90 Q213,75 210,41 Q209,32 209,28 Q205,-20 143,-22 Q146,3 105,14 L106,18 L148,15 Q167,12 169,34 Q174,64 175,99 L118,99 Q112,15 16,-25 M123,158 Q111,158 108,169 Q106,191 95,205 L97,207 Q149,203 150,180 Q148,160 123,158"/> 
            <glyph glyph-name="无" unicode="&#x65E0;" horiz-adv-x="247" d=" M198,208 L230,186 Q233,184 232,181 Q230,179 225,179 L141,179 Q141,141 136,111 L191,111 L209,136 L242,113 Q246,110 245,107 Q243,105 237,105 L170,105 L170,27 Q169,15 178,16 L197,16 Q208,15 212,29 L228,71 L232,71 L233,35 Q234,23 240,19 Q247,14 247,6 Q245,-16 210,-17 L164,-17 Q132,-17 133,12 L133,93 Q120,7 9,-28 L7,-24 Q83,25 95,105 L10,105 L10,111 L96,111 Q101,141 102,179 L27,179 L27,185 L181,185"/> 
            <glyph glyph-name="易" unicode="&#x6613;" horiz-adv-x="242" d=" M47,100 Q47,114 48,132 Q48,142 48,145 L48,161 Q48,163 48,170 Q47,188 47,199 L92,189 L167,189 L178,207 L216,193 Q220,192 220,189 Q220,184 210,176 L210,157 Q210,156 210,150 Q211,130 211,114 Q212,106 205,105 Q197,103 176,101 Q173,101 172,101 L172,111 L85,111 Q85,109 84,107 L110,102 Q113,102 113,99 Q112,93 100,91 L95,84 L189,84 L200,102 L239,88 Q242,86 242,84 Q242,78 232,71 Q232,40 229,14 Q230,-22 170,-25 Q171,0 143,6 Q110,-14 56,-25 L54,-21 Q136,15 146,78 L134,78 Q114,9 19,-10 L17,-6 Q82,28 96,78 L91,78 Q67,45 15,22 L13,25 Q50,63 62,101 Q57,100 47,100 M86,148 L86,118 L172,118 L172,148 M172,183 L86,183 L86,154 L172,154 M194,78 L184,78 Q176,34 148,10 L174,10 Q190,9 190,23 Q194,43 194,78"/> 
            <glyph glyph-name="是" unicode="&#x662F;" horiz-adv-x="252" d=" M8,-27 L6,-24 Q38,5 46,42 Q46,43 47,45 Q50,65 49,76 L98,67 Q101,66 101,63 Q101,57 88,53 Q86,44 83,36 Q93,25 112,20 L112,84 L7,84 L7,91 L199,91 L216,115 L248,92 Q252,89 250,86 Q249,84 243,84 L150,84 L150,49 L178,49 L195,72 L224,50 Q228,48 226,45 Q225,43 219,43 L150,43 L150,15 Q197,15 249,20 L249,16 Q234,11 233,-18 Q190,-18 155,-18 Q99,-17 79,27 Q62,-9 8,-27 M48,100 Q49,117 49,145 L49,161 Q49,185 48,199 L94,189 L165,189 L175,207 L213,192 Q217,190 217,187 Q217,183 207,175 L207,158 Q207,138 208,113 Q208,107 202,105 Q197,104 183,103 Q173,102 169,102 L169,116 L86,116 L86,112 Q86,103 77,102 Q59,100 48,100 M169,183 L86,183 L86,156 L169,156 M86,150 L86,122 L169,122 L169,150"/> 
            <glyph glyph-name="普" unicode="&#x666E;" horiz-adv-x="251" d=" M177,-25 L177,-8 L81,-8 L81,-15 Q81,-21 77,-21 Q59,-25 42,-25 Q42,-24 42,-21 Q44,14 44,26 L44,48 Q44,53 43,68 Q43,80 43,84 L87,73 L172,73 L182,91 L219,77 Q225,75 224,73 Q224,69 214,61 L214,47 Q214,31 216,-16 Q216,-20 212,-21 Q197,-24 177,-25 M219,122 L247,102 Q251,99 249,96 Q248,94 242,94 L6,94 L6,101 L86,101 L86,168 L16,168 L16,174 L83,174 Q80,176 80,179 Q76,194 67,204 L69,207 Q119,208 116,190 Q116,179 104,174 L142,174 Q146,190 146,210 L188,203 Q194,202 193,200 Q193,194 182,193 Q170,181 159,174 L195,174 L210,195 L239,175 Q243,173 241,170 Q240,168 234,168 L170,168 L170,101 L204,101 M81,29 L81,-2 L177,-2 L177,29 M177,67 L81,67 L81,35 L177,35 M55,106 Q46,106 44,116 Q41,138 31,156 L33,158 Q79,147 78,128 Q76,107 55,106 M177,103 L174,105 Q184,138 187,163 L224,147 Q229,145 229,143 Q229,136 217,136 Q202,118 177,103 M119,168 L119,101 L137,101 L137,168"/> 
            <glyph glyph-name="景" unicode="&#x666F;" horiz-adv-x="249" d=" M39,119 Q39,127 40,147 Q40,159 40,162 L40,168 Q40,171 40,180 Q39,193 39,198 L83,188 L171,188 L182,206 L218,193 Q224,191 223,188 Q222,182 213,176 L213,173 Q213,170 213,160 Q214,143 214,136 Q215,128 207,126 Q195,123 176,123 L176,131 L134,131 Q144,128 144,120 Q144,113 138,108 L200,108 L215,130 L245,109 Q249,106 247,104 Q246,102 240,102 L13,102 L13,108 L111,108 Q109,110 109,113 Q107,122 102,131 L77,131 L77,129 Q77,123 71,122 Q56,119 39,119 M12,-22 L10,-18 Q40,8 54,35 L46,35 Q47,44 47,67 L47,70 Q47,82 47,93 L88,84 L166,84 L176,101 L213,89 Q217,87 217,84 Q217,78 208,73 L208,71 Q208,61 208,49 Q208,42 204,41 Q192,37 171,37 L171,45 L148,45 L148,41 Q148,38 148,27 Q149,9 149,3 Q150,-21 102,-24 Q103,-1 71,4 L71,5 Q48,-10 12,-22 M171,79 L84,79 L84,51 L171,51 M77,157 L77,136 L176,136 L176,157 M176,182 L77,182 L77,162 L176,162 M212,-16 Q203,-16 199,-8 Q184,14 158,30 L159,33 Q233,27 231,2 Q228,-14 212,-16 M77,37 Q73,37 59,35 L91,23 Q94,22 94,19 Q95,13 80,13 L75,8 L102,8 Q111,7 111,18 L111,45 L84,45 Q83,39 77,37"/> 
            <glyph glyph-name="智" unicode="&#x667A;" horiz-adv-x="247" d=" M11,70 L9,74 Q49,102 56,135 L13,135 L13,141 L57,141 Q60,154 60,172 L53,172 Q40,157 21,145 L18,147 Q30,175 34,205 L72,197 Q76,196 76,194 Q76,187 64,186 L58,178 L92,178 L104,195 L129,178 Q132,176 131,174 Q129,172 124,172 L95,172 Q94,154 91,141 L101,141 L113,159 L137,142 Q138,142 139,141 Q140,141 140,140 L140,150 Q140,162 140,190 L179,180 L199,180 L210,199 L243,184 Q247,183 247,180 Q247,176 238,169 L238,149 Q238,135 238,103 Q238,96 231,95 Q218,92 204,92 L204,109 L173,109 L173,100 Q173,94 164,91 Q163,91 160,91 Q149,89 139,89 Q140,110 140,129 L140,137 Q138,135 132,135 L90,135 Q89,133 88,129 Q86,125 85,123 Q134,121 132,101 Q130,84 114,82 Q106,82 102,89 Q96,104 82,117 Q72,98 49,86 L93,75 L166,75 L176,94 L215,79 Q218,78 218,76 Q219,72 209,63 L209,39 Q209,15 210,-13 Q210,-19 204,-21 Q189,-24 171,-24 L171,-7 L86,-7 L86,-13 Q86,-20 78,-21 Q62,-24 47,-24 Q48,-3 48,17 L48,45 Q48,56 48,85 Q33,78 11,70 M86,30 L86,-1 L171,-1 L171,30 M171,69 L86,69 L86,36 L171,36 M204,174 L173,174 L173,115 L204,115"/> 
            <glyph glyph-name="曲" unicode="&#x66F2;" horiz-adv-x="240" d=" M193,-22 L193,-1 L62,-1 L62,-13 Q62,-21 55,-22 Q44,-24 26,-24 Q27,20 27,59 L27,100 Q27,125 26,155 L66,143 L83,143 L83,149 Q83,187 82,205 L122,201 Q128,201 128,198 Q128,192 118,187 L118,143 L138,143 L138,151 Q138,187 137,204 L177,201 Q183,201 183,197 Q182,190 172,186 L172,143 L187,143 L199,163 L235,148 Q240,146 240,143 Q240,138 229,129 L229,83 Q229,75 229,43 Q230,2 230,-9 Q230,-16 223,-17 Q207,-21 193,-22 M62,72 L62,3 L83,3 L83,72 M172,72 L172,3 L193,3 L193,72 M118,72 L118,3 L138,3 L138,72 M193,137 L172,137 L172,78 L193,78 M62,137 L62,78 L83,78 L83,137 M118,137 L118,78 L138,78 L138,137"/> 
            <glyph glyph-name="更" unicode="&#x66F4;" horiz-adv-x="250" d=" M180,55 L180,69 L142,69 Q137,41 127,28 Q170,15 250,20 L250,16 Q231,8 225,-23 Q145,-18 105,5 Q78,-13 8,-25 L7,-21 Q67,3 84,22 Q69,39 59,60 Q46,57 32,57 Q34,80 34,112 L34,125 Q34,133 33,164 L74,153 L107,153 L107,182 L9,182 L9,188 L196,188 L212,211 L243,191 Q248,188 246,185 Q244,182 237,182 L144,182 L144,153 L175,153 L186,171 L221,157 Q227,154 226,152 Q226,145 217,139 L217,122 Q217,119 217,104 Q218,75 218,65 Q218,59 213,59 Q200,55 180,55 M144,102 Q144,88 142,76 L180,76 L180,108 L144,108 M106,76 Q107,80 107,91 L107,108 L70,108 L70,76 M70,146 L70,114 L107,114 L107,146 M180,146 L144,146 L144,114 L180,114 M65,61 Q79,49 97,40 Q103,52 106,69 L70,69 L70,67 Q71,63 68,62"/> 
            <glyph glyph-name="有" unicode="&#x6709;" horiz-adv-x="249" d=" M59,-25 Q59,-14 60,19 Q60,39 60,43 L60,90 Q38,71 10,56 L8,59 Q49,104 74,161 L10,161 L10,167 L77,167 Q79,174 82,180 Q87,194 88,208 L137,196 Q141,196 141,192 Q141,187 127,184 Q126,180 122,173 Q121,169 120,167 L194,167 L212,192 L245,168 Q249,165 247,163 Q246,161 240,161 L116,161 Q107,142 94,125 L101,124 L167,124 L178,145 L218,130 Q223,127 223,124 Q223,118 211,110 L211,78 Q211,30 212,6 Q212,-20 160,-25 Q161,1 123,10 L124,15 L158,14 Q174,12 173,26 L173,44 L97,44 L97,-14 Q97,-20 92,-21 Q72,-25 59,-25 M97,81 L97,50 L173,50 L173,81 M173,118 L97,118 L97,87 L173,87"/> 
            <glyph glyph-name="本" unicode="&#x672C;" horiz-adv-x="250" d=" M165,55 L196,33 Q199,31 198,29 Q196,27 191,27 L147,27 Q147,9 147,-12 Q148,-20 137,-21 Q121,-24 106,-23 Q106,12 107,27 L64,27 L64,33 L107,33 Q107,59 107,81 L107,95 Q76,50 8,9 L5,13 Q64,75 90,144 L15,144 L15,151 L107,151 Q107,188 106,206 L153,202 Q158,202 159,199 Q159,193 146,188 L146,151 L190,151 L208,176 L243,152 Q247,149 245,146 Q243,144 237,144 L155,144 Q185,86 250,63 L249,58 Q229,55 212,21 Q159,63 149,144 L146,144 L146,123 Q146,103 147,72 Q147,47 147,33 L149,33"/> 
            <glyph glyph-name="机" unicode="&#x673A;" horiz-adv-x="255" d=" M7,30 L4,33 Q29,89 37,139 L7,139 L7,145 L42,145 L42,157 Q42,160 42,173 Q41,196 41,205 L81,201 Q88,201 88,198 Q88,193 77,188 L77,146 L89,164 L113,146 Q113,151 113,163 Q112,183 112,194 L153,184 L171,184 L182,203 L220,188 Q223,186 223,184 Q223,178 213,171 L213,24 Q213,18 217,17 L218,17 Q223,15 226,30 L237,77 L241,76 L242,35 Q242,22 248,19 Q255,14 254,6 Q252,-16 225,-17 L206,-17 Q176,-18 176,11 L176,177 L148,177 L148,119 Q153,10 85,-27 L81,-25 Q115,26 113,109 L113,139 L111,139 L77,139 L77,119 Q113,106 112,86 Q110,69 94,67 Q84,67 83,77 Q82,99 77,111 L77,-13 Q77,-21 70,-22 Q54,-24 40,-24 Q42,25 42,68 L42,75 Q25,50 7,30"/> 
            <glyph glyph-name="条" unicode="&#x6761;" horiz-adv-x="250" d=" M221,82 Q161,93 133,108 Q89,86 10,73 L9,77 Q69,100 108,126 Q94,140 87,153 Q66,129 33,108 L30,110 Q65,162 73,207 L118,197 Q123,196 123,193 Q124,187 109,184 L104,176 L153,176 L168,194 L207,172 Q211,170 211,167 Q210,160 195,158 Q180,142 165,129 Q193,124 250,124 L249,120 Q229,112 221,82 M102,-25 Q101,0 71,4 L73,8 L102,7 Q112,7 112,19 L112,58 L34,58 L34,64 L112,64 Q112,89 111,95 L155,92 Q161,91 161,88 Q161,82 149,78 L149,64 L179,64 L194,85 L225,65 Q229,62 227,60 Q225,58 219,58 L149,58 L149,43 Q149,23 150,9 Q152,-20 102,-25 M20,-19 L17,-15 Q50,17 65,54 L102,38 Q106,36 106,33 Q106,27 92,26 Q70,2 20,-19 M204,-12 Q196,-12 191,-3 Q181,21 158,45 L159,48 Q228,32 227,8 Q225,-10 204,-12 M155,170 L100,170 Q99,168 96,165 Q93,161 91,159 Q107,147 126,140 Q144,155 155,170"/> 
            <glyph glyph-name="来" unicode="&#x6765;" horiz-adv-x="251" d=" M251,37 L250,33 Q233,22 219,-10 Q160,22 144,86 L143,86 L143,-13 Q144,-21 135,-22 Q123,-24 105,-24 Q106,20 106,50 Q71,13 6,-12 L4,-8 Q57,34 87,86 L12,86 L12,92 L107,92 L107,97 L107,144 L107,158 L23,158 L23,165 L107,165 L106,205 L149,202 Q154,202 154,198 Q155,194 143,188 L143,165 L186,165 L202,187 L233,166 Q237,163 236,161 Q234,158 228,158 L143,158 L143,92 L149,92 Q164,123 168,154 L207,139 Q214,137 213,134 Q213,128 200,126 Q180,105 160,92 L195,92 L214,117 L245,94 Q249,91 248,89 Q246,86 239,86 L150,86 Q186,48 251,37 M70,95 Q60,95 58,106 Q56,126 46,150 L48,151 Q94,138 93,118 Q92,96 70,95"/> 
            <glyph glyph-name="欢" unicode="&#x6B22;" horiz-adv-x="253" d=" M61,-25 L59,-22 Q109,9 125,36 Q142,65 142,113 Q142,121 142,131 Q123,102 108,86 L104,88 Q131,161 131,209 L178,200 Q183,200 183,197 Q183,191 168,187 Q164,173 158,162 L200,162 L213,179 L250,158 Q253,157 253,154 Q252,148 241,146 Q220,125 199,109 L195,111 L204,155 L155,155 Q151,145 143,133 L186,130 Q190,130 190,127 Q191,121 179,116 L179,114 Q198,45 253,20 L251,15 Q229,8 214,-24 Q181,12 176,80 Q170,0 61,-25 M91,20 Q81,20 77,31 Q73,44 67,56 Q47,28 8,0 L4,2 Q38,49 51,86 Q37,109 13,141 L16,145 Q42,129 60,115 Q66,139 69,168 L10,168 L10,175 L65,175 L76,194 L113,177 Q117,176 117,173 Q118,168 106,162 Q96,113 87,92 Q112,67 112,45 Q110,22 91,20"/> 
            <glyph glyph-name="歌" unicode="&#x6B4C;" horiz-adv-x="253" d=" M121,-28 L119,-25 Q162,23 162,89 Q162,105 161,127 Q156,119 145,105 Q142,101 140,99 L149,93 Q152,91 151,90 Q149,88 145,88 L127,88 L127,44 Q127,21 128,1 Q130,-20 84,-25 Q83,-3 55,2 L56,6 L84,5 Q94,5 94,16 L94,88 L10,88 L10,94 L109,94 L120,110 Q120,109 119,109 Q116,109 111,108 Q101,107 95,106 L95,183 L13,183 L13,189 L103,189 L117,207 L142,189 Q145,187 144,185 Q143,183 138,183 L127,183 L127,119 Q127,112 123,110 L133,104 Q149,155 150,205 L192,199 Q198,198 198,196 Q196,189 187,187 Q186,183 183,177 Q182,171 176,157 L205,157 L217,175 L249,154 Q252,153 252,150 Q253,147 241,143 Q228,126 206,108 L202,110 L204,118 Q202,115 196,112 Q196,111 196,108 Q210,44 253,17 L252,13 Q230,7 217,-24 Q194,12 193,71 Q188,5 121,-28 M15,5 Q16,16 16,42 L16,51 Q16,63 16,76 L49,68 L54,68 L62,82 L89,72 Q92,71 92,68 Q93,65 84,59 L84,52 Q84,34 85,23 Q85,19 81,17 Q79,17 75,16 Q64,14 58,14 L58,23 L46,23 L46,15 Q46,9 40,8 Q31,5 15,5 M19,102 Q20,111 20,135 L20,148 Q20,159 20,171 L50,162 L56,162 L63,176 L90,165 Q93,164 93,162 Q93,158 85,153 L85,146 Q85,144 85,136 Q86,123 86,116 Q86,112 82,110 Q72,109 60,107 L60,118 L48,118 L48,113 Q48,107 44,105 Q43,105 41,104 Q28,102 19,102 M174,151 Q168,139 161,127 L200,124 Q204,124 204,123 L208,151 M58,63 L46,63 L46,28 L58,28 M60,156 L48,156 L48,123 L60,123"/> 
            <glyph glyph-name="步" unicode="&#x6B65;" horiz-adv-x="250" d=" M216,138 L246,117 Q250,114 248,111 Q246,109 240,109 L9,109 L9,115 L54,115 L54,147 Q54,159 54,185 L97,182 Q102,182 102,178 Q102,174 91,169 L91,115 L119,115 L119,160 Q119,179 118,207 L164,203 Q168,203 169,200 Q169,194 157,190 L157,162 L186,162 L201,183 L229,163 Q232,160 230,158 Q229,156 223,156 L157,156 L157,115 L200,115 M113,29 L113,105 L158,102 Q164,102 164,99 Q164,93 152,89 L152,45 Q156,48 159,51 Q183,77 190,93 L233,67 Q236,64 236,63 Q236,55 220,58 Q154,-15 14,-28 L13,-24 Q87,-1 135,32 Q123,29 113,29 M23,12 L20,15 Q49,54 61,92 L102,74 Q107,72 106,69 Q104,63 94,64 Q68,33 23,12"/> 
            <glyph glyph-name="法" unicode="&#x6CD5;" horiz-adv-x="251" d=" M93,-24 Q90,-25 88,-19 L77,18 Q93,19 97,26 Q114,53 124,86 L76,86 L76,92 L135,92 L135,143 L91,143 L91,149 L135,149 L135,169 Q135,194 134,205 L178,202 Q184,202 184,198 Q184,193 172,188 L172,149 L190,149 L206,171 L238,149 Q241,147 240,145 Q238,143 233,143 L172,143 L172,92 L197,92 L214,117 L247,94 Q251,91 250,89 Q248,86 242,86 L171,86 Q147,50 116,19 L191,24 Q182,41 169,60 L172,63 Q243,31 243,4 Q241,-20 219,-22 Q207,-22 203,-8 Q200,1 196,11 Q149,-3 101,-14 Q100,-23 93,-24 M41,-23 Q22,-22 21,-5 Q21,3 24,11 Q27,20 27,29 Q29,49 7,55 L8,59 Q33,55 38,70 L88,166 L92,164 L63,68 Q59,55 59,40 Q59,28 62,16 Q66,5 66,-5 Q64,-22 41,-23 M56,155 Q46,155 44,164 Q38,187 25,200 L27,202 Q78,197 78,177 Q76,157 56,155 M35,101 Q25,101 22,112 Q17,134 5,148 L7,150 Q58,144 56,122 Q54,103 35,101"/> 
            <glyph glyph-name="海" unicode="&#x6D77;" horiz-adv-x="253" d=" M79,111 L76,114 Q102,169 104,206 L149,196 Q154,196 155,193 Q156,187 142,183 Q141,182 140,179 Q138,176 134,170 L196,170 L214,193 L246,171 Q250,168 248,166 Q247,164 241,164 L130,164 Q128,161 123,154 Q118,148 115,144 L134,139 L187,139 L197,157 L233,142 Q237,141 237,138 Q238,134 226,126 Q226,119 225,107 Q225,95 225,89 L232,100 L250,84 Q253,82 252,79 Q250,77 245,77 L224,77 L222,30 L230,42 L248,26 Q251,24 250,21 Q248,19 243,19 L221,19 L220,11 Q222,-22 169,-24 Q170,-4 138,4 L138,8 L173,7 Q185,6 185,16 Q185,18 186,19 L122,19 L110,6 Q94,15 79,26 Q75,29 79,33 Q84,36 85,44 L89,77 L70,77 L70,83 L89,83 L92,110 L94,124 M42,-21 Q25,-20 24,-4 Q24,7 27,17 Q30,26 29,35 Q30,50 8,58 L10,62 Q36,57 38,69 L83,172 L86,171 L60,65 Q56,49 57,42 Q57,32 61,17 Q65,5 65,-3 Q63,-20 42,-21 M186,26 Q188,50 189,77 L124,77 L119,26 M191,133 L130,133 L125,83 L189,83 Q191,107 191,133 M32,98 Q23,98 20,108 Q16,130 6,147 L7,148 Q54,141 54,121 Q52,101 32,98 M52,153 Q43,153 41,161 Q36,182 25,200 L26,201 Q76,194 73,175 Q71,155 52,153 M155,29 Q147,29 145,38 Q142,57 136,69 L138,71 Q178,65 177,48 Q175,30 155,29 M156,87 Q148,87 146,95 Q143,118 138,126 L140,128 Q177,121 177,105 Q176,88 156,87"/> 
            <glyph glyph-name="混" unicode="&#x6DF7;" horiz-adv-x="252" d=" M135,82 L157,66 Q157,89 156,103 L195,100 Q202,99 202,96 Q201,91 192,87 L192,56 Q211,79 217,96 L247,77 Q251,75 251,72 Q252,67 239,67 Q220,55 192,46 L192,23 Q191,11 200,12 L207,12 Q216,11 220,22 L234,55 L238,54 L238,29 Q238,18 243,15 Q250,10 249,3 Q246,-17 214,-18 L188,-18 Q156,-19 157,15 L157,17 Q144,8 116,-5 Q106,-10 101,-13 Q99,-25 94,-25 Q90,-25 89,-21 L73,11 Q84,15 83,28 L83,56 Q83,78 82,101 L123,98 Q129,98 128,95 Q128,91 118,86 L118,64 L122,64 M86,106 Q87,119 87,161 L87,165 Q87,185 87,200 L129,189 L185,189 L196,207 L232,193 Q236,192 236,189 Q236,184 226,178 L226,165 Q226,136 227,114 Q227,110 223,109 Q215,107 196,106 Q192,105 190,105 L190,115 L122,115 Q123,110 117,109 Q102,106 86,106 M42,-21 Q24,-20 23,-3 Q23,3 26,13 Q29,24 29,31 Q31,44 8,54 L9,58 Q34,54 37,66 L82,162 L86,161 L63,71 Q58,52 58,39 Q58,30 62,17 Q65,5 65,-2 Q62,-20 42,-21 M122,150 L122,122 L190,122 L190,150 M190,183 L122,183 L122,156 L190,156 M54,153 Q43,152 40,162 Q33,185 21,198 L22,200 Q74,196 74,175 Q72,156 54,153 M34,97 Q25,97 22,107 Q17,130 6,145 L8,147 Q55,140 55,120 Q53,99 34,97 M157,49 L157,58 L118,58 L118,19 L157,25"/> 
            <glyph glyph-name="游" unicode="&#x6E38;" horiz-adv-x="252" d=" M169,-24 Q170,1 147,5 Q142,-24 101,-24 Q102,1 84,7 Q73,-11 55,-26 L51,-24 Q80,34 79,137 L79,151 L63,151 L63,157 L125,157 L137,175 L157,159 Q163,183 164,204 L206,196 Q211,194 212,192 Q212,186 199,182 Q198,180 196,176 Q193,170 186,157 L206,157 L220,178 L248,158 Q251,156 250,153 Q248,151 243,151 L182,151 Q173,139 162,127 L201,127 L214,145 L247,124 Q250,122 250,119 Q250,114 238,114 Q226,104 209,93 L214,93 Q220,93 220,90 Q221,86 212,81 L212,62 L215,62 L227,79 L250,62 Q252,59 251,58 Q250,56 246,56 L212,56 L212,45 Q212,31 212,5 Q214,-20 169,-24 M35,-22 Q19,-21 18,-5 Q18,3 21,12 Q24,22 24,31 Q26,43 5,51 L6,55 Q28,51 31,63 L68,145 L72,143 L54,68 Q50,53 50,38 Q50,31 52,17 Q53,15 53,14 Q56,4 56,-3 Q55,-21 35,-22 M156,99 Q156,81 154,62 L177,62 Q177,75 177,97 L197,95 L205,121 L161,121 L161,126 Q157,123 152,118 L163,113 Q166,111 166,109 Q166,104 156,99 M123,106 L112,106 Q108,50 88,14 L106,12 Q114,12 116,19 Q121,53 123,106 M49,154 Q38,153 36,164 Q29,187 18,201 L20,203 Q70,195 69,175 Q67,156 49,154 M32,99 Q21,99 19,110 Q14,131 3,147 L4,149 Q52,141 51,121 Q49,101 32,99 M101,161 Q89,161 88,173 Q85,191 78,204 L79,205 Q122,198 122,181 Q121,163 101,161 M154,56 Q151,30 148,9 L166,8 Q178,9 177,18 L177,56 M119,112 L129,129 L146,121 Q152,136 155,151 L113,151 L113,142 Q113,136 112,126 Q112,116 112,112"/> 
            <glyph glyph-name="源" unicode="&#x6E90;" horiz-adv-x="251" d=" M124,63 Q124,71 125,83 Q125,91 125,94 L125,131 Q125,145 124,159 L157,151 Q157,172 156,181 L115,181 L115,125 Q116,21 60,-23 L56,-21 Q80,32 79,125 L79,153 Q79,182 78,198 L119,187 L200,187 L216,209 L247,187 Q251,185 249,183 Q248,181 242,181 L198,181 Q184,162 171,150 L194,150 L203,168 L237,154 Q241,153 241,150 Q242,144 231,138 L231,101 Q231,99 231,93 Q232,81 232,74 Q232,67 225,66 Q223,66 218,65 Q206,63 199,63 L199,73 L193,73 L193,46 Q193,44 193,32 Q194,12 194,4 Q196,-21 151,-24 Q151,0 124,5 L124,6 Q123,5 121,3 Q111,-4 93,-16 L90,-13 Q114,22 120,57 L156,47 Q159,47 159,44 Q160,37 148,36 Q139,21 127,9 L153,8 Q160,7 160,19 L160,73 L156,73 Q156,67 147,65 Q134,63 124,63 M37,-17 Q19,-16 18,0 Q18,4 22,17 Q24,29 24,34 Q26,50 6,56 L7,60 Q28,57 32,68 L73,164 L77,163 L56,72 Q56,70 55,66 Q51,49 51,43 Q51,33 54,20 Q55,17 56,13 Q58,7 58,0 Q57,-16 37,-17 M227,-4 Q217,-4 214,6 Q208,36 196,53 L197,56 Q248,37 247,14 Q245,-2 227,-4 M44,156 Q33,155 31,166 Q27,185 18,199 L19,201 Q63,195 64,177 Q63,158 44,156 M29,98 Q19,98 17,108 Q12,130 4,142 L6,144 Q49,137 49,120 Q47,101 29,98 M199,144 L156,144 L156,114 L199,114 M156,108 L156,79 L199,79 L199,108"/> 
            <glyph glyph-name="片" unicode="&#x7247;" horiz-adv-x="252" d=" M148,-23 L148,76 L82,76 Q75,16 11,-24 L8,-21 Q49,32 47,120 L47,158 Q47,161 47,175 Q46,195 46,202 L91,199 Q96,199 97,196 Q96,189 85,184 L85,136 L134,136 L134,162 Q134,190 133,206 L178,203 Q185,202 185,199 Q185,193 172,188 L172,136 L198,136 L217,161 L248,137 Q252,134 250,132 Q249,130 243,130 L85,130 L85,120 Q85,100 83,82 L144,82 L154,102 L195,87 Q198,86 198,83 Q199,78 187,69 L187,40 Q187,0 188,-14 Q188,-19 181,-21 Q166,-23 148,-23"/> 
            <glyph glyph-name="牙" unicode="&#x7259;" horiz-adv-x="250" d=" M205,207 L235,185 Q239,183 238,180 Q236,178 230,178 L184,178 L184,105 L195,105 L214,131 L246,106 Q250,103 248,101 Q247,99 241,99 L184,99 L184,90 Q184,45 185,6 Q187,-20 131,-27 Q132,1 85,9 L86,14 L131,12 Q146,11 145,26 L145,79 Q94,21 7,-6 L5,-2 Q77,48 111,99 L70,99 L61,85 Q39,94 28,100 Q24,103 27,106 Q32,109 34,115 L38,139 Q40,155 40,165 L82,159 Q86,158 87,155 Q86,150 75,145 L68,105 L145,105 L145,178 L19,178 L19,184 L188,184"/> 
            <glyph glyph-name="独" unicode="&#x72EC;" horiz-adv-x="251" d=" M101,-23 Q97,-24 95,-17 L87,20 Q104,20 141,22 Q146,22 149,22 L149,70 L133,70 L133,66 Q134,57 124,56 Q122,56 119,55 Q109,54 99,54 Q99,62 99,78 Q100,98 100,110 L100,125 Q100,146 99,161 L137,152 L149,152 L149,161 Q149,190 148,205 L187,202 Q193,201 193,198 Q194,192 183,188 L183,152 L196,152 L207,170 L241,156 Q246,154 246,151 Q247,144 235,139 L235,124 Q235,94 236,72 Q236,65 227,62 Q224,62 218,62 Q207,61 201,61 L201,70 L183,70 L183,24 Q195,26 207,26 Q205,33 197,47 Q196,50 195,52 L197,55 Q251,27 251,2 Q250,-19 231,-21 Q219,-22 217,-8 Q215,5 210,18 Q173,4 107,-12 Q107,-23 101,-23 M7,34 L4,37 Q30,73 51,117 Q50,128 47,135 Q31,124 8,112 L6,116 Q24,135 39,156 Q32,170 13,189 L16,193 Q36,183 49,171 Q61,191 68,207 L103,188 Q109,186 108,183 Q106,177 93,178 Q85,166 68,151 Q88,124 88,66 Q92,-25 30,-25 Q31,1 5,8 L6,12 L24,11 Q57,3 54,67 Q34,49 7,34 M201,146 L183,146 L183,77 L201,77 M133,146 L133,77 L149,77 L149,146"/> 
            <glyph glyph-name="玩" unicode="&#x73A9;" horiz-adv-x="252" d=" M79,132 L101,115 L102,114 L102,118 L193,118 L211,144 L243,119 Q247,116 245,114 Q244,112 238,112 L204,112 L204,20 Q204,14 208,14 L210,14 Q217,14 219,25 L233,72 L238,71 L238,32 Q239,20 244,16 Q252,11 251,4 Q250,-17 219,-18 L196,-18 Q167,-19 168,14 L168,112 L151,112 Q152,44 132,18 Q114,-8 52,-26 L50,-22 Q92,3 103,28 Q116,52 115,112 L103,112 Q103,109 97,108 L67,108 L67,54 Q73,55 87,58 Q97,61 103,62 L105,58 Q65,30 30,10 Q30,-1 24,-1 Q21,-1 19,2 L6,44 Q9,44 15,45 Q25,46 32,47 L32,108 L9,108 L9,114 L32,114 L32,175 L7,175 L7,182 L64,182 L78,201 L105,181 Q108,179 107,177 Q105,175 101,175 L67,175 L67,115 M199,209 L231,186 Q235,184 233,181 Q232,179 226,179 L109,179 L109,185 L182,185"/> 
            <glyph glyph-name="环" unicode="&#x73AF;" horiz-adv-x="251" d=" M87,201 L113,182 L199,182 L216,206 L247,184 Q251,181 249,178 Q247,176 241,176 L192,176 Q184,149 175,126 L186,125 Q192,125 192,122 Q193,118 184,112 L184,-12 Q185,-21 176,-22 Q162,-24 145,-24 Q146,19 146,61 L146,78 Q124,46 77,14 L74,17 Q92,40 106,62 Q73,42 28,20 Q26,8 21,8 Q19,8 17,13 L5,52 Q22,54 38,55 L38,113 L11,113 L11,120 L38,120 L38,176 L8,176 L8,182 L73,182 M90,137 L112,120 Q115,117 114,115 Q113,113 108,113 L72,113 L72,60 Q78,61 89,64 Q100,66 105,67 L106,63 Q139,113 151,176 L111,176 L109,176 L72,176 L72,120 L77,120 M228,28 Q215,28 212,39 Q204,72 186,99 L188,102 Q250,79 250,53 Q248,30 228,28"/> 
            <glyph glyph-name="用" unicode="&#x7528;" horiz-adv-x="238" d=" M10,-25 L7,-23 Q38,29 36,111 L36,146 Q36,168 35,196 L82,184 L186,184 L197,203 L235,188 Q238,187 238,184 Q238,178 228,172 L228,117 Q228,34 229,5 Q233,-20 181,-24 Q182,0 151,9 L152,14 L183,12 Q192,12 191,20 L191,65 L149,65 L149,-7 Q149,-16 142,-17 Q132,-19 111,-19 Q113,18 113,65 L69,65 Q62,11 10,-25 M191,178 L149,178 L149,128 L191,128 M149,122 L149,71 L191,71 L191,122 M72,113 Q72,96 70,71 L113,71 L113,74 L113,122 L72,122 M72,178 L72,128 L113,128 L113,178"/> 
            <glyph glyph-name="由" unicode="&#x7531;" horiz-adv-x="237" d=" M188,-23 L188,0 L68,0 L68,-12 Q69,-18 61,-20 Q40,-24 29,-23 Q31,28 31,58 L31,95 Q31,104 31,125 Q30,147 30,155 L74,143 L109,143 L109,147 Q109,152 109,171 Q108,196 108,205 L153,202 Q159,201 158,198 Q159,193 147,187 L147,143 L182,143 L194,165 L232,148 Q236,146 236,143 Q237,138 225,130 L225,90 Q226,29 227,-11 Q227,-18 219,-19 Q201,-23 188,-23 M68,71 L68,5 L109,5 L109,71 M147,71 L147,5 L188,5 L188,71 M188,137 L147,137 L147,77 L188,77 M68,137 L68,77 L109,77 L109,137"/> 
            <glyph glyph-name="电" unicode="&#x7535;" horiz-adv-x="246" d=" M131,-18 Q101,-18 101,10 L101,54 L63,54 L63,37 Q63,33 59,32 Q42,27 27,27 Q27,34 28,61 Q28,87 28,93 L28,122 Q28,147 28,170 L68,159 L101,159 L101,160 Q101,195 100,206 L143,202 Q149,202 148,199 Q149,193 137,189 L137,159 L171,159 L182,178 L218,163 Q221,162 221,158 Q220,153 211,146 L211,111 Q211,67 212,49 Q212,45 209,44 Q193,40 176,39 L176,54 L137,54 L137,23 Q135,11 147,12 L192,12 Q208,10 212,26 L227,66 L231,65 L233,29 Q233,19 240,15 Q246,11 246,4 Q244,-17 204,-18 M137,104 L137,60 L176,60 L176,104 M63,104 L63,60 L101,60 L101,104 M176,153 L137,153 L137,110 L176,110 M63,153 L63,110 L101,110 L101,153"/> 
            <glyph glyph-name="留" unicode="&#x7559;" horiz-adv-x="249" d=" M184,-24 L184,-10 L76,-10 L76,-14 Q76,-20 70,-22 Q50,-24 39,-24 Q39,-12 40,4 Q40,16 40,22 L40,48 Q40,59 39,80 Q38,80 37,82 Q36,83 35,84 L19,115 Q29,119 29,131 L29,156 Q29,159 29,167 Q28,182 28,192 L62,180 Q64,182 68,185 Q87,202 93,212 L124,188 Q127,186 127,184 Q128,177 112,180 Q89,173 63,172 L63,129 L90,135 Q87,149 78,166 L80,167 Q126,150 126,129 Q125,107 105,106 Q96,106 94,118 Q93,121 93,124 Q69,104 47,92 Q47,91 46,89 Q46,87 46,87 L82,79 L179,79 L186,91 L184,91 Q185,115 162,123 Q148,101 101,82 L99,86 Q144,123 142,181 L128,181 L128,187 L198,187 L209,205 L243,189 Q249,188 248,185 Q249,180 238,173 Q236,144 233,125 Q229,97 200,93 L227,82 Q231,81 231,78 Q231,72 221,65 L221,37 Q221,10 222,-15 Q222,-20 218,-21 Q202,-24 184,-24 M203,181 L177,181 Q176,147 165,128 L187,127 Q197,127 198,136 Q201,148 203,178 Q203,180 203,181 M76,30 L76,-4 L112,-4 L112,30 M76,73 L76,37 L112,37 L112,73 M148,30 L148,-4 L184,-4 L184,30 M184,73 L148,73 L148,37 L184,37"/> 
            <glyph glyph-name="的" unicode="&#x7684;" horiz-adv-x="248" d=" M81,-5 L81,14 L56,14 L56,0 Q57,-9 47,-11 Q44,-12 34,-13 Q24,-14 20,-14 Q22,29 22,66 L22,99 Q22,131 21,162 L48,155 Q49,183 46,205 L88,199 Q94,199 93,196 Q92,190 82,187 Q72,168 60,153 L61,152 L76,152 L87,170 L119,156 Q123,154 123,151 Q123,148 116,141 Q115,139 114,138 L114,95 Q129,138 135,175 Q137,195 137,205 L185,195 Q189,195 189,191 Q190,185 176,181 Q170,166 163,153 L197,153 L208,173 L244,157 Q247,157 247,154 Q248,150 238,141 Q238,103 236,21 Q236,-21 177,-23 Q179,0 138,13 L139,17 L181,15 Q198,12 198,30 Q202,82 202,147 L160,147 Q151,131 141,117 Q189,100 188,78 Q186,55 165,53 Q152,53 151,65 Q145,94 136,111 Q127,98 115,87 L114,87 L114,81 Q114,75 114,47 Q115,12 115,2 Q115,0 109,-2 Q98,-5 81,-5 M56,81 L56,20 L81,20 L81,81 M81,146 L56,146 L56,87 L81,87"/> 
            <glyph glyph-name="相" unicode="&#x76F8;" horiz-adv-x="249" d=" M200,-25 L200,-3 L152,-3 L152,-11 Q153,-19 144,-20 Q128,-23 114,-23 Q115,-2 115,19 Q115,37 115,80 L115,131 L115,141 Q114,138 108,138 L77,138 L77,119 Q113,103 112,84 Q111,66 94,64 Q84,64 83,76 Q82,95 77,112 L77,-13 Q78,-21 67,-23 Q59,-24 40,-24 Q42,14 42,69 L42,78 Q26,50 6,28 L3,31 Q27,89 37,138 L9,138 L9,144 L42,144 L42,155 Q42,194 41,205 L83,201 Q89,201 88,197 Q88,193 77,188 L77,144 L89,163 L113,145 Q113,145 114,144 Q115,144 115,143 Q115,177 114,195 L158,183 L196,183 L207,204 L244,188 Q248,186 248,183 Q249,177 238,169 L238,89 Q238,11 239,-13 Q239,-20 232,-21 Q214,-25 200,-25 M152,56 L152,2 L200,2 L200,56 M152,116 L152,62 L200,62 L200,116 M200,176 L152,176 L152,122 L200,122"/> 
            <glyph glyph-name="看" unicode="&#x770B;" horiz-adv-x="250" d=" M26,173 L25,177 Q123,191 181,211 L215,189 Q219,186 219,184 Q219,178 212,178 Q208,178 200,181 Q169,177 138,175 Q135,162 131,151 L173,151 L188,172 L217,152 Q221,149 219,146 Q217,144 211,144 L129,144 Q123,131 117,119 L197,119 L214,142 L246,120 Q250,118 248,115 Q247,113 241,113 L113,113 Q106,100 96,89 L106,85 L169,85 L181,104 L218,88 Q224,85 223,82 Q224,77 212,70 L212,49 Q212,39 213,9 Q214,-4 214,-12 Q214,-19 207,-20 Q200,-22 180,-23 Q176,-24 174,-24 L174,-7 L100,-7 L100,-12 Q101,-19 92,-20 Q85,-21 70,-23 Q63,-24 61,-24 Q62,-1 62,28 L62,53 L62,57 Q38,40 7,25 L5,28 Q54,73 74,113 L12,113 L12,119 L78,119 Q79,122 82,129 Q86,139 88,144 L30,144 L30,151 L90,151 Q93,161 96,173 Q62,173 26,173 M174,79 L100,79 L100,56 L174,56 M100,20 L100,-1 L174,-1 L174,20 M100,50 L100,26 L174,26 L174,50"/> 
            <glyph glyph-name="神" unicode="&#x795E;" horiz-adv-x="248" d=" M36,-24 Q36,-13 37,5 Q38,45 38,56 L38,72 Q25,61 8,52 L5,56 Q45,105 60,150 L7,150 L7,156 L59,156 L70,172 L102,153 L104,152 Q103,158 103,167 L141,156 L154,156 Q154,165 153,182 Q153,198 153,206 L192,202 Q198,202 198,199 Q198,193 188,188 L188,156 L201,156 L212,174 L245,160 Q248,158 248,156 Q248,150 239,144 L239,106 Q239,71 240,40 Q241,33 234,31 Q222,30 206,28 L206,45 L188,45 Q188,0 189,-12 Q189,-21 183,-21 Q170,-24 153,-24 Q153,-13 154,11 Q154,35 154,45 L136,45 L136,35 Q137,27 130,26 Q117,23 103,23 Q104,53 104,88 L104,121 Q104,127 104,146 Q102,144 94,141 Q84,122 71,106 L71,99 Q101,88 101,72 Q100,55 86,54 Q78,54 77,63 Q76,78 71,91 L71,-11 Q72,-21 63,-22 Q45,-24 36,-24 M48,163 Q36,162 35,175 Q34,191 28,205 L29,206 Q69,201 69,184 Q67,165 48,163 M154,51 L154,68 L154,98 L136,98 L136,51 M188,92 L188,51 L206,51 L206,98 L188,98 M206,150 L188,150 L188,104 L206,104 M154,104 L154,140 L154,150 L136,150 L136,104"/> 
            <glyph glyph-name="私" unicode="&#x79C1;" horiz-adv-x="250" d=" M107,51 Q96,51 95,62 Q92,87 86,98 L86,-13 Q86,-21 79,-22 Q63,-24 51,-24 Q52,-3 52,68 Q34,41 8,18 L5,21 Q32,70 45,120 L9,120 L9,126 L52,126 L52,165 Q31,162 9,161 L8,165 Q76,188 99,208 L130,185 Q134,182 134,179 Q133,176 128,175 Q122,175 116,177 Q103,173 86,170 L86,126 L95,126 L111,148 L139,128 Q143,125 141,122 Q139,120 133,120 L86,120 L86,106 Q127,89 126,71 Q124,54 107,51 M182,91 L184,93 Q249,47 250,15 Q247,-8 227,-13 Q215,-13 212,0 Q212,0 212,2 Q211,8 208,19 Q172,4 129,-5 Q128,-17 122,-17 Q119,-17 116,-12 L103,27 Q120,29 124,41 Q144,95 155,151 Q161,180 161,196 L212,184 Q216,182 216,179 Q215,173 202,170 Q178,97 138,29 L205,33 Q196,64 182,91"/> 
            <glyph glyph-name="秒" unicode="&#x79D2;" horiz-adv-x="251" d=" M97,58 Q87,58 85,70 Q84,92 79,102 L79,-12 Q80,-21 71,-22 Q57,-24 44,-24 Q44,-14 45,22 Q45,58 45,68 Q32,45 9,26 L6,28 Q30,82 40,129 L10,129 L10,135 L45,135 L45,168 Q24,166 9,166 L8,170 Q57,189 81,210 L114,186 Q117,183 117,180 Q117,176 110,176 Q106,176 100,178 Q90,175 79,173 L79,135 L91,152 L113,135 Q116,133 115,131 Q113,129 108,129 L79,129 L79,109 Q98,100 107,93 Q116,128 119,160 L155,150 L155,169 Q155,190 154,205 L192,201 Q199,201 199,198 Q199,193 190,188 L190,132 Q190,122 190,70 L190,68 Q197,79 204,104 L246,87 Q250,84 250,83 Q250,77 237,75 Q205,-7 92,-24 L90,-20 Q156,11 186,62 L184,61 Q165,58 154,58 Q155,97 155,128 L155,138 Q154,138 153,138 Q151,137 150,137 Q135,107 113,86 Q113,85 114,84 Q115,82 115,78 Q114,60 97,58 M232,103 Q221,103 218,114 Q210,142 193,166 L195,169 Q251,149 251,126 Q249,106 232,103"/> 
            <glyph glyph-name="立" unicode="&#x7ACB;" horiz-adv-x="251" d=" M213,20 L247,-4 Q251,-7 249,-10 Q248,-12 242,-12 L7,-12 L7,-5 L132,-5 Q160,87 161,136 L217,122 Q222,122 222,118 Q221,109 205,106 Q178,41 145,-5 L194,-5 M84,8 Q69,8 68,27 Q66,81 46,127 L49,129 Q111,78 111,41 Q110,10 84,8 M204,178 L236,153 Q240,150 238,147 Q236,145 230,145 L19,145 L19,152 L185,152 M124,155 Q109,155 107,172 Q103,194 92,207 L94,209 Q151,205 151,180 Q149,158 124,155"/> 
            <glyph glyph-name="笔" unicode="&#x7B14;" horiz-adv-x="251" d=" M133,-17 Q99,-18 100,11 L100,35 L13,26 L12,32 L100,41 L100,69 L24,61 L24,67 L100,75 L100,97 Q66,93 24,91 L24,95 Q99,112 142,131 Q155,137 167,144 L197,118 Q200,116 200,113 Q199,108 193,108 Q190,108 183,110 Q181,110 177,109 Q153,104 138,102 L138,80 L178,84 L191,104 L218,88 Q222,86 221,84 Q219,81 215,81 L138,73 L138,46 L201,52 L214,73 L243,57 Q246,55 246,52 Q245,50 240,49 L138,39 L138,21 Q137,10 146,11 L200,11 Q213,11 216,19 L230,44 L234,44 L235,25 Q237,17 241,14 Q248,9 247,3 Q246,-17 207,-17 M86,119 Q77,119 76,129 Q74,147 67,163 L64,163 Q46,136 13,114 L9,117 Q28,151 35,179 Q39,193 40,206 L85,196 Q89,196 89,193 Q90,188 77,184 Q73,175 68,169 L90,169 L105,188 L130,171 Q133,170 134,167 Q141,190 143,207 L186,196 Q190,196 190,193 Q190,187 177,184 Q173,175 168,169 L201,169 L217,191 L247,170 Q251,167 250,165 Q248,163 241,163 L188,163 Q223,154 222,141 Q220,122 201,120 Q193,120 190,129 Q186,147 177,163 L163,163 Q150,146 119,125 L116,128 Q127,149 132,164 Q131,163 125,163 L73,163 Q106,153 106,138 Q103,121 86,119"/> 
            </font>
</defs>
</svg>
