<?xml version="1.0" standalone="no"?>
<!DOCTYPE svg PUBLIC "-//W3C//DTD SVG 1.1//EN" "http://www.w3.org/Graphics/SVG/1.1/DTD/svg11.dtd" >
<svg xmlns="http://www.w3.org/2000/svg">
    <defs>
        <font id="">
            <font-face font-family=""
                       units-per-em="256"
                       ascent="223"
                       descent="-74"
                       bbox="-20 -74 266 223"
                    />
            <missing-glyph horiz-adv-x="0" />
            
            <glyph glyph-name="." unicode="&#x2E;" horiz-adv-x="63" d=" M39,38 Q61,36 63,14 Q61,-6 39,-8 Q17,-6 15,14 Q17,36 39,38"/> 
            <glyph glyph-name="0" unicode="&#x30;" horiz-adv-x="151" d=" M82,193 Q13,192 11,87 Q10,-14 82,-15 Q150,-14 151,87 Q150,192 82,193 M82,180 Q113,182 113,87 Q114,-4 82,-2 Q48,-3 50,91 Q49,180 82,180"/> 
            <glyph glyph-name="1" unicode="&#x31;" horiz-adv-x="128" d=" M36,-10 L128,-10 L128,0 Q102,1 101,29 L101,193 L39,179 L39,167 Q54,167 59,159 Q65,151 64,139 L64,29 Q64,1 36,0"/> 
            <glyph glyph-name="2" unicode="&#x32;" horiz-adv-x="150" d=" M150,52 L138,56 Q129,20 107,22 L40,22 Q51,52 91,71 Q149,99 147,141 Q145,194 83,193 Q21,192 18,145 Q17,124 36,124 Q54,125 57,144 Q62,181 83,180 Q108,179 108,145 Q107,113 74,88 Q16,46 15,-10 L140,-10"/> 
            <glyph glyph-name="3" unicode="&#x33;" horiz-adv-x="146" d=" M54,99 L54,85 Q108,84 108,39 Q108,-4 78,-2 Q57,-2 52,27 Q50,47 32,45 Q13,44 14,25 Q17,-13 78,-15 Q145,-14 146,39 Q146,86 87,93 Q141,101 142,143 Q141,194 80,193 Q22,192 18,150 Q17,131 36,130 Q55,132 57,149 Q58,182 80,181 Q103,181 104,144 Q105,102 54,99"/> 
            <glyph glyph-name="4" unicode="&#x34;" horiz-adv-x="149" d=" M62,-10 L146,-10 L146,0 Q120,0 121,25 L121,40 L149,40 L149,55 L121,55 L121,190 L94,190 L5,55 L5,40 L86,40 L86,25 Q87,0 62,0 M86,154 L86,55 L22,55 Q27,63 41,85 Q75,138 86,154"/> 
            <glyph glyph-name="5" unicode="&#x35;" horiz-adv-x="147" d=" M137,189 L31,189 L22,73 L33,68 Q51,97 76,97 Q110,96 109,46 Q108,-1 77,-2 Q56,-3 52,26 Q49,44 33,43 Q15,43 15,24 Q18,-13 77,-14 Q146,-13 147,51 Q146,109 86,113 Q56,115 37,94 L42,152 L137,152"/> 
            <glyph glyph-name="6" unicode="&#x36;" horiz-adv-x="150" d=" M87,181 Q99,182 105,155 Q109,136 125,137 Q143,138 144,157 Q141,192 88,193 Q15,194 14,81 Q14,-16 83,-15 Q149,-12 150,53 Q149,113 92,117 Q68,119 52,101 Q54,182 87,181 M82,102 Q111,103 111,51 Q111,-2 83,-2 Q51,-3 52,62 Q54,99 82,102"/> 
            <glyph glyph-name="7" unicode="&#x37;" horiz-adv-x="148" d=" M15,121 L26,116 Q34,155 55,154 L124,154 Q50,48 50,0 Q50,-15 72,-15 Q93,-15 93,4 Q91,83 148,167 L148,189 L23,189"/> 
            <glyph glyph-name="8" unicode="&#x38;" horiz-adv-x="151" d=" M142,145 Q140,193 81,194 Q22,193 18,137 Q16,106 52,85 Q14,71 14,32 Q16,-15 78,-15 Q147,-15 149,41 Q151,78 107,100 Q143,114 142,145 M50,152 Q51,182 81,181 Q113,181 114,144 Q114,123 93,106 Q48,126 50,152 M116,28 Q114,-2 78,-2 Q42,-2 42,36 Q41,65 66,78 Q120,55 116,28"/> 
            <glyph glyph-name="9" unicode="&#x39;" horiz-adv-x="149" d=" M77,-2 Q61,-3 57,21 Q54,38 36,38 Q17,37 18,19 Q22,-13 77,-15 Q146,-15 149,94 Q145,192 80,193 Q14,189 13,122 Q14,62 70,58 Q94,57 110,74 Q107,-1 77,-2 M80,181 Q112,178 111,114 Q108,76 78,74 Q52,73 51,123 Q51,182 80,181"/> 
            <glyph glyph-name="D" unicode="&#x44;" horiz-adv-x="190" d=" M85,189 L8,189 L8,176 Q32,178 30,147 L30,29 Q31,0 7,0 L7,-10 L86,-10 Q190,-12 189,93 Q189,190 85,189 M83,0 L68,0 L68,175 L79,175 Q151,178 149,87 Q148,0 83,0"/> 
            <glyph glyph-name="H" unicode="&#x48;" horiz-adv-x="206" d=" M122,0 L122,-10 L206,-10 L206,0 Q180,-1 182,29 L182,147 Q180,178 205,176 L205,189 L123,189 L123,176 Q146,178 145,147 L145,101 L68,101 L68,147 Q66,179 90,176 L90,189 L8,189 L8,176 Q34,179 31,147 L31,28 Q32,0 7,0 L7,-10 L91,-10 L91,0 Q66,1 68,28 L68,87 L145,87 L145,29 Q148,-1 122,0"/> 
            <glyph glyph-name="I" unicode="&#x49;" horiz-adv-x="92" d=" M91,189 L8,189 L8,176 Q33,178 31,147 L31,28 Q34,0 6,0 L6,-10 L92,-10 L92,0 Q66,0 69,28 L69,147 Q66,179 91,176"/> 
            <glyph glyph-name="K" unicode="&#x4B;" horiz-adv-x="194" d=" M186,176 L186,189 L113,189 L113,176 Q131,176 130,169 Q116,141 67,86 L67,147 Q65,178 90,176 L90,189 L8,189 L8,176 Q33,179 30,147 L30,28 Q33,-2 7,0 L7,-10 L91,-10 L91,0 Q65,1 67,27 L67,65 Q70,69 75,75 Q81,82 83,85 Q98,59 122,16 Q132,0 137,-10 L194,-10 L194,0 Q173,2 163,23 Q136,71 109,115 L135,146 Q158,176 186,176"/> 
            <glyph glyph-name="P" unicode="&#x50;" horiz-adv-x="164" d=" M30,147 L30,28 Q31,-1 7,0 L7,-10 L92,-10 L92,0 Q65,-1 67,29 L67,70 L78,70 Q164,67 162,132 Q163,190 87,189 L8,189 L8,176 Q33,179 30,147 M78,83 L67,83 L67,176 L79,176 Q122,176 122,131 Q122,85 78,83"/> 
            <glyph glyph-name="R" unicode="&#x52;" horiz-adv-x="184" d=" M30,147 L30,28 Q32,-2 7,0 L7,-10 L91,-10 L91,0 Q65,-1 67,28 L67,80 L75,80 Q96,82 105,58 Q115,34 130,-10 L184,-10 L184,0 Q169,2 164,14 Q162,20 156,33 Q153,41 151,45 Q136,84 101,86 Q160,90 161,140 Q163,191 84,189 L7,189 L7,176 Q33,179 30,147 M78,92 L67,92 L67,176 L79,176 Q122,177 121,136 Q121,94 78,92"/> 
            <glyph glyph-name="S" unicode="&#x53;" horiz-adv-x="143" d=" M134,129 L130,191 Q121,187 118,187 Q114,186 105,189 Q103,189 103,189 Q101,189 97,190 Q87,193 76,193 Q17,191 14,134 Q12,96 57,77 Q110,55 108,29 Q107,0 74,0 Q38,-1 26,58 L15,54 L18,-10 Q32,-6 47,-9 Q51,-10 59,-11 Q67,-13 74,-13 Q140,-12 142,45 Q143,84 89,108 Q43,128 47,150 Q51,179 76,180 Q106,181 123,124"/> 
            <glyph glyph-name="T" unicode="&#x54;" horiz-adv-x="172" d=" M41,0 L41,-10 L131,-10 L131,0 Q102,0 105,28 L105,175 Q147,174 161,113 L172,118 L168,189 L6,189 L1,117 L13,113 Q23,175 67,175 L67,29 Q70,-2 41,0"/> 
            <glyph glyph-name="V" unicode="&#x56;" horiz-adv-x="198" d=" M108,-10 L160,136 Q169,176 198,176 L198,189 L130,189 L130,176 Q154,175 152,164 Q152,155 146,140 Q141,126 131,97 Q116,54 109,32 L72,144 Q69,151 68,161 Q67,164 67,165 Q67,174 90,176 L90,189 L1,189 L1,176 Q25,176 31,148 L86,-10"/> 
            <glyph glyph-name="W" unicode="&#x57;" horiz-adv-x="265" d=" M91,41 L67,143 Q65,149 64,159 Q63,162 63,164 Q61,175 85,176 L85,189 L2,189 L2,176 Q23,176 27,146 L66,-11 L89,-11 Q114,70 132,138 L171,-11 L194,-11 L232,135 Q240,177 265,176 L265,189 L198,189 L198,176 Q224,173 222,160 Q222,158 221,152 Q220,142 219,137 Q206,81 194,40 L158,185 L131,185"/> 
            <glyph glyph-name="a" unicode="&#x61;" horiz-adv-x="142" d=" M125,16 L125,89 Q128,135 76,133 Q22,131 19,100 Q18,83 36,82 Q54,81 56,99 Q58,122 75,120 Q90,120 90,89 L90,75 Q8,72 11,25 Q13,-12 50,-13 Q74,-14 91,3 Q92,-12 104,-12 Q109,-12 130,-9 Q138,-8 142,-8 L142,1 Q131,1 128,3 Q125,7 125,16 M90,62 L90,40 Q86,4 64,2 Q49,1 47,29 Q45,61 90,62"/> 
            <glyph glyph-name="c" unicode="&#x63;" horiz-adv-x="134" d=" M134,21 L124,28 Q112,1 86,0 Q48,0 48,63 Q48,122 76,121 Q89,122 94,97 Q98,82 112,81 Q129,82 130,99 Q127,133 76,134 Q11,131 10,56 Q11,-12 77,-15 Q112,-16 134,21"/> 
            <glyph glyph-name="d" unicode="&#x64;" horiz-adv-x="156" d=" M85,182 L85,170 Q86,170 89,169 Q96,169 99,166 Q104,160 104,145 L104,120 Q92,132 71,132 Q14,131 12,54 Q13,-13 67,-14 Q90,-15 106,0 L108,-12 L156,-10 L156,0 Q138,-1 139,24 L139,139 Q139,156 141,193 M76,119 Q103,117 105,61 Q105,1 76,0 Q50,1 50,58 Q50,120 76,119"/> 
            <glyph glyph-name="h" unicode="&#x68;" horiz-adv-x="167" d=" M92,-10 L167,-10 L167,0 Q143,0 146,26 L146,85 Q147,133 105,132 Q76,132 61,108 L61,139 Q61,178 62,193 L6,181 L6,170 Q28,173 26,141 L26,26 Q29,-2 6,0 L6,-10 L80,-10 L80,0 Q58,-1 61,26 L61,71 Q68,111 93,115 Q111,116 111,83 L111,26 Q113,-2 92,0"/> 
            <glyph glyph-name="l" unicode="&#x6C;" horiz-adv-x="82" d=" M5,-10 L82,-10 L82,0 Q58,-2 62,28 L62,193 L6,179 L6,168 Q28,171 26,139 L26,28 Q29,-2 5,0"/> 
            <glyph glyph-name="s" unicode="&#x73;" horiz-adv-x="110" d=" M102,85 L98,132 Q95,131 92,130 Q90,129 89,129 Q84,129 74,131 Q64,133 59,133 Q11,133 10,88 Q9,63 45,46 Q82,29 82,12 Q81,-2 59,-1 Q31,-2 22,42 L11,37 L15,-11 Q21,-10 26,-10 Q32,-10 43,-12 Q54,-14 60,-14 Q106,-12 108,29 Q110,57 69,75 Q38,89 39,103 Q38,121 59,122 Q79,124 92,81"/> 
            <glyph glyph-name="t" unicode="&#x74;" horiz-adv-x="91" d=" M55,174 L41,174 Q34,129 5,129 L5,115 L19,115 L19,19 Q20,-14 53,-14 Q71,-14 91,0 L84,11 Q75,2 69,2 Q54,2 54,27 L54,115 L84,115 L84,129 L54,129 Q54,136 55,158 Q55,172 55,174"/> 
            <glyph glyph-name="“" unicode="&#x201C;" horiz-adv-x="248" d=" M183,205 L189,198 Q166,190 165,174 Q165,168 173,167 Q191,163 191,146 Q189,126 166,124 Q141,125 140,152 Q141,189 183,205 M240,205 L246,198 Q223,190 222,174 Q222,168 230,167 Q247,162 248,146 Q246,126 223,124 Q198,125 197,152 Q198,191 240,205"/> 
            <glyph glyph-name="”" unicode="&#x201D;" horiz-adv-x="120" d=" M19,126 L13,133 Q36,143 37,158 Q37,163 29,165 Q12,170 12,186 Q14,206 36,207 Q61,206 62,180 Q62,142 19,126 M76,126 L70,133 Q93,144 94,158 Q94,163 86,165 Q68,170 68,186 Q70,206 93,207 Q119,206 120,180 Q119,142 76,126"/> 
            <glyph glyph-name="、" unicode="&#x3001;" horiz-adv-x="101" d=" M21,50 L22,52 Q84,40 96,19 Q101,11 101,4 Q101,-7 93,-15 Q90,-20 83,-20 Q77,-20 74,-15 Q48,28 21,50"/> 
            <glyph glyph-name="一" unicode="&#x4E00;" horiz-adv-x="248" d=" M205,124 L244,94 Q248,91 247,89 Q245,86 239,86 L12,86 L12,93 L182,93"/> 
            <glyph glyph-name="个" unicode="&#x4E2A;" horiz-adv-x="254" d=" M221,87 Q163,117 138,176 Q95,114 9,81 L7,85 Q59,128 90,180 Q91,181 92,184 Q100,200 102,208 L154,197 Q158,196 158,193 Q159,187 144,184 Q190,144 254,132 L254,127 Q235,122 221,87 M106,-24 Q108,18 108,61 L108,84 Q108,113 107,135 L154,131 Q160,131 160,128 Q161,122 148,117 L148,61 Q148,55 149,23 Q149,-8 149,-14 Q149,-21 145,-21 Q143,-21 137,-22 Q114,-24 106,-24"/> 
            <glyph glyph-name="临" unicode="&#x4E34;" horiz-adv-x="251" d=" M205,-22 L205,1 L145,1 L145,-14 Q145,-20 138,-21 Q123,-23 111,-24 Q112,-6 112,27 L112,62 Q112,91 111,98 L151,88 L201,88 L211,106 L244,92 Q250,90 249,86 Q249,82 240,75 L240,42 Q240,1 241,-13 Q241,-18 238,-19 Q223,-22 205,-22 M62,-24 L62,151 Q62,192 61,204 L102,200 Q108,199 107,196 Q107,191 95,186 L95,63 Q95,13 96,-14 Q96,-21 89,-22 Q80,-24 62,-24 M16,3 Q18,70 18,85 L18,134 Q18,137 18,149 Q17,167 17,175 L56,172 Q60,172 60,169 Q60,163 50,160 L50,16 Q50,7 42,6 Q40,6 35,5 Q21,3 16,3 M100,97 L97,99 Q117,144 125,178 Q131,201 130,206 L176,196 Q182,194 181,191 Q181,185 167,182 Q166,180 163,175 Q159,166 155,161 L201,161 L217,184 L247,163 Q251,160 250,158 Q248,155 242,155 L152,155 Q129,119 100,97 M181,98 Q171,98 167,109 Q160,131 145,143 L147,145 Q202,141 201,120 Q200,100 181,98 M205,82 L190,82 L190,7 L205,7 M145,82 L145,7 L160,7 L160,82"/> 
            <glyph glyph-name="么" unicode="&#x4E48;" horiz-adv-x="237" d=" M212,-22 Q200,-23 196,-10 Q193,2 188,12 Q145,0 67,-14 Q67,-25 60,-26 Q56,-26 55,-21 L42,21 Q65,21 73,31 Q127,88 148,146 L196,124 Q199,123 199,121 Q200,113 182,112 Q147,62 94,22 L183,24 Q178,36 161,61 L164,64 Q237,32 237,4 Q235,-20 212,-22 M29,62 L25,67 Q78,120 102,173 Q111,190 115,207 L164,190 Q168,188 168,185 Q168,179 152,177 Q115,111 29,62"/> 
            <glyph glyph-name="了" unicode="&#x4E86;" horiz-adv-x="239" d=" M91,-25 Q93,3 45,15 L46,19 L92,17 Q108,17 108,29 L108,80 Q108,109 106,137 L136,133 L173,178 L21,178 L21,185 L169,185 L190,205 L233,174 Q239,170 238,168 Q239,160 218,161 Q191,145 154,131 L157,131 Q163,130 163,126 Q163,120 149,114 L149,71 Q149,40 150,8 Q151,-19 91,-25"/> 
            <glyph glyph-name="人" unicode="&#x4EBA;" horiz-adv-x="251" d=" M205,-24 Q144,30 134,138 Q129,18 7,-25 L6,-21 Q94,50 93,162 Q93,178 92,202 L143,196 Q150,196 150,192 Q151,186 136,180 Q136,177 136,175 Q164,60 251,21 L250,16 Q225,13 205,-24"/> 
            <glyph glyph-name="什" unicode="&#x4EC0;" horiz-adv-x="253" d=" M139,-25 Q140,-3 140,60 L140,106 L82,106 L82,112 L140,112 L140,150 Q140,184 138,203 L185,200 Q191,200 191,196 Q191,189 179,185 L179,112 L196,112 L215,139 L249,114 Q253,111 251,108 Q250,106 244,106 L179,106 L179,79 Q179,2 180,-16 Q180,-21 176,-22 Q160,-25 139,-25 M38,-24 Q38,24 38,69 L38,101 Q24,86 6,71 L4,74 Q43,144 52,208 L100,196 Q105,196 105,192 Q106,185 90,182 Q81,161 69,141 L80,140 Q86,138 86,135 Q85,129 74,126 L74,-12 Q75,-21 66,-22 Q52,-24 38,-24"/> 
            <glyph glyph-name="会" unicode="&#x4F1A;" horiz-adv-x="251" d=" M205,99 L237,75 Q241,72 239,70 Q238,68 232,68 L136,68 Q103,32 80,16 L169,18 Q160,37 147,55 L150,58 Q220,30 220,0 Q218,-20 195,-23 Q183,-23 181,-13 Q178,-3 175,4 Q119,-7 60,-16 Q59,-28 52,-28 Q48,-28 47,-22 L34,16 Q54,16 59,23 Q72,43 79,68 L16,68 L16,74 L187,74 M219,97 Q160,124 135,173 Q96,119 10,89 L8,92 Q61,134 84,174 Q97,193 99,207 L152,195 Q157,194 157,191 Q158,186 143,183 L142,182 Q183,149 251,142 L250,137 Q233,133 219,97 M152,137 L183,115 Q186,113 185,111 Q183,109 178,109 L69,109 L69,115 L136,115"/> 
            <glyph glyph-name="位" unicode="&#x4F4D;" horiz-adv-x="252" d=" M35,-24 Q35,1 36,48 Q36,72 36,79 L36,95 Q32,91 23,82 Q14,72 9,67 L5,70 Q41,146 48,207 L95,196 Q100,196 100,192 Q100,186 87,183 Q80,165 66,138 L76,137 Q80,137 80,134 Q80,128 70,124 L70,-12 Q71,-21 62,-22 Q48,-24 35,-24 M214,18 L248,-5 Q252,-7 250,-10 Q249,-12 243,-12 L77,-12 L77,-6 L156,-6 Q176,68 180,138 L230,125 Q236,124 235,120 Q235,113 220,110 Q197,39 166,-6 L195,-6 M125,13 Q112,13 112,28 Q113,80 100,130 L103,131 Q155,79 153,42 Q150,16 125,13 M152,154 Q138,154 138,167 Q136,188 128,206 L130,208 Q178,197 177,176 Q174,156 152,154 M210,176 L245,153 Q249,150 247,147 Q246,145 240,145 L86,145 L86,152 L193,152"/> 
            <glyph glyph-name="体" unicode="&#x4F53;" horiz-adv-x="254" d=" M132,-24 Q133,-2 133,26 L95,26 L95,32 L133,32 L133,61 L133,87 Q109,51 67,24 L67,-12 Q68,-20 59,-22 Q45,-24 31,-24 Q32,18 32,62 L32,97 Q20,84 7,73 L4,76 Q29,126 41,172 Q41,174 42,177 Q46,192 48,208 L95,196 Q99,196 99,192 Q99,187 87,184 Q76,159 64,140 L71,138 Q76,137 76,135 Q76,131 67,126 L67,32 Q107,89 120,140 L77,140 L77,146 L133,146 L133,151 Q133,182 132,204 L172,201 Q180,201 180,197 Q180,193 170,187 L170,146 L197,146 L213,169 L245,147 Q249,144 247,142 Q246,140 240,140 L178,140 Q203,91 254,67 L252,62 Q236,57 221,28 Q177,70 172,140 L170,140 L170,66 Q170,55 170,32 L175,32 L189,51 L213,33 Q217,31 215,28 Q213,26 208,26 L170,26 Q170,20 170,8 Q171,-6 171,-14 Q171,-21 165,-22 Q145,-24 132,-24"/> 
            <glyph glyph-name="倍" unicode="&#x500D;" horiz-adv-x="251" d=" M184,-24 L184,-4 L123,-4 L123,-8 Q124,-20 117,-20 Q104,-23 86,-23 Q87,-2 87,17 L87,40 Q87,55 87,76 L130,66 L179,66 L190,86 L226,71 Q231,69 231,66 Q232,60 220,54 L220,26 Q220,6 221,-11 Q221,-18 215,-21 Q210,-22 196,-23 Q188,-24 184,-24 M32,-24 Q33,12 33,66 L33,97 Q21,84 9,70 L5,72 Q42,158 45,207 L89,197 Q94,196 94,193 Q94,187 81,184 Q71,159 60,138 L72,136 Q76,136 76,134 Q77,128 66,123 L66,-11 Q67,-20 58,-22 Q42,-24 32,-24 M184,60 L123,60 L123,1 L184,1 M218,123 L247,101 Q251,98 249,96 Q248,94 242,94 L72,94 L72,100 L160,100 Q172,139 173,161 L214,148 Q219,146 219,143 Q217,137 205,136 Q194,120 173,100 L201,100 M205,190 L234,169 Q238,167 237,165 Q235,163 230,163 L83,163 L83,169 L138,169 Q136,171 136,174 Q134,192 125,204 L127,206 Q173,204 172,186 Q172,175 162,169 L191,169 M121,102 Q111,102 109,112 Q106,137 96,155 L98,157 Q145,145 144,125 Q142,104 121,102"/> 
            <glyph glyph-name="值" unicode="&#x503C;" horiz-adv-x="256" d=" M232,9 L253,-6 Q256,-9 255,-12 Q253,-14 248,-14 L74,-14 L74,-8 L95,-8 L95,88 Q95,90 95,101 Q94,131 94,146 L137,136 L139,136 L140,165 L82,165 L82,171 L141,171 L141,172 Q141,188 140,206 L183,202 Q187,202 188,199 Q188,193 177,189 L176,171 L206,171 L221,192 L249,172 Q253,170 251,167 Q250,165 244,165 L176,165 L174,136 L183,136 L193,154 L228,140 Q232,138 232,135 Q232,129 222,122 L222,-3 M33,-23 Q34,-1 34,19 Q34,39 34,62 L34,99 Q21,82 4,67 L1,70 Q29,130 40,171 Q46,193 47,208 L89,197 Q94,197 94,194 Q95,188 83,185 Q72,160 60,138 L73,137 Q79,136 79,133 Q80,128 69,121 L69,-11 Q70,-21 60,-22 Q53,-23 33,-23 M130,21 L130,-8 L187,-8 L187,21 M130,57 L130,27 L187,27 L187,57 M130,93 L130,63 L187,63 L187,93 M187,130 L130,130 L130,100 L187,100"/> 
            <glyph glyph-name="全" unicode="&#x5168;" horiz-adv-x="254" d=" M191,79 L222,56 Q226,53 225,51 Q223,49 217,49 L146,49 L146,-6 L197,-6 L216,18 L250,-4 Q254,-7 252,-10 Q250,-12 244,-12 L14,-12 L14,-6 L106,-6 L106,49 L42,49 L42,55 L106,55 L106,106 L64,106 L64,112 L144,112 L161,134 L192,112 Q195,110 194,108 Q192,106 187,106 L146,106 L146,55 L174,55 M226,96 Q161,124 134,179 Q91,117 10,87 L8,90 Q63,136 90,180 Q91,181 92,184 Q99,198 102,208 L148,198 Q152,197 152,194 Q153,188 139,186 L138,185 Q182,147 252,138 L251,134 Q236,127 226,96"/> 
            <glyph glyph-name="内" unicode="&#x5185;" horiz-adv-x="243" d=" M24,-24 Q25,27 26,68 L26,117 Q26,124 26,143 Q25,162 25,170 L71,155 L107,155 L107,161 L107,167 Q107,196 106,205 L152,202 Q158,201 157,198 Q157,193 145,187 L145,179 Q145,167 144,155 L188,155 L199,176 L238,160 Q242,159 242,156 Q243,151 231,143 L231,89 Q231,79 231,54 Q232,24 232,10 Q234,-18 178,-24 Q180,0 139,12 L140,17 L183,15 Q194,15 194,27 L194,63 Q191,42 170,40 Q160,41 157,50 Q150,78 136,99 Q123,56 68,26 L63,29 Q109,81 107,149 L63,149 L63,-13 Q63,-21 56,-22 Q39,-24 24,-24 M194,149 L144,149 Q143,125 138,107 Q195,90 194,66"/> 
            <glyph glyph-name="制" unicode="&#x5236;" horiz-adv-x="249" d=" M21,-5 Q22,12 22,44 L22,57 Q22,74 22,93 L56,84 L66,84 L66,113 L8,113 L8,119 L66,119 L66,144 L66,152 L41,152 Q32,137 19,121 L15,122 Q25,175 25,197 L60,189 Q64,189 64,186 Q64,182 55,180 Q49,168 45,158 L66,158 Q66,180 65,205 L105,201 Q111,201 111,198 Q111,192 101,188 L101,158 L110,158 L123,178 L150,159 Q153,157 152,154 Q150,152 145,152 L101,152 L101,119 L112,119 L126,139 L153,120 Q156,117 155,115 Q153,113 148,113 L101,113 L101,84 L110,84 L120,103 L150,89 Q155,88 155,84 Q156,80 145,73 L145,58 Q145,54 145,45 Q146,30 146,22 Q148,-1 109,-4 Q110,14 101,20 L101,-12 Q101,-21 93,-22 Q85,-23 65,-23 Q65,-12 66,23 Q66,54 66,62 L66,78 L53,78 L53,3 Q53,-1 46,-2 Q31,-5 21,-5 M188,-25 Q188,0 155,9 L156,13 L192,11 Q202,8 201,24 L201,152 Q201,192 200,204 L240,200 Q249,200 248,197 Q248,191 236,187 L236,107 Q236,101 236,75 Q237,28 237,6 Q241,-20 188,-25 M159,31 Q160,66 160,111 L160,136 Q160,164 159,180 L191,177 Q198,177 198,174 Q198,170 189,164 L189,43 Q189,36 181,34 Q177,34 172,32 Q164,31 159,31 M115,78 L101,78 L101,28 L109,28 Q115,28 115,39"/> 
            <glyph glyph-name="务" unicode="&#x52A1;" horiz-adv-x="250" d=" M8,-28 L7,-24 Q81,8 87,57 Q87,57 87,59 L29,59 L29,65 L88,65 Q90,77 88,91 Q67,84 8,75 L7,79 Q74,101 109,124 Q97,137 88,153 Q66,129 37,110 L34,113 Q68,165 75,207 L119,198 Q124,197 124,194 Q123,188 110,185 Q110,184 109,182 Q109,181 108,180 L154,180 L170,198 L207,176 Q211,173 211,170 Q212,166 197,161 Q181,140 164,127 Q198,119 250,122 L249,117 Q235,111 227,80 Q161,90 133,107 Q117,99 98,93 L135,91 Q141,89 141,87 Q141,81 129,77 L127,65 L170,65 L182,83 L221,67 Q225,66 225,63 Q226,59 214,51 Q213,46 212,37 Q210,17 208,7 Q207,-22 151,-25 Q152,0 115,8 L116,13 L156,10 Q168,8 170,21 Q174,38 175,59 L126,59 Q122,-11 8,-28 M157,174 L104,174 Q100,167 95,161 Q110,148 127,139 Q143,152 157,174"/> 
            <glyph glyph-name="升" unicode="&#x5347;" horiz-adv-x="253" d=" M15,143 L13,147 Q83,184 101,206 L139,184 Q144,181 144,177 Q143,172 136,172 Q132,172 128,173 Q115,167 100,162 L100,113 Q100,112 100,108 Q99,105 99,103 L151,103 L151,148 Q151,180 150,203 L197,200 Q201,199 201,196 Q201,191 189,185 L189,103 L197,103 L215,129 L249,104 Q253,102 251,99 Q249,97 243,97 L189,97 L189,62 Q189,58 189,31 Q190,-4 190,-12 Q190,-17 186,-18 Q168,-22 150,-22 Q150,-14 151,25 Q151,57 151,62 L151,97 L99,97 Q95,12 9,-26 L8,-23 Q59,27 60,97 L7,97 L7,103 L61,103 Q61,108 61,113 L61,151 Q40,146 15,143"/> 
            <glyph glyph-name="双" unicode="&#x53CC;" horiz-adv-x="253" d=" M215,-23 Q182,8 170,28 Q138,-3 85,-25 L82,-22 Q131,17 155,58 Q138,102 132,178 L125,178 Q122,174 115,170 Q109,129 97,96 Q127,68 126,47 Q123,26 105,23 Q97,23 92,33 Q90,37 87,44 Q82,53 80,58 Q55,16 7,-19 L4,-16 Q45,45 61,92 Q42,122 17,152 L19,154 Q49,135 69,120 Q76,147 79,178 L13,178 L13,184 L74,184 L86,204 L122,187 Q126,186 126,184 L190,184 L202,206 L243,187 Q247,185 247,182 Q247,176 234,168 Q221,98 195,59 Q215,36 253,14 L252,10 Q227,5 215,-23 M195,178 L140,178 Q153,122 172,91 Q188,129 195,178"/> 
            <glyph glyph-name="员" unicode="&#x5458;" horiz-adv-x="239" d=" M162,132 L162,142 L94,142 L94,136 Q94,130 88,129 Q73,126 58,126 Q59,143 59,159 L59,170 Q59,181 59,197 L98,189 L157,189 L167,206 L203,194 Q207,192 207,189 Q207,185 198,178 L198,171 Q198,169 198,165 Q197,154 198,141 Q198,137 194,135 Q193,135 190,135 Q186,134 184,134 L221,120 Q225,118 226,115 Q226,110 215,102 L215,73 Q215,55 216,35 Q216,31 210,29 Q198,25 178,25 L178,109 L78,109 L78,30 Q78,23 69,21 Q54,18 40,18 Q41,38 41,59 L41,80 Q41,94 41,123 L84,115 L173,115 L184,134 Q172,132 162,132 M216,-25 Q207,-26 200,-18 Q177,4 135,25 Q118,-21 12,-25 L11,-21 Q104,0 107,58 Q110,77 108,97 L154,91 Q159,90 159,87 Q159,80 146,77 Q145,45 137,29 Q239,20 233,-4 Q231,-23 216,-25 M162,183 L94,183 L94,148 L162,148"/> 
            <glyph glyph-name="和" unicode="&#x548C;" horiz-adv-x="248" d=" M105,50 Q96,50 95,60 Q94,78 86,95 L86,-13 Q86,-22 77,-23 Q69,-24 50,-24 Q50,-9 51,21 Q51,52 52,66 Q34,41 7,19 L4,22 Q33,74 45,121 L9,121 L9,127 L52,127 L52,169 Q33,167 10,167 L9,171 Q62,187 95,208 L125,185 Q128,183 127,180 Q124,173 111,178 Q107,177 99,176 Q90,174 86,173 L86,127 L88,127 L102,146 L127,128 Q127,128 128,127 Q128,126 129,126 Q129,166 128,180 L169,170 L198,170 L210,190 L245,175 Q248,174 248,171 Q248,166 239,158 L239,68 Q239,40 240,0 Q240,-4 235,-5 Q233,-5 227,-6 Q211,-8 203,-9 L203,10 L164,10 L164,-3 Q165,-10 155,-11 Q140,-14 128,-14 Q128,1 129,34 Q129,55 129,62 L129,122 L129,123 Q127,121 122,121 L86,121 L86,102 Q125,89 125,70 Q123,52 105,50 M203,164 L164,164 L164,16 L203,16"/> 
            <glyph glyph-name="喜" unicode="&#x559C;" horiz-adv-x="251" d=" M43,80 Q44,89 44,106 L44,112 Q44,124 44,135 L88,126 L162,126 L172,143 L210,129 Q216,127 215,124 Q215,119 205,113 L205,110 Q205,97 206,93 Q206,87 199,84 Q198,84 196,83 Q182,81 175,81 L185,78 Q192,77 191,73 Q191,67 179,67 Q172,62 157,56 L196,56 L214,81 L248,57 Q251,55 250,52 Q248,50 243,50 L7,50 L7,56 L78,56 Q75,59 74,63 Q73,73 68,81 Q60,80 43,80 M40,-24 Q40,-19 40,-8 Q41,3 41,9 L41,15 Q41,34 40,40 L86,32 L165,32 L176,49 L216,34 Q220,32 220,30 Q221,25 210,18 L210,15 Q210,11 211,-11 Q211,-17 205,-20 Q198,-22 176,-23 Q172,-24 170,-24 L170,-8 L81,-8 L81,-13 Q81,-22 72,-23 Q62,-24 40,-24 M205,201 L237,178 Q240,176 239,174 Q237,172 232,172 L144,172 L144,149 L180,149 L196,171 L227,150 Q230,147 229,145 Q227,143 222,143 L28,143 L28,149 L104,149 L104,168 L104,172 L14,172 L14,177 L104,177 Q104,197 103,206 L150,202 Q156,202 156,199 Q156,194 144,188 L144,177 L188,177 M170,26 L81,26 L81,-2 L170,-2 M166,120 L82,120 L82,94 L166,94 M82,89 Q82,88 81,86 Q81,85 81,85 Q110,84 110,70 Q109,61 100,56 L140,56 Q143,72 145,87 L166,83 L166,89"/> 
            <glyph glyph-name="器" unicode="&#x5668;" horiz-adv-x="253" d=" M27,118 Q28,147 28,161 L28,194 L66,185 L79,185 L89,202 L120,188 Q124,187 124,184 Q124,178 115,173 L115,166 Q115,156 115,137 Q115,133 114,130 L144,123 Q148,122 148,119 Q148,114 135,111 Q132,105 129,101 L172,101 Q169,102 168,108 Q167,118 161,126 L162,128 Q198,128 197,114 Q197,105 187,101 L202,101 L218,123 L248,102 Q252,100 250,97 Q249,95 243,95 L149,95 Q185,74 253,76 L252,72 Q240,66 235,38 L228,39 L225,35 L225,19 Q225,2 226,-9 Q226,-16 220,-17 Q213,-19 199,-20 Q194,-21 192,-21 L192,-4 L166,-4 L166,-10 Q167,-19 159,-19 Q154,-20 143,-21 Q137,-22 134,-22 Q134,2 134,19 L134,56 L173,46 L189,46 L190,49 Q157,63 141,95 L125,95 Q102,62 58,49 L66,46 L83,46 L93,62 L122,50 Q127,48 127,45 Q128,42 118,34 L118,17 Q118,13 118,6 Q119,-5 119,-12 Q120,-19 113,-20 Q101,-23 86,-23 L86,-4 L61,-4 L61,-12 Q61,-21 51,-22 Q35,-24 27,-24 Q28,-4 28,17 L28,40 L8,37 L7,41 Q62,70 80,95 L9,95 L9,101 L85,101 L88,105 Q94,115 98,127 Q91,126 83,126 L83,136 L61,136 L61,130 Q62,121 53,120 Q37,118 27,118 M193,125 L193,136 L167,136 Q168,130 160,129 Q150,126 135,126 Q135,149 135,167 L135,194 L173,185 L190,185 L200,201 L230,189 Q235,187 235,185 Q236,181 226,173 L226,166 Q226,155 227,137 Q228,130 221,129 Q208,126 193,125 M192,40 L166,40 L166,1 L192,1 M86,40 L61,40 L61,1 L86,1 M193,179 L167,179 L167,143 L193,143 M83,179 L61,179 L61,143 L83,143"/> 
            <glyph glyph-name="固" unicode="&#x56FA;" horiz-adv-x="244" d=" M198,-23 L198,-6 L60,-6 L60,-12 Q60,-20 53,-21 Q42,-23 23,-23 Q25,23 25,71 L25,137 Q25,144 25,163 Q24,187 24,197 L69,185 L193,185 L203,204 L241,189 Q244,188 244,185 Q244,179 234,173 L234,116 Q234,43 236,-9 Q237,-19 230,-20 Q223,-21 206,-22 Q211,-22 198,-23 M198,179 L60,179 L60,0 L198,0 M77,11 Q77,29 78,44 Q78,49 78,52 L78,62 Q78,64 78,70 Q77,85 77,99 L110,90 L110,118 L110,127 L66,127 L66,134 L110,134 Q110,156 109,173 L151,170 Q155,169 155,167 Q155,161 145,157 L145,134 L156,134 L170,153 L196,134 Q199,132 198,129 Q196,127 191,127 L145,127 L145,93 L152,106 L184,92 Q188,91 188,88 Q188,83 179,77 L179,58 Q179,57 180,28 Q181,19 174,17 Q162,16 145,14 L145,29 L111,29 L111,23 Q111,14 102,13 Q88,11 77,11 M145,83 L111,83 L111,35 L145,35"/> 
            <glyph glyph-name="图" unicode="&#x56FE;" horiz-adv-x="243" d=" M197,-24 L197,-7 L57,-7 L57,-13 Q58,-22 51,-22 Q31,-24 21,-24 Q23,24 23,71 L23,139 Q23,177 22,195 L61,185 L192,185 L204,204 L240,189 Q243,188 243,185 Q243,180 233,172 L233,111 Q233,95 234,44 Q234,0 234,-12 Q234,-20 226,-21 Q220,-22 207,-23 Q200,-24 197,-24 M59,65 L57,69 Q96,90 112,105 Q105,116 99,130 Q83,110 66,97 L63,100 Q83,143 86,178 L124,169 Q128,168 128,166 Q129,161 116,157 Q113,153 112,149 L139,149 L152,165 L184,146 Q187,144 187,142 Q187,136 175,133 Q166,119 156,110 Q174,107 197,105 L197,179 L57,179 L57,-1 L197,-1 L197,99 Q185,94 177,68 Q146,77 130,89 Q106,74 59,65 M149,0 Q140,0 135,6 Q110,27 85,38 L86,41 Q172,42 167,20 Q166,2 149,0 M137,41 Q128,41 125,47 Q117,65 104,73 L105,77 Q157,76 154,59 Q152,43 137,41 M108,143 L104,137 Q114,127 126,121 Q133,127 141,143"/> 
            <glyph glyph-name="场" unicode="&#x573A;" horiz-adv-x="250" d=" M180,-24 Q182,1 154,9 Q129,-9 91,-27 L89,-23 Q160,35 167,107 L159,107 Q146,36 65,0 L63,2 Q113,52 124,98 L116,92 Q111,89 108,92 Q99,101 89,113 Q86,119 92,119 Q103,120 111,127 L166,183 L93,183 L93,189 L165,189 L181,206 L216,185 Q220,183 220,179 Q222,173 205,171 L143,113 L200,113 L212,133 L246,118 Q250,116 250,113 Q250,107 240,100 Q240,61 237,24 Q240,-20 180,-24 M21,3 Q17,3 16,8 L4,54 Q10,54 20,55 Q31,55 37,56 L37,131 L9,131 L9,137 L37,137 L37,154 Q37,165 36,182 Q36,197 36,206 L77,202 Q82,202 82,199 Q82,194 71,189 L71,137 L72,137 L83,155 L105,138 Q108,136 107,133 Q105,131 100,131 L71,131 L71,60 Q76,61 88,63 Q97,64 102,65 L104,61 Q68,34 28,15 Q28,4 21,3 M201,107 Q192,43 158,14 L183,12 Q200,11 200,26 Q205,66 205,107"/> 
            <glyph glyph-name="坚" unicode="&#x575A;" horiz-adv-x="253" d=" M216,69 Q191,81 175,96 Q152,80 119,69 L116,73 Q140,91 159,114 Q142,137 135,175 L122,175 L122,181 L188,181 L200,198 L236,180 Q240,177 240,174 Q239,168 227,165 Q216,140 199,120 Q219,112 247,106 L246,102 Q226,97 216,69 M193,62 L225,40 Q229,38 227,36 Q225,34 219,34 L148,34 L148,-9 L200,-9 L217,13 L249,-8 Q253,-10 251,-13 Q250,-15 244,-15 L9,-15 L9,-9 L111,-9 L111,34 L30,34 L30,40 L111,40 L111,69 L154,65 Q159,65 159,62 Q159,56 148,52 L148,40 L177,40 M80,66 Q81,102 81,132 L81,162 Q81,181 81,205 L120,200 Q125,200 126,197 Q127,192 115,187 L115,81 Q115,73 105,70 Q93,67 80,66 M31,76 Q32,109 32,128 L32,148 Q32,167 31,188 L70,185 Q75,185 76,181 Q75,175 65,172 L65,87 Q65,80 58,79 Q45,76 31,76 M191,175 L141,175 Q154,151 173,135 Q184,154 191,175"/> 
            <glyph glyph-name="墙" unicode="&#x5899;" horiz-adv-x="255" d=" M200,-23 L200,-5 L122,-5 L122,-12 Q123,-22 116,-22 Q100,-24 88,-24 Q89,-1 89,35 L89,53 Q59,30 25,14 Q25,3 19,3 Q16,3 14,9 L4,47 Q13,47 31,49 L31,125 L8,125 L8,131 L31,131 L31,153 Q31,192 30,204 L70,201 Q76,200 76,197 Q77,192 65,187 L65,137 L73,149 L95,131 Q98,129 97,127 Q95,125 91,125 L65,125 L65,53 Q69,54 77,56 Q85,57 89,58 L89,56 L89,95 L130,86 L195,86 L204,103 L238,90 Q244,88 243,85 Q243,80 233,74 L233,40 Q233,33 233,17 Q234,-2 234,-13 Q235,-20 226,-21 Q217,-23 200,-23 M200,80 L122,80 L122,0 L200,0 M223,132 L251,111 Q255,109 253,106 Q252,104 247,104 L77,104 L77,111 L141,111 L141,164 L141,168 L87,168 L87,175 L141,175 L140,206 L179,202 Q185,202 185,199 Q185,193 175,189 L175,175 L201,175 L215,194 L242,175 Q245,173 244,170 Q242,168 237,168 L175,168 L175,111 L208,111 M167,11 L167,21 L155,21 L155,18 Q155,11 148,10 Q143,9 137,9 Q139,9 132,8 L132,69 L157,62 L163,62 L170,75 L195,65 Q198,64 197,61 Q198,58 190,52 L190,20 Q190,14 186,13 Q180,11 167,11 M185,112 L180,113 Q189,142 191,163 L226,152 Q230,151 230,147 Q231,142 219,142 Q206,125 185,112 M117,115 Q107,115 106,124 Q104,145 96,161 L98,163 Q137,151 136,135 Q134,117 117,115 M167,57 L155,57 L155,27 L167,27"/> 
            <glyph glyph-name="增" unicode="&#x589E;" horiz-adv-x="248" d=" M71,148 L86,135 L86,147 Q86,169 85,175 L124,168 L166,168 Q172,194 174,211 L211,203 Q217,201 217,198 Q217,193 205,190 Q195,179 179,168 L201,168 L210,185 L244,171 Q248,169 248,167 Q248,161 239,155 L239,134 Q239,117 239,90 Q239,86 235,84 Q219,82 205,82 L205,89 L119,89 Q119,82 115,81 Q110,81 100,80 Q90,80 85,79 Q85,83 85,99 Q86,117 86,122 L86,127 L83,127 L61,127 L61,57 Q75,59 89,62 L91,59 Q60,32 27,16 Q26,4 20,4 Q17,4 16,9 L2,49 Q13,49 27,51 L27,127 L8,127 L8,133 L27,133 L27,154 Q27,192 26,206 L67,202 Q73,202 73,198 Q73,192 61,188 L61,134 M191,-24 L191,-7 L132,-7 L132,-14 Q132,-21 125,-22 Q110,-24 94,-24 Q95,-3 95,28 L95,41 Q95,69 94,77 L138,67 L186,67 L197,84 L233,70 Q233,70 234,69 Q238,68 238,65 Q239,61 228,53 L228,46 Q228,19 228,-13 Q229,-20 222,-21 Q217,-22 203,-23 Q195,-24 191,-24 M132,26 L132,-1 L191,-1 L191,26 M191,60 L132,60 L132,32 L191,32 M135,168 Q125,168 123,178 Q121,195 112,207 L114,209 Q156,204 155,186 Q153,170 135,168 M177,102 L176,102 L176,94 L205,94 L205,130 Q195,116 177,102 M205,162 L176,162 L176,112 Q183,135 186,151 L205,145 M119,150 Q144,139 146,127 L146,162 L119,162 M132,107 Q123,107 123,117 Q122,130 119,142 L119,94 L146,94 L146,117 Q142,108 132,107"/> 
            <glyph glyph-name="声" unicode="&#x58F0;" horiz-adv-x="251" d=" M7,-25 L6,-25 Q36,11 35,79 L35,85 Q35,112 34,120 L77,110 L179,110 L189,128 L228,113 Q232,112 232,109 Q232,104 221,96 L221,84 Q221,71 221,42 Q221,38 218,37 Q199,34 184,33 L184,51 L71,51 Q64,3 7,-25 M207,159 L237,139 Q241,136 239,134 Q237,132 231,132 L33,132 L33,138 L109,138 L109,161 Q109,163 109,168 L15,168 L15,175 L108,175 Q108,182 107,197 Q107,203 107,205 L155,202 Q161,202 160,199 Q159,191 148,188 L148,175 L201,175 L217,197 L248,175 Q251,173 250,170 Q248,168 243,168 L148,168 L148,138 L192,138 M184,104 L146,104 L146,57 L184,57 M73,78 Q73,66 72,57 L110,57 L110,104 L73,104"/> 
            <glyph glyph-name="处" unicode="&#x5904;" horiz-adv-x="252" d=" M17,48 L12,50 Q36,148 36,204 L82,197 Q88,197 88,193 Q89,187 75,183 Q72,167 67,152 L89,152 L101,172 L139,154 Q139,154 140,153 Q144,152 144,149 Q144,143 132,137 Q121,79 101,46 Q108,41 114,38 Q142,22 204,23 Q222,23 252,27 L251,22 Q235,14 229,-16 Q128,-18 94,13 Q89,17 83,23 Q61,-2 13,-26 L10,-23 Q47,13 66,49 Q56,73 50,105 Q40,80 17,48 M224,76 Q214,76 211,86 Q204,119 188,142 L188,120 Q188,74 188,41 Q188,36 184,35 Q162,31 149,31 Q150,60 150,113 L150,152 Q150,178 150,205 L195,202 Q199,201 199,198 Q200,193 188,188 L188,150 Q245,126 245,100 Q244,78 224,76 M56,118 Q65,92 76,74 Q87,103 93,146 L66,146 Q65,144 64,141 Q62,132 56,118"/> 
            <glyph glyph-name="大" unicode="&#x5927;" horiz-adv-x="253" d=" M205,-24 Q145,26 141,123 L140,123 Q134,10 7,-26 L5,-22 Q94,34 99,123 L11,123 L11,130 L100,130 Q101,145 101,162 Q101,197 100,205 L150,201 Q156,201 155,198 Q155,192 142,186 L142,173 Q142,149 140,130 L191,130 L211,157 L244,132 Q249,129 247,126 Q245,123 238,123 L149,123 Q173,51 253,19 L251,14 Q223,10 205,-24"/> 
            <glyph glyph-name="好" unicode="&#x597D;" horiz-adv-x="255" d=" M144,-24 Q144,1 114,8 Q108,-1 98,-1 Q90,-1 86,5 Q80,14 74,21 Q55,-3 9,-28 L7,-25 Q39,8 54,41 Q39,53 14,66 Q15,73 19,91 Q26,124 29,143 L7,143 L7,149 L30,149 L32,162 Q36,190 36,205 L78,199 Q82,199 82,195 Q81,189 70,185 Q69,179 67,167 Q64,155 63,149 L75,149 L86,168 L118,152 Q124,150 123,147 Q123,142 111,135 Q105,81 91,51 Q119,39 118,22 Q118,17 116,12 L143,12 Q154,9 153,25 L153,90 L106,90 L106,96 L153,96 L153,101 Q153,125 152,145 L176,142 L196,182 L110,182 L110,188 L193,188 L208,207 L246,183 Q249,181 249,178 Q250,173 235,171 Q217,156 191,141 L198,140 Q204,140 204,137 Q204,131 191,124 L191,96 L203,96 L220,120 L251,97 Q255,95 253,92 Q252,90 246,90 L191,90 L191,60 Q191,28 192,5 Q194,-20 144,-24 M46,64 Q50,62 60,60 Q61,60 62,60 Q74,94 78,143 L62,143 Q58,121 50,81 Q47,70 46,64"/> 
            <glyph glyph-name="安" unicode="&#x5B89;" horiz-adv-x="250" d=" M11,-25 L9,-21 Q83,4 109,29 Q84,39 46,48 Q58,72 69,97 L11,97 L11,103 L71,103 Q81,128 87,156 L133,145 Q137,144 137,141 Q137,134 124,133 Q118,118 112,103 L194,103 L211,127 L242,106 Q248,102 246,100 Q245,97 237,97 L195,97 Q185,62 168,38 Q184,34 197,29 Q224,18 226,0 Q224,-24 205,-26 Q198,-26 190,-19 Q172,-2 143,13 Q104,-15 11,-25 M28,121 Q11,122 10,141 Q10,152 19,157 Q36,167 41,185 L43,185 Q50,175 53,167 L112,167 Q108,169 107,175 Q105,192 96,204 L98,207 Q148,206 146,186 Q145,172 132,167 L193,167 L207,187 L245,164 Q250,161 250,158 Q250,153 235,151 Q222,142 199,130 Q195,128 193,127 L190,130 L197,161 L55,161 Q55,160 56,157 Q56,154 56,152 Q54,124 28,121 M86,51 Q107,49 126,46 Q143,68 151,97 L109,97 Q98,73 86,51"/> 
            <glyph glyph-name="容" unicode="&#x5BB9;" horiz-adv-x="249" d=" M224,39 Q217,41 209,44 Q207,41 201,38 L201,33 Q201,14 202,-12 Q202,-19 197,-20 Q179,-24 162,-24 L162,-6 L90,-6 L90,-10 Q91,-21 82,-22 Q62,-24 50,-24 Q51,-7 51,23 L51,45 Q41,41 18,34 Q12,32 9,31 L7,34 Q64,73 90,104 Q102,118 107,129 L150,116 Q154,115 154,112 Q155,107 143,105 Q184,86 249,83 L248,79 Q230,70 224,39 M96,209 L97,211 Q147,210 146,189 Q145,177 133,172 L189,172 L204,193 L240,170 Q241,170 242,169 Q246,166 246,163 Q245,157 231,157 Q230,156 227,155 Q207,144 195,141 Q221,132 221,116 Q219,99 204,96 Q193,95 185,107 Q166,130 136,150 L137,153 Q167,149 185,144 L193,166 L54,166 Q55,160 55,154 Q53,127 31,125 Q14,126 13,145 Q12,156 24,164 Q39,173 41,191 L44,191 Q50,181 52,172 L111,172 Q106,175 106,181 Q104,197 96,209 M162,45 L90,45 L90,0 L162,0 M23,79 L21,82 Q65,124 78,159 L119,144 Q122,142 122,140 Q123,133 108,133 Q78,103 23,79 M95,51 L157,51 L166,67 Q148,80 134,99 Q111,74 77,56"/> 
            <glyph glyph-name="寸" unicode="&#x5BF8;" horiz-adv-x="249" d=" M212,171 L245,147 Q249,144 247,141 Q245,139 239,139 L185,139 L185,111 Q185,104 185,74 Q186,28 186,11 Q190,-17 128,-24 Q130,4 78,15 L79,20 L133,18 Q146,17 145,31 L145,132 L145,139 L10,139 L10,146 L145,146 Q144,154 144,175 Q143,193 143,204 L190,201 Q197,201 197,197 Q197,191 185,187 L185,146 L194,146 M82,45 Q70,44 68,59 Q62,90 47,119 L49,122 Q113,100 111,74 Q109,48 82,45"/> 
            <glyph glyph-name="小" unicode="&#x5C0F;" horiz-adv-x="249" d=" M97,-24 Q100,2 52,16 L52,20 L100,18 Q111,18 111,30 L111,133 Q111,171 110,205 L158,201 Q163,201 163,198 Q163,192 151,187 L151,114 Q151,106 151,74 Q152,25 152,7 Q155,-18 97,-24 M5,14 Q34,70 44,115 Q47,133 45,120 Q47,133 49,149 L97,137 Q102,136 102,133 Q103,127 88,123 Q66,57 8,11 M221,23 Q209,22 205,39 Q195,96 165,148 L168,151 Q249,94 248,55 Q247,24 221,23"/> 
            <glyph glyph-name="屏" unicode="&#x5C4F;" horiz-adv-x="250" d=" M194,138 L194,146 L66,146 L66,130 Q66,69 54,38 Q42,6 7,-23 L3,-21 Q30,32 28,119 L28,155 Q28,170 27,201 L75,189 L189,189 L199,207 L237,193 Q241,191 241,189 Q241,184 231,178 L231,169 Q231,164 231,151 Q232,143 225,142 Q224,142 222,141 Q209,139 194,138 M56,-25 L54,-22 Q93,7 97,45 L60,45 L60,51 L97,51 Q99,64 99,82 L99,94 L73,94 L73,100 L154,100 Q161,125 162,143 L199,134 Q205,133 205,129 Q205,124 193,123 Q186,115 172,102 Q173,102 170,100 L193,100 L207,120 L235,101 Q239,99 237,96 Q236,94 230,94 L196,94 L196,51 L201,51 L217,72 L247,51 Q250,49 249,47 Q247,45 242,45 L196,45 L196,38 Q196,36 196,17 Q197,-10 197,-14 Q197,-21 191,-21 Q174,-24 158,-23 Q159,-12 159,37 L159,45 L132,45 Q128,-7 56,-25 M194,183 L66,183 L66,152 L194,152 M118,102 Q108,102 107,110 Q105,126 96,141 L97,142 Q141,137 140,120 Q138,104 118,102 M135,87 Q135,66 133,51 L159,51 L159,94 L135,94"/> 
            <glyph glyph-name="属" unicode="&#x5C5E;" horiz-adv-x="248" d=" M75,65 Q75,68 76,80 Q76,88 76,89 L76,101 Q76,103 76,108 Q75,115 75,118 L114,110 L131,110 L131,125 Q124,125 110,125 Q82,124 67,125 L66,130 Q157,141 195,154 L195,155 L66,155 L66,148 Q66,75 54,40 Q43,5 8,-26 L5,-24 Q20,14 24,46 Q29,76 29,138 L29,159 Q29,184 29,200 L73,192 L191,192 L200,208 L236,194 Q240,192 240,189 Q240,185 231,178 L231,175 Q231,169 231,162 Q231,155 227,154 Q223,153 215,152 Q211,151 209,151 L227,136 Q230,134 230,131 Q230,128 225,127 Q222,126 215,129 Q216,129 214,130 L165,127 L165,110 L184,110 L193,126 L226,113 Q230,112 230,109 Q231,105 222,98 L222,95 Q222,87 222,75 Q222,71 219,69 L215,68 L242,57 Q248,55 247,52 Q247,48 238,40 L238,32 Q238,21 238,2 Q240,-21 191,-25 Q192,-1 158,2 L159,6 L191,5 Q203,3 202,15 L202,17 Q199,8 188,8 Q180,8 180,15 Q180,16 179,19 Q179,21 178,22 Q173,20 164,17 Q134,7 118,3 Q116,-6 110,-6 Q108,-6 106,-2 L97,32 Q104,31 121,31 L131,31 L131,49 L97,49 L97,-15 Q97,-21 89,-22 Q71,-24 61,-24 Q62,-9 62,20 L62,33 Q62,49 62,64 L100,55 L131,55 L131,73 L109,73 L109,72 Q109,68 102,66 Q93,65 75,65 M195,186 L66,186 L66,161 L195,161 M188,104 L165,104 L165,79 L188,79 M109,104 L109,79 L131,79 L131,104 M188,67 L188,73 L165,73 L165,55 L198,55 L205,68 Q196,67 188,67 M202,49 L165,49 L165,31 Q167,31 171,32 Q174,32 175,32 Q174,37 170,44 Q170,43 169,45 L171,46 Q197,39 202,28"/> 
            <glyph glyph-name="工" unicode="&#x5DE5;" horiz-adv-x="253" d=" M198,200 L231,176 Q235,174 233,171 Q232,169 226,169 L147,169 L147,-2 L196,-2 L215,23 L249,0 Q253,-3 251,-6 Q248,-9 242,-9 L7,-9 L7,-2 L107,-2 L107,169 L24,169 L24,176 L181,176"/> 
            <glyph glyph-name="幕" unicode="&#x5E55;" horiz-adv-x="251" d=" M7,16 L5,20 Q49,46 72,74 L11,74 L11,80 L77,80 Q84,89 90,98 L78,98 Q79,92 73,91 Q67,90 53,89 Q45,88 42,88 Q43,98 43,123 L43,135 Q43,147 43,162 L83,153 L169,153 L175,162 Q175,162 174,162 Q173,161 172,161 Q163,159 144,159 L144,177 L104,177 L104,166 Q105,160 99,159 Q81,157 71,157 L71,177 L10,177 L10,183 L71,183 L71,188 Q71,195 71,207 L108,204 Q113,204 113,201 Q113,196 104,193 L104,183 L144,183 L144,184 Q144,193 144,207 L181,204 Q187,204 186,201 Q186,196 177,192 L177,183 L202,183 L217,203 L246,184 Q250,181 248,179 Q247,177 241,177 L177,177 L177,167 L177,166 L180,170 L214,157 Q218,155 218,152 Q218,148 208,140 L208,131 Q208,115 209,98 Q209,94 205,92 Q183,88 173,88 L173,98 L134,98 Q128,89 120,80 L203,80 L218,102 L247,81 Q251,79 249,76 Q248,74 242,74 L163,74 Q196,56 250,57 L249,53 Q236,47 228,19 Q223,21 213,25 Q209,26 208,26 L208,13 Q210,-6 168,-11 Q169,8 146,15 L147,19 L166,18 Q173,18 173,26 L173,37 L143,37 L143,-14 Q144,-22 136,-23 Q122,-25 107,-25 Q108,-5 108,22 L108,37 L81,37 L81,0 Q81,-7 75,-8 Q59,-10 46,-10 Q46,-5 46,6 Q47,18 47,24 L47,30 Q29,22 7,16 M78,123 L78,104 L173,104 L173,123 M173,147 L78,147 L78,128 L173,128 M143,43 L168,43 L172,48 Q161,60 152,74 L115,74 Q100,58 79,45 L87,43 L108,43 L108,66 L149,63 Q155,62 154,60 Q155,56 143,51"/> 
            <glyph glyph-name="当" unicode="&#x5F53;" horiz-adv-x="238" d=" M22,-6 L22,0 L187,0 L187,49 L33,49 L33,55 L187,55 L187,99 L28,99 L28,105 L106,105 L106,166 Q106,170 106,181 Q105,197 105,205 L148,202 Q156,202 157,199 Q157,192 144,188 L144,105 L182,105 L194,126 L234,110 Q238,108 238,105 Q238,99 227,92 L227,57 Q227,52 227,38 Q228,10 228,-7 Q229,-14 223,-15 Q205,-19 187,-19 L187,-6 M154,110 L150,114 Q173,156 179,189 L222,170 Q228,168 227,165 Q227,159 212,158 Q190,133 154,110 M68,115 Q56,114 54,128 Q49,157 33,183 L35,185 Q92,167 92,141 Q90,117 68,115"/> 
            <glyph glyph-name="得" unicode="&#x5F97;" horiz-adv-x="252" d=" M126,1 Q114,1 113,12 Q111,32 102,49 L104,51 Q149,43 149,23 Q149,16 143,10 L164,9 Q176,9 175,20 L175,54 L76,54 L76,60 L175,60 L175,87 L87,87 L87,93 L202,93 L211,105 Q204,104 187,104 L187,116 L133,116 L133,113 Q133,107 126,105 Q123,105 117,104 Q103,102 98,102 Q98,118 98,130 Q95,127 87,126 Q77,114 66,103 L76,102 Q80,102 80,99 Q79,93 70,90 L70,-11 Q70,-21 63,-22 Q47,-24 34,-24 Q36,42 36,56 L36,78 Q22,69 7,60 L5,64 Q31,96 48,131 Q54,142 58,155 L97,138 L99,137 L99,147 L99,168 Q99,171 99,181 Q98,193 98,198 L137,189 L183,189 L192,206 L228,192 Q232,191 232,188 Q232,184 222,176 L222,151 Q222,143 222,117 Q223,110 218,107 L238,94 Q242,91 240,89 Q239,87 233,87 L210,87 L210,63 L222,79 L248,61 Q252,59 250,56 Q248,54 242,54 L210,54 L210,51 Q210,32 211,1 Q212,-20 166,-24 Q166,-1 138,5 Q132,1 126,1 M11,128 L9,132 Q44,180 50,209 L89,193 Q93,191 93,189 Q94,183 79,181 Q53,151 11,128 M187,183 L133,183 L133,155 L187,155 M133,149 L133,122 L187,122 L187,149"/> 
            <glyph glyph-name="性" unicode="&#x6027;" horiz-adv-x="254" d=" M87,120 Q78,120 77,131 Q76,151 72,161 L72,-14 Q73,-21 66,-22 Q50,-24 37,-24 Q39,15 39,68 L39,171 Q39,175 39,187 Q38,200 38,205 L78,202 Q84,201 83,198 Q82,192 72,189 L72,169 Q97,158 102,145 Q103,161 103,177 L149,168 Q150,168 150,168 Q150,186 148,206 L192,202 Q198,202 198,198 Q197,192 186,189 L186,135 L199,135 L215,158 L245,136 Q249,134 247,131 Q246,129 241,129 L186,129 L186,73 L197,73 L213,96 L243,74 Q247,72 245,69 Q244,67 239,67 L186,67 L186,-5 L199,-5 L217,19 L251,-5 Q254,-7 253,-9 Q251,-11 246,-11 L84,-11 L84,-5 L150,-5 L150,67 L106,67 L106,73 L150,73 L150,129 L132,129 Q119,96 88,60 L84,62 Q95,99 99,127 Q95,121 87,120 M16,86 Q2,87 2,104 Q2,115 8,122 Q21,135 23,157 L26,157 Q36,137 36,117 Q35,87 16,86 M141,154 Q138,144 135,135 L150,135 L150,159 Q147,156 141,154"/> 
            <glyph glyph-name="总" unicode="&#x603B;" horiz-adv-x="249" d=" M36,75 Q36,83 36,80 Q38,115 38,123 L38,137 Q38,142 38,153 Q37,164 37,168 L82,157 L137,157 Q145,189 145,209 L192,199 Q198,197 198,194 Q198,188 183,185 Q172,172 151,157 L176,157 L188,177 L225,161 Q231,159 230,156 Q231,150 219,143 L219,129 Q219,121 220,108 Q220,95 220,87 Q221,83 216,81 Q200,78 181,77 L181,91 L75,91 L75,85 Q75,81 70,79 Q51,76 36,75 M94,-17 Q65,-18 66,11 L66,41 Q66,61 65,72 L106,68 Q111,68 112,65 Q112,60 102,54 L102,24 Q102,11 110,11 L151,11 Q162,11 166,22 L179,56 L183,55 L185,25 Q186,17 192,13 Q201,8 200,2 Q198,-16 161,-17 M181,151 L75,151 L75,97 L181,97 M225,0 Q212,0 210,12 Q204,39 189,65 L191,67 Q249,48 248,25 Q247,2 225,0 M30,-6 Q13,-5 12,12 Q11,24 23,30 Q41,43 45,64 L48,64 Q58,44 58,28 Q57,-5 30,-6 M137,29 Q125,29 123,40 Q117,66 107,84 L109,86 Q158,71 158,51 Q156,31 137,29 M92,160 Q82,160 80,169 Q76,190 66,205 L68,207 Q117,202 117,181 Q115,162 92,160"/> 
            <glyph glyph-name="惊" unicode="&#x60CA;" horiz-adv-x="253" d=" M99,63 Q100,84 100,102 L100,118 Q100,138 99,147 L139,137 L191,137 L201,156 L237,142 Q243,140 242,137 Q241,131 232,125 L232,108 Q232,107 232,77 Q233,70 226,68 Q214,65 197,65 L197,78 L183,78 L183,37 Q183,35 183,27 Q184,13 184,6 Q185,-21 137,-24 Q138,-1 108,5 L109,9 L141,8 Q147,7 148,17 L148,78 L134,78 L134,76 Q134,67 125,66 Q111,63 99,63 M37,-23 Q38,26 38,69 L38,150 Q38,188 37,205 L75,202 Q80,201 80,199 Q81,193 69,189 L69,159 Q100,146 99,131 Q98,116 84,115 Q77,115 75,124 Q74,140 69,150 L69,-13 Q70,-20 63,-21 Q49,-24 37,-23 M197,131 L134,131 L134,84 L197,84 M219,192 L250,170 Q253,168 252,166 Q250,164 245,164 L88,164 L88,170 L152,170 Q149,173 148,178 Q147,192 138,205 L140,207 Q186,206 185,185 Q185,175 177,170 L203,170 M72,-10 L70,-7 Q97,29 106,60 L144,47 Q148,46 148,42 Q147,36 135,36 Q108,6 72,-10 M228,-5 Q218,-6 214,5 Q202,37 186,55 L188,57 Q250,39 248,14 Q246,-3 228,-5 M16,88 Q5,89 4,103 Q4,112 9,118 Q22,128 26,150 L28,150 Q37,129 36,116 Q35,89 16,88"/> 
            <glyph glyph-name="感" unicode="&#x611F;" horiz-adv-x="251" d=" M8,33 L5,35 Q29,83 27,134 L27,154 Q27,162 26,172 Q26,180 26,184 L67,176 L145,176 Q143,192 141,206 L180,204 Q185,203 185,201 Q185,195 176,191 Q176,184 176,176 L216,176 L226,191 L247,176 Q250,174 249,172 Q247,170 243,170 L177,170 Q178,145 185,125 Q194,143 199,162 L237,147 Q240,145 240,142 Q240,136 227,135 Q212,110 200,98 Q206,91 214,86 Q220,81 222,88 L240,124 L244,123 L241,89 Q241,79 244,74 Q251,68 250,61 Q249,47 231,46 Q200,48 175,76 Q158,66 132,56 Q157,48 157,35 Q155,17 139,15 Q129,15 127,25 Q122,46 111,59 L113,61 Q124,60 131,57 L129,60 Q149,77 163,94 Q153,115 148,146 Q146,143 140,143 L61,143 Q64,71 8,33 M98,-20 Q69,-20 69,8 L69,18 Q69,43 68,53 L108,48 Q113,48 113,45 Q113,39 103,36 L103,19 Q102,9 113,10 L146,10 Q160,9 164,18 L179,46 L183,45 L184,23 Q184,15 189,12 Q198,7 198,1 Q196,-19 153,-20 M112,72 L112,81 L93,81 L93,74 Q93,70 86,68 Q81,67 71,66 Q66,65 63,65 Q63,84 63,100 L63,109 Q63,121 63,133 L95,124 L108,124 L116,138 L146,128 Q150,126 150,124 Q150,119 141,113 L141,81 Q141,76 138,76 Q127,72 112,72 M228,-10 Q216,-10 213,1 Q206,27 193,47 L195,48 Q248,33 248,12 Q246,-7 228,-10 M30,-14 Q14,-13 13,2 Q12,13 23,19 Q39,26 47,48 L49,48 Q57,33 57,18 Q56,-12 30,-14 M121,167 L145,150 L147,148 Q147,151 146,158 Q146,164 145,167 Q145,169 145,170 L61,170 L61,150 L109,150 M202,176 Q197,176 194,182 Q191,195 185,201 L186,203 Q220,203 219,189 Q218,177 202,176 M112,118 L93,118 L93,87 L112,87"/> 
            <glyph glyph-name="手" unicode="&#x624B;" horiz-adv-x="249" d=" M95,-24 Q97,4 51,15 L52,19 L95,18 Q108,18 108,31 L108,58 L11,58 L11,64 L108,64 L108,113 L24,113 L24,119 L108,119 L108,161 Q80,158 23,156 L23,163 Q140,185 176,208 L217,179 Q219,179 219,176 Q218,168 201,174 Q176,168 146,164 L146,119 L183,119 L200,143 L232,121 Q236,118 235,116 Q233,113 227,113 L146,113 L146,109 Q146,93 146,64 L194,64 L212,89 L245,65 Q249,62 247,60 Q245,58 239,58 L147,58 L147,8 Q149,-19 95,-24"/> 
            <glyph glyph-name="担" unicode="&#x62C5;" horiz-adv-x="256" d=" M101,12 Q101,24 102,58 Q102,87 102,95 L102,141 L102,144 Q102,142 96,142 L73,142 L73,98 L97,103 L98,100 Q85,90 73,82 L73,6 Q74,-21 28,-23 Q30,0 5,10 L5,14 L30,13 Q40,12 39,23 L39,61 Q37,60 33,58 Q28,56 26,55 Q26,43 19,42 Q17,42 15,49 L4,89 Q17,89 30,91 Q35,91 39,92 L39,142 L9,142 L9,148 L39,148 L39,158 Q39,164 39,180 Q38,198 38,205 L80,201 Q86,201 85,198 Q85,192 73,188 L73,153 L81,164 L100,148 Q102,147 102,145 Q102,182 101,194 L139,183 L187,183 L198,203 L235,188 Q239,187 239,184 Q240,179 228,170 L228,123 Q228,114 228,78 Q229,41 229,31 Q229,25 223,24 Q205,20 193,20 L193,36 L136,36 L136,24 Q137,18 129,16 Q123,15 110,13 Q103,12 101,12 M136,107 L136,42 L193,42 L193,107 M193,177 L136,177 L136,113 L193,113 M221,16 L253,-7 Q256,-9 255,-12 Q253,-14 248,-14 L79,-14 L79,-7 L204,-7"/> 
            <glyph glyph-name="拟" unicode="&#x62DF;" horiz-adv-x="249" d=" M78,164 L97,148 Q97,147 98,147 L98,148 Q98,154 97,176 Q97,192 97,195 L137,191 Q142,191 142,188 Q140,182 131,178 L131,57 L178,80 L181,76 Q152,40 117,10 Q117,0 110,-2 Q108,-2 105,0 Q104,1 104,1 L85,36 Q98,45 98,57 L98,143 Q98,143 96,143 Q94,142 93,142 L70,142 L70,104 Q75,105 85,107 Q90,108 93,109 L94,105 Q92,103 88,100 Q81,95 70,86 L70,1 Q71,-20 28,-24 Q28,0 6,8 L7,12 L27,12 Q36,12 36,22 L36,65 L26,60 Q24,47 18,47 Q15,47 14,52 L5,93 Q23,95 36,98 L36,142 L9,142 L9,148 L36,148 L36,153 Q36,159 36,177 Q35,197 35,205 L75,201 Q81,201 80,198 Q80,193 70,188 L70,152 M226,-19 Q216,-19 215,-8 Q211,15 202,35 Q179,0 113,-24 L110,-20 Q197,36 194,145 Q194,175 192,204 L235,200 Q241,200 241,197 Q242,192 230,187 Q230,151 229,133 Q226,73 206,40 Q249,24 249,2 Q247,-18 226,-19 M165,123 Q153,122 152,136 Q151,159 141,182 L142,184 Q188,168 188,146 Q186,125 165,123"/> 
            <glyph glyph-name="拼" unicode="&#x62FC;" horiz-adv-x="254" d=" M218,175 L243,157 Q247,155 246,153 Q245,151 239,151 L209,151 L209,89 L223,109 L250,89 Q254,87 252,84 Q251,82 246,82 L209,82 L209,73 Q209,14 210,-12 Q210,-18 203,-20 Q193,-23 173,-23 Q173,-8 174,35 Q174,62 174,67 L174,82 L152,82 Q148,2 78,-24 L74,-21 Q115,15 118,82 L88,82 L88,89 L119,89 Q119,97 119,108 L119,151 L100,151 L100,157 L169,157 Q177,187 177,207 L217,197 Q221,197 221,193 Q221,187 209,186 Q197,169 182,157 L204,157 M20,48 Q16,48 15,53 L5,92 Q6,92 8,92 Q20,93 39,96 L39,142 L9,142 L9,148 L39,148 L39,158 Q39,164 39,181 Q38,198 38,205 L78,201 Q84,201 83,198 Q84,192 72,188 L72,151 L82,165 L103,148 Q105,146 104,144 Q102,142 98,142 L72,142 L72,102 Q75,103 82,104 Q94,107 102,108 L103,105 Q99,102 90,97 Q78,89 72,85 L72,7 Q74,-20 29,-23 Q31,0 4,9 L4,12 L30,12 Q40,11 39,22 L39,67 Q36,65 29,61 Q27,60 26,60 Q26,49 20,48 M153,107 Q153,97 153,89 L174,89 L174,151 L153,151 M137,158 Q128,158 126,167 Q122,189 113,202 L114,204 Q158,197 158,178 Q156,161 137,158"/> 
            <glyph glyph-name="提" unicode="&#x63D0;" horiz-adv-x="254" d=" M189,104 L189,115 L137,115 L137,108 Q137,102 131,102 Q117,99 102,98 L103,142 Q103,142 102,142 Q99,141 97,141 L71,141 L71,105 Q84,110 99,113 L101,110 Q86,97 71,86 L71,6 Q72,-21 25,-23 Q26,2 2,8 L3,13 L26,12 Q35,11 36,22 L36,64 L27,59 Q25,47 19,47 Q16,47 15,50 L2,92 Q16,92 36,97 L36,141 L9,141 L9,147 L36,147 L36,159 Q36,193 35,206 L77,202 Q82,202 82,199 Q82,193 71,188 L71,151 L80,164 L102,148 L103,147 L103,167 Q103,188 102,199 L144,188 L185,188 L196,207 L228,194 Q233,191 233,188 Q233,182 224,176 L224,167 Q224,145 226,113 Q226,109 224,108 L244,93 Q248,90 247,88 Q245,86 239,86 L185,86 L185,52 L198,52 L214,73 L241,54 Q245,50 243,48 Q242,46 235,46 L185,46 L185,10 Q223,10 254,16 L253,12 Q241,7 238,-19 Q232,-20 222,-20 Q215,-20 184,-20 Q142,-22 124,19 Q109,-9 70,-27 L67,-24 Q90,3 97,43 Q97,45 98,49 Q100,65 100,72 L143,65 Q146,64 146,61 Q147,57 135,53 Q132,41 129,31 Q138,21 150,16 L150,86 L84,86 L84,92 L201,92 L211,105 Q204,104 189,104 M137,149 L137,121 L189,121 L189,149 M189,182 L137,182 L137,155 L189,155"/> 
            <glyph glyph-name="新" unicode="&#x65B0;" horiz-adv-x="253" d=" M104,-25 L101,-22 Q139,23 137,105 Q136,103 131,103 L84,103 L84,73 L95,73 L107,91 L131,74 Q134,72 133,69 Q131,67 126,67 L84,67 L84,55 L85,56 Q124,46 125,27 Q123,11 107,7 Q97,8 96,17 Q93,39 84,54 L84,46 Q85,26 86,6 Q88,-17 47,-23 Q47,-1 26,4 L27,8 Q24,4 16,-2 Q11,-7 9,-9 L5,-6 Q13,11 17,32 Q21,46 21,58 L51,50 L51,67 L10,67 L10,73 L51,73 L51,103 L7,103 L7,109 L72,109 Q79,138 79,159 L116,149 Q120,148 120,146 Q121,140 109,138 Q96,121 83,109 L100,109 L113,127 L136,110 Q136,110 137,109 Q137,109 137,108 Q137,116 137,123 L137,142 Q137,153 136,181 L172,173 Q196,187 209,204 L246,177 Q247,177 247,175 Q247,170 242,170 Q238,170 233,172 Q209,164 173,163 L173,126 Q173,116 173,107 L206,107 L221,128 L249,108 Q253,106 251,103 Q250,101 244,101 L225,101 L225,43 Q225,19 225,-13 Q225,-20 220,-21 Q209,-24 188,-24 Q188,-19 188,4 Q189,31 189,38 L189,101 L173,101 Q174,10 104,-25 M106,185 L129,168 Q133,166 131,164 Q130,162 124,162 L11,162 L11,168 L57,168 Q50,169 49,177 Q48,190 40,202 L41,205 Q84,204 85,187 Q83,172 67,168 L93,168 M42,112 Q33,112 31,122 Q30,139 22,153 L24,155 Q63,147 62,131 Q60,114 42,112 M42,7 Q51,5 51,17 L51,40 L47,39 Q39,21 27,8"/> 
            <glyph glyph-name="旗" unicode="&#x65D7;" horiz-adv-x="254" d=" M94,126 L91,129 Q99,141 103,152 L60,152 L60,136 Q60,133 60,125 Q59,118 59,114 L67,114 L77,130 L109,116 Q109,116 110,115 Q112,114 112,112 Q112,107 102,101 Q102,62 98,10 Q98,-15 56,-20 Q55,0 35,8 L37,12 L56,11 Q66,11 66,21 Q69,54 71,108 L59,108 Q59,28 6,-23 L3,-21 Q17,20 21,47 Q25,74 25,130 L25,152 L7,152 L7,158 L73,158 L87,177 L108,162 Q118,186 121,206 L163,197 Q167,197 167,194 Q167,188 154,185 Q153,182 150,178 Q148,175 147,173 L204,173 L219,194 L248,174 Q251,172 250,170 Q248,168 243,168 L143,168 Q138,162 133,157 L163,154 Q168,154 168,151 Q167,145 157,142 L157,133 L185,133 L184,158 L222,155 Q228,155 228,152 Q228,147 219,142 L219,133 L221,133 L231,147 L248,134 Q251,132 250,129 Q248,127 243,127 L219,127 L219,39 L228,54 L251,37 Q254,35 253,32 Q251,30 247,30 L104,30 L104,36 L124,36 L124,127 L111,127 L111,133 L124,133 L124,148 Q122,146 118,143 Q104,132 94,126 M226,-24 Q217,-24 213,-17 Q199,3 176,21 L178,24 Q246,19 246,-3 Q244,-22 226,-24 M93,-26 L91,-22 Q122,0 137,28 L174,10 Q178,8 178,6 Q178,1 168,1 Q167,1 165,1 Q135,-16 93,-26 M52,161 Q41,160 40,172 Q37,191 29,204 L31,206 Q76,201 75,182 Q72,163 52,161 M157,63 L157,36 L185,36 L185,63 M157,95 L157,69 L185,69 L185,95 M185,109 Q185,115 185,127 L157,127 L157,101 L185,101"/> 
            <glyph glyph-name="智" unicode="&#x667A;" horiz-adv-x="247" d=" M11,70 L9,74 Q49,102 56,135 L13,135 L13,141 L57,141 Q60,154 60,172 L53,172 Q40,157 21,145 L18,147 Q30,175 34,205 L72,197 Q76,196 76,194 Q76,187 64,186 L58,178 L92,178 L104,195 L129,178 Q132,176 131,174 Q129,172 124,172 L95,172 Q94,154 91,141 L101,141 L113,159 L137,142 Q138,142 139,141 Q140,141 140,140 L140,150 Q140,162 140,190 L179,180 L199,180 L210,199 L243,184 Q247,183 247,180 Q247,176 238,169 L238,149 Q238,135 238,103 Q238,96 231,95 Q218,92 204,92 L204,109 L173,109 L173,100 Q173,94 164,91 Q163,91 160,91 Q149,89 139,89 Q140,110 140,129 L140,137 Q138,135 132,135 L90,135 Q89,133 88,129 Q86,125 85,123 Q134,121 132,101 Q130,84 114,82 Q106,82 102,89 Q96,104 82,117 Q72,98 49,86 L93,75 L166,75 L176,94 L215,79 Q218,78 218,76 Q219,72 209,63 L209,39 Q209,15 210,-13 Q210,-19 204,-21 Q189,-24 171,-24 L171,-7 L86,-7 L86,-13 Q86,-20 78,-21 Q62,-24 47,-24 Q48,-3 48,17 L48,45 Q48,56 48,85 Q33,78 11,70 M86,30 L86,-1 L171,-1 L171,30 M171,69 L86,69 L86,36 L171,36 M204,174 L173,174 L173,115 L204,115"/> 
            <glyph glyph-name="暴" unicode="&#x66B4;" horiz-adv-x="251" d=" M8,19 L6,22 Q44,47 66,74 L12,74 L12,80 L73,80 L73,102 L73,105 L28,105 L28,111 L73,111 Q73,117 73,126 Q72,126 71,126 Q56,123 40,123 Q40,130 41,144 Q41,156 41,162 L41,201 L82,191 L173,191 L183,208 L219,195 Q223,194 223,191 Q222,185 214,179 L214,173 Q214,160 215,138 Q215,133 210,132 Q203,130 183,129 Q180,128 178,128 L178,135 L77,135 L77,133 Q77,133 77,132 Q76,131 76,130 L112,127 Q117,127 118,125 Q118,121 109,116 L109,111 L145,111 Q145,118 145,130 L184,127 Q189,127 189,125 Q189,120 180,116 L180,111 L196,111 L209,129 L235,111 Q238,109 237,107 Q235,105 231,105 L180,105 L180,80 L204,80 L218,100 L247,81 Q251,79 249,76 Q248,74 242,74 L175,74 Q206,60 249,59 L248,54 Q234,49 225,22 Q181,38 162,74 L112,74 Q96,59 76,47 Q100,46 100,36 Q100,27 90,22 Q94,23 102,25 Q108,26 111,27 L111,42 Q111,56 111,69 L151,66 Q156,66 156,63 Q156,58 147,54 L147,37 L147,28 L156,27 Q166,43 168,53 L196,36 Q198,35 198,33 Q198,29 188,30 Q180,27 171,26 Q219,20 217,2 Q216,-14 201,-15 Q194,-15 189,-10 Q169,9 147,22 L147,0 Q151,-21 104,-25 Q103,-4 82,1 L82,3 Q80,2 76,0 Q70,-2 57,-9 Q56,-19 51,-19 Q48,-19 46,-15 L34,14 Q48,15 81,20 Q75,22 74,26 Q70,36 66,42 Q41,28 8,19 M77,160 L77,142 L178,142 L178,160 M178,185 L77,185 L77,166 L178,166 M145,80 L145,102 L145,105 L109,105 L109,80 M104,4 Q111,4 111,13 L111,19 Q109,18 104,15 Q98,11 85,5"/> 
            <glyph glyph-name="服" unicode="&#x670D;" horiz-adv-x="255" d=" M117,-25 Q119,44 119,84 L119,135 Q119,177 118,195 L153,186 L197,186 L207,204 L238,191 Q244,189 244,186 Q244,180 234,174 Q233,158 231,143 Q228,119 184,118 Q186,142 157,149 L157,153 L191,151 Q199,150 200,158 Q201,168 201,180 L153,180 L153,103 L196,103 L206,120 L242,104 Q246,102 246,99 Q246,93 235,89 Q228,58 214,35 Q232,25 255,18 L254,14 Q235,7 227,-20 Q206,-5 193,7 Q175,-9 155,-19 L153,-16 Q154,-20 151,-21 Q132,-25 117,-25 M10,-26 L6,-24 Q23,21 22,100 L22,194 L56,186 L68,186 L78,204 L110,191 Q114,189 114,186 Q114,179 105,174 L105,8 Q106,-21 61,-23 Q64,1 37,7 L37,11 L64,10 Q73,9 72,20 L72,66 L52,66 Q47,12 10,-26 M153,-15 Q155,-12 159,-7 Q174,13 180,26 Q166,50 159,97 L153,97 M201,97 L164,97 Q176,68 191,54 Q197,73 201,97 M55,114 Q55,90 53,72 L72,72 L72,123 L55,123 M72,180 L55,180 L55,129 L72,129"/> 
            <glyph glyph-name="机" unicode="&#x673A;" horiz-adv-x="255" d=" M7,30 L4,33 Q29,89 37,139 L7,139 L7,145 L42,145 L42,157 Q42,160 42,173 Q41,196 41,205 L81,201 Q88,201 88,198 Q88,193 77,188 L77,146 L89,164 L113,146 Q113,151 113,163 Q112,183 112,194 L153,184 L171,184 L182,203 L220,188 Q223,186 223,184 Q223,178 213,171 L213,24 Q213,18 217,17 L218,17 Q223,15 226,30 L237,77 L241,76 L242,35 Q242,22 248,19 Q255,14 254,6 Q252,-16 225,-17 L206,-17 Q176,-18 176,11 L176,177 L148,177 L148,119 Q153,10 85,-27 L81,-25 Q115,26 113,109 L113,139 L111,139 L77,139 L77,119 Q113,106 112,86 Q110,69 94,67 Q84,67 83,77 Q82,99 77,111 L77,-13 Q77,-21 70,-22 Q54,-24 40,-24 Q42,25 42,68 L42,75 Q25,50 7,30"/> 
            <glyph glyph-name="权" unicode="&#x6743;" horiz-adv-x="253" d=" M220,-22 Q184,0 166,21 Q138,-4 84,-25 L81,-21 Q125,11 150,46 Q127,85 123,171 L103,171 L103,177 L192,177 L204,198 L244,180 Q248,179 248,176 Q248,170 235,163 Q224,93 192,50 Q216,31 253,21 L252,16 Q231,9 220,-22 M7,25 L4,27 Q30,81 43,139 L12,139 L12,145 L46,145 L46,156 Q46,191 45,205 L83,202 Q90,201 90,198 Q90,192 80,188 L80,145 L93,164 L119,146 Q122,143 121,141 Q119,139 114,139 L80,139 L80,119 Q122,103 120,86 Q118,67 100,64 Q89,64 88,76 Q87,93 80,113 L80,-13 Q81,-21 70,-22 Q67,-23 58,-24 Q49,-25 45,-25 Q46,7 46,68 L46,74 Q28,45 7,25 M197,171 L131,171 Q145,106 168,75 Q190,119 197,171"/> 
            <glyph glyph-name="杜" unicode="&#x675C;" horiz-adv-x="256" d=" M8,25 L5,28 Q29,87 35,140 L9,140 L9,146 L44,146 L44,157 Q44,188 43,205 L84,202 Q90,201 89,198 Q89,194 79,189 L79,146 L81,146 L95,165 L121,146 Q124,144 123,142 Q121,140 116,140 L79,140 L79,119 Q122,104 121,85 Q119,65 100,63 Q90,64 88,74 Q87,92 79,112 L79,-13 Q80,-21 71,-22 Q55,-24 43,-24 Q44,9 44,74 Q29,48 8,25 M220,23 L252,-2 Q256,-4 254,-7 Q252,-9 247,-9 L88,-9 L88,-3 L146,-3 L146,113 L102,113 L102,119 L146,119 L146,149 Q146,181 145,204 L191,200 Q197,200 197,197 Q197,191 185,186 L185,119 L197,119 L214,143 L244,120 Q248,118 246,115 Q245,113 239,113 L185,113 L185,-3 L200,-3"/> 
            <glyph glyph-name="来" unicode="&#x6765;" horiz-adv-x="251" d=" M251,37 L250,33 Q233,22 219,-10 Q160,22 144,86 L143,86 L143,-13 Q144,-21 135,-22 Q123,-24 105,-24 Q106,20 106,50 Q71,13 6,-12 L4,-8 Q57,34 87,86 L12,86 L12,92 L107,92 L107,97 L107,144 L107,158 L23,158 L23,165 L107,165 L106,205 L149,202 Q154,202 154,198 Q155,194 143,188 L143,165 L186,165 L202,187 L233,166 Q237,163 236,161 Q234,158 228,158 L143,158 L143,92 L149,92 Q164,123 168,154 L207,139 Q214,137 213,134 Q213,128 200,126 Q180,105 160,92 L195,92 L214,117 L245,94 Q249,91 248,89 Q246,86 239,86 L150,86 Q186,48 251,37 M70,95 Q60,95 58,106 Q56,126 46,150 L48,151 Q94,138 93,118 Q92,96 70,95"/> 
            <glyph glyph-name="样" unicode="&#x6837;" horiz-adv-x="255" d=" M6,32 L3,34 Q26,85 37,140 L8,140 L8,146 L41,146 L41,155 Q41,160 41,179 Q40,199 40,205 L79,202 Q86,202 87,199 Q87,194 75,189 L75,146 L87,164 L101,153 L101,157 L173,157 Q179,189 180,207 L222,197 Q226,196 226,193 Q227,187 213,186 Q201,171 183,157 L206,157 L220,176 L248,157 Q251,155 250,153 Q248,151 243,151 L185,151 L185,105 L198,105 L212,124 L240,105 Q243,103 242,101 Q241,99 236,99 L185,99 L185,70 L185,53 L205,53 L220,75 L252,52 Q255,50 254,48 Q253,47 248,47 L185,47 L186,-15 Q186,-21 182,-23 Q171,-24 146,-24 Q146,-13 147,11 Q147,36 148,47 L94,47 L94,53 L148,53 Q148,66 148,71 L148,99 L111,99 L111,105 L148,105 L148,151 L105,151 L109,147 Q113,145 111,142 Q110,140 104,140 L75,140 L75,118 Q114,102 112,85 Q110,69 94,67 Q85,67 83,77 Q82,99 75,113 L75,-11 Q76,-21 65,-22 Q52,-25 39,-25 Q41,31 41,73 L41,74 Q25,49 6,32 M142,158 Q129,159 128,171 Q126,187 116,203 L118,205 Q163,197 162,178 Q161,159 142,158"/> 
            <glyph glyph-name="比" unicode="&#x6BD4;" horiz-adv-x="250" d=" M169,30 Q168,17 180,18 L193,18 Q206,17 210,33 L227,76 L231,76 L232,37 Q231,25 238,22 Q247,17 247,9 Q246,-15 203,-15 L163,-15 Q130,-16 131,13 L131,147 Q131,183 130,199 L175,196 Q182,195 181,192 Q181,186 169,181 L169,105 Q196,136 208,163 L246,138 Q250,136 250,132 Q250,126 235,128 Q207,106 169,94 M42,-22 Q40,-23 36,-16 L19,20 Q31,25 31,38 L31,147 Q31,176 30,198 L76,195 Q82,195 82,192 Q82,185 69,180 L69,115 L81,115 L99,140 L129,117 Q133,114 131,112 Q129,109 123,109 L69,109 L69,34 L125,46 L127,42 Q100,19 51,-8 Q49,-21 42,-22"/> 
            <glyph glyph-name="特" unicode="&#x7279;" horiz-adv-x="254" d=" M50,-24 L50,57 Q47,56 41,52 Q33,48 29,46 Q30,34 24,33 Q21,33 19,38 L7,81 Q20,82 33,85 L50,88 L50,139 L34,139 Q26,114 8,90 L5,92 Q16,141 15,188 L45,182 Q48,182 50,180 Q50,196 50,205 L88,202 Q95,202 95,199 Q95,193 84,188 L84,145 L95,161 L116,146 Q120,144 118,141 Q117,139 112,139 L84,139 L84,96 Q99,99 112,104 L115,100 Q110,97 101,90 Q89,82 84,78 L84,62 Q84,27 84,-15 Q84,-21 79,-21 Q62,-24 50,-24 M163,-25 Q164,1 129,8 L130,13 L164,12 Q176,10 176,24 L176,61 L176,77 L96,77 L96,83 L176,83 Q176,88 175,99 Q175,108 175,112 L215,109 Q221,109 221,106 Q221,102 211,97 L211,83 L216,83 L227,99 L250,84 Q254,81 252,79 Q251,77 245,77 L211,77 L211,61 Q211,27 212,5 Q214,-22 163,-25 M212,186 L240,166 Q243,164 242,163 Q240,161 236,161 L183,161 L183,121 L201,121 L217,143 L247,122 Q251,120 249,117 Q248,115 242,115 L96,115 L96,121 L147,121 L147,161 L105,161 L105,167 L147,167 L146,204 L187,201 Q194,200 193,197 Q193,192 183,188 L183,167 L199,167 M134,21 Q122,21 121,32 Q118,53 109,68 L111,70 Q156,60 154,41 Q152,23 134,21 M44,171 Q40,158 37,145 L50,145 L50,152 L50,174 Q49,173 44,171"/> 
            <glyph glyph-name="环" unicode="&#x73AF;" horiz-adv-x="251" d=" M87,201 L113,182 L199,182 L216,206 L247,184 Q251,181 249,178 Q247,176 241,176 L192,176 Q184,149 175,126 L186,125 Q192,125 192,122 Q193,118 184,112 L184,-12 Q185,-21 176,-22 Q162,-24 145,-24 Q146,19 146,61 L146,78 Q124,46 77,14 L74,17 Q92,40 106,62 Q73,42 28,20 Q26,8 21,8 Q19,8 17,13 L5,52 Q22,54 38,55 L38,113 L11,113 L11,120 L38,120 L38,176 L8,176 L8,182 L73,182 M90,137 L112,120 Q115,117 114,115 Q113,113 108,113 L72,113 L72,60 Q78,61 89,64 Q100,66 105,67 L106,63 Q139,113 151,176 L111,176 L109,176 L72,176 L72,120 L77,120 M228,28 Q215,28 212,39 Q204,72 186,99 L188,102 Q250,79 250,53 Q248,30 228,28"/> 
            <glyph glyph-name="理" unicode="&#x7406;" horiz-adv-x="255" d=" M23,0 Q20,0 19,1 L4,44 Q16,44 30,47 Q31,47 32,47 L32,111 L9,111 L9,117 L32,117 L32,178 L8,178 L8,184 L58,184 L71,202 L94,185 Q94,191 94,198 L133,189 L194,189 L205,207 L239,193 Q243,191 243,188 Q243,184 233,175 L233,130 Q233,99 235,78 Q235,73 231,73 Q215,69 198,69 L198,82 L180,82 L180,41 L198,41 L213,63 L241,43 Q245,40 243,37 Q242,35 236,35 L180,35 L180,-8 L205,-8 L222,14 L253,-7 Q255,-9 255,-11 Q255,-14 248,-14 L67,-14 L67,-8 L146,-8 L146,35 L91,35 L91,41 L146,41 L146,82 L128,82 L128,76 Q128,71 124,70 Q109,66 93,66 Q94,84 94,111 L93,111 L67,111 L67,55 Q69,55 72,56 Q82,58 99,62 L101,59 Q65,30 30,11 Q29,0 23,0 M77,133 L94,119 L94,122 L94,155 L94,178 Q93,178 91,178 L67,178 L67,119 M180,133 L180,88 L198,88 L198,133 M198,183 L180,183 L180,139 L198,139 M128,133 L128,88 L146,88 L146,133 M128,183 L128,139 L146,139 L146,183"/> 
            <glyph glyph-name="用" unicode="&#x7528;" horiz-adv-x="238" d=" M10,-25 L7,-23 Q38,29 36,111 L36,146 Q36,168 35,196 L82,184 L186,184 L197,203 L235,188 Q238,187 238,184 Q238,178 228,172 L228,117 Q228,34 229,5 Q233,-20 181,-24 Q182,0 151,9 L152,14 L183,12 Q192,12 191,20 L191,65 L149,65 L149,-7 Q149,-16 142,-17 Q132,-19 111,-19 Q113,18 113,65 L69,65 Q62,11 10,-25 M191,178 L149,178 L149,128 L191,128 M149,122 L149,71 L191,71 L191,122 M72,113 Q72,96 70,71 L113,71 L113,74 L113,122 L72,122 M72,178 L72,128 L113,128 L113,178"/> 
            <glyph glyph-name="电" unicode="&#x7535;" horiz-adv-x="246" d=" M131,-18 Q101,-18 101,10 L101,54 L63,54 L63,37 Q63,33 59,32 Q42,27 27,27 Q27,34 28,61 Q28,87 28,93 L28,122 Q28,147 28,170 L68,159 L101,159 L101,160 Q101,195 100,206 L143,202 Q149,202 148,199 Q149,193 137,189 L137,159 L171,159 L182,178 L218,163 Q221,162 221,158 Q220,153 211,146 L211,111 Q211,67 212,49 Q212,45 209,44 Q193,40 176,39 L176,54 L137,54 L137,23 Q135,11 147,12 L192,12 Q208,10 212,26 L227,66 L231,65 L233,29 Q233,19 240,15 Q246,11 246,4 Q244,-17 204,-18 M137,104 L137,60 L176,60 L176,104 M63,104 L63,60 L101,60 L101,104 M176,153 L137,153 L137,110 L176,110 M63,153 L63,110 L101,110 L101,153"/> 
            <glyph glyph-name="界" unicode="&#x754C;" horiz-adv-x="251" d=" M184,97 L184,105 L149,105 Q189,85 251,85 L250,81 Q235,76 224,40 Q199,49 189,55 Q186,52 182,51 L182,25 Q182,19 182,6 Q183,-6 183,-14 Q183,-19 177,-21 Q159,-23 147,-23 Q148,-5 148,18 L148,38 Q148,50 148,67 L172,65 Q153,80 139,105 L134,105 Q112,82 87,67 L108,65 Q113,65 113,62 Q113,57 103,52 L103,50 Q106,-11 23,-26 L22,-23 Q73,6 70,51 Q70,54 69,57 Q42,43 8,34 L7,38 Q56,66 85,105 L70,105 L70,103 Q71,97 67,97 Q53,93 34,93 Q34,100 35,117 Q35,130 35,135 L35,167 Q35,192 34,199 L75,188 L179,188 L189,207 L226,193 Q231,191 231,188 Q230,182 219,176 L219,162 Q219,157 219,139 Q220,115 220,106 Q220,102 219,101 Q199,97 184,97 M144,144 L144,111 L184,111 L184,144 M184,182 L144,182 L144,150 L184,150 M70,144 L70,111 L109,111 L109,144 M70,182 L70,150 L109,150 L109,182"/> 
            <glyph glyph-name="的" unicode="&#x7684;" horiz-adv-x="248" d=" M81,-5 L81,14 L56,14 L56,0 Q57,-9 47,-11 Q44,-12 34,-13 Q24,-14 20,-14 Q22,29 22,66 L22,99 Q22,131 21,162 L48,155 Q49,183 46,205 L88,199 Q94,199 93,196 Q92,190 82,187 Q72,168 60,153 L61,152 L76,152 L87,170 L119,156 Q123,154 123,151 Q123,148 116,141 Q115,139 114,138 L114,95 Q129,138 135,175 Q137,195 137,205 L185,195 Q189,195 189,191 Q190,185 176,181 Q170,166 163,153 L197,153 L208,173 L244,157 Q247,157 247,154 Q248,150 238,141 Q238,103 236,21 Q236,-21 177,-23 Q179,0 138,13 L139,17 L181,15 Q198,12 198,30 Q202,82 202,147 L160,147 Q151,131 141,117 Q189,100 188,78 Q186,55 165,53 Q152,53 151,65 Q145,94 136,111 Q127,98 115,87 L114,87 L114,81 Q114,75 114,47 Q115,12 115,2 Q115,0 109,-2 Q98,-5 81,-5 M56,81 L56,20 L81,20 L81,81 M81,146 L56,146 L56,87 L81,87"/> 
            <glyph glyph-name="益" unicode="&#x76CA;" horiz-adv-x="252" d=" M223,11 L249,-7 Q252,-10 251,-12 Q249,-14 244,-14 L9,-14 L9,-8 L42,-8 L42,46 Q42,51 42,79 Q30,73 16,69 L14,73 Q55,107 77,144 L117,125 Q121,124 121,121 Q119,113 104,114 Q80,95 46,81 L79,73 L170,73 L181,91 L216,77 Q219,75 219,72 Q219,66 209,60 L209,-7 M207,179 L242,156 Q246,153 245,151 Q243,149 237,149 L15,149 L15,155 L142,155 Q152,187 153,210 L196,200 Q202,199 202,195 Q201,188 188,187 Q169,165 155,155 L189,155 M214,83 Q206,83 200,90 Q176,116 140,134 L141,137 Q233,132 232,105 Q230,86 214,83 M92,157 Q80,157 79,167 Q73,191 63,203 L65,205 Q114,200 114,177 Q112,159 92,157 M119,67 L119,-8 L132,-8 L132,67 M175,67 L162,67 L162,-8 L175,-8 M76,67 L76,-8 L89,-8 L89,67"/> 
            <glyph glyph-name="硬" unicode="&#x786C;" horiz-adv-x="254" d=" M79,201 L102,184 L102,188 L205,188 L220,211 L250,189 Q254,187 252,184 Q251,182 245,182 L188,182 L188,153 L200,153 L211,172 L245,157 Q249,155 249,152 Q249,145 239,139 L239,126 Q239,99 240,68 Q240,62 235,61 Q222,58 205,58 L205,72 L186,72 Q183,43 173,25 Q201,16 254,18 L253,14 Q239,7 234,-22 Q181,-18 153,2 Q125,-18 69,-28 L68,-24 Q120,-3 135,19 Q123,36 114,58 Q108,58 104,58 L104,162 L143,153 L154,153 L154,182 L105,182 Q109,177 99,177 L68,177 Q59,142 47,119 L56,116 L58,116 L67,134 L99,120 Q105,118 104,115 Q105,111 93,103 L93,81 Q93,42 94,17 Q95,11 87,9 Q75,7 62,7 L62,20 L50,20 L50,2 Q51,-3 43,-4 Q42,-4 39,-5 Q23,-7 18,-7 Q19,10 19,42 L19,77 Q17,75 13,70 Q8,65 6,62 L2,64 Q26,129 31,177 L7,177 L7,183 L67,183 M62,110 L50,110 L50,27 L62,27 M128,60 Q124,59 120,59 Q130,45 145,37 Q151,52 153,72 L137,72 L137,68 Q138,61 128,60 M188,105 Q188,87 187,78 L205,78 L205,109 L188,109 M205,146 L188,146 L188,115 L205,115 M137,146 L137,115 L154,115 L154,146 M153,78 Q154,90 154,105 L154,109 L137,109 L137,78"/> 
            <glyph glyph-name="米" unicode="&#x7C73;" horiz-adv-x="249" d=" M9,-7 L7,-4 Q55,42 87,104 L15,104 L15,111 L107,111 L107,144 Q107,180 106,205 L152,201 Q156,201 156,198 Q155,192 145,187 L145,111 L191,111 L209,136 L242,111 Q246,109 245,106 Q243,104 237,104 L153,104 Q187,57 249,38 L248,34 Q228,29 211,0 Q159,36 146,104 L145,104 L145,-13 Q146,-21 137,-22 Q120,-24 105,-24 Q105,-15 106,0 Q107,48 107,65 Q72,22 9,-7 M154,114 L150,117 Q170,155 175,192 L218,174 Q223,172 223,169 Q224,163 209,162 Q188,136 154,114 M68,119 Q58,119 55,130 Q48,162 35,185 L38,188 Q93,168 93,144 Q91,121 68,119"/> 
            <glyph glyph-name="系" unicode="&#x7CFB;" horiz-adv-x="240" d=" M16,-19 L14,-16 Q50,19 63,51 L107,37 Q111,36 111,33 Q112,27 97,27 Q87,17 76,10 L103,9 Q114,9 114,21 L114,62 Q76,56 48,54 Q46,44 40,44 Q37,44 35,51 L27,84 Q43,83 60,88 Q78,96 112,116 Q88,112 61,109 Q58,99 53,99 Q49,99 48,105 L40,137 Q55,137 63,142 Q79,153 91,167 Q60,166 26,166 L25,170 Q145,191 184,209 L222,182 Q225,180 225,177 Q225,172 217,172 Q213,172 205,174 Q162,170 136,169 L145,166 Q148,165 148,162 Q147,156 132,156 Q110,144 84,135 L140,134 Q146,139 152,143 Q160,150 171,162 Q173,165 174,166 L208,142 Q214,139 213,136 Q213,130 197,131 Q145,101 88,83 L188,87 Q181,99 172,111 L173,113 Q240,97 238,72 Q236,49 215,47 Q203,47 200,59 Q198,63 195,72 Q194,75 193,76 Q173,71 152,68 L152,45 Q152,28 152,3 Q152,-21 104,-26 Q104,0 74,6 L75,9 Q50,-5 16,-19 M216,-13 Q206,-14 198,-1 Q184,23 158,46 L159,48 Q239,39 238,10 Q236,-10 216,-13"/> 
            <glyph glyph-name="级" unicode="&#x7EA7;" horiz-adv-x="253" d=" M25,-12 Q22,-12 21,-8 L7,29 Q40,32 95,47 L97,44 Q116,92 115,180 L91,180 L91,186 L172,186 L183,204 L218,188 Q222,187 222,184 Q222,177 210,173 L193,123 L199,123 L210,141 L245,124 Q249,122 249,119 Q249,114 236,109 Q226,66 204,37 Q223,24 253,15 L252,11 Q231,6 219,-23 Q194,-7 177,10 Q148,-11 97,-27 L95,-23 Q137,3 162,33 Q149,57 143,103 Q134,20 62,-24 L59,-22 Q84,11 96,42 Q69,18 32,0 Q32,-12 25,-12 M21,98 Q18,98 17,102 L6,135 Q16,136 19,143 Q36,179 39,207 L80,196 Q84,194 84,191 Q85,185 70,183 Q56,159 35,137 L58,136 Q59,139 61,146 Q65,158 67,166 L105,153 Q109,151 109,149 Q109,143 97,140 Q80,110 52,79 L100,83 L101,79 Q71,61 41,48 Q39,39 34,38 Q31,38 29,43 L18,77 Q33,79 37,89 Q46,105 52,120 Q40,114 28,110 Q26,99 21,98 M185,104 Q175,108 156,120 Q153,121 153,123 Q153,125 156,127 Q162,131 164,136 L176,180 L148,180 Q148,149 146,124 Q160,82 179,59 Q194,84 202,117 L195,117"/> 
            <glyph glyph-name="细" unicode="&#x7EC6;" horiz-adv-x="250" d=" M205,-23 L205,0 L137,0 L137,-11 Q137,-18 130,-19 Q108,-23 101,-23 Q101,-9 102,13 Q103,51 103,59 L103,131 L103,136 Q102,136 100,136 Q77,103 49,77 L99,80 L100,76 Q76,62 39,47 Q37,36 31,37 Q28,37 28,41 L16,75 Q28,76 33,83 Q45,101 52,118 Q50,117 47,116 Q39,112 27,108 Q25,97 19,97 Q17,97 15,102 L4,134 Q13,135 17,141 Q36,172 40,207 L83,194 Q87,193 87,190 Q86,183 74,182 Q53,152 32,134 L59,134 Q63,143 67,162 Q67,164 67,165 L103,152 Q102,168 102,192 L144,181 L200,181 L211,200 L247,186 Q247,186 248,185 Q250,184 250,182 Q250,176 240,169 L240,89 Q240,81 240,46 Q241,0 241,-12 Q242,-19 233,-20 Q221,-23 205,-23 M24,-20 Q22,-20 20,-15 L6,28 Q36,29 100,38 L102,34 Q67,8 33,-5 Q30,-20 24,-20 M187,90 L187,4 L205,4 L205,90 M137,90 L137,4 L153,4 L153,90 M205,175 L187,175 L187,96 L205,96 M137,175 L137,96 L153,96 L153,175"/> 
            <glyph glyph-name="经" unicode="&#x7ECF;" horiz-adv-x="251" d=" M31,31 Q28,31 26,36 L14,72 Q31,74 37,82 Q52,101 61,119 Q51,113 33,106 Q28,104 26,103 Q26,94 20,93 Q17,93 17,97 L7,131 Q19,132 25,144 Q39,175 43,207 L86,193 Q89,192 89,189 Q89,183 76,182 Q58,155 36,131 L68,131 Q78,152 81,168 L122,154 Q125,153 125,150 Q125,145 111,142 Q94,114 54,74 L114,80 L115,77 Q76,56 37,42 Q37,31 31,31 M229,80 Q220,79 213,91 Q199,110 177,129 Q147,97 87,80 L85,83 Q149,127 169,182 L110,182 L110,188 L166,188 L178,205 L217,187 Q222,185 222,182 Q223,176 208,172 Q197,150 182,134 Q250,122 248,101 Q247,82 229,80 M196,91 L225,71 Q229,69 228,66 Q226,64 220,64 L182,64 L182,-7 L201,-7 L217,13 L247,-6 Q251,-9 249,-11 Q248,-13 242,-13 L83,-13 L83,-7 L145,-7 L145,64 L111,64 L111,70 L181,70 M25,-22 Q23,-22 21,-18 L8,19 Q20,19 37,22 Q55,25 117,37 L119,34 Q73,6 32,-10 Q31,-22 25,-22"/> 
            <glyph glyph-name="绕" unicode="&#x7ED5;" horiz-adv-x="250" d=" M88,83 L87,87 Q119,102 143,120 Q131,134 122,154 L98,151 L97,156 L120,160 Q120,161 120,161 Q116,171 109,189 Q105,201 103,206 L149,204 Q153,204 153,201 Q152,196 144,191 Q149,177 153,165 L193,172 L203,193 L234,180 Q239,178 238,175 Q237,172 231,171 L191,165 L222,148 Q225,146 225,144 Q225,138 210,138 Q202,130 194,124 Q203,120 215,118 Q221,115 224,122 L236,148 L239,147 L239,126 Q239,117 244,113 Q250,108 250,103 Q249,85 226,84 Q220,84 214,85 L236,70 Q240,68 238,65 Q236,63 230,63 L197,63 L197,15 Q197,7 203,7 L210,7 Q216,7 220,17 L231,44 L235,42 L236,22 Q235,13 243,8 Q249,6 249,0 Q249,-22 217,-22 L195,-22 Q160,-24 163,6 L163,63 L151,63 Q156,-11 62,-27 L60,-23 Q120,4 116,63 L90,63 L90,69 L193,69 L205,86 Q180,89 160,104 Q134,91 88,83 M29,33 Q25,33 24,37 L12,73 Q27,75 32,83 Q44,103 51,119 Q36,113 24,109 Q24,99 17,97 Q15,97 14,100 Q13,101 13,101 L3,133 Q13,135 16,139 Q23,155 31,179 Q32,183 33,185 Q35,192 36,203 Q37,206 37,207 L82,195 Q85,195 85,192 Q85,186 70,183 Q55,158 33,134 L57,134 Q62,149 63,161 L104,147 Q107,146 107,144 Q108,139 95,136 Q75,104 48,74 L92,78 L93,73 Q67,59 36,44 Q36,35 29,33 M24,-18 Q20,-18 18,-14 L5,24 Q17,25 37,28 Q51,30 80,36 Q94,38 99,39 L101,36 Q70,11 30,-7 Q30,-18 24,-18 M156,160 Q162,150 169,142 L171,144 Q183,158 186,164"/> 
            <glyph glyph-name="统" unicode="&#x7EDF;" horiz-adv-x="252" d=" M33,34 Q30,35 29,38 L16,75 Q30,76 36,86 Q47,103 54,121 Q40,113 27,108 Q26,98 21,97 Q18,97 17,101 L5,133 Q15,134 19,140 Q28,159 36,185 Q38,196 40,207 L82,196 Q86,195 86,192 Q86,186 71,183 Q53,155 36,134 L59,135 Q67,155 68,163 L109,149 Q112,148 112,145 Q111,140 98,136 Q80,110 52,77 L97,80 L98,75 Q65,55 40,45 Q38,34 33,34 M106,79 Q102,80 102,83 L92,115 Q107,116 114,124 Q122,136 130,163 L88,163 L88,169 L204,169 L219,190 L248,170 Q252,167 251,165 Q249,163 242,163 L180,163 Q153,132 130,116 L193,118 Q186,133 175,148 L177,150 Q239,129 237,104 Q235,84 216,82 Q207,82 203,91 L198,104 Q166,98 111,90 Q111,80 106,79 M194,-18 Q166,-20 167,12 L167,85 L205,81 Q211,81 211,78 Q211,72 201,68 L201,20 Q201,10 207,11 L211,11 Q216,10 220,22 L232,58 L236,57 L238,28 Q237,16 244,13 Q252,9 252,2 Q251,-18 217,-18 M58,-26 L57,-23 Q114,7 114,59 Q115,67 115,86 L156,79 Q160,79 161,76 Q161,70 151,66 Q152,-11 58,-26 M28,-16 Q25,-16 24,-12 L11,28 Q20,28 41,31 Q52,33 77,38 Q93,41 100,42 L102,38 Q70,14 35,-4 Q33,-16 28,-16 M158,169 Q148,169 147,178 Q144,195 137,205 L138,207 Q184,206 181,188 Q179,171 158,169"/> 
            <glyph glyph-name="考" unicode="&#x8003;" horiz-adv-x="249" d=" M9,49 L7,54 Q78,87 119,119 L12,119 L12,125 L93,125 L93,161 L34,161 L34,167 L93,167 Q93,194 92,206 L137,203 Q143,202 143,199 Q144,195 132,190 L132,167 L135,167 L147,184 L170,167 L178,177 Q188,190 191,198 L231,178 Q235,176 234,173 Q234,168 220,168 Q200,145 175,125 L200,125 L215,146 L246,124 Q249,122 248,121 Q246,119 242,119 L167,119 Q143,101 118,88 L174,88 L191,111 L225,88 Q228,86 227,84 Q225,82 221,82 L117,82 L107,54 L169,54 L180,72 L218,57 Q222,55 222,52 Q222,47 212,41 Q211,20 208,4 Q206,-23 152,-26 Q154,0 111,10 L112,14 L156,11 Q168,10 170,19 Q173,31 174,48 L110,48 L101,34 Q80,41 67,50 Q63,52 66,56 Q70,59 73,64 L74,68 Q44,58 9,49 M132,129 Q150,144 164,161 L132,161"/> 
            <glyph glyph-name="而" unicode="&#x800C;" horiz-adv-x="250" d=" M84,-11 L84,123 L64,123 L64,-12 Q64,-19 57,-21 Q54,-21 48,-22 Q33,-23 25,-23 Q27,20 27,44 L27,74 Q27,113 25,140 L72,129 L85,129 Q88,152 88,177 L12,177 L12,183 L198,183 L214,205 L246,184 Q250,181 249,179 Q248,177 242,177 L137,177 Q116,142 104,129 L188,129 L199,149 L236,134 Q242,131 241,128 Q242,122 230,115 L230,59 Q230,27 231,6 Q234,-20 185,-25 Q186,-4 172,1 L172,0 Q172,-6 167,-6 Q154,-9 138,-9 L138,123 L118,123 L118,0 Q119,-6 112,-7 Q108,-8 92,-10 Q86,-11 84,-11 M193,123 L172,123 L172,9 L185,8 Q193,8 193,15"/> 
            <glyph glyph-name="聚" unicode="&#x805A;" horiz-adv-x="251" d=" M11,13 L10,16 Q55,42 74,64 Q59,63 44,63 L43,67 Q144,88 170,108 L200,83 Q203,81 202,79 Q199,72 189,77 Q171,74 153,71 Q166,54 182,43 Q195,58 204,77 L237,57 Q241,54 241,51 Q241,45 226,48 Q210,40 192,37 Q214,25 251,21 L251,17 Q231,11 220,-17 Q160,5 147,70 Q147,70 146,70 L146,52 Q146,43 147,16 Q147,-7 147,-14 Q147,-21 140,-22 Q127,-25 109,-25 L110,10 Q108,7 99,8 Q60,-11 9,-20 L8,-16 Q60,11 77,32 L107,16 Q110,14 110,12 Q110,33 110,43 L110,66 Q104,65 93,65 Q82,64 76,64 L103,48 Q106,47 106,45 Q107,40 94,41 Q58,21 11,13 M120,206 L147,188 Q151,186 150,184 Q148,182 143,182 L126,182 L126,133 L126,124 Q127,124 129,124 Q135,126 142,126 L143,123 Q135,119 126,116 Q126,107 127,100 Q127,93 119,91 Q108,89 94,89 L94,104 Q79,99 49,90 Q37,87 31,85 Q31,75 25,74 Q22,74 22,79 L12,115 Q22,115 32,116 L32,182 L14,182 L14,187 L107,187 M223,90 Q213,89 208,99 Q204,103 197,112 Q193,117 191,119 Q168,104 131,98 L130,101 Q157,118 173,134 Q159,146 138,157 L140,160 Q155,157 179,151 Q182,150 184,150 Q190,161 196,174 L141,174 L141,179 L193,179 L205,196 L239,177 Q243,174 243,172 Q242,166 230,164 Q222,150 213,138 Q239,126 240,111 Q239,92 223,90 M65,158 L65,140 L94,140 L94,158 M65,182 L65,163 L94,163 L94,182 M65,118 Q78,120 94,121 L94,134 L65,134"/> 
            <glyph glyph-name="育" unicode="&#x80B2;" horiz-adv-x="248" d=" M211,198 L244,175 Q248,172 247,170 Q245,167 239,167 L134,167 Q110,152 78,138 L174,139 Q162,149 147,158 L149,161 Q230,156 228,131 Q226,113 208,110 Q198,110 193,117 Q187,126 180,133 Q125,121 51,112 L50,110 L90,101 L167,101 L177,119 L215,104 Q215,104 216,104 Q218,103 218,101 Q219,96 208,88 L208,66 Q208,61 208,48 Q209,22 209,5 Q213,-18 161,-24 Q162,0 122,7 L123,11 L159,10 Q172,9 171,22 L171,33 L84,33 L84,-14 Q84,-16 83,-19 Q83,-18 82,-20 Q66,-24 46,-24 Q46,-12 47,16 Q47,30 47,33 L47,54 Q47,75 46,103 Q45,102 44,102 Q39,102 38,108 L30,140 Q55,139 61,147 Q68,153 78,167 L10,167 L10,173 L114,173 Q111,176 111,181 Q110,192 101,205 L103,207 Q154,208 151,189 Q151,180 138,173 L194,173 M171,95 L84,95 L84,70 L171,70 M84,64 L84,39 L171,39 L171,64"/> 
            <glyph glyph-name="能" unicode="&#x80FD;" horiz-adv-x="248" d=" M22,116 Q18,115 16,122 L9,151 Q24,152 28,161 Q42,184 47,207 L86,197 Q90,197 90,194 Q90,187 78,187 Q65,170 41,151 L96,154 Q90,168 83,180 L84,182 Q134,162 132,141 Q130,124 115,122 Q104,123 102,132 Q102,134 101,139 Q100,143 99,145 Q61,133 28,125 Q28,121 25,118 L60,110 L83,110 L93,127 L126,114 Q131,113 131,110 Q132,104 121,98 L121,8 Q123,-20 81,-23 Q82,0 57,5 L58,9 L80,8 Q89,8 88,18 L88,37 L56,37 L56,-13 Q56,-18 51,-20 Q31,-24 21,-24 Q23,39 23,61 L23,116 M165,-16 Q135,-16 135,13 L135,50 Q135,73 134,95 L172,92 Q178,92 178,88 Q178,83 168,79 L168,54 Q194,75 204,91 L240,69 Q242,69 242,66 Q242,58 226,61 Q202,51 168,43 L168,25 Q168,13 176,13 L198,13 Q213,13 218,24 L231,54 L235,53 L236,27 Q236,19 241,16 Q248,10 248,4 Q246,-15 210,-16 M165,103 Q134,103 134,135 L134,158 Q134,183 133,204 L171,200 Q177,200 177,197 Q177,192 167,188 L167,163 Q189,180 204,200 L239,178 Q241,178 241,175 Q241,167 226,170 Q201,160 167,152 L167,144 Q167,132 175,132 L202,132 Q212,132 217,141 L229,167 L233,166 L234,145 Q234,138 241,135 Q247,132 247,124 Q245,104 209,103 M88,104 L56,104 L56,77 L88,77 M56,71 L56,44 L88,44 L88,71"/> 
            <glyph glyph-name="脑" unicode="&#x8111;" horiz-adv-x="255" d=" M134,-18 Q117,-10 105,0 Q102,1 105,3 Q111,9 111,16 L111,84 Q111,91 110,105 Q110,117 110,122 L144,118 Q147,118 147,115 Q148,112 142,108 L142,30 Q149,46 160,78 Q161,83 162,85 Q151,113 132,143 L135,146 Q155,129 170,111 L173,122 Q176,139 178,152 L216,142 Q220,142 220,138 Q221,134 209,131 Q200,108 189,87 Q205,66 207,44 L207,87 Q207,110 207,123 L245,120 Q249,120 249,117 Q248,111 240,108 L240,64 Q240,9 241,-11 Q242,-18 234,-19 Q217,-22 207,-21 L207,-4 L145,-4 M8,-26 L4,-23 Q14,8 17,32 Q20,57 20,99 L20,146 Q20,180 19,197 L56,187 L65,187 L75,204 L107,190 Q110,188 110,186 Q110,182 100,174 L100,8 Q102,-21 59,-24 Q61,-1 36,4 L37,9 L60,8 Q68,8 68,18 L68,66 L50,66 Q47,13 8,-26 M189,21 Q180,21 177,33 L172,56 Q157,35 142,18 L142,0 L207,0 L207,42 Q205,22 189,21 M169,163 Q157,163 156,175 Q153,192 145,204 L146,206 Q192,205 192,184 Q190,165 169,163 M223,183 L251,161 Q255,156 246,155 L106,155 L106,162 L208,162 M53,115 Q53,91 51,72 L68,72 L68,123 L53,123 M68,180 L53,180 L53,129 L68,129"/> 
            <glyph glyph-name="腻" unicode="&#x817B;" horiz-adv-x="251" d=" M80,-25 L79,-22 Q125,0 122,47 Q122,61 122,69 L150,66 Q152,66 153,64 L153,82 L117,82 L117,26 Q118,18 107,17 Q100,16 92,16 Q93,27 93,57 L93,68 Q93,81 93,95 L123,88 L149,88 L157,100 L182,89 L183,88 Q182,98 182,110 Q181,108 175,108 L95,108 L95,113 L146,113 L157,129 L179,114 Q182,113 182,111 Q181,129 181,148 L181,161 L89,161 L89,167 L181,167 L181,175 Q181,199 180,207 L216,202 Q219,201 219,199 Q219,196 212,192 L212,167 L215,167 L225,180 Q222,182 222,185 Q222,195 218,204 L219,205 Q247,203 246,191 Q245,182 233,178 L248,167 Q251,165 250,163 Q248,161 243,161 L212,161 L212,148 Q211,60 227,24 Q228,21 230,21 Q231,21 232,24 L244,62 L248,61 L246,21 Q246,12 248,5 Q251,-1 251,-9 Q250,-23 235,-24 Q215,-24 201,2 Q187,29 183,84 Q182,81 177,77 L177,70 Q177,39 178,31 Q178,23 172,22 Q166,21 153,21 L153,61 Q152,59 146,56 Q146,33 142,18 Q185,12 184,-5 Q183,-21 166,-23 Q158,-23 155,-14 Q151,-2 140,11 Q131,-15 80,-25 M8,-26 L4,-23 Q13,8 15,32 Q18,58 18,103 L18,147 Q18,171 17,195 L48,187 L54,187 L63,202 L90,190 Q93,189 93,187 Q93,182 86,176 L86,10 Q88,-17 51,-20 Q50,1 32,7 L33,10 L49,9 Q58,9 58,21 L58,67 L45,67 Q41,11 8,-26 M155,155 L176,140 Q180,138 178,135 Q177,133 172,133 L96,133 L96,139 L144,139 M47,113 Q47,91 46,73 L58,73 L58,124 L47,124 M58,181 L47,181 L47,130 L58,130"/> 
            <glyph glyph-name="腾" unicode="&#x817E;" horiz-adv-x="250" d=" M135,29 Q119,37 110,43 Q106,46 111,50 Q117,53 116,60 L117,78 Q106,69 91,62 L91,5 Q92,-21 52,-23 Q53,-2 31,3 L31,7 L53,6 Q60,6 60,14 L60,68 L45,68 Q41,15 8,-25 L4,-23 Q12,6 15,34 Q17,60 17,115 L17,149 Q17,156 17,172 Q16,189 16,197 L50,188 L56,188 L66,204 L95,192 Q100,190 100,187 Q100,182 91,176 L91,69 Q113,91 125,115 L93,115 L93,121 L128,121 Q131,127 135,139 Q136,144 137,146 L98,146 L98,153 L138,153 Q144,176 143,205 L186,201 Q190,200 190,197 Q190,192 179,188 Q176,168 172,153 L181,153 Q190,176 195,196 L223,185 Q227,184 227,181 Q227,176 217,176 Q200,159 190,153 L202,153 L214,170 L236,155 Q240,152 239,149 Q236,146 230,146 L170,146 Q166,133 159,121 L208,121 L221,140 L245,123 Q249,120 248,118 Q246,115 240,115 L193,115 Q215,101 250,100 L249,96 Q234,91 228,67 Q213,74 203,84 Q203,83 202,83 L199,52 L206,64 L237,50 Q241,49 241,45 Q241,40 232,35 Q232,31 231,21 Q230,7 229,4 Q226,-25 181,-25 Q181,-4 156,0 L157,2 L184,1 Q195,0 196,11 Q197,19 198,31 Q199,38 199,41 L146,41 M146,69 L143,47 L168,47 L172,88 L131,88 L123,82 L150,78 Q154,78 154,75 Q155,72 146,69 M172,36 L193,20 Q197,18 195,15 Q194,13 188,13 L93,13 L93,19 L159,19 M121,156 Q112,156 110,166 Q109,183 102,195 L104,197 Q138,187 138,174 Q137,157 121,156 M47,118 Q47,93 46,74 L60,74 L60,127 L47,127 M60,182 L47,182 L47,133 L60,133 M167,94 L176,110 L189,105 L184,115 L155,115 Q149,105 138,94"/> 
            <glyph glyph-name="舰" unicode="&#x8230;" horiz-adv-x="254" d=" M98,-25 L95,-22 Q163,31 160,120 L160,126 Q160,143 159,156 L196,153 Q199,153 201,151 L201,178 L151,178 L151,63 Q151,60 147,58 Q146,58 141,57 Q125,54 121,54 Q121,72 122,111 Q122,129 122,133 L122,147 Q122,149 122,163 Q121,186 121,193 L155,184 L196,184 L206,201 L238,188 Q242,186 242,184 Q243,178 231,172 L231,144 Q231,128 233,72 Q233,68 229,66 Q224,65 206,63 L205,62 L205,19 Q204,12 210,13 L214,13 Q220,13 224,23 L237,60 L241,59 L241,28 Q241,19 248,15 Q254,9 254,3 Q251,-15 221,-17 L200,-17 Q176,-17 176,6 L176,39 Q156,-2 98,-25 M8,94 L8,100 L23,100 L23,103 L23,130 Q23,155 23,180 L49,173 Q50,183 50,206 L84,202 Q89,201 89,198 Q90,193 78,191 Q70,180 61,171 L77,171 L86,187 L114,175 Q118,173 118,170 Q117,165 109,160 L109,12 Q110,-15 71,-20 Q74,2 45,9 L46,13 L72,12 Q81,12 81,22 L81,94 L52,94 Q52,18 11,-26 L7,-24 Q24,29 23,94 M81,165 L52,165 L52,113 Q52,107 52,100 L81,100 M64,34 Q58,35 57,44 Q57,67 54,84 L56,86 Q80,66 79,49 Q78,35 64,34 M191,124 Q191,97 187,76 L201,74 L201,147 Q196,142 191,141 M65,111 Q59,111 58,121 Q58,140 54,155 L55,156 Q79,142 79,126 Q78,112 65,111"/> 
            <glyph glyph-name="英" unicode="&#x82F1;" horiz-adv-x="252" d=" M10,-24 L9,-20 Q84,12 98,51 L8,51 L8,57 L43,57 L43,83 Q43,106 42,128 L82,118 L107,118 Q107,122 107,130 Q106,140 106,145 L147,141 Q154,141 154,138 Q155,132 144,127 L144,118 L168,118 L179,137 L215,123 Q219,122 219,119 Q219,113 209,106 L209,62 L221,79 L248,59 Q252,56 250,53 Q249,51 243,51 L144,51 Q176,19 244,17 L243,13 Q223,5 215,-24 Q154,-5 136,49 Q121,-6 10,-24 M66,139 Q66,157 66,168 L11,168 L11,174 L66,174 L66,181 Q66,196 66,206 L106,202 Q111,202 111,199 Q111,193 101,189 L101,174 L148,174 L148,179 Q148,191 147,206 L187,202 Q193,202 193,198 Q194,194 182,189 L182,177 L182,174 L200,174 L216,196 L245,176 Q249,173 247,170 Q245,168 239,168 L182,168 L183,152 Q183,146 179,145 Q164,143 148,143 L148,168 L101,168 L101,147 Q101,141 96,141 Q76,139 66,139 M144,101 Q144,76 139,57 L173,57 L173,112 L144,112 M107,102 L107,112 L79,112 L79,57 L101,57 Q107,76 107,102"/> 
            <glyph glyph-name="虚" unicode="&#x865A;" horiz-adv-x="250" d=" M195,199 L223,180 Q227,178 225,176 Q224,174 218,174 L144,174 L144,155 L196,155 L208,171 L242,151 Q242,151 243,150 Q246,148 246,146 Q247,140 232,139 Q214,127 199,120 L197,123 L200,148 L110,148 L148,145 Q152,145 152,142 Q152,137 143,134 L143,121 L157,123 L169,141 L193,126 Q197,124 196,121 Q194,119 190,119 L143,115 Q142,104 154,105 L189,105 Q204,104 209,114 L218,129 L222,128 L223,117 Q223,109 229,106 Q235,103 235,97 Q233,79 197,78 L137,78 Q106,76 107,104 L107,112 L71,110 L70,115 L107,118 L107,148 L68,148 L68,111 Q68,74 62,54 Q98,36 97,17 Q95,0 78,-1 Q66,-2 67,7 Q66,29 61,47 Q50,7 10,-26 L7,-23 Q32,29 31,108 L31,116 Q31,151 30,165 L71,155 L108,155 L108,171 Q108,195 107,204 L149,201 Q155,200 155,197 Q155,193 144,188 L144,180 L181,180 M215,11 L246,-8 Q250,-11 248,-13 Q247,-15 241,-15 L37,-15 L37,-9 L99,-9 L99,28 Q99,50 99,72 L137,68 Q143,68 143,65 Q143,61 132,56 L132,-9 L145,-9 L145,27 Q145,49 145,70 L183,67 Q189,67 189,63 Q189,59 178,54 L178,-9 L199,-9 M184,-5 L180,-3 Q195,37 197,62 L238,48 Q241,47 241,45 Q241,38 227,37 Q210,11 184,-5"/> 
            <glyph glyph-name="装" unicode="&#x88C5;" horiz-adv-x="252" d=" M7,11 L6,15 Q54,41 84,72 L9,72 L9,79 L116,79 Q113,81 112,87 Q110,99 104,105 L106,108 Q149,109 149,93 Q148,82 138,79 L198,79 L215,102 L248,79 Q252,77 250,74 Q248,72 242,72 L199,72 L229,54 Q232,52 232,49 Q231,44 218,46 Q201,38 180,35 Q206,19 252,13 L252,9 Q233,4 224,-24 Q151,0 132,68 Q115,54 94,42 L94,13 L150,20 L152,16 Q107,-7 74,-21 Q73,-31 68,-31 Q65,-31 63,-27 Q63,-27 62,-26 L49,4 Q61,8 60,18 L60,27 Q36,18 7,11 M210,138 L239,116 Q242,114 241,112 Q239,110 234,110 L106,110 L106,116 L148,116 L148,142 L148,160 L103,160 L103,166 L148,166 Q148,187 147,205 L188,202 Q193,201 193,198 Q193,193 183,189 L183,166 L200,166 L215,188 L246,166 Q249,164 248,162 Q246,160 241,160 L183,160 L183,116 L195,116 M24,97 Q23,97 20,101 Q19,102 19,102 L8,137 Q27,139 66,147 L66,161 L66,205 L106,202 Q109,202 109,199 Q109,193 98,190 L98,181 Q98,130 99,104 Q99,96 95,95 Q89,94 75,93 Q68,92 65,92 Q65,116 65,134 Q55,125 36,112 Q32,109 30,107 Q29,98 24,97 M39,148 Q30,148 28,159 Q27,179 19,195 L21,197 Q61,184 60,169 Q59,149 39,148 M139,72 Q153,54 169,42 Q186,59 194,72"/> 
            <glyph glyph-name="视" unicode="&#x89C6;" horiz-adv-x="249" d=" M78,-26 L75,-22 Q120,12 136,43 Q152,73 152,120 L152,126 Q152,152 151,161 L191,157 Q197,157 196,154 Q195,148 185,145 L185,125 Q185,100 182,81 L199,79 L199,182 L140,182 L140,68 Q140,62 135,61 Q117,58 107,58 Q108,89 108,136 L108,154 Q108,185 107,197 L143,188 L195,188 L205,205 L238,192 Q242,191 242,188 Q242,184 232,176 L232,146 Q232,103 233,73 Q233,69 229,67 Q223,65 204,63 Q201,63 199,63 L199,71 L196,68 L196,20 Q195,11 203,12 L208,12 Q217,11 220,22 L232,58 L236,57 L237,28 Q236,18 243,15 Q249,10 249,4 Q249,-17 216,-17 L192,-17 Q163,-18 164,5 L164,33 Q143,0 78,-26 M36,-24 Q37,13 37,56 L37,68 Q24,58 6,47 L4,50 Q48,107 61,150 L9,150 L9,156 L59,156 L73,174 L104,155 Q107,152 107,151 Q107,145 96,142 Q85,118 70,100 L70,94 Q106,83 105,66 Q103,50 88,48 Q78,48 77,57 Q76,76 70,88 L70,-12 Q71,-21 62,-22 Q54,-24 36,-24 M47,161 Q35,161 34,173 Q34,191 27,204 L28,206 Q71,198 69,182 Q67,163 47,161"/> 
            <glyph glyph-name="觉" unicode="&#x89C9;" horiz-adv-x="251" d=" M26,108 Q9,109 8,125 Q8,137 17,143 Q33,153 39,172 L42,172 Q47,162 48,153 L155,153 Q170,188 172,207 L212,192 Q218,190 218,187 Q217,181 203,181 Q188,165 171,153 L198,153 L212,171 L247,150 Q251,147 251,144 Q251,138 237,137 Q220,128 208,123 Q213,121 213,119 Q213,113 202,107 L202,80 Q202,72 203,46 Q203,39 197,38 Q183,35 167,35 L167,47 Q165,44 159,41 L159,23 Q159,13 166,13 L194,13 Q208,13 213,28 L227,61 L231,61 L232,30 Q232,21 240,16 Q247,11 247,3 Q244,-15 204,-16 L154,-16 Q124,-17 125,7 L125,20 L125,24 Q100,-16 12,-24 L10,-20 Q94,7 104,64 Q107,82 106,100 L148,94 Q153,94 154,91 Q154,85 142,80 Q141,67 138,56 L163,53 Q164,53 166,52 Q167,52 167,52 L167,114 L88,114 L88,41 Q89,33 80,32 Q67,29 52,29 Q53,54 53,66 L53,91 Q53,108 52,131 L95,120 L162,120 L172,138 L196,128 L201,146 L49,146 Q50,143 50,140 Q49,110 26,108 M124,158 Q113,158 110,170 Q106,191 98,204 L100,206 Q145,199 146,179 Q144,160 124,158 M71,155 Q59,154 57,166 Q55,184 46,199 L47,201 Q90,195 91,175 Q90,157 71,155"/> 
            <glyph glyph-name="触" unicode="&#x89E6;" horiz-adv-x="252" d=" M57,-9 Q58,8 58,48 L47,48 Q40,7 8,-24 L6,-22 Q15,3 18,27 Q21,51 21,96 L21,129 Q19,128 16,125 Q12,122 10,120 L7,123 Q29,167 35,207 L71,199 Q75,197 75,194 Q75,189 64,187 L57,174 L67,174 L77,189 L106,172 Q110,170 110,168 Q110,162 95,161 Q86,150 73,142 L88,142 L96,157 L124,145 Q128,144 128,141 Q129,137 120,131 L120,103 Q120,90 121,51 Q121,18 121,9 Q123,-17 89,-21 Q88,-3 82,0 Q82,-4 76,-6 Q64,-9 57,-9 M135,-24 Q132,-24 130,-18 L122,17 Q142,16 169,17 L169,68 L157,68 L157,57 Q158,51 147,48 Q140,47 129,47 Q130,61 130,110 L130,114 Q130,117 130,124 Q131,141 130,156 L160,148 L169,148 L169,161 Q169,190 168,205 L202,201 Q207,201 207,198 Q207,194 198,189 L198,148 L207,148 L215,164 L243,152 Q247,151 247,148 Q247,144 239,137 L239,131 Q239,96 240,65 Q240,57 232,55 Q221,53 211,53 L211,68 L198,68 L198,18 Q207,18 214,19 Q210,34 204,46 L205,48 Q252,25 252,0 Q251,-20 232,-21 Q220,-22 219,-7 Q219,-3 217,4 Q216,8 216,10 Q189,-2 142,-14 Q141,-24 135,-24 M211,142 L198,142 L198,74 L211,74 M157,142 L157,74 L169,74 L169,142 M54,169 Q46,157 37,146 L54,142 L60,142 L70,169 M82,94 L82,54 L92,54 L92,94 M88,10 Q92,9 92,17 L92,48 L82,48 L82,10 M50,94 Q50,71 48,54 L58,54 L58,94 M92,136 L82,136 L82,100 L92,100 M50,136 L50,100 L58,100 L58,136"/> 
            <glyph glyph-name="讯" unicode="&#x8BAF;" horiz-adv-x="252" d=" M233,-20 Q206,-19 190,20 Q179,50 178,94 Q177,92 172,92 L142,92 L142,76 Q142,23 143,-15 Q144,-22 138,-23 Q122,-25 104,-25 Q104,-17 105,-1 Q106,58 106,67 L106,92 L71,92 L71,98 L106,98 L106,180 L80,180 L80,186 L172,186 L183,206 L221,191 Q225,189 225,186 Q226,181 214,173 L214,125 Q214,64 226,31 Q227,28 228,28 Q229,28 230,30 L243,70 L247,69 L246,30 Q245,20 248,11 Q252,2 252,-3 Q252,-20 233,-20 M46,-19 Q43,-19 40,-15 L21,17 Q34,24 32,36 L32,115 L7,115 L7,121 L28,121 L39,140 L73,125 Q77,123 77,120 Q77,116 67,108 L67,36 L100,48 L102,45 Q77,14 51,-6 Q52,-18 46,-19 M153,118 L176,98 Q177,98 177,98 Q178,97 178,97 Q177,109 177,124 L177,180 L142,180 L142,100 M52,151 Q42,151 37,165 Q33,185 22,200 L24,202 Q74,196 74,173 Q72,153 52,151"/> 
            <glyph glyph-name="起" unicode="&#x8D77;" horiz-adv-x="251" d=" M164,31 Q133,31 133,57 L133,67 Q131,66 128,66 L96,66 L96,21 Q122,16 160,16 Q198,16 251,22 L250,18 Q233,10 227,-18 Q191,-18 160,-18 Q55,-21 44,38 Q35,2 6,-24 L3,-22 Q15,18 16,72 Q16,89 15,98 L55,94 Q61,93 60,90 Q60,85 50,82 Q50,65 47,50 Q53,42 61,36 L61,113 L10,113 L10,119 L55,119 L55,157 L17,157 L17,163 L55,163 L55,174 Q55,179 54,191 Q54,201 54,205 L97,201 Q102,200 102,197 Q102,192 90,187 L90,163 L94,163 L109,184 L135,163 Q138,161 137,159 Q135,157 131,157 L90,157 L90,119 L91,119 L105,141 L133,121 Q133,123 133,128 Q132,134 132,138 L171,128 L193,128 L193,180 L129,180 L129,186 L188,186 L199,205 L235,190 Q239,189 239,186 Q240,180 228,173 L228,161 Q228,134 229,116 Q229,112 225,111 Q210,108 193,108 L193,122 L168,122 L168,73 Q166,61 178,62 L196,62 Q211,60 216,73 L228,103 L232,103 L233,79 Q233,67 238,63 Q246,56 245,51 Q245,31 203,31 M108,90 L133,72 L133,102 L133,113 Q132,113 130,113 L96,113 L96,72"/> 
            <glyph glyph-name="身" unicode="&#x8EAB;" horiz-adv-x="254" d=" M19,64 L19,70 L52,70 L52,132 Q52,174 51,187 L91,176 Q93,190 91,206 L135,202 Q141,201 141,197 Q141,192 131,190 Q120,181 108,174 L157,174 L168,194 L206,178 Q211,176 211,174 Q212,168 200,161 L200,109 Q210,120 217,132 L251,109 Q254,106 254,104 Q254,99 239,100 Q220,81 200,66 Q200,20 201,5 Q201,-19 149,-24 Q153,3 108,11 L108,15 L152,14 Q161,15 162,26 L162,41 Q112,11 9,-13 L7,-9 Q92,27 146,64 M162,167 L89,167 L89,139 L162,139 M89,133 L89,104 L162,104 L162,133 M155,70 Q159,72 162,75 L162,98 L89,98 L89,70"/> 
            <glyph glyph-name="通" unicode="&#x901A;" horiz-adv-x="250" d=" M84,20 Q85,54 85,98 L85,114 Q85,134 85,153 L126,144 L148,144 Q146,146 146,147 Q136,162 113,174 L114,176 Q157,176 169,169 L182,185 L81,185 L81,191 L180,191 L198,209 L230,187 Q236,183 235,180 Q235,174 220,175 Q214,173 202,169 Q185,163 177,161 Q178,159 178,156 Q178,149 173,144 L196,144 L206,162 L241,147 Q245,145 245,142 Q245,138 235,130 L235,116 Q235,74 236,51 Q237,24 194,19 Q193,42 176,50 Q176,43 176,37 Q177,31 171,30 Q162,28 141,28 Q142,41 142,71 L120,71 L120,31 Q120,24 114,22 Q98,20 84,20 M25,-25 Q24,-25 21,-23 Q21,-22 20,-21 L1,18 Q11,20 26,25 Q32,27 35,28 L35,99 L6,99 L6,105 L31,105 L41,124 L76,109 Q82,107 81,104 Q82,101 70,92 L70,33 Q67,15 127,14 Q181,13 250,21 L250,17 Q236,10 233,-16 Q191,-17 154,-17 Q76,-18 59,19 Q47,3 31,-13 Q31,-25 25,-25 M51,140 Q39,140 36,153 Q29,181 18,198 L19,200 Q75,188 74,165 Q72,142 51,140 M176,77 L200,77 L200,105 L176,105 M200,138 L176,138 L176,110 L200,110 M142,77 L142,105 L120,105 L120,77 M120,138 L120,110 L142,110 L142,138 M189,55 Q200,55 200,65 L200,71 L176,71 Q176,64 176,56"/> 
            <glyph glyph-name="造" unicode="&#x9020;" horiz-adv-x="251" d=" M27,-24 Q23,-24 21,-20 L3,16 Q21,22 35,33 L35,98 L7,98 L7,104 L29,104 L40,124 L74,110 Q80,107 79,104 Q79,100 69,92 L69,34 Q64,12 138,12 Q182,11 251,18 L251,13 Q235,5 233,-17 Q201,-20 152,-19 Q75,-21 59,25 Q49,7 32,-10 Q33,-23 27,-24 M195,22 L195,36 L132,36 L132,30 Q133,23 123,22 Q111,19 98,19 Q99,37 99,61 L99,73 Q99,95 98,102 L137,92 L189,92 L200,110 L235,97 Q239,95 239,92 Q239,85 229,80 L229,72 Q229,66 230,50 Q230,37 230,33 Q232,26 224,25 Q210,22 195,22 M87,126 L83,129 Q98,170 99,199 L136,189 Q142,187 142,184 Q142,178 130,177 Q127,171 123,165 L144,165 L144,171 Q144,197 143,206 L185,202 Q190,202 190,198 Q189,192 179,189 L179,165 L195,165 L210,187 L239,166 Q242,164 241,161 Q239,159 234,159 L179,159 L179,120 L201,120 L217,142 L247,120 Q251,118 249,115 Q248,113 242,113 L75,113 L75,120 L144,120 L144,159 L120,159 Q109,143 87,126 M195,86 L132,86 L132,42 L195,42 M50,142 Q39,142 36,155 Q31,179 18,198 L20,200 Q76,188 73,166 Q71,144 50,142"/> 
            <glyph glyph-name="重" unicode="&#x91CD;" horiz-adv-x="250" d=" M30,170 L29,174 Q138,189 184,208 L216,184 Q219,181 219,178 Q219,173 212,173 Q208,173 200,176 Q193,176 179,174 Q158,173 146,172 L146,151 L194,151 L209,171 L238,151 Q242,149 240,147 Q239,145 233,145 L146,145 L146,124 L176,124 L187,142 L222,127 Q228,125 227,122 Q227,116 217,109 L217,98 Q217,70 218,53 Q219,46 210,45 L207,44 L233,26 Q237,23 235,21 Q234,19 228,19 L146,19 L146,-7 L195,-7 L213,17 L247,-6 Q250,-9 249,-11 Q247,-13 242,-13 L10,-13 L10,-7 L110,-7 L110,19 L25,19 L25,25 L110,25 L110,50 L76,50 Q77,43 68,41 Q56,38 39,38 Q39,49 40,69 Q40,80 40,84 L40,97 Q40,118 39,134 L82,124 L110,124 L110,145 L19,145 L19,151 L110,151 L110,171 Q96,170 78,170 Q63,170 30,170 M180,42 L180,50 L146,50 L146,25 L187,25 L200,43 Q191,42 180,42 M146,84 L146,56 L180,56 L180,84 M76,84 L76,56 L110,56 L110,84 M180,118 L146,118 L146,90 L180,90 M76,118 L76,90 L110,90 L110,118"/> 
            <glyph glyph-name="量" unicode="&#x91CF;" horiz-adv-x="254" d=" M42,29 Q44,49 44,67 L44,80 Q44,98 43,108 L86,100 L173,100 L182,116 L218,103 Q222,101 222,98 Q222,93 213,88 L213,83 Q213,61 214,42 Q214,37 207,35 L231,18 Q235,16 234,14 Q232,12 227,12 L145,12 L145,-10 L205,-10 L220,9 L250,-10 Q254,-12 253,-14 Q251,-16 246,-16 L12,-16 L12,-10 L110,-10 L110,12 L28,12 L28,17 L110,17 L110,40 L79,40 L79,38 Q79,32 72,31 Q63,29 42,29 M42,129 Q44,151 44,172 Q44,178 43,189 Q43,197 43,200 L86,191 L168,191 L178,209 L215,195 Q221,194 220,189 Q220,185 210,179 L210,170 Q210,153 211,140 Q212,132 204,131 Q184,129 172,129 L172,138 L81,138 Q82,131 73,131 Q53,129 42,129 M221,144 L250,123 Q254,121 252,118 Q250,116 245,116 L8,116 L8,122 L206,122 M81,162 L81,143 L172,143 L172,162 M172,186 L81,186 L81,167 L172,167 M177,32 L177,40 L145,40 L145,17 L190,17 L201,34 Q193,32 177,32 M177,94 L145,94 L145,72 L177,72 M145,67 L145,45 L177,45 L177,67 M79,94 L79,72 L110,72 L110,94 M79,67 L79,45 L110,45 L110,67"/> 
            <glyph glyph-name="金" unicode="&#x91D1;" horiz-adv-x="253" d=" M213,19 L247,-5 Q251,-7 249,-10 Q247,-12 242,-12 L11,-12 L11,-6 L109,-6 L109,70 L21,70 L21,76 L109,76 L109,115 L70,115 Q46,98 10,83 L8,87 Q84,150 102,208 L146,197 Q153,195 153,192 Q153,186 140,184 L139,184 Q184,148 253,142 L252,137 Q235,128 227,97 Q163,121 134,176 Q113,144 79,121 L135,121 L150,142 L180,121 Q184,119 182,117 Q181,115 175,115 L146,115 L146,76 L189,76 L206,100 L238,77 Q242,75 240,72 Q239,70 233,70 L146,70 L146,-6 L193,-6 M158,-5 L155,-3 Q174,34 178,65 L221,48 Q227,46 226,43 Q226,37 211,37 Q188,10 158,-5 M69,-2 Q59,-2 57,10 Q53,37 42,60 L44,62 Q94,41 93,22 Q91,0 69,-2"/> 
            <glyph glyph-name="颜" unicode="&#x989C;" horiz-adv-x="253" d=" M108,134 L131,118 Q131,132 131,153 L163,144 L164,144 Q166,162 164,178 L128,178 L128,185 L206,185 L220,205 L249,186 Q253,183 251,180 Q249,178 243,178 L202,178 Q190,158 177,144 L204,144 L214,161 L245,147 Q248,146 248,144 Q248,137 240,132 L240,108 Q240,70 241,37 Q242,30 233,28 Q230,27 220,26 Q212,25 209,25 L209,137 L161,137 L161,32 Q161,25 155,24 Q152,24 144,23 Q136,22 133,21 Q134,20 134,17 Q133,11 120,14 Q82,-14 23,-25 L21,-22 Q76,7 103,43 L130,23 Q131,67 131,82 L131,104 L131,111 Q130,111 127,111 L96,111 L119,96 Q124,92 123,90 Q121,86 111,88 Q79,71 51,63 Q50,42 44,26 Q82,56 99,81 L125,63 Q129,61 129,57 Q127,53 116,55 Q84,35 46,22 L44,25 Q37,2 8,-21 L4,-19 Q22,16 20,79 L20,89 Q20,106 20,127 L56,117 L74,117 Q83,145 84,167 L119,157 Q123,156 123,153 Q123,149 113,147 Q94,126 82,117 L96,117 M228,-22 Q218,-23 215,-14 Q206,5 190,22 Q176,-11 106,-25 L105,-21 Q175,7 169,72 L169,88 Q169,107 169,123 L204,120 Q208,119 208,116 Q208,113 200,108 L200,75 Q200,47 193,27 Q247,18 246,-2 Q245,-21 228,-22 M104,193 L129,176 Q133,174 132,171 Q130,169 124,169 L12,169 L12,175 L59,175 Q56,178 55,183 Q54,191 49,200 Q47,204 46,206 L48,208 Q89,207 87,189 Q87,180 77,175 L92,175 M49,121 Q39,121 38,130 Q36,151 29,163 L31,165 Q69,155 68,138 Q67,122 49,121 M51,70 Q76,88 91,111 L52,111 L52,93 Q52,80 51,70"/> 
            <glyph glyph-name="验" unicode="&#x9A8C;" horiz-adv-x="254" d=" M46,91 L64,91 L69,182 L14,182 L14,188 L65,188 L74,205 L106,192 Q110,191 110,188 Q110,182 100,176 L95,99 L100,97 Q135,151 142,206 L187,197 Q191,196 191,193 Q190,187 181,184 Q205,149 254,133 L253,130 Q238,122 228,95 Q187,121 175,175 Q159,138 128,109 L167,109 L182,129 L210,108 Q209,108 209,107 Q209,104 201,103 L123,103 L123,105 Q120,102 113,97 Q110,94 108,93 L111,92 Q114,91 114,88 Q114,82 105,78 Q102,31 100,8 Q100,-21 52,-24 Q53,0 19,5 L20,9 L52,7 Q68,6 69,20 Q70,25 70,35 Q71,44 71,49 Q52,37 26,26 Q26,16 20,15 Q17,15 15,20 L6,54 Q39,54 72,57 Q72,62 73,72 Q73,80 73,84 L49,84 L40,72 Q26,79 12,87 Q9,91 12,93 Q18,96 17,101 L20,143 Q22,157 20,170 L56,165 Q60,164 60,161 Q60,156 51,153 M221,12 L250,-7 Q253,-10 252,-12 Q250,-15 245,-15 L101,-15 L101,-8 L178,-8 Q194,43 196,90 L236,79 Q242,78 241,75 Q241,68 229,67 Q213,20 190,-8 L206,-8 M130,7 Q119,7 119,21 Q118,53 111,72 L113,74 Q151,52 151,28 Q149,10 130,7 M167,22 Q156,22 156,35 Q155,60 144,86 L146,87 Q188,66 187,43 Q185,24 167,22"/> 
            <glyph glyph-name="＋" unicode="&#xFF0B;" horiz-adv-x="217" d=" M118,99 L118,179 L138,179 L138,99 L217,99 L217,82 L138,82 L138,1 L118,1 L118,82 L39,82 L39,99"/> 
            <glyph glyph-name="，" unicode="&#xFF0C;" horiz-adv-x="90" d=" M46,-33 L40,-26 Q61,-15 62,-5 Q65,3 57,3 Q38,5 37,24 Q39,46 63,47 Q88,46 89,19 Q90,-15 46,-33"/> 
            </font>
</defs>
</svg>
