<?xml version="1.0" standalone="no"?>
<!DOCTYPE svg PUBLIC "-//W3C//DTD SVG 1.1//EN" "http://www.w3.org/Graphics/SVG/1.1/DTD/svg11.dtd" >
<svg xmlns="http://www.w3.org/2000/svg">
    <defs>
        <font id="">
            <font-face font-family=""
                       units-per-em="256"
                       ascent="223"
                       descent="-74"
                       bbox="-20 -74 266 223"
                    />
            <missing-glyph horiz-adv-x="0" />
            
            <glyph glyph-name="/" unicode="&#x2F;" horiz-adv-x="119" d=" M12,-51 L26,-51 L119,197 L105,197"/> 
            <glyph glyph-name="0" unicode="&#x30;" horiz-adv-x="151" d=" M82,193 Q13,192 11,87 Q10,-14 82,-15 Q150,-14 151,87 Q150,192 82,193 M82,180 Q113,182 113,87 Q114,-4 82,-2 Q48,-3 50,91 Q49,180 82,180"/> 
            <glyph glyph-name="1" unicode="&#x31;" horiz-adv-x="128" d=" M36,-10 L128,-10 L128,0 Q102,1 101,29 L101,193 L39,179 L39,167 Q54,167 59,159 Q65,151 64,139 L64,29 Q64,1 36,0"/> 
            <glyph glyph-name="2" unicode="&#x32;" horiz-adv-x="150" d=" M150,52 L138,56 Q129,20 107,22 L40,22 Q51,52 91,71 Q149,99 147,141 Q145,194 83,193 Q21,192 18,145 Q17,124 36,124 Q54,125 57,144 Q62,181 83,180 Q108,179 108,145 Q107,113 74,88 Q16,46 15,-10 L140,-10"/> 
            <glyph glyph-name="3" unicode="&#x33;" horiz-adv-x="146" d=" M54,99 L54,85 Q108,84 108,39 Q108,-4 78,-2 Q57,-2 52,27 Q50,47 32,45 Q13,44 14,25 Q17,-13 78,-15 Q145,-14 146,39 Q146,86 87,93 Q141,101 142,143 Q141,194 80,193 Q22,192 18,150 Q17,131 36,130 Q55,132 57,149 Q58,182 80,181 Q103,181 104,144 Q105,102 54,99"/> 
            <glyph glyph-name="4" unicode="&#x34;" horiz-adv-x="149" d=" M62,-10 L146,-10 L146,0 Q120,0 121,25 L121,40 L149,40 L149,55 L121,55 L121,190 L94,190 L5,55 L5,40 L86,40 L86,25 Q87,0 62,0 M86,154 L86,55 L22,55 Q27,63 41,85 Q75,138 86,154"/> 
            <glyph glyph-name="5" unicode="&#x35;" horiz-adv-x="147" d=" M137,189 L31,189 L22,73 L33,68 Q51,97 76,97 Q110,96 109,46 Q108,-1 77,-2 Q56,-3 52,26 Q49,44 33,43 Q15,43 15,24 Q18,-13 77,-14 Q146,-13 147,51 Q146,109 86,113 Q56,115 37,94 L42,152 L137,152"/> 
            <glyph glyph-name="6" unicode="&#x36;" horiz-adv-x="150" d=" M87,181 Q99,182 105,155 Q109,136 125,137 Q143,138 144,157 Q141,192 88,193 Q15,194 14,81 Q14,-16 83,-15 Q149,-12 150,53 Q149,113 92,117 Q68,119 52,101 Q54,182 87,181 M82,102 Q111,103 111,51 Q111,-2 83,-2 Q51,-3 52,62 Q54,99 82,102"/> 
            <glyph glyph-name="7" unicode="&#x37;" horiz-adv-x="148" d=" M15,121 L26,116 Q34,155 55,154 L124,154 Q50,48 50,0 Q50,-15 72,-15 Q93,-15 93,4 Q91,83 148,167 L148,189 L23,189"/> 
            <glyph glyph-name="8" unicode="&#x38;" horiz-adv-x="151" d=" M142,145 Q140,193 81,194 Q22,193 18,137 Q16,106 52,85 Q14,71 14,32 Q16,-15 78,-15 Q147,-15 149,41 Q151,78 107,100 Q143,114 142,145 M50,152 Q51,182 81,181 Q113,181 114,144 Q114,123 93,106 Q48,126 50,152 M116,28 Q114,-2 78,-2 Q42,-2 42,36 Q41,65 66,78 Q120,55 116,28"/> 
            <glyph glyph-name="9" unicode="&#x39;" horiz-adv-x="149" d=" M77,-2 Q61,-3 57,21 Q54,38 36,38 Q17,37 18,19 Q22,-13 77,-15 Q146,-15 149,94 Q145,192 80,193 Q14,189 13,122 Q14,62 70,58 Q94,57 110,74 Q107,-1 77,-2 M80,181 Q112,178 111,114 Q108,76 78,74 Q52,73 51,123 Q51,182 80,181"/> 
            <glyph glyph-name="T" unicode="&#x54;" horiz-adv-x="172" d=" M41,0 L41,-10 L131,-10 L131,0 Q102,0 105,28 L105,175 Q147,174 161,113 L172,118 L168,189 L6,189 L1,117 L13,113 Q23,175 67,175 L67,29 Q70,-2 41,0"/> 
            <glyph glyph-name="a" unicode="&#x61;" horiz-adv-x="142" d=" M125,16 L125,89 Q128,135 76,133 Q22,131 19,100 Q18,83 36,82 Q54,81 56,99 Q58,122 75,120 Q90,120 90,89 L90,75 Q8,72 11,25 Q13,-12 50,-13 Q74,-14 91,3 Q92,-12 104,-12 Q109,-12 130,-9 Q138,-8 142,-8 L142,1 Q131,1 128,3 Q125,7 125,16 M90,62 L90,40 Q86,4 64,2 Q49,1 47,29 Q45,61 90,62"/> 
            <glyph glyph-name="、" unicode="&#x3001;" horiz-adv-x="101" d=" M21,50 L22,52 Q84,40 96,19 Q101,11 101,4 Q101,-7 93,-15 Q90,-20 83,-20 Q77,-20 74,-15 Q48,28 21,50"/> 
            <glyph glyph-name="一" unicode="&#x4E00;" horiz-adv-x="248" d=" M205,124 L244,94 Q248,91 247,89 Q245,86 239,86 L12,86 L12,93 L182,93"/> 
            <glyph glyph-name="万" unicode="&#x4E07;" horiz-adv-x="250" d=" M13,-26 L10,-22 Q50,20 63,60 Q77,99 77,175 L7,175 L7,181 L194,181 L212,206 L246,183 Q250,180 248,177 Q246,175 240,175 L118,175 Q117,145 115,121 L174,121 L185,143 L227,126 Q231,125 231,122 Q232,116 219,107 Q217,64 214,23 Q213,-23 145,-24 Q149,2 105,14 L106,19 L153,16 Q173,15 174,33 Q178,63 180,114 L114,114 Q108,22 13,-26"/> 
            <glyph glyph-name="不" unicode="&#x4E0D;" horiz-adv-x="247" d=" M10,25 L9,29 Q85,97 116,171 L13,171 L13,178 L194,178 L211,202 L243,179 Q247,176 245,173 Q244,171 238,171 L167,171 Q155,150 142,130 L150,129 Q156,129 156,125 Q157,122 145,116 L145,70 Q145,15 146,-12 Q147,-20 138,-21 Q128,-23 106,-24 Q106,-8 107,16 Q108,50 108,59 L108,90 Q70,52 10,25 M223,41 Q213,40 208,51 Q191,87 158,114 L161,118 Q247,99 246,68 Q244,44 223,41"/> 
            <glyph glyph-name="专" unicode="&#x4E13;" horiz-adv-x="248" d=" M196,184 L226,162 Q230,160 228,157 Q227,155 221,155 L123,155 Q119,136 113,116 L195,116 L212,140 L244,118 Q248,115 247,113 Q245,110 238,110 L112,110 Q109,100 104,83 Q103,77 102,74 L154,74 L170,94 L210,68 Q216,66 215,62 Q214,56 199,56 Q181,42 151,26 Q195,16 196,-4 Q194,-25 174,-27 Q165,-27 156,-19 Q122,11 61,31 L62,35 Q107,34 135,29 L157,68 L105,68 L95,52 Q73,62 56,71 Q51,74 56,78 Q64,81 66,90 L72,110 L10,110 L10,116 L73,116 Q76,125 80,145 Q82,152 83,155 L28,155 L28,161 L84,161 L87,174 Q89,184 89,206 L139,197 Q143,196 143,192 Q143,186 130,183 Q129,180 127,172 Q125,165 124,161 L179,161"/> 
            <glyph glyph-name="个" unicode="&#x4E2A;" horiz-adv-x="254" d=" M221,87 Q163,117 138,176 Q95,114 9,81 L7,85 Q59,128 90,180 Q91,181 92,184 Q100,200 102,208 L154,197 Q158,196 158,193 Q159,187 144,184 Q190,144 254,132 L254,127 Q235,122 221,87 M106,-24 Q108,18 108,61 L108,84 Q108,113 107,135 L154,131 Q160,131 160,128 Q161,122 148,117 L148,61 Q148,55 149,23 Q149,-8 149,-14 Q149,-21 145,-21 Q143,-21 137,-22 Q114,-24 106,-24"/> 
            <glyph glyph-name="乎" unicode="&#x4E4E;" horiz-adv-x="250" d=" M94,-26 Q95,0 51,10 L52,15 L98,13 Q109,13 109,24 L109,73 L10,73 L10,80 L109,80 L109,166 Q82,164 20,164 L19,169 Q105,182 165,198 Q177,201 194,208 Q195,209 196,209 L228,182 Q231,179 231,177 Q232,173 223,173 Q219,173 212,175 Q211,175 208,174 Q180,170 147,168 L147,80 L195,80 L213,105 L246,81 Q250,78 248,75 Q246,73 240,73 L147,73 L147,58 Q147,29 148,5 Q150,-21 94,-26 M158,84 L155,86 Q172,132 176,159 L219,142 Q223,141 223,138 Q224,132 209,131 Q192,107 158,84 M70,88 Q58,88 57,100 Q54,124 39,154 L41,156 Q97,134 94,112 Q92,91 70,88"/> 
            <glyph glyph-name="争" unicode="&#x4E89;" horiz-adv-x="253" d=" M29,47 L29,53 L102,53 L102,89 L7,89 L7,95 L102,95 L102,130 L48,130 L48,131 Q35,121 19,111 L16,114 Q52,173 58,210 L105,200 Q110,198 110,196 Q111,190 96,187 L91,179 L128,179 L143,197 L180,175 Q183,173 183,170 Q183,165 169,162 Q148,145 133,136 L172,136 L183,156 L218,141 Q222,140 222,137 Q222,131 212,124 L212,95 L226,114 L250,96 Q253,93 252,91 Q250,89 245,89 L212,89 Q212,70 214,38 Q214,34 209,33 Q198,31 177,31 L177,47 L140,47 Q140,41 140,29 Q141,14 141,6 Q143,-20 88,-26 Q90,0 47,9 L48,13 L88,12 Q102,12 102,25 L102,47 M87,173 Q73,151 54,136 L114,136 L132,173 M140,78 L140,53 L177,53 L177,89 L140,89 M177,130 L140,130 L140,95 L177,95"/> 
            <glyph glyph-name="人" unicode="&#x4EBA;" horiz-adv-x="251" d=" M205,-24 Q144,30 134,138 Q129,18 7,-25 L6,-21 Q94,50 93,162 Q93,178 92,202 L143,196 Q150,196 150,192 Q151,186 136,180 Q136,177 136,175 Q164,60 251,21 L250,16 Q225,13 205,-24"/> 
            <glyph glyph-name="亿" unicode="&#x4EBF;" horiz-adv-x="250" d=" M146,-14 Q93,-14 92,22 Q89,56 170,167 L90,167 L90,173 L166,173 L183,194 L223,171 Q227,168 227,166 Q226,158 210,155 Q133,61 133,31 Q132,18 151,18 L189,18 Q208,17 213,33 L230,83 L235,82 L236,37 Q237,24 243,20 Q250,16 250,6 Q247,-13 210,-14 M35,-23 Q37,16 37,70 L37,97 Q23,82 5,68 L3,71 Q34,131 46,184 Q50,202 50,207 L101,197 Q106,195 106,193 Q106,186 91,183 Q81,158 67,136 L80,135 Q85,135 85,132 Q85,127 73,122 L73,-12 Q74,-20 65,-22 Q62,-22 50,-23 Q39,-23 35,-23"/> 
            <glyph glyph-name="会" unicode="&#x4F1A;" horiz-adv-x="251" d=" M205,99 L237,75 Q241,72 239,70 Q238,68 232,68 L136,68 Q103,32 80,16 L169,18 Q160,37 147,55 L150,58 Q220,30 220,0 Q218,-20 195,-23 Q183,-23 181,-13 Q178,-3 175,4 Q119,-7 60,-16 Q59,-28 52,-28 Q48,-28 47,-22 L34,16 Q54,16 59,23 Q72,43 79,68 L16,68 L16,74 L187,74 M219,97 Q160,124 135,173 Q96,119 10,89 L8,92 Q61,134 84,174 Q97,193 99,207 L152,195 Q157,194 157,191 Q158,186 143,183 L142,182 Q183,149 251,142 L250,137 Q233,133 219,97 M152,137 L183,115 Q186,113 185,111 Q183,109 178,109 L69,109 L69,115 L136,115"/> 
            <glyph glyph-name="伦" unicode="&#x4F26;" horiz-adv-x="253" d=" M137,-17 Q105,-18 106,9 L106,80 Q106,89 106,105 Q105,104 104,103 Q93,94 75,83 L72,86 Q121,155 130,207 L177,198 Q181,197 181,194 Q181,188 168,185 Q200,152 253,139 L252,134 Q238,130 224,97 Q178,124 163,177 Q146,143 122,120 L148,118 Q154,118 153,114 Q152,108 142,104 L142,66 Q174,88 190,111 L224,84 Q228,83 228,78 Q227,71 211,75 Q175,59 142,53 L142,25 Q141,13 151,14 L188,14 Q201,13 207,27 L223,65 L227,64 L229,32 Q229,20 234,17 Q242,13 241,4 Q239,-16 198,-17 M33,-24 Q33,-18 33,-5 Q35,55 35,69 L35,98 Q30,94 21,85 Q13,77 8,73 L5,76 Q36,134 47,182 Q50,196 50,207 L97,197 Q102,196 102,194 Q101,187 90,185 Q76,154 66,138 L74,137 Q81,137 81,133 Q81,128 70,122 L70,-12 Q70,-21 61,-22 Q47,-24 33,-24"/> 
            <glyph glyph-name="体" unicode="&#x4F53;" horiz-adv-x="254" d=" M132,-24 Q133,-2 133,26 L95,26 L95,32 L133,32 L133,61 L133,87 Q109,51 67,24 L67,-12 Q68,-20 59,-22 Q45,-24 31,-24 Q32,18 32,62 L32,97 Q20,84 7,73 L4,76 Q29,126 41,172 Q41,174 42,177 Q46,192 48,208 L95,196 Q99,196 99,192 Q99,187 87,184 Q76,159 64,140 L71,138 Q76,137 76,135 Q76,131 67,126 L67,32 Q107,89 120,140 L77,140 L77,146 L133,146 L133,151 Q133,182 132,204 L172,201 Q180,201 180,197 Q180,193 170,187 L170,146 L197,146 L213,169 L245,147 Q249,144 247,142 Q246,140 240,140 L178,140 Q203,91 254,67 L252,62 Q236,57 221,28 Q177,70 172,140 L170,140 L170,66 Q170,55 170,32 L175,32 L189,51 L213,33 Q217,31 215,28 Q213,26 208,26 L170,26 Q170,20 170,8 Q171,-6 171,-14 Q171,-21 165,-22 Q145,-24 132,-24"/> 
            <glyph glyph-name="全" unicode="&#x5168;" horiz-adv-x="254" d=" M191,79 L222,56 Q226,53 225,51 Q223,49 217,49 L146,49 L146,-6 L197,-6 L216,18 L250,-4 Q254,-7 252,-10 Q250,-12 244,-12 L14,-12 L14,-6 L106,-6 L106,49 L42,49 L42,55 L106,55 L106,106 L64,106 L64,112 L144,112 L161,134 L192,112 Q195,110 194,108 Q192,106 187,106 L146,106 L146,55 L174,55 M226,96 Q161,124 134,179 Q91,117 10,87 L8,90 Q63,136 90,180 Q91,181 92,184 Q99,198 102,208 L148,198 Q152,197 152,194 Q153,188 139,186 L138,185 Q182,147 252,138 L251,134 Q236,127 226,96"/> 
            <glyph glyph-name="内" unicode="&#x5185;" horiz-adv-x="243" d=" M24,-24 Q25,27 26,68 L26,117 Q26,124 26,143 Q25,162 25,170 L71,155 L107,155 L107,161 L107,167 Q107,196 106,205 L152,202 Q158,201 157,198 Q157,193 145,187 L145,179 Q145,167 144,155 L188,155 L199,176 L238,160 Q242,159 242,156 Q243,151 231,143 L231,89 Q231,79 231,54 Q232,24 232,10 Q234,-18 178,-24 Q180,0 139,12 L140,17 L183,15 Q194,15 194,27 L194,63 Q191,42 170,40 Q160,41 157,50 Q150,78 136,99 Q123,56 68,26 L63,29 Q109,81 107,149 L63,149 L63,-13 Q63,-21 56,-22 Q39,-24 24,-24 M194,149 L144,149 Q143,125 138,107 Q195,90 194,66"/> 
            <glyph glyph-name="几" unicode="&#x51E0;" horiz-adv-x="251" d=" M175,-18 Q148,-18 148,11 L148,178 L97,178 L97,125 Q100,11 9,-25 L6,-22 Q62,32 58,124 L58,140 Q58,162 57,196 L99,184 L141,184 L153,206 L192,190 Q197,188 197,185 Q198,179 186,171 L186,23 Q186,18 191,18 L201,18 Q214,17 217,35 L231,82 L235,81 L237,35 Q236,25 244,20 Q251,15 251,7 Q248,-16 213,-18"/> 
            <glyph glyph-name="剧" unicode="&#x5267;" horiz-adv-x="251" d=" M132,114 L158,95 Q158,109 158,117 L158,131 Q158,158 157,175 L195,172 Q201,172 201,168 Q201,164 190,159 L190,46 Q191,38 182,37 Q170,34 157,34 L158,88 Q156,88 153,88 L113,88 L113,59 L119,71 L151,59 Q155,58 155,55 Q155,49 146,44 L146,42 Q146,40 146,30 Q147,7 147,-1 Q147,-7 141,-8 Q130,-12 113,-12 L113,0 L81,0 L81,-9 Q81,-16 74,-17 Q60,-19 48,-19 Q49,-5 49,20 L49,57 Q37,22 9,-7 L6,-4 Q29,62 28,146 L28,154 Q28,182 27,195 L67,185 L106,185 L115,201 L150,189 Q154,187 154,185 Q154,179 145,174 L145,170 Q145,160 145,137 Q145,133 141,132 Q130,129 112,128 L112,137 L62,137 Q61,113 58,94 L81,94 L81,95 Q81,116 80,128 L117,125 Q122,125 123,121 Q123,117 113,112 L113,94 L118,94 M193,-24 Q194,2 161,8 L161,12 L191,11 Q204,11 204,25 L204,152 Q204,193 203,205 L242,201 Q251,200 250,197 Q250,191 238,187 L238,109 Q238,101 238,66 Q239,19 239,5 Q240,-21 193,-24 M112,179 L62,179 L62,155 Q62,149 62,143 L112,143 M113,49 L81,49 L81,6 L113,6 M57,88 Q56,75 51,64 L81,56 L81,88"/> 
            <glyph glyph-name="动" unicode="&#x52A8;" horiz-adv-x="248" d=" M79,-27 L76,-23 Q147,34 145,135 L121,135 L121,141 L145,141 Q145,143 146,147 Q146,150 146,152 L146,165 Q146,179 144,205 L191,201 Q197,201 196,198 Q196,192 184,187 L184,157 Q184,148 184,141 L195,141 L207,162 L244,146 Q248,144 248,141 Q248,135 237,128 Q237,72 234,20 Q234,-18 178,-23 Q179,2 147,12 L148,16 L179,14 Q194,14 196,30 Q200,79 200,135 L183,135 Q186,12 79,-27 M28,4 Q25,4 24,9 L11,48 Q24,51 30,64 Q40,88 43,113 L10,113 L10,120 L90,120 L105,141 L134,121 Q137,118 136,116 Q134,113 129,113 L88,113 Q72,83 43,50 L88,54 Q86,63 79,79 Q78,82 77,84 L79,86 Q128,67 126,46 Q124,25 105,22 Q93,21 92,33 Q91,37 91,41 Q60,26 36,17 Q35,4 28,4 M94,193 L120,173 Q124,171 122,168 Q121,166 115,166 L24,166 L24,173 L79,173"/> 
            <glyph glyph-name="匠" unicode="&#x5320;" horiz-adv-x="252" d=" M214,21 L248,-1 Q252,-3 251,-6 Q249,-8 243,-8 L66,-8 L52,-26 Q34,-19 17,-6 Q12,-3 17,0 Q24,4 24,14 L24,129 Q24,158 23,197 L66,188 L191,188 L207,211 L240,190 Q244,187 243,185 Q241,182 234,182 L61,182 L61,-2 L197,-2 M151,4 Q152,43 152,78 L152,95 L121,95 Q121,37 66,0 L63,3 Q87,44 85,104 L85,123 Q85,137 84,161 L127,150 Q166,163 190,179 L218,153 Q220,151 220,147 Q221,144 215,144 Q211,144 205,147 Q168,141 121,139 L121,108 L121,101 L190,101 L206,123 L238,101 Q241,99 240,97 Q238,95 233,95 L188,95 L188,78 Q188,46 189,14 Q189,10 186,8 Q169,4 151,4"/> 
            <glyph glyph-name="区" unicode="&#x533A;" horiz-adv-x="248" d=" M212,25 L244,1 Q248,0 246,-2 Q245,-4 239,-4 L67,-4 L50,-23 Q49,-22 46,-20 Q28,-10 19,-2 Q17,0 17,0 Q17,0 19,1 Q26,7 25,14 L25,135 Q25,177 24,193 L72,182 L193,182 L209,205 L239,183 Q242,181 240,178 Q238,176 233,176 L63,176 L63,0 L194,0 M194,22 Q185,21 178,34 Q167,52 152,70 Q121,37 66,9 L64,13 Q103,50 130,94 Q105,121 76,144 L79,148 Q120,128 142,115 L149,129 Q158,149 163,168 L208,154 Q212,153 212,150 Q212,144 197,141 Q186,118 172,96 Q174,95 177,93 Q182,89 191,82 Q214,62 214,47 Q212,25 194,22"/> 
            <glyph glyph-name="合" unicode="&#x5408;" horiz-adv-x="252" d=" M40,-24 Q40,-9 41,16 Q41,25 41,27 L41,40 Q41,43 41,53 Q40,73 40,83 L89,75 L164,75 L176,95 L214,79 Q218,78 218,75 Q219,70 207,62 L207,34 Q207,32 207,24 Q208,0 208,-12 Q209,-18 202,-20 Q197,-21 184,-22 Q173,-23 168,-23 L168,-2 L80,-2 L80,-13 Q80,-21 71,-22 Q56,-23 40,-24 M9,85 L7,89 Q76,144 100,207 L150,195 Q154,194 154,191 Q154,186 141,183 Q140,183 140,183 Q179,147 252,138 L251,134 Q235,130 225,95 Q158,120 135,175 Q109,138 72,115 L135,115 L151,137 L180,116 Q184,114 182,111 Q181,109 175,109 L70,109 L70,114 Q44,98 9,85 M168,69 L80,69 L80,2 L168,2"/> 
            <glyph glyph-name="员" unicode="&#x5458;" horiz-adv-x="239" d=" M162,132 L162,142 L94,142 L94,136 Q94,130 88,129 Q73,126 58,126 Q59,143 59,159 L59,170 Q59,181 59,197 L98,189 L157,189 L167,206 L203,194 Q207,192 207,189 Q207,185 198,178 L198,171 Q198,169 198,165 Q197,154 198,141 Q198,137 194,135 Q193,135 190,135 Q186,134 184,134 L221,120 Q225,118 226,115 Q226,110 215,102 L215,73 Q215,55 216,35 Q216,31 210,29 Q198,25 178,25 L178,109 L78,109 L78,30 Q78,23 69,21 Q54,18 40,18 Q41,38 41,59 L41,80 Q41,94 41,123 L84,115 L173,115 L184,134 Q172,132 162,132 M216,-25 Q207,-26 200,-18 Q177,4 135,25 Q118,-21 12,-25 L11,-21 Q104,0 107,58 Q110,77 108,97 L154,91 Q159,90 159,87 Q159,80 146,77 Q145,45 137,29 Q239,20 233,-4 Q231,-23 216,-25 M162,183 L94,183 L94,148 L162,148"/> 
            <glyph glyph-name="唱" unicode="&#x5531;" horiz-adv-x="250" d=" M194,100 L194,110 L143,110 L143,108 Q143,102 137,101 Q122,98 107,98 Q108,121 108,144 L108,160 Q108,170 108,195 L149,187 L189,187 L200,205 L236,191 Q240,190 240,187 Q240,181 230,175 L230,160 Q230,134 231,110 Q231,104 225,103 Q218,101 209,101 L246,86 Q250,84 250,81 Q250,75 240,69 L240,38 Q240,6 241,-14 Q241,-20 235,-20 Q217,-24 202,-24 L202,-7 L137,-7 L137,-13 Q136,-19 131,-20 Q122,-22 105,-23 Q101,-24 99,-24 Q100,-10 100,24 L100,50 Q100,65 100,92 L139,81 L197,81 L208,100 Q200,100 194,100 M61,27 L61,46 L48,46 L48,30 Q48,23 41,22 Q27,18 16,18 Q16,33 17,62 Q17,86 17,96 L17,126 Q17,133 17,154 Q16,177 16,185 L50,175 L57,175 L66,192 L98,179 Q102,177 102,174 Q102,169 92,163 L92,119 Q92,79 92,37 Q93,31 87,30 Q85,30 80,29 Q68,27 61,27 M137,34 L137,-1 L202,-1 L202,34 M202,75 L137,75 L137,40 L202,40 M61,169 L48,169 L48,52 L61,52 M143,145 L143,116 L194,116 L194,145 M194,181 L143,181 L143,152 L194,152"/> 
            <glyph glyph-name="喜" unicode="&#x559C;" horiz-adv-x="251" d=" M43,80 Q44,89 44,106 L44,112 Q44,124 44,135 L88,126 L162,126 L172,143 L210,129 Q216,127 215,124 Q215,119 205,113 L205,110 Q205,97 206,93 Q206,87 199,84 Q198,84 196,83 Q182,81 175,81 L185,78 Q192,77 191,73 Q191,67 179,67 Q172,62 157,56 L196,56 L214,81 L248,57 Q251,55 250,52 Q248,50 243,50 L7,50 L7,56 L78,56 Q75,59 74,63 Q73,73 68,81 Q60,80 43,80 M40,-24 Q40,-19 40,-8 Q41,3 41,9 L41,15 Q41,34 40,40 L86,32 L165,32 L176,49 L216,34 Q220,32 220,30 Q221,25 210,18 L210,15 Q210,11 211,-11 Q211,-17 205,-20 Q198,-22 176,-23 Q172,-24 170,-24 L170,-8 L81,-8 L81,-13 Q81,-22 72,-23 Q62,-24 40,-24 M205,201 L237,178 Q240,176 239,174 Q237,172 232,172 L144,172 L144,149 L180,149 L196,171 L227,150 Q230,147 229,145 Q227,143 222,143 L28,143 L28,149 L104,149 L104,168 L104,172 L14,172 L14,177 L104,177 Q104,197 103,206 L150,202 Q156,202 156,199 Q156,194 144,188 L144,177 L188,177 M170,26 L81,26 L81,-2 L170,-2 M166,120 L82,120 L82,94 L166,94 M82,89 Q82,88 81,86 Q81,85 81,85 Q110,84 110,70 Q109,61 100,56 L140,56 Q143,72 145,87 L166,83 L166,89"/> 
            <glyph glyph-name="在" unicode="&#x5728;" horiz-adv-x="252" d=" M43,-24 Q45,-1 45,61 L45,66 Q27,51 5,39 L3,42 Q31,75 45,97 L45,116 L56,115 Q69,137 78,158 L13,158 L13,164 L80,164 L83,173 Q88,188 90,205 L137,194 Q142,192 142,190 Q142,184 127,181 Q124,173 120,164 L195,164 L213,190 L247,166 Q251,163 249,160 Q248,158 242,158 L117,158 Q104,130 82,101 L82,-12 Q82,-21 73,-22 Q55,-24 43,-24 M214,22 L248,-1 Q252,-4 250,-6 Q248,-8 242,-8 L84,-8 L84,-2 L138,-2 L138,78 L92,78 L92,84 L138,84 L138,93 Q138,122 137,144 L182,141 Q188,141 187,138 Q188,132 176,126 L176,84 L191,84 L208,107 L238,86 Q242,83 240,80 Q238,78 232,78 L176,78 L176,-2 L195,-2"/> 
            <glyph glyph-name="坞" unicode="&#x575E;" horiz-adv-x="254" d=" M185,-24 Q187,1 149,8 L150,13 L191,12 Q202,11 204,23 Q206,55 206,79 L145,79 L134,64 Q115,72 100,81 Q96,85 100,88 Q107,91 107,99 L107,132 Q107,151 106,183 L142,173 Q142,191 141,208 L181,204 Q186,204 186,200 Q186,195 174,192 Q165,181 154,173 L188,173 L199,190 L235,176 Q239,174 239,172 Q240,167 228,160 Q227,153 227,143 Q226,134 226,127 Q224,101 178,97 Q180,119 151,126 L151,130 L183,129 Q190,129 191,140 Q192,148 193,158 Q194,163 194,166 L141,166 L141,85 L201,85 L211,103 L250,88 Q254,87 254,84 Q254,78 244,72 Q244,65 243,48 Q242,21 241,12 Q239,-21 185,-24 M24,3 Q22,3 19,8 L6,47 Q8,47 11,48 Q19,48 34,51 L34,128 L8,128 L8,134 L34,134 L34,152 Q34,192 33,204 L73,200 Q79,200 79,196 Q80,192 68,186 L68,135 L80,152 L102,135 Q106,133 104,130 Q103,128 98,128 L68,128 L68,58 L101,66 L103,62 Q62,30 31,15 Q31,3 24,3 M169,61 L200,40 Q204,38 203,35 Q201,33 195,33 L84,33 L84,39 L154,39"/> 
            <glyph glyph-name="大" unicode="&#x5927;" horiz-adv-x="253" d=" M205,-24 Q145,26 141,123 L140,123 Q134,10 7,-26 L5,-22 Q94,34 99,123 L11,123 L11,130 L100,130 Q101,145 101,162 Q101,197 100,205 L150,201 Q156,201 155,198 Q155,192 142,186 L142,173 Q142,149 140,130 L191,130 L211,157 L244,132 Q249,129 247,126 Q245,123 238,123 L149,123 Q173,51 253,19 L251,14 Q223,10 205,-24"/> 
            <glyph glyph-name="奇" unicode="&#x5947;" horiz-adv-x="253" d=" M112,8 L112,19 L71,19 L71,8 Q71,3 65,1 Q51,-1 36,-1 Q36,3 37,18 Q37,33 37,38 L37,60 Q37,73 37,85 L78,77 L107,77 L117,94 L152,81 Q155,80 155,77 Q154,71 146,65 L146,47 Q146,34 146,17 Q146,14 144,12 Q137,10 117,9 Q114,8 112,8 M164,-24 Q164,0 130,4 L131,8 L164,7 Q174,7 174,17 L174,100 L8,100 L8,106 L199,106 L216,130 L249,107 Q253,105 251,102 Q250,100 244,100 L209,100 L209,77 Q209,51 211,9 Q215,-19 164,-24 M188,111 Q180,111 174,117 Q151,139 124,150 Q103,116 24,110 L23,114 Q81,133 93,165 L22,165 L22,172 L96,172 Q100,186 100,205 L143,199 Q149,199 148,196 Q149,191 137,187 Q136,178 134,172 L186,172 L202,193 L232,173 Q236,170 234,167 Q232,165 226,165 L132,165 Q131,164 130,160 Q128,157 127,155 Q207,150 204,130 Q203,112 188,111 M112,71 L71,71 L71,26 L112,26"/> 
            <glyph glyph-name="好" unicode="&#x597D;" horiz-adv-x="255" d=" M144,-24 Q144,1 114,8 Q108,-1 98,-1 Q90,-1 86,5 Q80,14 74,21 Q55,-3 9,-28 L7,-25 Q39,8 54,41 Q39,53 14,66 Q15,73 19,91 Q26,124 29,143 L7,143 L7,149 L30,149 L32,162 Q36,190 36,205 L78,199 Q82,199 82,195 Q81,189 70,185 Q69,179 67,167 Q64,155 63,149 L75,149 L86,168 L118,152 Q124,150 123,147 Q123,142 111,135 Q105,81 91,51 Q119,39 118,22 Q118,17 116,12 L143,12 Q154,9 153,25 L153,90 L106,90 L106,96 L153,96 L153,101 Q153,125 152,145 L176,142 L196,182 L110,182 L110,188 L193,188 L208,207 L246,183 Q249,181 249,178 Q250,173 235,171 Q217,156 191,141 L198,140 Q204,140 204,137 Q204,131 191,124 L191,96 L203,96 L220,120 L251,97 Q255,95 253,92 Q252,90 246,90 L191,90 L191,60 Q191,28 192,5 Q194,-20 144,-24 M46,64 Q50,62 60,60 Q61,60 62,60 Q74,94 78,143 L62,143 Q58,121 50,81 Q47,70 46,64"/> 
            <glyph glyph-name="子" unicode="&#x5B50;" horiz-adv-x="252" d=" M91,-25 Q93,2 45,13 L46,17 L90,15 Q106,13 106,29 L106,81 L106,89 L6,89 L6,95 L106,95 Q106,100 106,112 Q105,129 105,138 L137,135 L168,180 L32,180 L32,186 L164,186 L183,208 L224,181 Q229,178 229,175 Q229,167 210,167 Q174,143 153,133 L154,133 Q160,133 160,130 Q161,124 148,119 L148,95 L195,95 L213,121 L248,97 Q252,94 250,91 Q249,89 243,89 L148,89 L148,71 Q148,36 149,7 Q151,-20 91,-25"/> 
            <glyph glyph-name="完" unicode="&#x5B8C;" horiz-adv-x="248" d=" M9,-26 L7,-22 Q75,11 71,82 L15,82 L15,88 L190,88 L207,112 L241,89 Q245,87 243,84 Q241,82 236,82 L168,82 L168,25 Q168,14 176,14 L198,14 Q209,13 212,24 L227,61 L231,60 L232,30 Q232,21 237,17 Q246,12 246,3 Q243,-18 207,-19 L162,-19 Q131,-20 133,8 L133,82 L110,82 Q117,-8 9,-26 M29,122 Q11,123 10,142 Q10,153 19,158 Q36,169 41,187 L44,187 Q50,177 53,169 L112,169 Q108,171 106,178 Q104,191 95,204 L97,206 Q150,207 148,187 Q147,174 132,169 L193,169 L210,188 L245,162 Q248,159 248,156 Q247,150 234,150 Q221,143 197,135 L206,129 Q210,127 209,125 Q207,123 202,123 L52,123 L52,129 L158,129 L174,151 L190,140 L197,163 L55,163 Q56,158 56,152 Q54,125 29,122"/> 
            <glyph glyph-name="宫" unicode="&#x5BAB;" horiz-adv-x="250" d=" M25,123 Q10,124 8,141 Q8,152 19,159 Q31,168 38,187 L41,187 Q46,180 47,172 L110,172 Q108,175 108,179 Q105,196 100,206 L101,208 Q147,208 147,188 Q147,178 138,172 L194,172 L209,192 L246,168 Q250,165 250,162 Q250,156 235,155 Q234,155 233,154 Q215,144 205,140 Q208,138 208,136 Q209,130 197,123 L197,110 Q197,101 198,84 Q198,78 191,77 Q176,73 160,73 L160,84 L94,84 L94,79 Q94,73 87,72 Q72,69 57,69 Q58,85 58,102 L58,112 Q58,126 58,147 L99,136 L155,136 L166,155 L194,144 L199,166 L49,166 Q51,159 51,151 Q49,125 25,123 M178,-23 L178,-6 L76,-6 L76,-14 Q76,-20 71,-21 Q68,-21 62,-22 Q45,-24 37,-24 Q38,0 38,15 L38,32 Q38,41 38,65 L80,54 L172,54 L183,73 L222,58 Q228,56 227,53 Q228,47 216,40 L216,27 Q216,26 216,17 Q217,-5 217,-14 Q217,-19 215,-20 Q192,-24 178,-23 M178,47 L76,47 L76,0 L178,0 M160,130 L94,130 L94,90 L160,90"/> 
            <glyph glyph-name="家" unicode="&#x5BB6;" horiz-adv-x="250" d=" M209,-11 Q174,17 166,72 Q158,70 150,67 Q155,53 155,35 Q158,-20 98,-25 Q98,0 65,9 L65,10 Q53,5 26,-1 Q14,-4 8,-6 L7,-2 Q74,32 117,75 L116,80 Q71,52 10,35 L9,39 Q64,69 103,107 Q102,108 102,108 Q64,87 12,77 L11,80 Q65,109 87,133 L48,133 L48,139 L168,139 L183,159 L194,152 L199,166 L51,166 Q51,165 52,162 Q52,159 52,157 Q50,129 26,126 Q10,127 9,143 Q8,155 18,161 Q36,173 41,190 L43,190 Q47,181 50,172 L110,172 Q109,175 107,179 Q105,192 98,205 L99,207 Q145,207 145,187 Q145,178 136,172 L195,172 L209,192 L244,170 Q250,166 249,163 Q248,156 233,157 Q220,150 202,145 L211,139 Q215,137 213,135 Q212,133 206,133 L139,133 Q125,122 110,113 Q137,96 146,77 Q178,102 195,127 L227,101 Q231,99 231,96 Q232,90 214,92 Q195,83 175,76 Q199,39 246,25 L244,20 Q224,16 209,-11 M120,38 Q96,23 71,13 L96,12 Q121,10 120,36"/> 
            <glyph glyph-name="容" unicode="&#x5BB9;" horiz-adv-x="249" d=" M224,39 Q217,41 209,44 Q207,41 201,38 L201,33 Q201,14 202,-12 Q202,-19 197,-20 Q179,-24 162,-24 L162,-6 L90,-6 L90,-10 Q91,-21 82,-22 Q62,-24 50,-24 Q51,-7 51,23 L51,45 Q41,41 18,34 Q12,32 9,31 L7,34 Q64,73 90,104 Q102,118 107,129 L150,116 Q154,115 154,112 Q155,107 143,105 Q184,86 249,83 L248,79 Q230,70 224,39 M96,209 L97,211 Q147,210 146,189 Q145,177 133,172 L189,172 L204,193 L240,170 Q241,170 242,169 Q246,166 246,163 Q245,157 231,157 Q230,156 227,155 Q207,144 195,141 Q221,132 221,116 Q219,99 204,96 Q193,95 185,107 Q166,130 136,150 L137,153 Q167,149 185,144 L193,166 L54,166 Q55,160 55,154 Q53,127 31,125 Q14,126 13,145 Q12,156 24,164 Q39,173 41,191 L44,191 Q50,181 52,172 L111,172 Q106,175 106,181 Q104,197 96,209 M162,45 L90,45 L90,0 L162,0 M23,79 L21,82 Q65,124 78,159 L119,144 Q122,142 122,140 Q123,133 108,133 Q78,103 23,79 M95,51 L157,51 L166,67 Q148,80 134,99 Q111,74 77,56"/> 
            <glyph glyph-name="小" unicode="&#x5C0F;" horiz-adv-x="249" d=" M97,-24 Q100,2 52,16 L52,20 L100,18 Q111,18 111,30 L111,133 Q111,171 110,205 L158,201 Q163,201 163,198 Q163,192 151,187 L151,114 Q151,106 151,74 Q152,25 152,7 Q155,-18 97,-24 M5,14 Q34,70 44,115 Q47,133 45,120 Q47,133 49,149 L97,137 Q102,136 102,133 Q103,127 88,123 Q66,57 8,11 M221,23 Q209,22 205,39 Q195,96 165,148 L168,151 Q249,94 248,55 Q247,24 221,23"/> 
            <glyph glyph-name="工" unicode="&#x5DE5;" horiz-adv-x="253" d=" M198,200 L231,176 Q235,174 233,171 Q232,169 226,169 L147,169 L147,-2 L196,-2 L215,23 L249,0 Q253,-3 251,-6 Q248,-9 242,-9 L7,-9 L7,-2 L107,-2 L107,169 L24,169 L24,176 L181,176"/> 
            <glyph glyph-name="年" unicode="&#x5E74;" horiz-adv-x="248" d=" M120,-22 Q121,-12 121,8 Q122,30 122,40 L9,40 L9,46 L45,46 L45,82 Q45,111 44,124 L90,115 L122,115 L122,163 L81,163 Q59,132 14,104 L12,108 Q36,143 49,178 Q49,179 50,180 Q56,201 57,209 L103,198 Q108,197 108,194 Q108,188 94,184 Q90,177 85,169 L187,169 L204,193 L237,170 Q241,168 239,165 Q238,163 232,163 L160,163 L160,115 L186,115 L201,137 L231,116 Q235,114 233,111 Q231,109 226,109 L160,109 L160,95 Q160,69 161,46 L193,46 L211,72 L244,47 Q248,45 246,42 Q245,40 239,40 L161,40 Q161,9 161,-8 Q161,-18 154,-19 Q141,-22 120,-22 M122,46 Q122,63 122,70 L122,109 L83,109 L83,46"/> 
            <glyph glyph-name="庭" unicode="&#x5EAD;" horiz-adv-x="250" d=" M8,-26 L4,-24 Q31,35 29,124 L29,139 Q29,151 28,186 L70,176 L127,176 Q123,180 123,185 Q122,198 115,207 L116,208 Q160,209 158,190 Q158,181 150,176 L198,176 L214,198 L243,177 Q247,175 246,172 Q244,170 238,170 L63,170 L63,146 L81,146 L93,161 L120,147 Q124,145 124,142 Q123,137 114,133 L98,90 L101,90 L111,104 L137,92 L137,97 L163,97 L163,129 Q147,127 127,127 L126,131 Q181,148 206,167 L233,144 Q236,143 236,140 Q234,133 220,137 Q216,137 208,135 Q200,134 196,133 L196,97 L198,97 L210,114 L237,96 Q240,94 239,93 Q238,91 233,91 L196,91 L196,43 L200,43 L213,61 L240,43 Q243,41 242,39 Q240,37 236,37 L129,37 L129,43 L163,43 L163,91 L141,91 L143,90 Q145,89 145,86 Q144,81 136,77 Q127,47 114,27 Q134,15 179,16 Q218,17 250,21 L249,16 Q237,13 231,-17 Q210,-17 179,-17 Q128,-16 99,8 Q75,-11 41,-24 L38,-21 Q73,9 83,28 Q73,45 65,71 L68,72 Q80,55 91,43 Q98,56 103,83 L98,83 L91,71 Q78,76 65,84 Q62,86 64,90 Q70,92 72,99 L85,140 L63,140 L63,131 Q63,66 52,34 Q41,0 8,-26"/> 
            <glyph glyph-name="廷" unicode="&#x5EF7;" horiz-adv-x="249" d=" M208,140 L239,119 Q243,116 241,114 Q240,112 234,112 L184,112 L184,46 L199,46 L215,69 L244,48 Q248,45 247,43 Q245,40 239,40 L98,40 L98,46 L147,46 L147,112 L109,112 Q110,111 110,110 Q111,107 98,100 Q92,58 77,34 Q111,17 159,17 Q199,17 249,24 L249,19 Q229,16 222,-17 Q197,-17 187,-17 Q176,-17 160,-16 Q95,-15 61,12 Q42,-6 9,-24 L6,-21 Q32,7 44,30 Q28,54 20,92 L24,93 Q35,68 53,51 Q62,76 66,107 L55,107 L42,93 Q28,101 15,113 Q11,117 15,120 Q24,125 28,134 L49,177 L10,177 L10,183 L46,183 L59,202 L93,184 Q99,182 98,179 Q97,173 83,169 L54,113 L63,113 L74,131 L105,115 Q109,114 109,112 L109,118 L147,118 L147,164 Q123,161 95,160 L94,164 Q164,183 196,208 L233,182 Q236,180 236,177 Q235,174 229,174 Q224,174 219,177 Q217,176 213,175 Q202,172 184,169 L184,118 L193,118"/> 
            <glyph glyph-name="开" unicode="&#x5F00;" horiz-adv-x="251" d=" M206,207 L238,185 Q242,183 240,180 Q238,178 232,178 L188,178 L188,103 L196,103 L214,128 L247,104 Q251,101 249,99 Q247,97 241,97 L188,97 L188,62 Q188,10 189,-14 Q189,-21 185,-21 Q167,-24 149,-24 Q151,19 151,50 L151,97 L102,97 Q103,7 15,-24 L13,-21 Q65,24 65,97 L8,97 L8,103 L65,103 Q65,107 65,110 L65,178 L20,178 L20,184 L190,184 M102,112 Q102,108 102,103 L151,103 L151,178 L102,178"/> 
            <glyph glyph-name="录" unicode="&#x5F55;" horiz-adv-x="249" d=" M213,138 L243,118 Q247,115 246,112 Q244,110 238,110 L143,110 L143,104 Q158,83 174,67 Q186,86 192,104 L226,85 Q230,83 230,81 Q230,75 217,75 Q202,66 184,59 Q210,41 249,31 L248,26 Q227,22 211,-10 Q158,23 143,83 L143,79 Q143,73 143,51 Q144,20 144,8 Q147,-18 95,-24 Q96,0 62,9 L63,14 L94,13 Q108,11 107,26 L107,50 Q105,49 102,47 Q63,18 40,5 Q38,-5 33,-5 Q29,-5 28,0 L12,37 Q46,42 107,60 L107,110 L14,110 L14,116 L151,116 L154,146 L46,146 L46,153 L154,153 L156,183 L40,183 L40,189 L152,189 L163,207 L199,192 Q203,191 203,188 Q203,184 193,176 L188,116 L197,116 M65,55 Q54,54 52,65 Q47,84 37,97 L39,100 Q88,95 87,77 Q85,57 65,55"/> 
            <glyph glyph-name="影" unicode="&#x5F71;" horiz-adv-x="255" d=" M7,-16 L4,-13 Q24,14 30,40 L26,40 Q27,56 27,71 L27,79 Q27,90 26,98 L66,90 L102,90 L111,105 L145,93 Q149,91 149,88 Q150,84 141,78 L141,77 Q141,67 141,51 Q143,45 135,44 Q122,41 106,41 L106,49 L102,49 L102,39 L102,34 L104,36 Q148,32 148,13 Q146,-3 129,-5 Q118,-6 115,5 Q111,21 102,33 Q102,21 103,2 Q104,-22 59,-24 Q58,-1 41,1 Q37,0 28,-5 Q15,-12 7,-16 M23,124 Q24,136 24,165 L24,167 Q24,185 24,202 L64,193 L106,193 L116,210 L148,197 Q154,196 153,192 Q154,189 145,182 L145,178 Q145,163 146,136 Q146,132 141,131 Q141,131 140,131 Q139,130 138,130 L164,113 Q168,111 166,108 Q164,106 158,106 L10,106 L10,112 L73,112 Q71,114 71,118 Q70,129 65,136 L66,137 L59,137 L59,133 Q60,127 54,126 Q34,124 23,124 M123,-26 L121,-23 Q184,26 211,77 L251,55 Q255,52 255,49 Q255,43 240,43 Q197,-3 123,-26 M147,57 L145,61 Q186,105 206,145 L246,125 Q250,122 250,119 Q250,112 235,113 Q202,82 147,57 M151,127 L148,130 Q179,169 196,206 L237,187 Q241,185 241,181 Q241,175 226,175 Q196,147 151,127 M106,84 L62,84 L62,55 L106,55 M110,187 L59,187 L59,168 L110,168 M59,162 L59,142 L110,142 L110,162 M110,127 L110,137 L78,137 Q104,135 103,124 Q102,116 93,112 L121,112 L134,130 Q122,127 110,127 M56,42 Q55,42 53,42 Q44,40 34,40 L68,27 L68,49 L62,49 Q61,43 56,42 M58,6 Q68,4 68,14 L68,18 Q64,16 58,16 Q53,11 47,6"/> 
            <glyph glyph-name="心" unicode="&#x5FC3;" horiz-adv-x="249" d=" M103,-12 Q72,-12 72,18 L72,88 Q72,123 70,152 L114,148 Q121,147 121,144 Q122,138 109,133 L109,35 Q108,21 120,22 L146,22 Q160,21 165,36 L185,81 L189,80 L189,43 Q189,31 196,26 Q203,22 203,13 Q202,-12 159,-12 M223,30 Q208,29 206,48 Q202,85 185,119 L187,121 Q249,89 249,60 Q247,32 223,30 M145,129 Q133,129 129,140 Q117,169 89,199 L90,201 Q173,185 171,158 Q169,131 145,129 M27,24 Q9,26 7,47 Q6,59 17,67 Q39,85 44,119 L47,119 Q61,91 61,69 Q59,28 27,24"/> 
            <glyph glyph-name="怎" unicode="&#x600E;" horiz-adv-x="250" d=" M97,66 Q97,130 97,146 L97,164 L89,164 Q64,126 15,96 L12,100 Q40,138 55,173 Q63,191 67,208 L110,198 Q116,197 116,194 Q117,188 102,185 Q98,178 93,170 L189,170 L206,194 L238,171 Q242,169 240,166 Q239,164 233,164 L134,164 L134,134 L182,134 L197,156 L226,135 Q230,133 228,130 Q226,128 221,128 L134,128 L134,98 L184,98 L199,120 L229,99 Q232,96 230,94 Q229,92 223,92 L134,92 L134,78 Q135,69 124,68 Q108,66 97,66 M94,-18 Q70,-19 70,9 L70,20 Q70,40 69,59 L110,56 Q115,55 115,52 Q115,46 105,42 L105,20 Q104,8 115,10 L151,10 Q164,9 167,20 L183,52 L186,52 L187,26 Q186,17 193,14 Q201,8 201,1 Q197,-17 161,-18 M226,-2 Q214,-3 211,8 Q204,40 191,59 L193,61 Q250,42 248,21 Q247,0 226,-2 M27,-10 Q12,-8 10,9 Q10,21 22,26 Q42,35 49,57 L51,57 Q58,43 58,26 Q57,-9 27,-10 M141,20 Q130,20 127,32 Q123,48 114,62 L115,64 Q160,58 160,40 Q159,21 141,20"/> 
            <glyph glyph-name="想" unicode="&#x60F3;" horiz-adv-x="250" d=" M197,65 L197,78 L160,78 L160,75 Q161,69 153,68 Q146,66 138,66 Q160,58 160,43 Q159,23 138,22 Q126,22 125,33 Q120,56 109,70 L111,72 Q118,71 124,69 Q124,80 125,110 Q125,129 125,134 L125,163 Q124,160 117,159 L84,159 L84,145 Q123,137 123,118 Q122,99 104,98 Q93,98 92,111 Q90,125 84,135 L84,127 Q84,109 85,69 Q86,62 80,61 Q62,59 48,59 L49,110 Q31,91 6,76 L3,78 Q34,122 46,159 L11,159 L11,166 L49,166 Q49,183 49,205 L88,202 Q94,202 94,198 Q94,195 84,189 L84,166 L86,166 L99,184 L122,167 Q125,166 125,164 L125,167 Q125,196 124,200 L168,189 L193,189 L203,207 L238,194 Q242,192 242,188 Q243,184 233,176 L233,138 Q233,92 234,74 Q234,69 230,68 Q216,65 197,65 M99,-19 Q66,-19 67,12 L67,28 Q67,48 66,58 L109,54 Q113,54 113,50 Q114,45 102,39 L102,22 Q101,11 111,12 L155,12 Q167,12 172,21 L185,49 L189,48 L191,25 Q192,16 197,13 Q203,8 203,2 Q201,-18 164,-19 M226,-2 Q214,-2 211,9 Q204,37 191,54 L193,56 Q250,44 249,20 Q248,-1 226,-2 M27,-9 Q10,-8 9,9 Q9,21 20,27 Q39,36 43,55 L46,55 Q55,38 55,24 Q54,-8 27,-9 M160,114 L160,84 L197,84 L197,114 M160,149 L160,120 L197,120 L197,149 M197,183 L160,183 L160,155 L197,155"/> 
            <glyph glyph-name="战" unicode="&#x6218;" horiz-adv-x="251" d=" M230,-23 Q217,-23 210,-19 Q188,-6 174,13 Q140,-9 92,-23 L89,-20 Q137,9 161,37 Q148,71 145,122 L101,116 L100,122 L144,128 Q144,146 144,165 Q144,181 142,205 L182,201 Q188,201 188,197 Q188,191 179,186 L179,161 Q179,146 179,133 L205,137 L213,152 L212,152 Q202,152 200,161 Q196,180 188,191 L189,193 Q232,189 231,171 Q231,161 223,156 L246,144 Q250,142 249,139 Q247,136 242,135 L179,127 Q180,97 187,72 L189,76 Q203,101 206,118 L244,105 Q248,103 248,100 Q248,94 235,93 Q223,63 201,39 Q208,29 217,20 Q222,16 224,20 L239,59 L242,58 L241,18 Q241,10 245,4 Q251,-1 250,-9 Q248,-21 230,-23 M13,-12 Q14,6 14,39 L14,99 L50,88 L50,151 Q50,154 50,165 Q49,190 49,205 L89,202 Q94,202 95,198 Q96,193 84,188 L84,144 L88,144 L101,165 L128,145 Q131,143 130,140 Q128,138 123,138 L84,138 L84,89 L93,105 L127,90 Q131,90 131,86 Q132,81 122,74 L122,56 Q122,49 123,9 Q124,2 116,1 Q114,1 110,0 Q96,-1 87,-1 L87,10 L49,10 L49,-1 Q49,-9 39,-10 Q25,-12 13,-12 M87,80 L49,80 L49,16 L87,16"/> 
            <glyph glyph-name="房" unicode="&#x623F;" horiz-adv-x="249" d=" M9,-27 L6,-23 Q24,12 29,41 Q35,69 35,119 L35,131 Q35,163 34,182 L79,171 L125,171 Q122,174 121,179 Q118,193 110,204 L112,206 Q161,207 161,187 Q161,176 149,171 L186,171 L197,190 L234,175 Q239,173 239,170 Q238,164 229,158 L229,154 Q229,150 229,127 Q229,120 223,119 Q206,115 192,115 L192,125 L73,125 Q73,106 71,89 L131,89 Q128,92 127,97 Q125,110 115,121 L117,123 Q164,123 163,104 Q163,94 154,89 L199,89 L215,111 L245,90 Q249,87 247,85 Q246,83 240,83 L142,83 Q142,68 140,56 L182,56 L192,75 L230,60 Q235,58 235,55 Q236,49 224,43 Q224,31 222,17 Q222,-23 166,-24 Q168,0 134,5 L134,9 L167,8 Q184,6 184,21 Q186,35 187,50 L138,50 Q130,-6 47,-27 L45,-23 Q81,2 92,23 Q104,45 104,83 L71,83 Q66,14 9,-27 M192,165 L73,165 L73,132 L192,132"/> 
            <glyph glyph-name="技" unicode="&#x6280;" horiz-adv-x="252" d=" M22,44 Q18,44 17,49 L5,89 Q9,90 16,91 Q30,93 38,95 L38,143 L8,143 L8,149 L38,149 L38,151 Q38,156 38,169 Q37,191 37,204 L78,201 Q84,201 84,198 Q85,192 73,188 L73,149 L74,149 L86,166 L97,157 L142,157 L141,205 L182,201 Q188,201 188,198 Q187,192 178,189 L178,157 L196,157 L213,181 L245,158 Q249,156 247,153 Q246,151 240,151 L178,151 L178,106 L182,106 L195,125 L233,108 Q233,108 234,107 Q238,106 238,103 Q237,95 225,92 Q209,56 190,33 Q215,21 252,18 L251,14 Q231,6 221,-23 Q190,-12 163,7 Q129,-14 70,-26 L69,-21 Q118,1 144,28 Q126,52 115,100 L101,100 L101,105 Q86,94 73,85 L73,6 Q74,-21 27,-24 Q30,0 4,8 L4,12 L29,11 Q38,11 38,20 L38,62 Q32,59 28,56 Q27,44 22,44 M105,143 L73,143 L73,104 Q87,107 105,113 L106,109 L102,106 L142,106 L142,150 L142,151 L105,151 L109,149 Q111,146 110,145 Q109,143 105,143 M186,100 L121,100 Q137,69 162,49 Q178,73 186,100"/> 
            <glyph glyph-name="探" unicode="&#x63A2;" horiz-adv-x="254" d=" M73,-6 L71,-3 Q111,33 131,80 L88,80 L88,86 L145,86 Q145,93 145,106 Q144,120 144,126 L184,123 Q189,123 190,120 Q191,114 180,109 L180,86 L204,86 L219,106 L248,87 Q251,85 250,82 Q248,80 243,80 L183,80 Q206,45 254,30 L252,26 Q237,23 223,-5 Q192,19 180,65 L180,-10 Q180,-19 170,-21 Q154,-23 144,-23 Q144,-12 145,11 Q145,33 145,42 Q116,10 73,-6 M20,48 Q18,48 15,54 L5,91 Q18,93 34,94 L34,137 L8,137 L8,144 L34,144 L34,151 Q34,153 34,163 Q33,191 33,206 L75,204 Q79,203 79,200 Q80,195 68,189 L68,144 L79,159 L100,144 Q103,142 102,139 Q100,137 95,137 L68,137 L68,100 L98,105 L100,101 Q97,99 92,96 Q81,90 68,81 L68,9 Q70,-20 25,-23 Q26,0 4,4 L5,8 L25,7 Q34,7 34,17 L34,62 L28,59 Q26,47 20,48 M99,150 Q85,151 84,165 Q84,174 92,179 Q102,186 107,200 L110,200 Q110,199 111,198 Q115,190 116,186 L204,186 L216,203 L249,182 Q252,179 252,176 Q251,170 239,170 Q226,161 211,153 Q231,144 230,131 Q228,115 213,113 Q205,112 200,121 Q186,144 165,162 L166,165 Q188,161 200,156 L207,180 L118,180 Q119,176 119,170 Q118,151 99,150 M86,104 L84,108 Q118,144 129,167 L162,148 Q166,146 166,143 Q165,137 153,140 Q128,121 86,104"/> 
            <glyph glyph-name="播" unicode="&#x64AD;" horiz-adv-x="253" d=" M231,74 Q190,91 178,127 L176,127 L176,84 Q176,76 169,75 Q153,73 143,73 Q144,91 144,104 Q127,86 105,75 L127,69 L194,69 L203,84 L235,71 Q238,70 238,67 Q239,60 230,57 L230,32 Q230,29 230,14 Q231,-7 231,-14 Q231,-20 229,-20 Q213,-23 197,-23 L197,-7 L124,-7 L124,-14 Q124,-21 117,-22 Q115,-22 110,-23 Q96,-24 90,-24 Q91,-12 91,22 L91,44 Q91,53 91,68 Q89,67 84,65 Q76,61 70,59 L68,62 Q102,90 125,127 L84,127 L84,133 L115,133 Q110,134 110,140 Q108,151 101,164 Q100,167 99,168 L101,169 Q141,165 138,148 Q137,137 123,133 L144,133 L144,174 Q135,174 117,174 Q98,173 88,173 L87,177 Q170,193 204,208 L227,188 Q232,184 231,181 Q230,175 215,180 Q202,178 179,176 Q177,176 176,176 L176,133 L180,133 Q188,150 193,175 L223,164 Q227,163 227,160 Q227,155 218,155 Q206,143 190,133 L212,133 L225,150 L248,132 Q250,130 249,129 Q248,127 244,127 L185,127 Q208,112 253,110 L252,106 Q240,104 231,74 M26,-24 Q27,0 4,7 L5,11 L25,10 Q34,8 34,20 L34,63 L27,60 Q27,48 20,47 Q17,47 16,51 L5,95 Q19,97 34,98 L34,139 L7,139 L7,145 L34,145 L34,155 Q34,191 33,206 L73,202 Q78,202 78,199 Q78,194 67,189 L67,149 L77,163 L99,145 Q103,143 102,141 Q100,139 95,139 L67,139 L67,103 Q72,104 81,106 Q91,108 95,109 L97,106 Q82,94 67,84 L67,4 Q69,-21 26,-24 M176,27 L176,-1 L197,-1 L197,27 M124,27 L124,-1 L144,-1 L144,27 M197,63 L176,63 L176,33 L197,33 M124,63 L124,33 L144,33 L144,63"/> 
            <glyph glyph-name="放" unicode="&#x653E;" horiz-adv-x="252" d=" M215,167 L246,145 Q250,143 248,140 Q247,138 241,138 L229,138 Q222,78 197,42 Q219,26 252,17 L251,12 Q229,7 218,-22 Q185,0 174,16 Q144,-10 93,-26 L92,-22 Q139,12 158,42 Q149,63 144,96 Q135,83 124,69 L120,72 Q137,124 142,176 Q143,191 143,206 L187,198 Q193,196 193,193 Q193,187 181,185 Q176,163 168,144 L199,144 M105,178 L135,156 Q138,154 137,151 Q135,149 130,149 L68,149 L68,129 Q68,126 67,119 Q67,113 67,111 L81,111 L91,128 L125,114 Q129,113 129,109 Q129,103 119,98 Q118,76 115,33 Q114,24 114,19 Q113,-11 67,-14 Q68,5 45,13 L45,16 Q34,-1 8,-23 L4,-21 Q21,15 26,43 Q32,71 32,119 L32,149 L7,149 L7,155 L89,155 M86,104 L67,104 Q66,50 46,17 L68,16 Q80,16 81,28 Q85,71 86,104 M151,108 Q160,85 172,67 Q186,97 190,138 L166,138 Q159,122 151,108 M65,158 Q53,158 52,169 Q50,188 40,204 L42,206 Q88,198 88,179 Q86,160 65,158"/> 
            <glyph glyph-name="断" unicode="&#x65AD;" horiz-adv-x="254" d=" M40,-12 Q34,-8 20,0 Q14,2 12,3 Q8,6 12,9 Q18,15 18,23 L18,150 Q18,155 17,174 Q17,192 17,196 L55,193 Q59,193 59,190 Q59,184 50,180 L50,122 L83,122 L83,160 Q83,192 82,205 L117,201 Q121,201 121,198 Q122,194 110,189 L110,138 Q120,168 123,185 L151,173 Q151,181 151,186 L183,177 Q210,191 225,205 L250,179 Q253,177 252,174 Q251,171 248,171 Q240,171 236,173 Q214,169 184,167 L184,116 L184,114 L207,114 L223,137 L250,116 Q254,113 252,110 Q251,108 245,108 L230,108 L230,83 Q230,18 231,-13 Q232,-20 225,-22 Q207,-24 196,-24 Q197,12 197,67 L197,108 L184,108 Q186,14 120,-25 L117,-23 Q126,-9 131,2 L52,2 M130,53 Q123,53 120,61 Q117,79 110,92 Q110,82 111,54 Q111,34 111,28 Q112,22 105,20 Q103,20 98,19 Q88,17 83,17 L83,76 Q72,60 50,40 L50,8 L103,8 L115,25 L136,11 Q152,46 151,110 L151,117 Q150,116 145,116 L110,116 L110,101 Q145,89 146,72 Q145,56 130,53 M66,130 Q59,131 58,138 Q57,162 50,180 L52,181 Q83,162 82,145 Q81,131 66,130 M50,53 Q67,88 73,116 L50,116 M128,137 L150,123 L151,121 L151,129 Q151,147 151,167 Q149,167 146,167 Q137,155 116,131 Q112,126 110,124 L110,122 L118,122"/> 
            <glyph glyph-name="新" unicode="&#x65B0;" horiz-adv-x="253" d=" M104,-25 L101,-22 Q139,23 137,105 Q136,103 131,103 L84,103 L84,73 L95,73 L107,91 L131,74 Q134,72 133,69 Q131,67 126,67 L84,67 L84,55 L85,56 Q124,46 125,27 Q123,11 107,7 Q97,8 96,17 Q93,39 84,54 L84,46 Q85,26 86,6 Q88,-17 47,-23 Q47,-1 26,4 L27,8 Q24,4 16,-2 Q11,-7 9,-9 L5,-6 Q13,11 17,32 Q21,46 21,58 L51,50 L51,67 L10,67 L10,73 L51,73 L51,103 L7,103 L7,109 L72,109 Q79,138 79,159 L116,149 Q120,148 120,146 Q121,140 109,138 Q96,121 83,109 L100,109 L113,127 L136,110 Q136,110 137,109 Q137,109 137,108 Q137,116 137,123 L137,142 Q137,153 136,181 L172,173 Q196,187 209,204 L246,177 Q247,177 247,175 Q247,170 242,170 Q238,170 233,172 Q209,164 173,163 L173,126 Q173,116 173,107 L206,107 L221,128 L249,108 Q253,106 251,103 Q250,101 244,101 L225,101 L225,43 Q225,19 225,-13 Q225,-20 220,-21 Q209,-24 188,-24 Q188,-19 188,4 Q189,31 189,38 L189,101 L173,101 Q174,10 104,-25 M106,185 L129,168 Q133,166 131,164 Q130,162 124,162 L11,162 L11,168 L57,168 Q50,169 49,177 Q48,190 40,202 L41,205 Q84,204 85,187 Q83,172 67,168 L93,168 M42,112 Q33,112 31,122 Q30,139 22,153 L24,155 Q63,147 62,131 Q60,114 42,112 M42,7 Q51,5 51,17 L51,40 L47,39 Q39,21 27,8"/> 
            <glyph glyph-name="明" unicode="&#x660E;" horiz-adv-x="245" d=" M81,-27 L78,-23 Q109,12 118,39 Q127,67 127,124 L127,147 Q127,171 127,198 L169,186 L194,186 L204,205 L241,190 Q245,189 245,186 Q245,180 235,173 L235,118 Q235,61 237,6 Q240,-18 186,-24 Q187,0 150,10 L151,14 L188,13 Q200,12 199,26 L199,66 L158,66 Q149,8 81,-27 M75,24 L75,39 L55,39 L55,25 Q56,18 47,17 Q32,14 19,14 Q19,27 20,57 Q20,83 20,92 L20,150 Q20,171 19,191 L60,180 L70,180 L81,198 L115,183 Q119,182 119,179 Q119,177 113,171 Q111,169 110,168 L110,109 Q110,75 110,34 Q110,28 104,27 Q91,24 75,24 M163,123 Q163,95 159,72 L199,72 L199,123 M199,179 L163,179 L163,130 L199,130 M55,108 L55,45 L75,45 L75,108 M75,174 L55,174 L55,114 L75,114"/> 
            <glyph glyph-name="星" unicode="&#x661F;" horiz-adv-x="250" d=" M39,102 Q41,138 41,153 L41,168 Q41,170 41,180 Q40,194 40,198 L88,188 L172,188 L182,207 L220,192 Q224,191 224,188 Q224,183 214,175 L214,154 Q214,151 214,136 Q215,117 215,112 Q215,109 212,108 Q191,103 176,103 L176,115 L78,115 L78,111 Q79,107 73,106 Q71,105 67,105 Q63,104 61,104 L92,97 Q97,97 97,93 Q97,88 85,86 Q81,79 76,71 L110,71 Q110,79 110,107 L155,104 Q161,103 161,100 Q161,95 150,89 L150,71 L185,71 L201,94 L230,72 Q234,70 232,67 Q231,65 226,65 L150,65 L150,33 L175,33 L190,54 L220,34 Q224,31 223,29 Q221,27 215,27 L150,27 L150,-10 L199,-10 L215,11 L246,-8 Q250,-11 248,-14 Q246,-16 240,-16 L11,-16 L11,-10 L110,-10 L110,27 L45,27 L45,33 L110,33 L110,65 L72,65 Q52,38 20,18 L18,21 Q42,66 48,103 Q44,102 39,102 M176,182 L78,182 L78,155 L176,155 M78,148 L78,121 L176,121 L176,148"/> 
            <glyph glyph-name="更" unicode="&#x66F4;" horiz-adv-x="250" d=" M180,55 L180,69 L142,69 Q137,41 127,28 Q170,15 250,20 L250,16 Q231,8 225,-23 Q145,-18 105,5 Q78,-13 8,-25 L7,-21 Q67,3 84,22 Q69,39 59,60 Q46,57 32,57 Q34,80 34,112 L34,125 Q34,133 33,164 L74,153 L107,153 L107,182 L9,182 L9,188 L196,188 L212,211 L243,191 Q248,188 246,185 Q244,182 237,182 L144,182 L144,153 L175,153 L186,171 L221,157 Q227,154 226,152 Q226,145 217,139 L217,122 Q217,119 217,104 Q218,75 218,65 Q218,59 213,59 Q200,55 180,55 M144,102 Q144,88 142,76 L180,76 L180,108 L144,108 M106,76 Q107,80 107,91 L107,108 L70,108 L70,76 M70,146 L70,114 L107,114 L107,146 M180,146 L144,146 L144,114 L180,114 M65,61 Q79,49 97,40 Q103,52 106,69 L70,69 L70,67 Q71,63 68,62"/> 
            <glyph glyph-name="有" unicode="&#x6709;" horiz-adv-x="249" d=" M59,-25 Q59,-14 60,19 Q60,39 60,43 L60,90 Q38,71 10,56 L8,59 Q49,104 74,161 L10,161 L10,167 L77,167 Q79,174 82,180 Q87,194 88,208 L137,196 Q141,196 141,192 Q141,187 127,184 Q126,180 122,173 Q121,169 120,167 L194,167 L212,192 L245,168 Q249,165 247,163 Q246,161 240,161 L116,161 Q107,142 94,125 L101,124 L167,124 L178,145 L218,130 Q223,127 223,124 Q223,118 211,110 L211,78 Q211,30 212,6 Q212,-20 160,-25 Q161,1 123,10 L124,15 L158,14 Q174,12 173,26 L173,44 L97,44 L97,-14 Q97,-20 92,-21 Q72,-25 59,-25 M97,81 L97,50 L173,50 L173,81 M173,118 L97,118 L97,87 L173,87"/> 
            <glyph glyph-name="未" unicode="&#x672A;" horiz-adv-x="250" d=" M217,-12 Q165,18 145,90 L145,76 Q145,23 146,-12 Q147,-20 137,-21 Q125,-24 105,-24 Q106,-11 106,15 Q107,41 107,55 Q71,7 6,-17 L4,-14 Q59,32 88,91 L10,91 L10,98 L107,98 L107,144 L107,151 L29,151 L29,157 L106,157 Q106,192 105,205 L151,201 Q157,199 157,197 Q157,191 145,186 L145,157 L182,157 L199,180 L230,157 Q233,155 232,153 Q230,151 225,151 L145,151 L145,98 L194,98 L211,122 L243,99 Q247,96 246,94 Q244,91 238,91 L151,91 Q189,44 250,29 L250,25 Q229,19 217,-12"/> 
            <glyph glyph-name="样" unicode="&#x6837;" horiz-adv-x="255" d=" M6,32 L3,34 Q26,85 37,140 L8,140 L8,146 L41,146 L41,155 Q41,160 41,179 Q40,199 40,205 L79,202 Q86,202 87,199 Q87,194 75,189 L75,146 L87,164 L101,153 L101,157 L173,157 Q179,189 180,207 L222,197 Q226,196 226,193 Q227,187 213,186 Q201,171 183,157 L206,157 L220,176 L248,157 Q251,155 250,153 Q248,151 243,151 L185,151 L185,105 L198,105 L212,124 L240,105 Q243,103 242,101 Q241,99 236,99 L185,99 L185,70 L185,53 L205,53 L220,75 L252,52 Q255,50 254,48 Q253,47 248,47 L185,47 L186,-15 Q186,-21 182,-23 Q171,-24 146,-24 Q146,-13 147,11 Q147,36 148,47 L94,47 L94,53 L148,53 Q148,66 148,71 L148,99 L111,99 L111,105 L148,105 L148,151 L105,151 L109,147 Q113,145 111,142 Q110,140 104,140 L75,140 L75,118 Q114,102 112,85 Q110,69 94,67 Q85,67 83,77 Q82,99 75,113 L75,-11 Q76,-21 65,-22 Q52,-25 39,-25 Q41,31 41,73 L41,74 Q25,49 6,32 M142,158 Q129,159 128,171 Q126,187 116,203 L118,205 Q163,197 162,178 Q161,159 142,158"/> 
            <glyph glyph-name="每" unicode="&#x6BCF;" horiz-adv-x="253" d=" M65,6 Q49,15 33,29 Q30,32 33,34 Q40,38 41,47 L46,79 L7,79 L7,85 L47,85 Q48,91 50,104 Q51,114 52,119 Q52,126 53,135 Q46,128 29,116 Q24,113 22,111 L19,114 Q53,170 59,209 L104,198 Q110,198 109,195 Q110,189 95,186 L89,177 L177,177 L196,200 L231,178 Q235,176 234,173 Q231,171 225,171 L85,171 Q80,164 68,149 Q67,148 67,148 L93,142 L166,142 L177,161 L215,145 Q215,145 216,144 Q218,143 218,142 Q219,136 207,129 Q207,121 206,106 Q206,92 206,85 L207,85 L222,106 L249,86 Q253,83 251,81 Q250,79 244,79 L206,79 Q205,52 203,27 L204,27 L218,47 L244,28 Q247,26 246,23 Q244,21 239,21 L202,21 Q202,19 202,17 Q205,-21 147,-25 Q149,-1 113,6 L114,10 L150,9 Q165,7 165,20 L165,21 L79,21 M166,27 Q168,52 169,79 L82,79 L76,27 M171,135 L89,135 Q86,107 83,85 L169,85 Q170,93 170,110 Q171,127 171,135 M123,31 Q115,31 113,40 Q110,55 101,72 L103,74 Q148,68 145,51 Q143,32 123,31 M126,88 Q118,88 115,98 Q113,116 104,128 L106,130 Q149,125 148,107 Q146,90 126,88"/> 
            <glyph glyph-name="比" unicode="&#x6BD4;" horiz-adv-x="250" d=" M169,30 Q168,17 180,18 L193,18 Q206,17 210,33 L227,76 L231,76 L232,37 Q231,25 238,22 Q247,17 247,9 Q246,-15 203,-15 L163,-15 Q130,-16 131,13 L131,147 Q131,183 130,199 L175,196 Q182,195 181,192 Q181,186 169,181 L169,105 Q196,136 208,163 L246,138 Q250,136 250,132 Q250,126 235,128 Q207,106 169,94 M42,-22 Q40,-23 36,-16 L19,20 Q31,25 31,38 L31,147 Q31,176 30,198 L76,195 Q82,195 82,192 Q82,185 69,180 L69,115 L81,115 L99,140 L129,117 Q133,114 131,112 Q129,109 123,109 L69,109 L69,34 L125,46 L127,42 Q100,19 51,-8 Q49,-21 42,-22"/> 
            <glyph glyph-name="海" unicode="&#x6D77;" horiz-adv-x="253" d=" M79,111 L76,114 Q102,169 104,206 L149,196 Q154,196 155,193 Q156,187 142,183 Q141,182 140,179 Q138,176 134,170 L196,170 L214,193 L246,171 Q250,168 248,166 Q247,164 241,164 L130,164 Q128,161 123,154 Q118,148 115,144 L134,139 L187,139 L197,157 L233,142 Q237,141 237,138 Q238,134 226,126 Q226,119 225,107 Q225,95 225,89 L232,100 L250,84 Q253,82 252,79 Q250,77 245,77 L224,77 L222,30 L230,42 L248,26 Q251,24 250,21 Q248,19 243,19 L221,19 L220,11 Q222,-22 169,-24 Q170,-4 138,4 L138,8 L173,7 Q185,6 185,16 Q185,18 186,19 L122,19 L110,6 Q94,15 79,26 Q75,29 79,33 Q84,36 85,44 L89,77 L70,77 L70,83 L89,83 L92,110 L94,124 M42,-21 Q25,-20 24,-4 Q24,7 27,17 Q30,26 29,35 Q30,50 8,58 L10,62 Q36,57 38,69 L83,172 L86,171 L60,65 Q56,49 57,42 Q57,32 61,17 Q65,5 65,-3 Q63,-20 42,-21 M186,26 Q188,50 189,77 L124,77 L119,26 M191,133 L130,133 L125,83 L189,83 Q191,107 191,133 M32,98 Q23,98 20,108 Q16,130 6,147 L7,148 Q54,141 54,121 Q52,101 32,98 M52,153 Q43,153 41,161 Q36,182 25,200 L26,201 Q76,194 73,175 Q71,155 52,153 M155,29 Q147,29 145,38 Q142,57 136,69 L138,71 Q178,65 177,48 Q175,30 155,29 M156,87 Q148,87 146,95 Q143,118 138,126 L140,128 Q177,121 177,105 Q176,88 156,87"/> 
            <glyph glyph-name="满" unicode="&#x6EE1;" horiz-adv-x="254" d=" M76,-24 Q77,2 77,37 L77,70 Q77,87 77,105 L111,96 L122,96 L122,103 L122,126 L77,126 L77,133 L206,133 L220,153 L248,134 Q252,131 250,128 Q248,126 242,126 L194,126 L194,112 Q194,103 194,96 L201,96 L211,113 L243,99 Q247,98 247,95 Q247,92 238,83 L238,58 Q238,32 239,4 Q239,-19 193,-24 Q193,0 166,6 L167,10 L195,8 Q205,6 205,19 L205,27 Q201,24 196,23 Q188,23 188,32 Q188,37 187,45 Q187,53 187,56 Q179,30 146,3 L143,5 Q149,17 154,28 Q151,27 148,27 Q141,27 142,35 Q142,43 141,50 Q135,33 111,8 L110,8 L110,-15 Q110,-20 106,-22 Q96,-24 76,-24 M109,139 L110,167 L74,167 L74,173 L110,173 L110,178 Q110,189 109,204 L145,201 Q151,201 151,197 Q151,193 142,189 L142,173 L166,173 L166,177 Q166,191 166,204 L201,201 Q208,200 208,197 Q208,192 198,189 L198,173 L209,173 L224,193 L250,174 Q254,172 252,169 Q251,167 245,167 L198,167 Q198,155 198,148 Q198,144 194,142 Q181,140 166,140 L166,167 L142,167 L142,148 Q142,142 134,141 Q121,139 109,139 M39,-19 Q21,-19 20,-2 Q20,2 23,16 Q26,27 26,37 Q28,51 8,59 L10,63 Q32,58 34,70 L77,157 L81,156 L58,70 Q54,54 55,42 Q55,31 58,19 Q58,18 59,14 Q61,3 61,-1 Q59,-18 39,-19 M50,153 Q39,153 36,163 Q31,183 22,197 L23,199 Q70,193 71,174 Q69,156 50,153 M30,98 Q20,98 18,107 Q13,130 5,144 L7,145 Q51,138 51,119 Q49,100 30,98 M110,18 Q122,50 122,90 L110,90 M151,90 Q149,76 146,64 Q147,64 148,63 Q159,54 160,49 Q164,67 164,90 M205,90 L193,90 Q193,76 189,64 Q199,58 205,52 M151,111 Q151,103 151,96 L164,96 L164,103 L164,126 L151,126"/> 
            <glyph glyph-name="演" unicode="&#x6F14;" horiz-adv-x="254" d=" M83,132 Q80,132 76,134 L58,70 Q54,54 54,39 Q54,26 57,14 Q57,13 58,11 Q61,4 61,-3 Q60,-21 38,-22 Q19,-21 18,-4 Q18,0 22,12 Q25,21 25,30 Q26,46 7,54 L8,57 Q11,57 15,56 Q17,56 18,56 Q28,55 33,65 L71,139 Q67,144 67,150 Q67,160 75,166 Q87,175 91,190 L93,190 Q99,182 102,173 L144,173 Q138,175 138,182 Q134,200 128,206 L130,208 Q179,208 177,190 Q176,178 162,173 L204,173 L219,192 L250,171 Q254,168 254,164 Q253,158 240,158 Q235,155 226,151 Q219,147 215,145 L220,142 Q223,141 222,139 Q221,137 217,137 L173,137 L173,113 L191,113 L201,130 L235,117 Q240,115 240,112 Q240,108 230,100 L230,80 Q230,51 231,33 Q232,26 224,25 Q220,24 210,24 Q200,23 195,23 L195,34 L116,34 L116,32 Q116,23 107,22 Q106,22 104,22 Q94,20 82,20 Q83,44 83,65 L83,86 Q83,106 82,123 L125,113 L138,113 L138,137 L103,137 L103,143 L181,143 L193,160 L204,153 L208,167 L104,167 Q105,162 105,156 Q103,134 83,132 M61,-24 L60,-20 Q107,5 124,28 L158,7 Q160,6 160,4 Q160,-2 144,0 Q108,-18 61,-24 M225,-24 Q217,-25 210,-17 Q195,4 165,19 L166,22 Q248,18 243,-5 Q241,-22 225,-24 M51,154 Q40,154 37,164 Q32,187 20,201 L21,203 Q73,197 71,175 Q69,156 51,154 M33,100 Q21,99 19,112 Q16,133 4,149 L5,151 Q53,142 52,122 Q51,102 33,100 M173,70 L173,40 L195,40 L195,70 M195,107 L173,107 L173,77 L195,77 M116,70 L116,40 L138,40 L138,70 M116,107 L116,77 L138,77 L138,107"/> 
            <glyph glyph-name="漫" unicode="&#x6F2B;" horiz-adv-x="252" d=" M207,62 L207,69 L106,69 Q107,63 101,62 Q83,60 74,60 L74,125 L110,118 L202,118 L209,129 Q205,128 196,128 Q188,127 183,127 L183,133 L129,133 L129,132 Q129,129 125,127 Q121,126 108,125 Q99,124 96,124 Q96,130 97,142 Q97,153 97,159 L97,170 Q97,186 97,200 L135,191 L179,191 L188,207 L222,195 Q226,194 226,191 Q226,187 216,179 L216,176 Q216,172 217,156 Q217,141 217,136 Q217,133 216,131 L244,121 Q248,120 248,116 Q248,113 239,106 L239,72 Q240,65 231,64 Q219,62 207,62 M226,-25 Q187,-18 159,-5 Q124,-21 59,-25 L58,-21 Q101,-8 135,8 Q118,23 108,47 L80,47 L80,53 L180,53 L193,67 L227,49 Q231,46 231,45 Q231,38 217,36 Q208,25 197,16 Q221,13 252,14 L251,8 Q234,5 226,-25 M37,-20 Q20,-20 20,-2 Q20,0 22,8 Q23,13 23,15 Q26,22 26,32 Q28,49 6,57 L7,61 Q31,56 35,71 L82,173 L85,172 L60,71 Q55,51 55,40 Q55,30 59,16 Q62,6 62,-2 Q61,-19 37,-20 M48,154 Q36,153 34,164 Q29,184 18,197 L19,199 Q68,195 68,176 Q66,157 48,154 M31,99 Q20,99 19,109 Q15,129 6,144 L8,146 Q53,140 52,122 Q50,101 31,99 M129,159 L129,139 L183,139 L183,159 M183,185 L129,185 L129,165 L183,165 M182,47 L117,47 Q133,32 157,24 Q170,35 182,47 M106,112 L106,75 L121,75 L121,112 M207,112 L192,112 L192,75 L207,75 M150,112 L150,75 L163,75 L163,112"/> 
            <glyph glyph-name="热" unicode="&#x70ED;" horiz-adv-x="251" d=" M20,79 Q17,79 16,85 L8,119 Q19,119 46,121 Q26,119 49,121 L49,153 L10,153 L10,159 L49,159 L49,165 Q49,193 48,206 L88,202 Q93,202 93,199 Q93,195 83,190 L83,162 L93,177 L116,159 L117,159 L132,159 L132,163 L132,171 Q132,197 131,206 L170,202 Q176,202 176,199 Q176,194 166,188 L166,169 Q166,163 166,159 L178,159 L189,177 L222,164 Q226,162 226,159 Q227,154 217,147 L217,134 Q217,93 224,83 Q225,81 226,81 Q227,81 228,83 L242,115 L246,114 L243,76 Q243,68 247,63 Q251,57 251,51 Q250,38 234,37 Q210,38 196,61 Q183,86 183,124 L183,153 L166,153 Q165,129 159,111 Q183,95 183,79 Q181,61 166,59 Q158,59 155,66 Q153,70 148,79 Q146,82 145,83 Q129,59 86,35 L82,38 Q117,79 126,111 Q122,117 110,128 Q106,132 104,134 L106,137 Q120,133 130,127 Q132,139 132,153 L113,153 L112,153 L83,153 L83,124 Q95,126 110,127 L111,123 Q96,116 83,110 L83,65 Q85,36 38,33 Q39,54 12,61 L13,65 L40,64 Q50,63 49,74 L49,97 Q39,93 27,90 Q25,79 20,79 M224,-23 Q211,-23 209,-10 Q206,11 194,32 L196,35 Q247,19 246,-1 Q244,-21 224,-23 M29,-24 Q11,-23 10,-5 Q11,5 20,8 Q41,17 47,31 L49,31 Q56,18 56,4 Q53,-21 29,-24 M159,-20 Q147,-20 146,-7 Q145,13 136,31 L138,33 Q182,18 181,0 Q179,-18 159,-20 M100,-21 Q88,-21 87,-8 Q87,12 80,30 L82,31 Q122,16 122,0 Q120,-19 100,-21"/> 
            <glyph glyph-name="爱" unicode="&#x7231;" horiz-adv-x="252" d=" M26,86 Q10,87 9,104 Q9,113 18,119 Q34,128 37,142 L40,142 Q41,139 44,135 Q47,130 48,127 L159,127 Q168,157 171,178 L211,163 Q215,161 215,158 Q215,153 202,153 Q187,138 172,127 L202,127 L215,144 L248,121 Q251,118 251,116 Q252,112 237,111 Q226,105 210,100 L220,94 Q224,91 223,89 Q221,86 215,86 L110,86 Q107,74 102,63 L158,63 L172,80 L210,59 Q214,57 214,55 Q213,49 201,46 Q189,31 176,19 Q206,14 242,14 L241,9 Q224,4 212,-25 Q166,-16 142,-2 Q111,-19 46,-25 L45,-21 Q101,-1 121,14 Q108,30 99,57 Q77,8 11,-22 L8,-18 Q59,32 71,86 L40,86 L40,91 Q34,86 26,86 M26,175 L25,179 Q149,196 194,212 L221,189 Q226,185 225,183 Q225,177 209,182 Q165,178 126,176 Q90,175 26,175 M190,113 L201,106 L206,121 L49,121 Q50,118 50,115 Q50,100 40,92 L73,92 Q73,95 74,101 Q76,114 76,119 L121,111 Q127,110 126,108 Q126,102 114,99 L112,92 L175,92 M126,131 Q114,131 114,142 Q112,161 105,173 L107,174 Q148,169 147,151 Q145,133 126,131 M72,129 Q62,129 61,138 Q59,156 51,169 L53,171 Q94,166 93,147 Q91,131 72,129 M162,58 L104,58 Q119,42 141,31 Q153,43 162,58"/> 
            <glyph glyph-name="片" unicode="&#x7247;" horiz-adv-x="252" d=" M148,-23 L148,76 L82,76 Q75,16 11,-24 L8,-21 Q49,32 47,120 L47,158 Q47,161 47,175 Q46,195 46,202 L91,199 Q96,199 97,196 Q96,189 85,184 L85,136 L134,136 L134,162 Q134,190 133,206 L178,203 Q185,202 185,199 Q185,193 172,188 L172,136 L198,136 L217,161 L248,137 Q252,134 250,132 Q249,130 243,130 L85,130 L85,120 Q85,100 83,82 L144,82 L154,102 L195,87 Q198,86 198,83 Q199,78 187,69 L187,40 Q187,0 188,-14 Q188,-19 181,-21 Q166,-23 148,-23"/> 
            <glyph glyph-name="理" unicode="&#x7406;" horiz-adv-x="255" d=" M23,0 Q20,0 19,1 L4,44 Q16,44 30,47 Q31,47 32,47 L32,111 L9,111 L9,117 L32,117 L32,178 L8,178 L8,184 L58,184 L71,202 L94,185 Q94,191 94,198 L133,189 L194,189 L205,207 L239,193 Q243,191 243,188 Q243,184 233,175 L233,130 Q233,99 235,78 Q235,73 231,73 Q215,69 198,69 L198,82 L180,82 L180,41 L198,41 L213,63 L241,43 Q245,40 243,37 Q242,35 236,35 L180,35 L180,-8 L205,-8 L222,14 L253,-7 Q255,-9 255,-11 Q255,-14 248,-14 L67,-14 L67,-8 L146,-8 L146,35 L91,35 L91,41 L146,41 L146,82 L128,82 L128,76 Q128,71 124,70 Q109,66 93,66 Q94,84 94,111 L93,111 L67,111 L67,55 Q69,55 72,56 Q82,58 99,62 L101,59 Q65,30 30,11 Q29,0 23,0 M77,133 L94,119 L94,122 L94,155 L94,178 Q93,178 91,178 L67,178 L67,119 M180,133 L180,88 L198,88 L198,133 M198,183 L180,183 L180,139 L198,139 M128,133 L128,88 L146,88 L146,133 M128,183 L128,139 L146,139 L146,183"/> 
            <glyph glyph-name="电" unicode="&#x7535;" horiz-adv-x="246" d=" M131,-18 Q101,-18 101,10 L101,54 L63,54 L63,37 Q63,33 59,32 Q42,27 27,27 Q27,34 28,61 Q28,87 28,93 L28,122 Q28,147 28,170 L68,159 L101,159 L101,160 Q101,195 100,206 L143,202 Q149,202 148,199 Q149,193 137,189 L137,159 L171,159 L182,178 L218,163 Q221,162 221,158 Q220,153 211,146 L211,111 Q211,67 212,49 Q212,45 209,44 Q193,40 176,39 L176,54 L137,54 L137,23 Q135,11 147,12 L192,12 Q208,10 212,26 L227,66 L231,65 L233,29 Q233,19 240,15 Q246,11 246,4 Q244,-17 204,-18 M137,104 L137,60 L176,60 L176,104 M63,104 L63,60 L101,60 L101,104 M176,153 L137,153 L137,110 L176,110 M63,153 L63,110 L101,110 L101,153"/> 
            <glyph glyph-name="登" unicode="&#x767B;" horiz-adv-x="250" d=" M219,83 Q218,84 214,86 Q211,88 209,89 Q208,85 202,81 L202,74 Q202,60 202,45 Q203,39 197,38 Q184,35 166,35 L166,44 L86,44 L86,41 Q87,35 81,34 Q81,34 79,34 Q120,26 119,9 Q119,-1 105,-8 L140,-8 Q150,19 151,38 L194,26 Q199,24 199,21 Q199,16 186,14 Q174,1 159,-8 L190,-8 L207,14 L241,-7 Q245,-10 244,-12 Q242,-14 236,-14 L15,-14 L15,-8 L86,-8 Q82,-6 81,0 Q79,15 71,33 L72,33 Q60,31 50,31 Q51,54 51,70 L51,81 L51,89 Q32,78 11,70 L8,73 Q41,100 57,121 Q54,120 51,120 Q41,120 39,128 Q35,146 24,162 L26,164 Q70,159 71,142 Q80,158 86,177 L22,177 L22,184 L82,184 L94,202 L133,183 Q137,182 137,179 Q136,174 125,170 Q106,137 94,123 L129,123 L144,144 L164,129 Q145,154 133,203 L137,205 Q150,184 163,171 Q174,188 179,204 L208,187 Q212,185 212,182 Q212,182 211,180 L241,163 Q244,161 244,158 Q243,153 233,154 Q220,146 203,140 Q223,130 250,124 L249,119 Q231,111 219,83 M166,87 L86,87 L86,50 L166,50 M161,93 L171,111 L189,103 Q180,110 173,119 Q171,117 166,117 L88,117 Q75,104 68,99 L91,93 M170,163 Q181,154 191,146 Q205,165 210,180 Q207,178 200,178 Q186,169 170,163"/> 
            <glyph glyph-name="的" unicode="&#x7684;" horiz-adv-x="248" d=" M81,-5 L81,14 L56,14 L56,0 Q57,-9 47,-11 Q44,-12 34,-13 Q24,-14 20,-14 Q22,29 22,66 L22,99 Q22,131 21,162 L48,155 Q49,183 46,205 L88,199 Q94,199 93,196 Q92,190 82,187 Q72,168 60,153 L61,152 L76,152 L87,170 L119,156 Q123,154 123,151 Q123,148 116,141 Q115,139 114,138 L114,95 Q129,138 135,175 Q137,195 137,205 L185,195 Q189,195 189,191 Q190,185 176,181 Q170,166 163,153 L197,153 L208,173 L244,157 Q247,157 247,154 Q248,150 238,141 Q238,103 236,21 Q236,-21 177,-23 Q179,0 138,13 L139,17 L181,15 Q198,12 198,30 Q202,82 202,147 L160,147 Q151,131 141,117 Q189,100 188,78 Q186,55 165,53 Q152,53 151,65 Q145,94 136,111 Q127,98 115,87 L114,87 L114,81 Q114,75 114,47 Q115,12 115,2 Q115,0 109,-2 Q98,-5 81,-5 M56,81 L56,20 L81,20 L81,81 M81,146 L56,146 L56,87 L81,87"/> 
            <glyph glyph-name="目" unicode="&#x76EE;" horiz-adv-x="229" d=" M177,-23 L177,0 L79,0 L79,-11 Q80,-19 73,-19 Q57,-23 38,-24 Q38,-11 39,10 Q40,51 40,59 L40,135 Q40,145 38,189 Q39,184 38,199 L87,186 L171,186 L183,206 L225,190 Q229,189 228,186 Q229,181 217,173 L217,88 Q217,80 217,46 Q218,1 218,-11 Q218,-18 212,-19 Q192,-23 177,-23 M79,119 L79,65 L177,65 L177,119 M177,180 L79,180 L79,125 L177,125 M79,59 L79,5 L177,5 L177,59"/> 
            <glyph glyph-name="直" unicode="&#x76F4;" horiz-adv-x="252" d=" M221,12 L248,-5 Q252,-8 250,-11 Q248,-13 242,-13 L8,-13 L8,-7 L48,-7 L48,89 Q48,91 48,100 Q47,131 47,147 L90,137 L108,137 L109,166 L14,166 L14,172 L109,172 Q111,183 109,205 L153,202 Q157,202 158,199 Q158,193 147,189 L146,172 L194,172 L211,195 L242,174 Q246,171 245,168 Q243,166 237,166 L146,166 L144,137 L168,137 L179,155 L214,141 Q218,139 218,136 Q218,131 209,122 L209,-3 M84,94 L84,64 L172,64 L172,94 M84,58 L84,28 L172,28 L172,58 M172,131 L84,131 L84,100 L172,100 M84,22 L84,-7 L172,-7 L172,22"/> 
            <glyph glyph-name="看" unicode="&#x770B;" horiz-adv-x="250" d=" M26,173 L25,177 Q123,191 181,211 L215,189 Q219,186 219,184 Q219,178 212,178 Q208,178 200,181 Q169,177 138,175 Q135,162 131,151 L173,151 L188,172 L217,152 Q221,149 219,146 Q217,144 211,144 L129,144 Q123,131 117,119 L197,119 L214,142 L246,120 Q250,118 248,115 Q247,113 241,113 L113,113 Q106,100 96,89 L106,85 L169,85 L181,104 L218,88 Q224,85 223,82 Q224,77 212,70 L212,49 Q212,39 213,9 Q214,-4 214,-12 Q214,-19 207,-20 Q200,-22 180,-23 Q176,-24 174,-24 L174,-7 L100,-7 L100,-12 Q101,-19 92,-20 Q85,-21 70,-23 Q63,-24 61,-24 Q62,-1 62,28 L62,53 L62,57 Q38,40 7,25 L5,28 Q54,73 74,113 L12,113 L12,119 L78,119 Q79,122 82,129 Q86,139 88,144 L30,144 L30,151 L90,151 Q93,161 96,173 Q62,173 26,173 M174,79 L100,79 L100,56 L174,56 M100,20 L100,-1 L174,-1 L174,20 M100,50 L100,26 L174,26 L174,50"/> 
            <glyph glyph-name="知" unicode="&#x77E5;" horiz-adv-x="246" d=" M200,-15 L200,12 L167,12 L167,-6 Q167,-13 160,-14 Q145,-17 131,-17 Q132,16 132,78 L132,84 Q130,84 127,84 L86,84 Q84,70 81,58 Q130,40 129,17 Q127,-1 108,-3 Q97,-4 95,5 Q90,37 80,52 Q68,7 8,-28 L5,-25 Q46,21 51,84 L8,84 L8,90 L51,90 Q53,105 53,125 L53,152 L51,152 Q37,128 13,104 L10,106 Q30,167 31,208 L77,198 Q81,197 81,195 Q82,189 67,185 Q61,170 55,158 L88,158 L102,178 L128,158 Q131,156 130,154 Q128,152 123,152 L89,152 L89,126 Q89,107 87,90 L91,90 L105,110 L132,91 Q132,91 132,90 L132,121 Q132,171 131,185 L173,174 L195,174 L206,193 L242,178 Q246,176 246,174 Q246,168 235,161 L235,95 Q235,85 235,56 Q236,14 236,-5 Q237,-11 231,-11 Q224,-13 205,-15 Q202,-15 200,-15 M200,168 L167,168 L167,18 L200,18"/> 
            <glyph glyph-name="神" unicode="&#x795E;" horiz-adv-x="248" d=" M36,-24 Q36,-13 37,5 Q38,45 38,56 L38,72 Q25,61 8,52 L5,56 Q45,105 60,150 L7,150 L7,156 L59,156 L70,172 L102,153 L104,152 Q103,158 103,167 L141,156 L154,156 Q154,165 153,182 Q153,198 153,206 L192,202 Q198,202 198,199 Q198,193 188,188 L188,156 L201,156 L212,174 L245,160 Q248,158 248,156 Q248,150 239,144 L239,106 Q239,71 240,40 Q241,33 234,31 Q222,30 206,28 L206,45 L188,45 Q188,0 189,-12 Q189,-21 183,-21 Q170,-24 153,-24 Q153,-13 154,11 Q154,35 154,45 L136,45 L136,35 Q137,27 130,26 Q117,23 103,23 Q104,53 104,88 L104,121 Q104,127 104,146 Q102,144 94,141 Q84,122 71,106 L71,99 Q101,88 101,72 Q100,55 86,54 Q78,54 77,63 Q76,78 71,91 L71,-11 Q72,-21 63,-22 Q45,-24 36,-24 M48,163 Q36,162 35,175 Q34,191 28,205 L29,206 Q69,201 69,184 Q67,165 48,163 M154,51 L154,68 L154,98 L136,98 L136,51 M188,92 L188,51 L206,51 L206,98 L188,98 M206,150 L188,150 L188,104 L206,104 M154,104 L154,140 L154,150 L136,150 L136,104"/> 
            <glyph glyph-name="票" unicode="&#x7968;" horiz-adv-x="252" d=" M184,106 L188,103 L188,108 L65,108 L65,107 Q65,105 59,102 Q44,99 30,99 Q31,112 31,135 L31,146 Q31,153 31,168 L70,158 L85,158 L85,181 L13,181 L13,187 L204,187 L218,207 L247,189 Q252,186 250,183 Q248,181 241,181 L167,181 L167,158 L183,158 L193,176 L227,162 Q231,161 231,157 Q231,153 221,146 L221,137 Q221,130 221,111 Q221,108 218,106 Q206,103 188,103 L211,88 Q215,85 213,83 Q212,81 206,81 L47,81 L47,87 L170,87 M15,-18 L12,-14 Q47,17 60,46 L96,30 Q100,28 100,26 Q100,20 85,19 Q79,13 73,9 L103,8 Q112,7 111,19 L111,52 L15,52 L15,58 L197,58 L213,80 L244,59 Q248,57 246,54 Q245,52 239,52 L148,52 L148,49 Q148,20 149,4 Q151,-20 101,-24 Q102,0 71,4 L71,8 Q49,-6 15,-18 M209,-13 Q201,-14 195,-4 Q179,21 156,37 L157,40 Q227,33 229,8 Q227,-11 209,-13 M116,152 L116,114 L136,114 L136,152 M188,152 L167,152 L167,114 L188,114 M65,152 L65,114 L85,114 L85,152 M116,181 L116,158 L136,158 L136,181"/> 
            <glyph glyph-name="竞" unicode="&#x7ADE;" horiz-adv-x="250" d=" M9,-25 L8,-21 Q86,5 89,49 L81,49 L81,45 Q82,40 76,38 Q67,35 48,35 Q48,58 48,73 L48,89 Q48,97 48,111 L88,102 L170,102 L180,120 L215,106 Q221,104 220,101 Q219,95 210,89 L210,83 Q210,67 211,51 Q211,45 206,44 Q194,40 175,40 L175,49 L169,49 L169,24 Q168,13 178,14 L199,14 Q213,13 217,28 L230,64 L234,63 L236,30 Q235,19 242,16 Q249,10 249,3 Q246,-16 209,-17 L161,-17 Q133,-17 133,7 L133,49 L127,49 Q123,-19 9,-25 M215,151 L246,129 Q250,126 248,123 Q247,121 241,121 L11,121 L11,127 L83,127 Q79,130 78,136 Q76,151 68,166 L69,168 Q113,163 112,145 Q112,134 100,127 L143,127 Q151,152 152,171 L190,160 Q195,159 195,156 Q193,150 183,149 Q175,141 159,129 Q161,130 157,127 L198,127 M175,96 L81,96 L81,55 L175,55 M198,199 L227,178 Q231,176 229,173 Q228,171 222,171 L25,171 L25,177 L115,177 Q111,180 110,185 Q107,200 101,208 L103,209 Q147,211 146,191 Q146,182 134,177 L182,177"/> 
            <glyph glyph-name="童" unicode="&#x7AE5;" horiz-adv-x="250" d=" M37,31 Q38,46 38,71 L38,87 Q38,110 37,121 L82,112 L171,112 L180,129 L217,114 Q222,113 222,109 Q223,106 211,97 L211,84 Q211,83 211,77 Q212,60 212,48 Q214,42 206,39 Q205,38 202,38 Q199,37 197,37 L225,20 Q229,18 227,16 Q225,14 219,14 L142,14 L142,-11 L197,-11 L214,11 L246,-9 Q250,-12 248,-15 Q246,-17 240,-17 L10,-17 L10,-11 L105,-11 L105,14 L32,14 L32,20 L105,20 L105,43 L74,43 Q74,35 65,34 Q52,31 37,31 M212,157 L245,136 Q249,134 248,131 Q246,129 240,129 L10,129 L10,135 L80,135 Q74,138 73,145 Q72,159 66,169 L67,170 Q109,170 109,152 Q108,139 95,135 L136,135 Q142,161 142,173 L21,173 L21,179 L108,179 Q105,181 104,186 Q102,198 95,208 L96,210 Q144,212 143,194 Q143,184 132,179 L182,179 L198,201 L232,180 Q236,177 234,175 Q233,173 227,173 L145,173 L183,163 Q187,162 187,159 Q188,153 176,153 Q164,143 150,135 L197,135 M175,35 L175,43 L142,43 L142,20 L180,20 L192,36 Q189,36 183,35 Q177,35 175,35 M175,106 L142,106 L142,80 L175,80 M74,106 L74,80 L105,80 L105,106 M142,73 L142,49 L175,49 L175,73 M74,73 L74,49 L105,49 L105,73"/> 
            <glyph glyph-name="米" unicode="&#x7C73;" horiz-adv-x="249" d=" M9,-7 L7,-4 Q55,42 87,104 L15,104 L15,111 L107,111 L107,144 Q107,180 106,205 L152,201 Q156,201 156,198 Q155,192 145,187 L145,111 L191,111 L209,136 L242,111 Q246,109 245,106 Q243,104 237,104 L153,104 Q187,57 249,38 L248,34 Q228,29 211,0 Q159,36 146,104 L145,104 L145,-13 Q146,-21 137,-22 Q120,-24 105,-24 Q105,-15 106,0 Q107,48 107,65 Q72,22 9,-7 M154,114 L150,117 Q170,155 175,192 L218,174 Q223,172 223,169 Q224,163 209,162 Q188,136 154,114 M68,119 Q58,119 55,130 Q48,162 35,185 L38,188 Q93,168 93,144 Q91,121 68,119"/> 
            <glyph glyph-name="精" unicode="&#x7CBE;" horiz-adv-x="253" d=" M7,4 L4,6 Q31,55 41,107 L9,107 L9,113 L46,113 L46,137 Q42,124 30,123 Q22,123 21,135 Q18,160 10,179 L13,180 Q43,161 46,146 L46,159 Q46,189 45,205 L83,202 Q89,200 89,198 Q89,193 78,188 L78,140 Q87,166 90,182 L120,166 Q124,164 124,161 Q124,156 113,155 Q99,140 78,123 L78,113 L81,113 L93,130 L111,117 L153,117 L153,143 L117,143 L117,149 L153,149 L153,165 L153,173 L111,173 L111,179 L153,179 Q153,194 152,206 L193,203 Q199,203 199,199 Q199,194 188,188 L188,179 L202,179 L216,198 L243,180 Q247,177 245,175 Q244,173 238,173 L188,173 L188,149 L196,149 L210,168 L237,150 Q241,147 240,145 Q238,143 232,143 L188,143 L188,117 L208,117 L222,136 L249,118 Q253,115 251,113 Q249,111 243,111 L117,111 Q118,108 110,107 L78,107 L78,88 Q111,75 112,60 Q111,42 95,40 Q86,40 85,51 Q85,53 84,56 Q82,71 78,80 L78,-13 Q79,-20 69,-22 Q57,-24 45,-24 Q46,0 46,48 Q30,22 7,4 M113,101 L152,93 L193,93 L202,109 L236,97 Q241,95 241,92 Q240,86 232,80 L232,60 Q232,30 233,3 Q235,-21 189,-24 Q190,-3 157,3 L158,7 L187,6 Q198,5 197,17 L197,29 L147,29 L147,-13 Q147,-20 141,-21 Q128,-24 112,-24 Q113,3 113,30 L113,60 Q113,74 113,101 M147,58 L147,35 L197,35 L197,58 M197,87 L147,87 L147,64 L197,64"/> 
            <glyph glyph-name="索" unicode="&#x7D22;" horiz-adv-x="252" d=" M101,-26 Q101,-4 77,2 L78,6 L99,5 Q108,5 108,13 L108,47 Q106,47 103,46 Q79,44 49,42 Q47,33 42,33 Q38,33 37,39 L29,69 Q49,68 65,74 Q74,78 96,90 Q103,93 106,95 Q100,94 88,92 Q75,89 67,88 Q66,79 60,79 Q56,79 55,84 L48,112 Q66,113 72,120 Q80,128 84,136 L49,136 Q49,135 50,132 Q50,129 50,127 Q48,100 24,98 Q9,99 8,116 Q8,126 15,131 Q32,141 36,162 L39,162 Q45,151 47,142 L105,142 L105,167 L105,168 L16,168 L16,175 L105,175 L104,206 L150,202 Q155,202 155,199 Q156,194 144,188 L144,175 L191,175 L208,197 L238,176 Q242,173 240,170 Q239,168 233,168 L144,168 L144,142 L196,142 L210,161 L247,136 Q251,133 251,130 Q252,123 237,124 Q220,115 195,108 L192,110 L199,136 L136,136 Q121,126 90,112 L132,113 Q146,122 153,133 L190,112 Q190,112 191,111 Q193,110 193,108 Q192,101 177,103 Q174,102 169,99 Q122,77 91,68 L178,69 Q173,77 160,90 L162,92 Q225,80 226,55 Q224,36 207,33 Q197,33 192,43 Q190,46 187,53 Q186,57 185,58 Q166,55 146,52 L146,39 Q146,16 147,0 Q147,-22 101,-26 M207,-20 Q199,-21 192,-9 Q180,10 153,33 L155,36 Q228,27 228,1 Q226,-18 207,-20 M13,-22 L10,-18 Q45,11 60,40 L99,24 Q102,23 102,20 Q102,15 89,15 Q61,-7 13,-22"/> 
            <glyph glyph-name="纪" unicode="&#x7EAA;" horiz-adv-x="248" d=" M191,82 L191,102 L147,102 L147,29 Q146,16 156,17 L190,17 Q207,16 211,30 L228,77 L232,76 L233,36 Q232,24 239,20 Q248,15 248,6 Q245,-14 209,-15 L143,-15 Q110,-16 111,12 L111,74 Q111,100 110,118 L147,108 L191,108 L191,177 L108,177 L108,183 L185,183 L197,202 L232,188 Q237,186 237,183 Q236,177 227,171 L227,145 Q227,120 227,91 Q227,86 223,86 Q207,82 191,82 M32,33 Q29,34 28,37 L18,71 Q33,74 36,79 Q48,98 56,113 Q49,110 36,105 Q29,103 26,102 Q25,92 20,92 Q17,93 16,96 L6,130 Q16,131 19,137 Q38,169 45,206 L86,192 Q90,191 90,188 Q91,182 76,180 Q57,153 36,131 L65,131 L67,137 Q74,152 77,165 L118,148 Q122,148 122,144 Q121,138 107,136 Q82,100 54,73 L106,76 L108,71 Q71,53 40,42 Q38,33 32,33 M26,-20 Q23,-21 22,-17 L8,22 Q11,22 17,23 Q28,24 37,25 Q41,26 51,27 Q90,33 107,36 L109,31 Q71,6 34,-8 Q33,-19 26,-20"/> 
            <glyph glyph-name="纷" unicode="&#x7EB7;" horiz-adv-x="255" d=" M162,-23 Q164,1 134,10 L134,14 L166,13 Q179,10 181,30 Q184,64 184,99 L157,99 L157,94 Q161,3 62,-26 L61,-22 Q124,22 123,92 L123,99 L113,99 L113,100 Q107,94 94,84 Q95,85 91,82 L88,86 Q113,132 120,167 Q124,185 124,195 L167,184 Q171,183 171,180 Q171,175 159,172 Q142,130 118,105 L179,105 L190,124 L201,119 Q183,143 175,190 Q175,192 174,197 Q173,204 172,206 L190,204 Q192,204 192,201 Q190,197 184,194 Q202,149 255,133 L254,128 Q237,120 229,91 Q226,92 223,95 L221,94 Q221,92 221,89 Q219,48 217,17 Q216,-20 162,-23 M30,36 Q27,36 26,41 L16,75 Q27,75 32,83 Q43,98 54,120 Q51,119 46,117 Q43,115 25,109 Q24,99 19,99 Q16,100 15,103 L5,135 Q15,136 19,145 Q37,177 42,208 L81,195 Q86,194 86,191 Q85,185 72,183 Q55,157 35,136 L61,135 Q65,144 70,162 Q71,167 72,169 L108,154 Q113,152 113,149 Q113,144 101,142 Q79,108 48,76 L96,79 L97,75 Q95,74 93,73 Q54,52 37,46 Q36,35 30,36 M23,-15 Q20,-15 18,-11 L6,26 Q18,26 35,29 Q50,30 100,41 L102,37 Q66,11 29,-4 Q29,-15 23,-15"/> 
            <glyph glyph-name="线" unicode="&#x7EBF;" horiz-adv-x="250" d=" M22,93 Q19,93 17,98 L7,130 Q19,132 24,142 Q38,172 43,207 L86,193 Q89,192 89,189 Q89,184 76,181 Q56,151 36,131 L62,132 Q71,152 73,169 L115,153 Q119,152 119,149 Q120,144 105,142 Q104,139 102,137 L137,142 Q136,154 136,166 Q136,188 133,206 L177,202 Q182,202 182,199 Q182,194 172,189 Q172,165 172,146 L194,150 L202,163 Q198,165 196,172 Q193,185 186,195 L187,198 Q227,197 227,181 Q227,172 218,166 L237,156 Q241,154 240,151 Q239,149 234,148 L173,140 Q173,116 176,100 L201,103 L215,128 L246,110 Q249,108 248,106 Q247,103 243,103 L177,93 Q180,75 185,62 L186,62 Q201,79 207,94 L242,76 Q246,75 246,71 Q245,66 233,66 Q219,48 201,34 Q204,32 208,27 Q213,22 215,19 Q217,16 219,17 Q221,18 222,22 L239,55 L243,54 L241,21 Q239,11 244,6 Q250,1 249,-6 Q248,-23 231,-24 Q207,-24 188,-5 Q178,3 170,13 Q128,-9 67,-21 L66,-17 Q121,7 157,35 Q147,57 142,88 L98,82 L97,88 L141,94 Q138,113 137,135 L103,131 L102,137 Q79,101 50,73 L111,76 L112,72 Q78,57 38,43 Q36,31 30,31 Q27,32 26,37 L15,72 Q30,73 37,82 Q48,99 55,117 Q50,114 39,109 Q32,106 29,104 Q27,93 22,93 M25,-22 Q22,-21 22,-18 L7,21 Q19,21 37,24 Q64,27 117,38 L118,34 Q74,7 33,-8 Q33,-21 25,-22"/> 
            <glyph glyph-name="绎" unicode="&#x7ECE;" horiz-adv-x="253" d=" M229,94 Q189,105 166,118 Q139,101 83,89 L82,93 Q122,115 144,135 Q127,153 117,186 L100,186 L100,192 L183,192 L197,208 L229,188 Q233,185 233,184 Q233,178 221,175 Q209,156 196,142 Q218,136 252,135 L252,131 Q237,124 229,94 M31,36 Q28,36 27,40 L15,75 Q29,76 34,84 Q47,103 57,122 Q42,114 27,108 Q25,97 20,97 Q17,97 16,100 L5,133 Q15,134 18,140 Q29,161 35,184 Q39,197 40,207 L81,196 Q85,195 85,193 Q85,187 72,183 Q63,168 44,143 Q39,137 37,134 L62,135 Q66,145 72,164 Q73,167 73,168 L114,153 Q117,152 117,150 Q117,143 103,141 Q83,108 50,76 L95,80 L97,76 Q61,56 38,46 Q37,36 31,36 M208,92 L237,73 Q239,70 238,69 Q237,67 232,67 L180,67 L180,33 L180,32 L205,32 L220,54 L250,33 Q253,30 251,28 Q250,26 244,26 L180,26 Q180,9 182,-14 Q182,-22 175,-22 Q163,-25 141,-25 Q143,12 143,26 L93,26 L93,32 L143,32 L143,67 L101,67 L101,73 L143,73 L142,104 L187,100 Q192,100 192,97 Q192,92 180,86 L180,73 L194,73 M26,-15 Q23,-16 23,-13 L9,27 Q17,27 37,30 Q35,30 39,30 Q53,32 85,39 Q94,41 97,42 L99,38 Q69,15 33,-4 Q33,-15 26,-15 M185,186 L124,186 Q146,162 162,153 Q175,168 185,186"/> 
            <glyph glyph-name="给" unicode="&#x7ED9;" horiz-adv-x="255" d=" M190,-23 L190,-3 L140,-3 L140,-13 Q140,-20 132,-21 Q115,-24 104,-24 Q105,-3 105,17 L105,47 Q105,55 105,82 L145,72 L185,72 L197,91 L231,77 Q237,74 237,72 Q238,66 226,59 L226,30 Q226,26 226,16 Q227,0 227,-12 Q227,-19 221,-20 Q207,-23 190,-23 M31,37 Q27,37 26,41 L15,74 Q31,76 37,88 Q48,106 55,122 Q54,121 51,119 Q36,110 27,106 Q26,97 20,97 Q18,97 16,101 L5,130 Q19,134 23,147 Q34,182 36,205 L78,193 Q82,193 82,189 Q82,184 69,182 Q54,155 34,132 L58,131 Q65,151 68,168 L108,153 Q112,152 112,149 Q111,143 98,141 Q77,106 53,78 L102,81 L102,77 Q67,57 38,46 Q35,37 31,37 M228,94 Q185,123 169,175 Q142,118 83,90 L80,93 Q130,152 139,208 L184,197 Q189,196 189,193 Q189,187 174,185 Q209,145 255,135 L254,131 Q237,124 228,94 M190,66 L140,66 L140,2 L190,2 M24,-15 Q21,-15 20,-11 L7,24 Q54,29 104,39 L105,36 Q57,6 31,-4 Q29,-16 24,-15 M180,129 L206,112 Q209,109 208,107 Q206,105 201,105 L121,105 L121,111 L167,111"/> 
            <glyph glyph-name="续" unicode="&#x7EED;" horiz-adv-x="252" d=" M67,-24 L65,-20 Q137,8 148,39 L87,39 L87,45 L151,45 Q158,66 158,99 Q158,110 158,120 L198,117 Q202,117 203,114 Q202,107 194,104 Q194,69 187,45 L201,45 L218,68 L248,46 Q252,43 250,41 Q249,39 243,39 L185,39 Q182,31 178,25 Q246,19 243,-1 Q241,-22 223,-24 Q217,-24 211,-18 Q196,3 175,19 Q151,-11 67,-24 M31,36 Q28,37 27,40 L16,76 Q30,77 34,85 Q45,100 51,115 Q38,109 27,105 Q27,95 22,94 Q18,94 17,99 L6,132 Q15,135 17,140 Q26,156 36,184 Q39,196 41,207 L85,193 Q88,192 88,189 Q87,183 74,181 Q52,150 32,132 L59,133 Q61,136 62,140 Q63,143 65,149 Q69,162 70,168 L110,153 Q114,153 114,149 Q114,142 100,140 Q68,94 49,78 L96,80 L98,76 Q61,55 37,47 Q37,36 31,36 M205,95 L202,98 L207,127 L100,127 L100,133 L141,133 L141,164 L106,164 L106,170 L141,170 Q141,199 140,205 L183,202 Q187,201 187,198 Q187,194 177,189 L177,170 L195,170 L210,191 L238,169 Q241,167 240,166 Q238,164 234,164 L177,164 L177,133 L204,133 L216,150 L248,129 Q251,128 251,125 Q252,120 240,118 Q226,107 205,95 M24,-19 Q22,-19 21,-17 Q20,-16 20,-16 L7,27 Q34,26 103,35 L105,31 Q72,10 32,-6 Q30,-19 24,-19 M120,50 Q111,50 110,58 Q105,77 98,87 L99,89 Q140,84 139,67 Q137,51 120,50 M136,84 Q129,84 126,92 Q122,105 111,118 L112,120 Q155,118 154,102 Q152,86 136,84"/> 
            <glyph glyph-name="综" unicode="&#x7EFC;" horiz-adv-x="254" d=" M20,95 Q18,95 16,99 Q18,95 15,100 L5,131 Q15,133 19,142 Q34,174 39,207 L80,193 Q84,193 84,188 Q83,184 69,181 Q54,157 34,132 L54,133 Q62,154 64,166 L98,154 Q100,156 101,157 Q114,166 116,183 L119,183 Q120,180 123,176 Q126,171 127,168 L157,168 Q153,171 152,178 Q148,196 142,204 L144,206 Q186,203 186,185 Q186,173 173,168 L206,168 L220,186 L251,164 Q254,162 254,159 Q253,153 240,153 Q238,152 235,150 Q226,144 214,138 L227,129 Q230,127 229,125 Q227,123 223,123 L118,123 L118,127 Q114,125 109,125 Q96,127 94,140 L94,141 L93,141 Q74,109 49,79 L94,82 L95,78 Q60,58 35,49 Q33,40 28,39 Q25,39 24,44 L13,76 Q28,79 32,86 Q40,99 47,114 Q40,111 26,104 Q25,96 20,95 M218,113 L246,91 Q249,89 248,86 Q246,84 242,84 L185,84 L185,57 Q185,39 186,3 Q188,-20 140,-24 Q142,0 111,7 L111,9 Q102,1 76,-13 Q73,-14 72,-15 L70,-12 Q100,25 110,67 L148,54 L149,53 L149,84 L95,84 L95,91 L202,91 M200,149 L205,145 L210,162 L129,162 Q130,155 130,149 Q130,136 120,129 L185,129 M26,-10 Q22,-11 20,-5 L5,28 Q40,33 97,49 L98,45 Q61,16 31,0 Q31,-10 26,-10 M227,-4 Q214,-4 212,7 Q206,34 187,63 L189,65 Q247,40 246,16 Q245,-2 227,-4 M137,10 Q148,11 149,20 L149,45 Q145,44 139,42 Q128,24 113,11"/> 
            <glyph glyph-name="缤" unicode="&#x7F24;" horiz-adv-x="254" d=" M19,92 Q16,92 15,96 L5,128 Q16,130 21,139 Q35,171 40,205 L79,192 Q83,191 83,187 Q84,183 71,180 Q54,152 34,129 L56,129 Q57,133 60,140 Q64,152 65,158 L92,147 Q92,148 92,150 Q91,152 91,153 Q91,162 100,167 Q112,174 115,189 L118,189 Q124,180 127,171 L161,171 Q154,174 153,182 Q151,194 144,205 L145,207 Q188,207 187,189 Q186,175 171,171 L205,171 L219,189 L250,168 Q251,167 252,167 Q254,166 254,163 Q254,157 241,157 Q226,149 211,144 L223,135 Q226,133 226,130 Q226,124 209,128 Q178,124 145,124 L145,97 L190,97 L205,117 L231,99 Q235,95 234,93 Q233,91 227,91 L201,91 L201,44 L203,44 L218,65 L246,46 Q250,43 249,41 Q248,38 242,38 L82,38 L82,44 L112,44 L112,90 Q112,97 111,115 Q111,132 111,138 Q109,138 106,138 Q106,138 104,138 Q103,134 92,132 Q76,104 48,74 L99,79 L100,74 Q67,55 37,44 Q35,34 30,34 Q27,35 26,38 L14,71 Q29,74 35,83 Q43,96 49,111 Q46,110 41,108 Q31,104 25,102 Q25,92 19,92 M74,-24 L72,-21 Q110,3 130,34 L165,12 Q168,10 168,7 Q167,1 154,3 Q123,-15 74,-24 M22,-17 Q19,-18 17,-12 L6,23 Q39,24 95,33 L96,29 Q59,5 29,-5 Q29,-17 22,-17 M223,-23 Q214,-23 210,-15 Q194,10 172,27 L174,30 Q240,19 241,-2 Q239,-21 223,-23 M209,165 L128,165 Q128,163 128,161 Q128,146 114,139 L146,133 Q180,146 193,158 L204,150 M145,91 L145,44 L168,44 L168,91"/> 
            <glyph glyph-name="聚" unicode="&#x805A;" horiz-adv-x="251" d=" M11,13 L10,16 Q55,42 74,64 Q59,63 44,63 L43,67 Q144,88 170,108 L200,83 Q203,81 202,79 Q199,72 189,77 Q171,74 153,71 Q166,54 182,43 Q195,58 204,77 L237,57 Q241,54 241,51 Q241,45 226,48 Q210,40 192,37 Q214,25 251,21 L251,17 Q231,11 220,-17 Q160,5 147,70 Q147,70 146,70 L146,52 Q146,43 147,16 Q147,-7 147,-14 Q147,-21 140,-22 Q127,-25 109,-25 L110,10 Q108,7 99,8 Q60,-11 9,-20 L8,-16 Q60,11 77,32 L107,16 Q110,14 110,12 Q110,33 110,43 L110,66 Q104,65 93,65 Q82,64 76,64 L103,48 Q106,47 106,45 Q107,40 94,41 Q58,21 11,13 M120,206 L147,188 Q151,186 150,184 Q148,182 143,182 L126,182 L126,133 L126,124 Q127,124 129,124 Q135,126 142,126 L143,123 Q135,119 126,116 Q126,107 127,100 Q127,93 119,91 Q108,89 94,89 L94,104 Q79,99 49,90 Q37,87 31,85 Q31,75 25,74 Q22,74 22,79 L12,115 Q22,115 32,116 L32,182 L14,182 L14,187 L107,187 M223,90 Q213,89 208,99 Q204,103 197,112 Q193,117 191,119 Q168,104 131,98 L130,101 Q157,118 173,134 Q159,146 138,157 L140,160 Q155,157 179,151 Q182,150 184,150 Q190,161 196,174 L141,174 L141,179 L193,179 L205,196 L239,177 Q243,174 243,172 Q242,166 230,164 Q222,150 213,138 Q239,126 240,111 Q239,92 223,90 M65,158 L65,140 L94,140 L94,158 M65,182 L65,163 L94,163 L94,182 M65,118 Q78,120 94,121 L94,134 L65,134"/> 
            <glyph glyph-name="育" unicode="&#x80B2;" horiz-adv-x="248" d=" M211,198 L244,175 Q248,172 247,170 Q245,167 239,167 L134,167 Q110,152 78,138 L174,139 Q162,149 147,158 L149,161 Q230,156 228,131 Q226,113 208,110 Q198,110 193,117 Q187,126 180,133 Q125,121 51,112 L50,110 L90,101 L167,101 L177,119 L215,104 Q215,104 216,104 Q218,103 218,101 Q219,96 208,88 L208,66 Q208,61 208,48 Q209,22 209,5 Q213,-18 161,-24 Q162,0 122,7 L123,11 L159,10 Q172,9 171,22 L171,33 L84,33 L84,-14 Q84,-16 83,-19 Q83,-18 82,-20 Q66,-24 46,-24 Q46,-12 47,16 Q47,30 47,33 L47,54 Q47,75 46,103 Q45,102 44,102 Q39,102 38,108 L30,140 Q55,139 61,147 Q68,153 78,167 L10,167 L10,173 L114,173 Q111,176 111,181 Q110,192 101,205 L103,207 Q154,208 151,189 Q151,180 138,173 L194,173 M171,95 L84,95 L84,70 L171,70 M84,64 L84,39 L171,39 L171,64"/> 
            <glyph glyph-name="艺" unicode="&#x827A;" horiz-adv-x="247" d=" M104,-15 Q42,-15 41,21 Q43,52 131,105 L27,105 L27,111 L132,111 L150,128 L187,103 Q190,101 190,97 Q190,89 173,90 Q85,44 80,25 Q79,16 108,16 L175,16 Q201,14 207,36 L221,72 L226,71 L226,38 Q227,24 233,20 Q242,14 241,7 Q238,-14 195,-15 M66,125 Q67,133 67,158 L67,162 L9,162 L9,168 L67,168 L67,178 Q67,194 67,204 L107,202 Q113,202 113,198 Q113,194 101,189 L101,168 L144,168 L144,172 Q144,195 143,205 L184,202 Q189,202 189,199 Q190,193 178,189 L178,177 L178,168 L197,168 L213,191 L243,170 Q247,167 246,165 Q244,162 237,162 L178,162 L179,138 Q179,134 176,134 Q156,130 144,130 L144,162 L101,162 L101,134 Q101,129 97,128 Q82,125 66,125"/> 
            <glyph glyph-name="节" unicode="&#x8282;" horiz-adv-x="251" d=" M169,-3 Q170,21 136,30 L137,35 L168,33 Q183,33 183,48 L183,110 L126,110 L126,61 Q126,41 127,-15 Q127,-20 123,-21 Q105,-24 87,-24 Q88,22 88,61 L88,110 L26,110 L26,116 L177,116 L188,136 L227,121 Q231,119 231,115 Q232,109 220,102 L220,83 Q220,79 220,63 Q221,39 221,29 Q223,0 169,-3 M66,129 Q66,138 67,154 Q67,162 67,164 L67,165 L8,165 L8,172 L67,172 L67,173 Q67,192 66,205 L106,202 Q112,202 112,198 Q113,194 101,189 L101,172 L144,172 Q144,184 144,205 L183,202 Q189,202 189,198 Q189,192 179,188 L179,172 L196,172 L214,197 L247,173 Q251,170 249,167 Q248,165 242,165 L179,165 Q179,150 179,140 Q179,134 175,134 Q160,131 144,130 L144,165 L101,165 L101,138 Q101,132 96,132 Q83,129 66,129"/> 
            <glyph glyph-name="莱" unicode="&#x83B1;" horiz-adv-x="251" d=" M70,145 Q70,164 70,172 L10,172 L10,178 L70,178 L70,179 Q70,189 70,205 L109,202 Q113,202 114,199 Q114,195 104,190 L104,178 L148,178 Q148,189 148,205 L188,202 Q193,202 193,199 Q193,195 183,190 L183,182 L183,178 L198,178 L213,199 L244,178 Q247,176 246,174 Q244,172 239,172 L183,172 Q183,165 184,156 Q184,151 180,151 Q171,148 155,146 Q152,146 151,146 Q150,146 148,144 Q145,142 143,141 L143,132 L188,132 L204,153 L233,133 Q237,130 235,127 Q234,125 228,125 L143,125 L143,72 L152,72 Q164,99 167,120 L207,107 Q212,105 212,103 Q213,97 198,96 Q180,80 164,72 L196,72 L212,95 L243,74 Q247,71 246,69 Q244,66 238,66 L150,66 Q182,35 251,25 L249,21 Q234,15 222,-15 Q163,8 144,66 L143,66 L143,40 Q143,3 144,-16 Q144,-22 140,-22 Q124,-25 107,-25 Q108,-2 108,32 L108,36 Q67,-1 7,-16 L5,-13 Q62,21 89,66 L14,66 L14,72 L108,72 L108,125 L22,125 L22,132 L108,132 L108,157 L146,154 Q148,154 148,153 L148,172 L104,172 L104,154 Q104,150 99,148 Q96,148 91,147 Q76,145 70,145 M74,74 Q63,74 61,86 Q57,105 49,116 L51,118 Q96,113 95,94 Q93,76 74,74"/> 
            <glyph glyph-name="视" unicode="&#x89C6;" horiz-adv-x="249" d=" M78,-26 L75,-22 Q120,12 136,43 Q152,73 152,120 L152,126 Q152,152 151,161 L191,157 Q197,157 196,154 Q195,148 185,145 L185,125 Q185,100 182,81 L199,79 L199,182 L140,182 L140,68 Q140,62 135,61 Q117,58 107,58 Q108,89 108,136 L108,154 Q108,185 107,197 L143,188 L195,188 L205,205 L238,192 Q242,191 242,188 Q242,184 232,176 L232,146 Q232,103 233,73 Q233,69 229,67 Q223,65 204,63 Q201,63 199,63 L199,71 L196,68 L196,20 Q195,11 203,12 L208,12 Q217,11 220,22 L232,58 L236,57 L237,28 Q236,18 243,15 Q249,10 249,4 Q249,-17 216,-17 L192,-17 Q163,-18 164,5 L164,33 Q143,0 78,-26 M36,-24 Q37,13 37,56 L37,68 Q24,58 6,47 L4,50 Q48,107 61,150 L9,150 L9,156 L59,156 L73,174 L104,155 Q107,152 107,151 Q107,145 96,142 Q85,118 70,100 L70,94 Q106,83 105,66 Q103,50 88,48 Q78,48 77,57 Q76,76 70,88 L70,-12 Q71,-21 62,-22 Q54,-24 36,-24 M47,161 Q35,161 34,173 Q34,191 27,204 L28,206 Q71,198 69,182 Q67,163 47,161"/> 
            <glyph glyph-name="赛" unicode="&#x8D5B;" horiz-adv-x="251" d=" M26,139 Q12,141 10,158 Q10,169 19,174 Q34,181 40,197 L43,197 Q48,189 50,181 L109,181 Q108,182 108,185 Q107,197 98,207 L100,209 Q146,210 144,194 Q144,186 136,181 L197,181 L211,199 L246,177 Q249,174 249,172 Q250,166 236,166 Q222,160 207,157 L218,150 Q222,147 220,145 Q219,143 213,143 L177,143 L177,125 L181,125 L192,141 L213,126 Q217,124 215,121 Q214,119 208,119 L177,119 L177,101 L202,101 L215,120 L240,101 Q244,99 243,97 Q241,95 236,95 L169,95 Q195,79 251,76 L250,71 Q236,64 228,36 Q227,36 226,37 Q207,45 193,53 Q193,42 194,29 Q194,25 188,23 Q171,21 161,22 L161,69 L91,69 L91,22 Q91,16 87,15 Q72,12 58,12 L59,52 Q38,42 11,33 L9,38 Q53,67 73,95 L17,95 L17,101 L75,101 L75,119 L50,119 L50,125 L75,125 L75,135 L75,143 L43,143 L43,147 Q35,139 26,139 M203,-25 Q195,-26 188,-18 Q169,-1 135,12 Q120,-19 26,-24 L25,-19 Q110,1 108,37 Q110,52 108,63 L148,59 Q154,59 153,56 Q154,51 143,46 Q143,30 139,19 Q179,18 198,14 Q224,9 223,-4 Q221,-23 203,-25 M195,165 L199,162 L201,175 L52,175 Q52,171 52,168 Q52,157 45,149 L74,149 Q74,160 74,168 L109,165 Q115,165 115,162 Q115,157 106,154 L106,149 L145,149 Q145,160 145,169 L180,165 Q187,165 187,162 Q187,157 177,154 L177,149 L184,149 M119,95 Q108,84 97,75 L158,75 L165,83 Q161,89 158,95 M106,119 L106,101 L145,101 L145,119 M145,125 L145,136 L145,143 L106,143 L106,125"/> 
            <glyph glyph-name="足" unicode="&#x8DB3;" horiz-adv-x="251" d=" M201,92 L234,67 Q237,65 236,62 Q234,60 229,60 L150,60 L150,17 Q165,16 185,16 Q225,16 251,20 L251,16 Q235,10 229,-20 Q216,-20 184,-20 Q96,-22 78,33 Q63,-5 10,-26 L7,-23 Q51,25 49,87 L95,78 Q101,78 100,73 Q99,67 88,64 Q85,53 82,44 Q97,29 113,24 L113,114 L81,114 L81,107 Q82,99 74,98 Q61,95 42,95 Q42,109 43,127 Q43,137 43,140 L43,158 Q43,165 43,176 Q42,189 42,197 L88,186 L170,186 L180,206 L218,192 Q224,191 224,186 Q225,182 213,174 L213,155 Q213,127 214,111 Q214,104 209,103 Q195,100 175,100 L175,114 L150,114 L150,66 L183,66 M175,180 L81,180 L81,121 L175,121"/> 
            <glyph glyph-name="过" unicode="&#x8FC7;" horiz-adv-x="251" d=" M28,-22 Q26,-22 23,-18 L5,18 Q24,23 38,31 L38,104 L8,104 L8,110 L34,110 L45,130 L82,114 Q86,113 86,110 Q86,106 75,97 L75,37 Q70,13 153,14 Q203,14 251,21 L251,16 Q237,9 234,-16 Q210,-19 170,-19 Q120,-19 99,-10 Q78,-2 65,26 Q55,11 34,-9 Q34,-21 28,-22 M219,175 L246,155 Q250,152 248,149 Q247,147 241,147 L205,147 L205,128 Q205,92 206,54 Q208,25 154,19 Q158,47 119,56 L120,60 L156,59 Q168,57 167,71 L167,147 L84,147 L84,153 L167,153 L166,206 L209,202 Q216,202 216,198 Q215,191 205,186 L205,155 M54,145 Q42,144 40,157 Q35,183 23,199 L25,202 Q78,193 78,170 Q75,148 54,145 M125,73 Q113,73 112,85 Q109,106 97,129 L99,132 Q148,117 148,96 Q146,75 125,73"/> 
            <glyph glyph-name="这" unicode="&#x8FD9;" horiz-adv-x="251" d=" M202,24 Q192,23 184,36 Q175,52 165,64 Q139,39 90,23 Q107,16 141,16 Q183,15 251,22 L251,18 Q236,13 233,-15 Q196,-17 137,-17 Q77,-17 63,25 Q62,23 59,20 Q44,0 34,-9 Q34,-22 29,-22 Q26,-23 24,-17 L4,19 Q16,22 37,34 L37,107 L8,107 L8,113 L32,113 L42,133 L78,118 Q84,115 83,112 Q83,106 73,100 L73,42 Q73,33 84,26 Q123,53 145,87 Q125,108 95,128 L97,131 Q98,131 101,130 Q136,118 155,107 Q165,129 169,154 L81,154 L81,161 L193,161 L211,186 L245,162 Q249,159 247,156 Q246,154 240,154 L207,154 Q201,115 186,91 Q222,70 223,48 Q222,27 202,24 M54,144 Q42,144 39,158 Q32,188 23,200 L24,202 Q78,191 77,168 Q75,146 54,144 M153,163 Q141,163 139,175 Q135,195 127,205 L129,207 Q179,205 178,184 Q176,165 153,163"/> 
            <glyph glyph-name="追" unicode="&#x8FFD;" horiz-adv-x="251" d=" M97,19 Q97,40 98,71 Q98,83 98,86 L98,145 Q98,152 97,163 Q97,174 97,180 L135,169 Q137,193 135,206 L173,201 Q179,200 179,197 Q179,192 169,189 Q163,181 148,168 L185,168 L196,187 L231,173 Q235,171 235,168 Q235,163 225,157 L225,146 Q225,131 226,121 Q226,116 220,114 Q219,114 218,114 Q201,112 190,112 L190,123 L133,123 L133,92 L190,92 L200,111 L236,97 Q240,95 240,92 Q240,86 230,81 L230,66 Q230,45 231,35 Q231,29 225,28 Q211,25 196,25 L196,41 L133,41 L133,30 Q133,24 127,23 Q114,19 97,19 M25,-27 Q23,-28 20,-22 L5,13 Q18,16 35,28 L35,102 L8,102 L8,108 L29,108 L39,127 L76,112 Q80,111 80,108 Q80,103 70,97 L70,32 Q69,14 131,14 Q185,12 251,21 L251,16 Q236,8 234,-16 Q191,-19 154,-19 Q77,-20 60,22 Q48,2 30,-15 Q30,-27 25,-27 M196,86 L133,86 L133,48 L196,48 M190,162 L133,162 L133,130 L190,130 M50,145 Q39,145 37,156 Q33,182 21,199 L23,201 Q73,192 74,169 Q72,147 50,145"/> 
            <glyph glyph-name="都" unicode="&#x90FD;" horiz-adv-x="254" d=" M200,10 Q200,32 184,38 L184,-14 Q184,-22 178,-23 Q158,-25 147,-25 Q149,28 149,70 L149,120 L109,120 Q96,104 79,90 L97,90 L107,106 L139,93 Q142,93 142,90 Q143,86 134,79 L134,51 Q134,28 135,3 Q135,-2 128,-5 Q116,-8 101,-8 L101,5 L65,5 L65,-3 Q66,-12 56,-14 Q40,-16 31,-16 Q32,6 32,33 L32,57 L32,59 Q20,53 7,47 L5,51 Q19,62 32,74 Q32,77 32,85 Q31,94 31,99 L51,94 Q63,106 74,120 L10,120 L10,126 L53,126 L53,159 L53,164 L18,164 L18,170 L53,170 L52,205 L90,202 Q95,202 96,198 Q97,195 85,189 L85,171 L94,184 L109,173 Q114,184 118,196 L148,183 Q148,191 148,198 L187,188 L201,188 L213,205 L249,186 Q253,185 253,183 Q254,179 240,173 Q223,143 200,114 Q250,87 248,56 Q250,16 200,10 M204,182 L184,182 L184,46 L200,45 Q211,45 211,60 Q212,90 192,113 M65,45 L65,11 L101,11 L101,45 M71,84 L65,80 L65,51 L101,51 L101,84 M133,143 L149,131 L149,141 Q149,161 148,171 L145,170 Q130,145 114,126 L121,126 M103,162 L104,164 L85,164 L85,135 Q89,140 97,153 Q101,159 103,162"/> 
            <glyph glyph-name="里" unicode="&#x91CC;" horiz-adv-x="252" d=" M33,65 Q33,78 34,94 Q34,105 34,110 L34,156 Q34,181 33,197 L78,186 L175,186 L185,205 L221,191 Q227,189 226,186 Q225,180 216,174 L216,132 Q216,126 216,109 Q217,89 217,79 Q218,75 212,73 Q193,69 179,69 L179,84 L143,84 L143,44 L183,44 L200,67 L229,46 Q233,43 232,41 Q230,38 223,38 L143,38 L143,-7 L196,-7 L214,16 L248,-6 Q252,-9 250,-11 Q249,-13 243,-13 L8,-13 L8,-7 L105,-7 L105,38 L26,38 L26,44 L105,44 L105,84 L70,84 L70,80 Q71,70 61,68 Q48,65 33,65 M143,133 L143,91 L179,91 L179,133 M179,180 L143,180 L143,139 L179,139 M70,133 L70,91 L105,91 L105,133 M70,180 L70,139 L105,139 L105,180"/> 
            <glyph glyph-name="量" unicode="&#x91CF;" horiz-adv-x="254" d=" M42,29 Q44,49 44,67 L44,80 Q44,98 43,108 L86,100 L173,100 L182,116 L218,103 Q222,101 222,98 Q222,93 213,88 L213,83 Q213,61 214,42 Q214,37 207,35 L231,18 Q235,16 234,14 Q232,12 227,12 L145,12 L145,-10 L205,-10 L220,9 L250,-10 Q254,-12 253,-14 Q251,-16 246,-16 L12,-16 L12,-10 L110,-10 L110,12 L28,12 L28,17 L110,17 L110,40 L79,40 L79,38 Q79,32 72,31 Q63,29 42,29 M42,129 Q44,151 44,172 Q44,178 43,189 Q43,197 43,200 L86,191 L168,191 L178,209 L215,195 Q221,194 220,189 Q220,185 210,179 L210,170 Q210,153 211,140 Q212,132 204,131 Q184,129 172,129 L172,138 L81,138 Q82,131 73,131 Q53,129 42,129 M221,144 L250,123 Q254,121 252,118 Q250,116 245,116 L8,116 L8,122 L206,122 M81,162 L81,143 L172,143 L172,162 M172,186 L81,186 L81,167 L172,167 M177,32 L177,40 L145,40 L145,17 L190,17 L201,34 Q193,32 177,32 M177,94 L145,94 L145,72 L177,72 M145,67 L145,45 L177,45 L177,67 M79,94 L79,72 L110,72 L110,94 M79,67 L79,45 L110,45 L110,67"/> 
            <glyph glyph-name="门" unicode="&#x95E8;" horiz-adv-x="240" d=" M93,154 Q79,153 77,166 Q72,188 61,203 L62,205 Q116,201 115,179 Q114,156 93,154 M179,-25 Q181,0 143,9 L143,14 L181,12 Q194,11 193,23 L193,176 L129,176 L129,182 L187,182 L198,202 L236,186 Q240,186 240,182 Q240,176 229,168 L229,88 Q229,43 230,5 Q231,-22 179,-25 M27,-24 Q27,-19 28,-8 Q29,36 29,49 L29,113 Q29,146 28,171 L70,167 Q74,167 74,164 Q73,157 65,153 L65,56 Q65,21 66,-14 Q66,-21 61,-21 Q46,-24 27,-24"/> 
            <glyph glyph-name="间" unicode="&#x95F4;" horiz-adv-x="246" d=" M144,20 L144,36 L108,36 L108,24 Q108,18 101,17 Q88,14 74,14 Q75,35 75,70 L75,105 Q75,125 75,147 L113,136 L140,136 L150,155 L183,141 Q188,139 188,136 Q188,132 178,124 L178,92 Q178,49 179,30 Q179,25 175,24 Q159,20 144,20 M185,-25 Q187,0 150,9 L150,13 L186,12 Q199,11 199,26 L199,174 L115,174 L115,180 L193,180 L204,199 L241,185 Q246,183 246,180 Q246,174 235,167 L235,131 Q236,40 237,5 Q238,-21 185,-25 M20,-24 Q20,-12 21,16 Q21,41 21,50 L21,114 Q21,144 20,159 L62,156 Q67,156 67,152 Q67,147 57,142 L57,56 Q57,4 58,-13 Q58,-20 52,-22 Q32,-24 20,-24 M80,153 Q68,152 65,166 Q61,187 49,203 L50,205 Q104,199 104,176 Q101,156 80,153 M108,83 L108,42 L144,42 L144,83 M144,130 L108,130 L108,90 L144,90"/> 
            <glyph glyph-name="陆" unicode="&#x9646;" horiz-adv-x="252" d=" M221,127 L248,104 Q252,102 250,99 Q248,97 243,97 L186,97 L186,2 L200,2 L200,31 Q200,39 199,76 L236,73 Q236,73 237,73 Q240,72 240,70 Q239,64 232,61 L232,26 Q232,15 232,-14 Q233,-18 229,-20 Q222,-22 202,-24 Q201,-24 200,-24 L200,-2 L141,-2 L129,-16 Q117,-10 102,0 Q100,0 100,1 Q100,3 102,4 Q107,8 107,15 L107,30 Q107,48 106,75 L142,72 Q146,72 146,69 Q146,65 138,60 L138,2 L152,2 L152,97 L96,97 L96,103 L152,103 L152,132 L152,146 L106,146 L106,152 L152,152 Q152,158 152,174 Q151,193 151,203 L189,200 Q196,199 196,195 Q196,190 186,185 L186,152 L197,152 L212,174 L237,153 Q240,150 239,148 Q237,146 232,146 L186,146 L186,103 L205,103 M61,12 Q60,33 51,38 L51,-14 Q51,-21 45,-22 Q35,-24 17,-24 Q17,-8 18,17 Q19,71 19,94 L19,134 Q19,140 19,157 Q18,183 18,197 L54,186 L65,186 L76,203 L111,184 Q114,183 114,180 Q115,175 103,172 Q89,146 65,115 Q104,90 103,60 Q104,18 61,12 M68,180 L51,180 L51,48 L61,48 Q72,48 72,63 Q73,90 56,113"/> 
            <glyph glyph-name="院" unicode="&#x9662;" horiz-adv-x="252" d=" M58,19 Q57,40 48,46 L48,-11 Q49,-18 42,-20 Q24,-22 14,-22 Q15,35 15,97 L15,138 Q15,175 14,200 L52,190 L61,190 L72,208 L105,191 Q106,190 107,189 Q109,188 109,187 Q109,181 97,177 Q82,149 60,118 Q100,93 98,59 Q99,24 58,19 M64,-25 L62,-21 Q121,11 118,82 L95,82 L95,88 L198,88 L214,111 L246,88 Q249,86 248,84 Q246,82 242,82 L201,82 L201,18 Q201,13 207,13 L210,13 Q216,13 219,23 L233,69 L237,68 L238,30 Q237,18 244,14 Q251,9 250,2 Q249,-18 219,-19 L194,-19 Q165,-20 166,12 L166,82 L154,82 Q158,-2 64,-25 M104,127 Q86,128 87,146 Q87,155 94,159 Q105,167 111,184 L114,184 Q117,180 121,172 Q122,171 122,170 L152,170 Q148,173 147,179 Q146,194 139,206 L140,207 Q186,206 184,187 Q183,176 172,170 L202,170 L217,189 L247,167 Q251,165 251,162 Q252,156 239,155 Q226,148 209,141 L225,129 Q229,127 228,125 Q226,123 221,123 L114,123 L114,129 L181,129 L196,150 L202,146 L206,164 L124,164 Q125,158 125,152 Q123,130 104,127 M65,184 L48,184 L48,53 L56,53 Q66,51 66,63 Q67,94 52,118"/> 
            <glyph glyph-name="集" unicode="&#x96C6;" horiz-adv-x="251" d=" M199,196 L231,175 Q235,173 234,170 Q232,168 226,168 L150,168 L150,146 L178,146 L193,165 L220,147 Q224,144 223,142 Q221,140 215,140 L150,140 L150,117 L179,117 L193,136 L221,118 Q225,115 223,113 Q222,111 216,111 L150,111 L150,88 L188,88 L202,109 L232,89 Q237,87 235,84 Q233,82 227,82 L74,82 L74,79 Q74,70 65,67 Q49,65 37,65 Q38,99 38,127 L38,133 Q25,123 8,113 L6,117 Q44,167 56,209 L98,195 Q102,195 102,191 Q102,185 88,184 L81,175 L121,175 Q118,177 118,182 Q117,195 111,206 L112,207 Q158,207 155,189 Q154,180 144,175 L184,175 M8,-18 L7,-14 Q60,10 91,48 L14,48 L14,54 L107,54 Q107,62 106,77 L151,73 Q155,72 155,70 Q154,64 144,61 L144,54 L196,54 L211,75 L242,55 Q246,52 245,50 Q243,48 236,48 L151,48 Q187,24 251,24 L250,19 Q236,13 226,-15 Q165,-2 144,45 L144,19 Q144,11 145,-12 Q145,-20 140,-21 Q125,-24 106,-24 Q107,-4 107,19 Q66,-10 8,-18 M74,111 L74,88 L115,88 L115,111 M74,140 L74,117 L115,117 L115,140 M77,168 L74,165 L74,146 L115,146 L115,168"/> 
            <glyph glyph-name="韩" unicode="&#x97E9;" horiz-adv-x="250" d=" M17,52 Q17,81 17,94 L17,110 Q17,117 17,149 L51,140 L51,161 L51,168 L10,168 L10,174 L51,174 Q51,178 51,186 Q50,198 50,205 L88,202 Q93,201 93,198 Q93,193 83,189 L83,174 L91,174 L104,193 L127,175 Q131,173 129,170 Q127,168 122,168 L83,168 L83,140 L84,140 L93,156 L123,144 Q127,142 127,139 Q127,134 118,129 L118,109 Q118,101 118,68 Q119,61 112,60 Q108,60 102,59 Q93,58 87,57 L87,69 L84,69 L84,44 L84,35 L94,35 L108,54 L134,34 Q137,32 136,30 Q134,28 130,28 L84,28 Q84,7 84,-14 Q84,-21 78,-22 Q60,-24 50,-24 Q50,-13 51,7 Q51,22 51,28 L7,28 L7,35 L51,35 L51,40 L51,69 L49,69 L49,63 Q49,56 39,54 Q29,52 17,52 M148,-24 Q148,-10 149,14 Q150,60 150,67 L150,76 L119,76 L119,82 L150,82 L150,119 L123,119 L123,125 L150,125 L150,139 L150,159 L117,159 L117,166 L150,166 Q150,172 150,185 Q149,198 149,205 L190,202 Q196,202 196,199 Q196,192 184,188 L184,166 L200,166 L215,186 L242,166 Q246,164 244,161 Q243,159 237,159 L184,159 L184,125 L192,125 L206,145 L234,126 Q238,124 236,121 Q235,119 229,119 L184,119 L184,82 L203,82 L214,99 L246,85 Q250,84 250,81 Q249,76 241,70 Q241,57 239,33 Q240,2 197,0 Q197,18 184,26 Q184,20 184,8 Q185,-5 185,-12 Q185,-20 179,-21 Q177,-21 172,-22 Q155,-24 148,-24 M208,76 L184,76 L184,67 Q184,53 184,32 L198,32 Q206,30 207,43 Q208,52 208,76 M49,101 L49,75 L87,75 L87,101 M87,134 L49,134 L49,108 L87,108"/> 
            <glyph glyph-name="频" unicode="&#x9891;" horiz-adv-x="251" d=" M10,23 L7,25 Q20,65 23,92 L55,83 L55,109 L87,107 Q92,106 92,104 Q93,100 84,95 L84,60 Q84,61 85,62 Q85,63 85,63 Q92,78 94,91 L126,78 L126,79 L126,100 L126,112 Q125,112 123,112 L9,112 L9,118 L23,118 L23,153 Q23,163 23,187 L52,184 Q58,183 58,180 Q59,177 50,173 L50,118 L59,118 L59,160 Q59,165 59,181 Q58,199 58,205 L93,202 Q98,202 99,198 Q98,193 89,190 L89,165 L94,165 L105,181 L126,164 Q129,163 127,160 Q126,158 122,158 L89,158 L89,118 L91,118 L104,136 L126,120 Q126,134 125,150 L160,140 L162,140 Q163,164 163,181 L118,181 L118,187 L206,187 L220,207 L248,188 Q251,186 249,183 Q247,181 242,181 L202,181 Q191,159 173,140 L202,140 L211,157 L242,145 Q248,143 247,140 Q247,134 238,129 L238,106 Q238,68 239,34 Q240,27 231,26 Q228,25 218,24 Q210,23 207,23 L207,134 L156,134 L156,28 Q156,22 149,21 Q143,20 131,18 Q127,17 125,17 L126,67 Q126,67 124,67 Q123,66 122,66 Q93,-1 8,-24 L7,-20 Q51,6 70,36 L55,36 L55,74 Q54,74 52,74 Q50,73 49,73 Q39,49 10,23 M226,-24 Q217,-25 212,-14 Q202,4 185,20 Q168,-11 92,-27 L91,-23 Q173,8 167,72 L167,85 Q167,105 166,123 L200,120 Q204,119 204,116 Q205,112 196,107 L196,72 Q197,44 188,24 Q245,14 244,-4 Q243,-23 226,-24"/> 
            </font>
</defs>
</svg>
