<?xml version="1.0" standalone="no"?>
<!DOCTYPE svg PUBLIC "-//W3C//DTD SVG 1.1//EN" "http://www.w3.org/Graphics/SVG/1.1/DTD/svg11.dtd" >
<svg xmlns="http://www.w3.org/2000/svg">
    <defs>
        <font id="">
            <font-face font-family=""
                       units-per-em="256"
                       ascent="267"
                       descent="-72"
                       bbox="-23 -72 256 267"
                    />
            <missing-glyph horiz-adv-x="0" />
            
            <glyph glyph-name="%" unicode="&#x25;" horiz-adv-x="206" d=" M167,181 L58,-10 L72,-10 L181,181 M170,0 Q192,2 193,38 Q192,75 170,76 Q156,75 151,63.5 Q146,52 146,38 Q146,24 151.5,12.5 Q157,1 170,0 M170,89 Q189,88 197.5,73 Q206,58 206,38.5 Q206,19 197.5,3.5 Q189,-12 169.5,-12 Q150,-12 141.5,3.5 Q133,19 134,38 Q133,58 141.5,73 Q150,88 170,89 M69,95 Q92,97 93,133 Q92,170 69,171 Q56,170 51,158.5 Q46,147 46,133 Q46,119 51,107.5 Q56,96 69,95 M69,184 Q89,183 97.5,168 Q106,153 105,133 Q106,114 97.5,98.5 Q89,83 69.5,83 Q50,83 41.5,98.5 Q33,114 33,133.5 Q33,153 41.5,168 Q50,183 69,184"/> 
            <glyph glyph-name="." unicode="&#x2E;" horiz-adv-x="45" d=" M45,10 L45,-8 L27,-8 L27,10"/> 
            <glyph glyph-name="0" unicode="&#x30;" horiz-adv-x="137" d=" M74,0 Q98,1 110.5,24.5 Q123,48 123,85.5 Q123,123 110.5,146.5 Q98,170 74,171 Q49,170 36.5,146.5 Q24,123 24,85.5 Q24,48 36.5,24.5 Q49,1 74,0 M73,184 Q107,182 122,153.5 Q137,125 136,85 Q137,46 122,17.5 Q107,-11 73,-12 Q40,-11 25.5,17.5 Q11,46 11,85.5 Q11,125 25.5,153.5 Q40,182 73,184"/> 
            <glyph glyph-name="1" unicode="&#x31;" horiz-adv-x="77" d=" M77,182 L77,-10 L63,-10 L63,166 L15,140 L15,155 L66,182"/> 
            <glyph glyph-name="2" unicode="&#x32;" horiz-adv-x="131" d=" M72,184 Q97,183 112,168 Q127,153 127,129 Q126,101 102,78 Q85,59 60.5,32.5 Q36,6 33,3 L131,3 L131,-10 L13,-10 L13,1 Q14,2 28,17.5 Q42,33 59.5,51.5 Q77,70 88,81 Q112,105 114,129 Q112,169 72,170 Q29,168 27,127 L14,127 Q14,150 28.5,166.5 Q43,183 72,184"/> 
            <glyph glyph-name="4" unicode="&#x34;" horiz-adv-x="146" d=" M111,182 L111,44 L146,44 L146,32 L111,32 L111,-10 L98,-10 L98,32 L5,32 L5,42 L101,182 M22,44 L98,44 L98,156"/> 
            <glyph glyph-name="5" unicode="&#x35;" horiz-adv-x="130" d=" M71,112 Q97,111 113.5,95 Q130,79 130,51 Q130,21 113,4.5 Q96,-12 68,-12 Q30,-12 13,19 L24,25 Q38,0 68,0 Q114,1 116,51 Q114,97 71,99 Q43,98 29,76 L18,76 L29,181 L123,181 L123,168 L41,168 L34,97 Q48,111 71,112"/> 
            <glyph glyph-name="6" unicode="&#x36;" horiz-adv-x="133" d=" M77,184 Q118,183 132,144 L120,139 Q107,170 77,171 Q28,171 26,86 L26,83 L27,86 Q44,110 75,111 Q102,110 117.5,92.5 Q133,75 133,47.5 Q133,20 116,4 Q99,-12 73,-12 Q19,-9 14,49 Q12,66 13,84 Q14,132 29,157.5 Q44,183 77,184 M74,98 Q44,97 30,69 Q27,60 27,51 Q29,3 73,0 Q117,2 120,49 Q117,95 74,98"/> 
            <glyph glyph-name="7" unicode="&#x37;" horiz-adv-x="121" d=" M121,181 L121,170 L43,-10 L28,-10 L106,168 L5,168 L5,181"/> 
            <glyph glyph-name="8" unicode="&#x38;" horiz-adv-x="138" d=" M75,184 Q98,183 113.5,170.5 Q129,158 130,135 Q127,103 99,93 Q115,88 126.5,75 Q138,62 138,43 Q138,17 120.5,2.5 Q103,-12 74.5,-12 Q46,-12 28.5,2.5 Q11,17 11,43 Q11,62 22.5,75 Q34,88 50,93 Q22,103 20,135 Q20,157 35.5,170 Q51,183 75,184 M24,43 Q27,2 74,0 Q122,2 125,43 Q124,61 110.5,73 Q97,85 74,86 Q51,85 38,73 Q25,61 24,43 M33,136 Q35,100 75,98 Q93,98 104.5,108.5 Q116,119 116,136 Q116,150 105,160.5 Q94,171 74.5,171 Q55,171 44,160.5 Q33,150 33,136"/> 
            <glyph glyph-name="9" unicode="&#x39;" horiz-adv-x="133" d=" M73,171 Q52,170 39.5,156.5 Q27,143 27,122 Q29,75 71,74 Q102,74 114,103 Q117,111 117,121 Q117,142 105,156 Q93,170 73,171 M73,184 Q99,183 114,166 Q129,149 132,122 Q133,106 132,87 Q132,47 119,18 Q106,-11 67.5,-12 Q29,-13 13,24 L24,30 Q38,0 68,0 Q98,2 108.5,27 Q119,52 119,84 L119,88 Q118,86 117,85 Q100,61 71,61 Q44,61 28.5,78 Q13,95 13,123 Q13,148 29,165.5 Q45,183 73,184"/> 
            <glyph glyph-name="B" unicode="&#x42;" horiz-adv-x="141" d=" M33,98 L63,98 Q112,101 113,133 Q111,168 64,169 Q46,169 33,168 M33,85 L33,3 Q43,2 64,2 Q90,2 108,12 Q126,22 127,46 Q128,84 65,85 M19,-9 L19,180 Q31,182 64,182 Q125,179 127,133 Q127,119 117.5,107.5 Q108,96 94,94 L94,93 Q115,91 127.5,78 Q140,65 141,46 Q140,16 118,2.5 Q96,-11 64,-10 Q36,-11 19,-9"/> 
            <glyph glyph-name="C" unicode="&#x43;" horiz-adv-x="149" d=" M94,-12 Q53,-12 31,14 Q9,40 9,83 Q9,124 32,153 Q55,182 95,184 Q123,184 149,169 L142,158 Q120,171 95,171 Q64,170 43.5,144.5 Q23,119 23,83 Q23,47 41,24 Q59,1 94,0 Q119,0 142,14 L148,3 Q123,-13 94,-12"/> 
            <glyph glyph-name="D" unicode="&#x44;" horiz-adv-x="160" d=" M33,170 L33,1 Q39,0 44,0 Q89,0 117,23.5 Q145,47 146,92 Q143,168 51,171 Q43,171 33,170 M44,-12 Q32,-12 19,-11 L19,181 Q40,184 51,184 Q98,184 128.5,161 Q159,138 160,92 Q159,41 127,14.5 Q95,-12 44,-12"/> 
            <glyph glyph-name="F" unicode="&#x46;" horiz-adv-x="130" d=" M119,98 L119,85 L33,85 L33,-10 L19,-10 L19,181 L130,181 L130,168 L33,168 L33,98"/> 
            <glyph glyph-name="G" unicode="&#x47;" horiz-adv-x="150" d=" M92,-12 Q53,-12 31,14 Q9,40 9,84 Q10,125 33.5,153.5 Q57,182 95,184 Q126,184 149,169 L142,157 Q122,171 95,171 Q61,170 42,144.5 Q23,119 23,84 Q23,47 41,24 Q59,1 92,0 Q116,0 137,11 L137,78 L94,78 L94,90 L150,90 L150,4 Q125,-12 92,-12"/> 
            <glyph glyph-name="I" unicode="&#x49;" horiz-adv-x="34" d=" M34,181 L34,-10 L20,-10 L20,181"/> 
            <glyph glyph-name="P" unicode="&#x50;" horiz-adv-x="137" d=" M33,168 L33,73 Q41,73 57,73 Q120,73 123,123 Q120,170 57,169 Q42,169 33,168 M33,61 L33,-10 L19,-10 L19,180 Q31,182 57,182 Q135,181 137,123 Q135,61 57,61 Q44,61 33,61"/> 
            <glyph glyph-name="R" unicode="&#x52;" horiz-adv-x="142" d=" M33,168 L33,83 L57,83 Q120,85 121,128 Q119,166 59,169 Q41,169 33,168 M108,50 Q119,33 130,12.5 Q141,-8 142,-10 L124,-10 Q123,-8 114,10.5 Q105,29 95,46 Q78,71 56,71 L33,71 L33,-10 L19,-10 L19,180 Q29,182 59,182 Q97,181 116,166 Q135,151 135,128 Q132,83 85,74 L85,72 Q96,68 108,50"/> 
            <glyph glyph-name="S" unicode="&#x53;" horiz-adv-x="138" d=" M72,-12 Q34,-13 8,9 L16,20 Q40,0 72,0 Q95,1 109.5,12 Q124,23 124,43 Q124,58 109.5,67.5 Q95,77 72,84 Q19,99 17,138 Q18,158 33,170.5 Q48,183 72,184 Q109,183 134,163 L127,152 Q103,172 72,171 Q55,171 43,162 Q31,153 31,138 Q31,109 76,96 Q104,88 121,75.5 Q138,63 138,43 Q138,18 120,3 Q102,-12 72,-12"/> 
            <glyph glyph-name="W" unicode="&#x57;" horiz-adv-x="221" d=" M221,181 L179,-10 L168,-10 L112,157 L58,-10 L47,-10 L4,181 L18,181 L53,18 L107,181 L118,181 L172,18 L207,181"/> 
            <glyph glyph-name="a" unicode="&#x61;" horiz-adv-x="117" d=" M23,29 Q24,2 52,0 Q80,1 99,23 Q101,26 101,30 L101,62 L76,62 Q25,64 23,29 M52,-12 Q11,-11 9,29 Q9,75 76,74 L101,74 Q101,113 64,114 Q43,114 24,103 L18,114 Q41,127 64,126 Q114,126 114,74 Q114,26 114.5,10.5 Q115,-5 117,-10 L104,-10 Q103,-5 102,7 L101,7 Q82,-11 52,-12"/> 
            <glyph glyph-name="c" unicode="&#x63;" horiz-adv-x="109" d=" M69,-12 Q39,-12 23.5,7.5 Q8,27 8,56 Q8,85 24.5,105 Q41,125 71,126 Q91,126 109,117 L104,106 Q88,114 71,114 Q46,113 33.5,95.5 Q21,78 21,55.5 Q21,33 33,17 Q45,1 69,0 Q89,1 104,9 L109,-3 Q91,-13 69,-12"/> 
            <glyph glyph-name="d" unicode="&#x64;" horiz-adv-x="124" d=" M21,58 Q21,33 32.5,17 Q44,1 66,0.5 Q88,0 106,22 Q108,25 108,29 L108,89 Q109,93 106,96 Q87,114 67,113.5 Q47,113 34,97.5 Q21,82 21,58 M108,110 L108,188 L122,188 L122,8 Q122,-1 124,-10 L111,-10 Q110,-2 109,7 L107,7 Q88,-13 66,-12 Q39,-12 23.5,7 Q8,26 8,58 Q8,88 25,107 Q42,126 67,126 Q89,126 107,110"/> 
            <glyph glyph-name="e" unicode="&#x65;" horiz-adv-x="123" d=" M22,69 L109,69 Q108,111 69,114 Q46,112 34,97.5 Q22,83 22,69 M69,-12 Q41,-12 25,6 Q9,24 8,57 Q8,87 23.5,106.5 Q39,126 69,126 Q122,123 123,66 L123,57 L22,57 Q23,4 69,0 Q91,0 112,10 L117,-1 Q96,-12 69,-12"/> 
            <glyph glyph-name="i" unicode="&#x69;" horiz-adv-x="36" d=" M36,174 L36,157 L18,157 L18,174 M34,124 L34,-10 L20,-10 L20,124"/> 
            <glyph glyph-name="n" unicode="&#x6E;" horiz-adv-x="123" d=" M33,69 L33,-10 L19,-10 L19,106 Q19,115 18,124 L30,124 Q32,115 32,106 L32,99 L34,99 Q50,125 79,126 Q121,126 123,78 L123,-10 L109,-10 L109,78 Q109,112 79,114 Q49,111 34,76 Q33,73 33,69"/> 
            <glyph glyph-name="o" unicode="&#x6F;" horiz-adv-x="130" d=" M69,114 Q46,113 34.5,97 Q23,81 23,57.5 Q23,34 34.5,17.5 Q46,1 69,0 Q93,1 104.5,17.5 Q116,34 116,57.5 Q116,81 104.5,97 Q93,113 69,114 M69,-12 Q40,-12 24.5,7.5 Q9,27 9,57 Q9,87 24.5,106.5 Q40,126 69,126 Q98,126 114,106.5 Q130,87 130,57 Q130,27 114.5,7.5 Q99,-12 69,-12"/> 
            <glyph glyph-name="s" unicode="&#x73;" horiz-adv-x="103" d=" M53,-12 Q27,-12 8,1 L14,11 Q31,0 53,0 Q68,0 77.5,8 Q87,16 88,28 Q89,44 52,54 Q10,63 11,92 Q12,106 23.5,116 Q35,126 53,126 Q78,126 99,116 L94,104 Q74,114 53,114 Q28,112 25,92 Q25,74 56,67 Q103,56 101,28 Q100,-11 53,-12"/> 
            <glyph glyph-name="w" unicode="&#x77;" horiz-adv-x="170" d=" M170,124 L135,-10 L125,-10 L87,102 L49,-10 L38,-10 L3,124 L17,124 L45,14 L82,124 L91,124 L129,14 L156,124"/> 
            <glyph glyph-name="¥" unicode="&#xA5;" horiz-adv-x="145" d=" M145,181 L96,91 L138,91 L138,79 L87,79 L82,68 L82,51 L138,51 L138,38 L82,38 L82,-10 L68,-10 L68,38 L14,38 L14,51 L68,51 L68,68 L63,79 L14,79 L14,91 L55,91 L7,181 L24,181 L76,81 L127,181"/> 
            <glyph glyph-name="上" unicode="&#x4E0A;" horiz-adv-x="239" d=" M18,-11 L18,3 L109,3 L109,201 L124,201 L124,129 L220,129 L220,115 L124,115 L124,3 L239,3 L239,-11"/> 
            <glyph glyph-name="下" unicode="&#x4E0B;" horiz-adv-x="238" d=" M215,58 Q170,87 129,110 L138,122 Q181,98 224,73 M18,172 L18,186 L238,186 L238,172 L125,172 L125,-24 L110,-24 L110,172"/> 
            <glyph glyph-name="与" unicode="&#x4E0E;" horiz-adv-x="239" d=" M16,42 L16,55 L182,55 L182,42 M119,-21 Q118,-12 116,-4 Q137,-6 166,-6 Q200,-7 202,22 Q206,60 207,97 L53,97 L63,205 L78,205 L74,168 L239,168 L239,154 L73,154 L69,111 L222,111 Q220,61 216,20 Q215,-21 169,-21 Q140,-21 119,-21"/> 
            <glyph glyph-name="之" unicode="&#x4E4B;" horiz-adv-x="240" d=" M131,162 Q122,180 110,198 L124,204 Q135,186 145,168 M235,-15 Q177,-16 135,-14 Q109,-13 92,-6 Q75,1 60,18 Q55,22 50,18 Q37,5 22,-14 L14,1 Q27,15 37,25.5 Q47,36 54,36 Q57,36 59,35 Q148,91 199,146 L32,146 L32,160 L217,160 L217,145 Q158,80 73,26 Q86,13 99.5,7.5 Q113,2 136,0 Q183,-2 240,1 Q237,-9 235,-15"/> 
            <glyph glyph-name="也" unicode="&#x4E5F;" horiz-adv-x="241" d=" M122,27 L122,125 L64,110 L64,22 Q62,-4 87,-2 L191,-2 Q220,-4 221,17 Q224,32 225,50 Q234,47 241,46 Q239,27 235,10 Q231,-18 195,-16 L83,-16 Q48,-18 49,18 L49,107 L18,99 L16,112 L49,121 L49,177 L64,177 L64,125 L122,139 L122,204 L136,204 L136,143 L217,164 Q216,122 214,85.5 Q212,49 181,51 Q168,51 157,51 Q156,59 154,67 Q165,66 179,66 Q199,64 200,88 Q202,116 202,146 L136,129 L136,27"/> 
            <glyph glyph-name="代" unicode="&#x4EE3;" horiz-adv-x="241" d=" M210,149 Q194,164 171,184 L181,193 Q203,175 220,159 M48,-26 L48,122 Q35,98 20,77 Q18,85 14,92 Q48,138 70,203 L84,199 Q74,172 62,148 L62,-26 M83,108 L81,122 L135,128 Q133,161 132,204 L147,204 Q147,161 149,130 L235,139 L236,126 L150,116 Q155,55 172,22 Q187,-10 204,-9 Q216,-9 220.5,7.5 Q225,24 227,39 Q234,36 241,34 Q238,20 234,3 Q227,-24 205,-24 Q179,-25 159,15 Q142,49 136,114"/> 
            <glyph glyph-name="作" unicode="&#x4F5C;" horiz-adv-x="240" d=" M23,74 Q19,82 15,89 Q30,111 44.5,142 Q59,173 68,205 L83,201 Q73,173 62,147 L62,-25 L48,-25 L48,118 Q36,94 23,74 M90,100 Q85,105 79,109 Q112,152 128,205 L142,201 Q135,182 129,167 L240,167 L240,153 L157,153 L157,108 L228,108 L228,95 L157,95 L157,48 L234,48 L234,35 L157,35 L157,-25 L142,-25 L142,153 L123,153 Q109,125 90,100"/> 
            <glyph glyph-name="充" unicode="&#x5145;" horiz-adv-x="240" d=" M22,158 L22,171 L126,171 Q122,187 117,201 L131,204 Q136,190 141,171 L237,171 L237,158 L120,158 L128,154 Q100,125 64,93 Q93,94 128,95 Q163,96 189,97 Q173,113 157,128 L168,136 Q181,124 197.5,108.5 Q214,93 229,78 L218,68 Q210,76 202,85 L160,84 L160,13 Q159,-9 179,-7 L199,-7 Q221,-8 223,9 Q225,20 226,35 Q233,32 240,30 Q239,15 236,3 Q233,-22 199,-21 L174,-21 Q144,-22 145,9 L145,83 L107,82 Q107,37 90.5,14.5 Q74,-8 27,-26 Q23,-19 18,-13 Q62,2 77,21.5 Q92,41 92,81 Q81,81 70,80 Q53,79 45,78 L39,93 Q48,97 58,105 Q70,115 84.5,129.5 Q99,144 110,158"/> 
            <glyph glyph-name="入" unicode="&#x5165;" horiz-adv-x="240" d=" M228,-17 Q199,5 177.5,34.5 Q156,64 135,111 Q131,122 127,131 Q113,83 89,47 Q65,11 27,-19 Q22,-12 16,-6 Q89,44 117,149 Q100,178 82,193 L92,201 Q106,190 119.5,171 Q133,152 148,119 Q168,71 190,43.5 Q212,16 240,-3"/> 
            <glyph glyph-name="全" unicode="&#x5168;" horiz-adv-x="240" d=" M231,106 Q194,125 170.5,144 Q147,163 129,188 Q89,138 25,104 Q20,111 15,116 Q92,158 125,207 L141,204 L137,198 Q157,172 180.5,154 Q204,136 240,119 Q236,115 231,106 M55,101 L55,115 L201,115 L201,101 L135,101 L135,60 L210,60 L210,46 L135,46 L135,1 L231,1 L231,-13 L25,-13 L25,1 L121,1 L121,46 L46,46 L46,60 L121,60 L121,101"/> 
            <glyph glyph-name="六" unicode="&#x516D;" horiz-adv-x="238" d=" M219,-16 Q184,39 150,87 L163,94 Q202,38 233,-8 M33,-20 Q26,-13 21,-9 Q42,16 58,40 Q74,64 89,94 L104,88 Q72,28 33,-20 M135,145 Q130,156 121.5,170 Q113,184 107,194 L120,202 Q126,192 134,178.5 Q142,165 149,153 M18,123 L18,137 L238,137 L238,123"/> 
            <glyph glyph-name="内" unicode="&#x5185;" horiz-adv-x="221" d=" M68,33 Q65,38 58,46 Q94,66 107,86.5 Q120,107 121,141 Q121,145 121,149 L50,149 L50,-23 L35,-23 L35,163 L121,163 Q122,180 122,204 L136,204 Q136,180 136,163 L220,163 L220,9 Q221,-19 191,-20 Q174,-21 157,-21 Q157,-13 155,-4 Q172,-5 188,-5 Q207,-6 206,13 L206,149 L136,149 Q136,145 135,141 Q134,116 128,98 L134,103 Q165,77 195,48 L183,37 Q152,69 126,92 Q113,61 68,33"/> 
            <glyph glyph-name="写" unicode="&#x5199;" horiz-adv-x="231" d=" M16,30 L16,43 L181,43 L181,30 M25,150 L25,192 L231,192 L231,150 L217,150 L217,178 L40,178 L40,150 M130,-21 Q129,-14 127,-5 Q149,-6 170,-6 Q200,-7 202,19 Q203,30 203.5,46 Q204,62 205,77 L53,77 L70,166 L85,166 L79,138 L207,138 L207,125 L77,125 L70,90 L220,90 Q218,48 216,18 Q216,-20 172,-21 Q153,-21 130,-21"/> 
            <glyph glyph-name="净" unicode="&#x51C0;" horiz-adv-x="239" d=" M49,127 Q37,153 22,182 L33,188 Q49,160 62,133 M34,-3 L20,3 Q33,42 44,90 Q50,87 58,84 Q53,65 46.5,41.5 Q40,18 34,-3 M204,125 L155,125 L155,95 L204,95 M155,82 L155,51 L204,51 L204,82 M182,170 L119,170 Q106,153 90,137 L155,137 M81,128 Q77,134 70,138 Q105,168 127,206 L140,202 Q134,191 127,182 L198,182 L198,168 L171,137 L217,137 L217,95 L239,95 L239,82 L217,82 L217,25 L204,25 L204,38 L155,38 L155,10 Q157,-20 123,-21 Q111,-21 101,-21 Q100,-14 98,-6 Q108,-7 120,-7 Q142,-9 141,14 L141,38 L83,38 L83,51 L141,51 L141,82 L71,82 L71,95 L141,95 L141,125 L88,125 L88,135"/> 
            <glyph glyph-name="分" unicode="&#x5206;" horiz-adv-x="239" d=" M25,97 Q21,103 16,109 Q68,146 97,201 L110,195 Q93,164 73,141 Q53,118 25,97 M229,97 Q199,118 179.5,142 Q160,166 146,200 L159,205 Q172,172 191,150 Q210,128 239,111 Q237,108 229,97 M116,-19 Q115,-12 113,-4 Q126,-5 149,-5 Q177,-7 178.5,24.5 Q180,56 180,87 L104,87 Q103,68 99,52 Q90,2 32,-27 L23,-14 Q76,11 85,56 Q88,70 89,87 L47,87 L47,100 L196,100 Q194,57 192,23 Q192,-19 150,-19 Q129,-20 116,-19"/> 
            <glyph glyph-name="半" unicode="&#x534A;" horiz-adv-x="239" d=" M74,134 Q55,157 35,178 L46,187 Q65,167 86,145 M179,133 L168,144 Q189,164 207,187 L219,177 Q202,157 179,133 M26,102 L26,115 L120,115 L120,204 L135,204 L135,115 L230,115 L230,102 L135,102 L135,58 L239,58 L239,44 L135,44 L135,-25 L120,-25 L120,44 L17,44 L17,58 L120,58 L120,102"/> 
            <glyph glyph-name="协" unicode="&#x534F;" horiz-adv-x="243" d=" M230,49 Q219,79 206,106 L218,112 Q231,86 243,57 M82,46 Q74,50 68,51 Q75,65 82,81.5 Q89,98 93,112 L106,108 Q95,76 82,46 M15,122 L15,136 L41,136 L41,204 L55,204 L55,136 L80,136 L80,122 L55,122 L55,-25 L41,-25 L41,122 M84,-25 L73,-15 Q102,9 114,35.5 Q126,62 129,108 Q130,122 131,143 L92,143 L92,156 L131,156 Q132,182 132,204 L146,204 Q146,177 145,156 L202,156 Q202,125 201,87 Q200,49 199,20 Q199,-21 166,-20 Q160,-20 152,-20 Q144,-20 140,-20 Q139,-9 138,-4 Q152,-5 164,-5 Q184,-7 185,20 Q186,57 187,84.5 Q188,112 188,143 L145,143 Q144,121 143,109 Q141,60 128,30.5 Q115,1 84,-25"/> 
            <glyph glyph-name="卡" unicode="&#x5361;" horiz-adv-x="238" d=" M216,13 Q193,26 169,38.5 Q145,51 126,60 L126,-26 L111,-26 L111,91 L126,91 L126,63 L132,72 Q177,50 223,26 M19,100 L19,113 L111,113 L111,205 L126,205 L126,169 L223,169 L223,156 L126,156 L126,113 L238,113 L238,100"/> 
            <glyph glyph-name="双" unicode="&#x53CC;" horiz-adv-x="241" d=" M212,173 L139,173 Q144,131 152.5,103.5 Q161,76 173,56 Q188,77 196.5,104 Q205,131 212,173 M103,8 L77,51 Q59,17 26,-18 Q21,-12 16,-7 Q51,30 68,66 Q41,112 21,142 L33,149 Q56,113 75,82 Q90,119 96,173 L18,173 L18,186 L110,186 L110,172 Q103,110 84,67 Q101,40 115,16 M231,-21 Q192,4 173,32 Q160,15 143.5,1.5 Q127,-12 103,-26 Q97,-18 93,-14 Q140,12 164,44 Q149,68 140,98.5 Q131,129 126,173 L118,173 L118,186 L226,186 L226,172 Q218,125 208,95.5 Q198,66 182,44 Q204,13 241,-8 Q236,-14 231,-21"/> 
            <glyph glyph-name="同" unicode="&#x540C;" horiz-adv-x="226" d=" M63,133 L63,146 L193,146 L193,133 M95,88 L95,40 L161,40 L161,88 M81,27 L81,101 L175,101 L175,27 M31,-23 L31,192 L225,192 L225,8 Q226,-21 196,-21 Q177,-22 163,-21 Q162,-14 160,-6 Q174,-7 191,-7 Q212,-8 211,11 L211,179 L45,179 L45,-23"/> 
            <glyph glyph-name="响" unicode="&#x54CD;" horiz-adv-x="228" d=" M148,112 L148,43 L180,43 L180,112 M40,162 L40,44 L66,44 L66,162 M135,30 L135,125 L193,125 L193,30 M102,-25 L102,171 L142,171 Q147,188 150,205 L164,203 Q161,188 156,171 L226,171 L226,5 Q228,-21 203,-22 Q192,-23 178,-23 Q177,-16 174,-9 Q187,-9 199,-9 Q214,-10 213,7 L213,158 L115,158 L115,-25 M27,9 L27,175 L79,175 L79,13 L66,13 L66,31 L40,31 L40,9"/> 
            <glyph glyph-name="唤" unicode="&#x5524;" horiz-adv-x="240" d=" M194,168 L137,168 Q125,148 108,131 L168,131 M211,119 L173,119 L173,91 Q173,74 171,59 L211,59 M121,119 L121,59 L158,59 Q160,73 160,91 L160,119 M39,166 L39,35 L69,35 L69,166 M26,3 L26,178 L82,178 L82,22 L39,22 L39,3 M101,124 Q96,130 91,134 Q124,163 141,205 L155,201 Q150,190 144,180 L209,180 L209,167 L184,131 L224,131 L224,59 L240,59 L240,47 L174,47 Q185,25 200,11.5 Q215,-2 240,-11 Q235,-17 232,-24 Q206,-14 190.5,1 Q175,16 166,39 Q159,18 141.5,3 Q124,-12 89,-26 Q86,-19 81,-13 Q115,-2 132,12 Q149,26 155,47 L90,47 L90,59 L108,59 L108,131"/> 
            <glyph glyph-name="器" unicode="&#x5668;" horiz-adv-x="240" d=" M48,180 L48,144 L99,144 L99,180 M154,180 L154,144 L206,144 L206,180 M48,36 L48,-2 L100,-2 L100,36 M155,36 L155,-2 L207,-2 L207,36 M35,133 L35,192 L112,192 L112,133 M142,133 L142,192 L219,192 L219,133 M35,-25 L35,47 L113,47 L113,-25 L100,-25 L100,-13 L48,-13 L48,-25 M207,-25 L207,-13 L155,-13 L155,-25 L142,-25 L142,47 L220,47 L220,-25 M23,98 L23,109 L117,109 Q119,117 120,128 L134,128 Q132,118 131,109 L176,109 Q172,116 167,125 L179,129 Q183,121 190,109 L235,109 L235,98 L144,98 Q157,82 178.5,75.5 Q200,69 240,67 Q235,60 233,54 Q187,58 164.5,68 Q142,78 130,98 L126,98 Q119,80 95.5,70 Q72,60 22,52 Q19,60 16,65 Q60,71 82,78 Q104,85 112,98"/> 
            <glyph glyph-name="处" unicode="&#x5904;" horiz-adv-x="241" d=" M108,143 L55,143 Q53,136 50,128 Q59,80 78,51 Q103,90 108,143 M226,81 Q198,104 172,124 L172,14 L158,14 L158,203 L172,203 L172,128 L179,136 Q207,115 236,93 M236,-17 Q168,-18 141,-12 Q104,-5 79,26 Q58,0 25,-26 Q20,-20 15,-14 Q49,11 70,38 Q52,66 42,107 Q33,87 24,67 Q19,73 13,78 Q44,136 57,203 L71,201 Q66,177 60,157 L122,157 L122,142 Q115,80 87,38 Q110,9 143,3 Q184,-5 241,-2 Q239,-9 236,-17"/> 
            <glyph glyph-name="大" unicode="&#x5927;" horiz-adv-x="239" d=" M19,124 L19,139 L120,139 Q122,171 122,204 L137,204 Q137,172 135,139 L237,139 L237,124 L136,124 Q144,77 167.5,46.5 Q191,16 239,-6 Q231,-17 229,-21 Q183,3 160,31.5 Q137,60 128,102 Q121,61 98,31 Q75,1 29,-25 Q23,-17 18,-11 Q69,17 92,48.5 Q115,80 119,124"/> 
            <glyph glyph-name="天" unicode="&#x5929;" horiz-adv-x="239" d=" M31,175 L31,189 L226,189 L226,175 L136,175 Q135,143 134,112 L238,112 L238,98 L138,98 Q148,56 171.5,31.5 Q195,7 239,-8 Q232,-17 230,-22 Q184,-3 160.5,21.5 Q137,46 128,87 Q121,51 97.5,24.5 Q74,-2 28,-25 Q23,-18 18,-11 Q66,12 89,38 Q112,64 117,98 L18,98 L18,112 L119,112 Q121,140 121,175"/> 
            <glyph glyph-name="存" unicode="&#x5B58;" horiz-adv-x="241" d=" M81,57 L81,70 L160,70 L160,86 L206,122 L98,122 L98,135 L224,135 L224,120 L174,81 L174,70 L241,70 L241,57 L174,57 L174,5 Q175,-23 147,-23 Q132,-24 118,-23 Q117,-16 114,-8 Q130,-9 143,-9 Q161,-9 160,6 L160,57 M23,166 L23,179 L87,179 Q93,193 97,206 L112,203 Q108,190 103,179 L239,179 L239,166 L97,166 Q84,135 66,107 L66,-25 L52,-25 L52,87 Q39,69 24,52 Q19,58 14,65 Q56,110 81,166"/> 
            <glyph glyph-name="小" unicode="&#x5C0F;" horiz-adv-x="240" d=" M76,-23 Q75,-15 73,-7 Q88,-7 102,-7 Q125,-9 123,14 L123,202 L138,202 L138,9 Q140,-22 108,-22 Q94,-23 76,-23 M225,30 Q201,84 172,143 L186,149 Q198,124 213,93 Q228,62 240,37 M32,26 Q24,31 17,34 Q33,63 44.5,90.5 Q56,118 66,150 L82,145 Q61,84 32,26"/> 
            <glyph glyph-name="尔" unicode="&#x5C14;" horiz-adv-x="238" d=" M224,5 Q194,56 169,95 L181,102 Q211,57 238,14 M32,0 Q26,5 19,9 Q54,55 75,103 L90,97 Q64,45 32,0 M83,-23 Q82,-14 80,-7 Q92,-7 105,-7 Q126,-8 124,10 L124,141 L139,141 L139,9 Q141,-23 108,-22 Q107,-23 98,-23 Q89,-23 83,-23 M211,114 Q205,118 197,121 L219,158 L73,158 Q54,129 29,102 Q24,107 18,112 Q62,157 81,204 L96,200 Q88,185 81,172 L235,172 L235,156"/> 
            <glyph glyph-name="工" unicode="&#x5DE5;" horiz-adv-x="237" d=" M32,169 L32,183 L224,183 L224,169 L135,169 L135,6 L237,6 L237,-8 L19,-8 L19,6 L120,6 L120,169"/> 
            <glyph glyph-name="应" unicode="&#x5E94;" horiz-adv-x="238" d=" M147,40 Q138,87 128,132 L141,135 Q152,88 161,43 M97,28 Q85,77 72,121 L85,124 Q98,79 111,32 M59,-10 L59,4 L166,4 Q189,66 205,130 L219,127 Q210,92 200,59 Q190,26 181,4 L238,4 L238,-10 M27,-25 L15,-15 Q31,9 36,34 Q41,59 41,105 L41,171 L137,171 L126,203 L140,206 Q146,190 152,171 L236,171 L236,157 L55,157 L55,109 Q55,59 49,30.5 Q43,2 27,-25"/> 
            <glyph glyph-name="开" unicode="&#x5F00;" horiz-adv-x="241" d=" M93,173 L93,99 L170,99 L170,173 M29,173 L29,187 L232,187 L232,173 L185,173 L185,99 L241,99 L241,85 L185,85 L185,-24 L170,-24 L170,85 L93,85 Q93,42 80,18 Q67,-6 33,-26 Q28,-20 22,-14 Q54,4 66,25 Q78,46 78,85 L19,85 L19,99 L78,99 L78,173"/> 
            <glyph glyph-name="快" unicode="&#x5FEB;" horiz-adv-x="239" d=" M28,90 Q22,92 15,93 Q22,124 25,150 L37,147 Q33,120 28,90 M202,149 L159,149 Q158,107 157,87 L202,87 M87,119 Q74,137 64,151 L64,-25 L50,-25 L50,204 L64,204 L64,156 L70,162 Q84,146 97,128 M85,73 L85,87 L142,87 Q145,103 145,149 L102,149 L102,162 L145,162 Q145,180 145,204 L159,204 Q159,180 159,162 L215,162 L215,87 L238,87 L238,73 L162,73 Q174,44 192,25 Q210,6 239,-8 L229,-21 Q199,-5 180.5,16 Q162,37 152,68 Q142,16 85,-25 Q80,-19 74,-13 Q105,8 120.5,28.5 Q136,49 140,73"/> 
            <glyph glyph-name="态" unicode="&#x6001;" horiz-adv-x="240" d=" M139,25 Q125,46 112,61 L123,69 Q137,53 151,34 M227,1 Q212,27 196,50 L207,57 Q223,35 240,8 M31,-8 Q24,-4 18,-2 Q32,27 41,56 L54,52 Q44,22 31,-8 M105,-18 Q74,-19 75,12 L75,60 L89,60 L89,14 Q87,-6 110,-5 L151,-5 Q170,-6 173,12 Q175,21 177,35 Q184,32 191,30 Q189,15 186,5 Q181,-19 153,-18 M128,79 Q115,90 95,105 Q72,86 25,71 Q21,79 17,85 Q62,98 84.5,115 Q107,132 115,156 L24,156 L24,170 L118,170 Q121,184 121,205 L135,205 Q135,185 133,170 L232,170 L232,156 L139,156 Q154,129 177.5,113.5 Q201,98 240,89 Q236,82 232,74 Q188,87 164.5,105 Q141,123 127,154 Q120,130 104,113 Q124,100 138,90"/> 
            <glyph glyph-name="怎" unicode="&#x600E;" horiz-adv-x="240" d=" M141,22 Q128,40 113,58 L124,66 Q139,49 152,31 M228,2 Q210,29 193,51 L205,58 Q224,34 240,10 M31,-6 Q25,-3 18,0 Q32,27 40,57 L53,53 Q44,24 31,-6 M104,-19 Q74,-20 74,12 L74,58 L88,58 L88,14 Q87,-7 109,-6 L149,-6 Q171,-6 174,10 Q176,20 178,35 Q185,32 192,29 Q189,14 186,3 Q181,-20 152,-19 M31,116 Q25,121 20,126 Q55,161 74,205 L88,203 Q82,190 76,179 L232,179 L232,167 L108,167 L108,139 L215,139 L215,126 L108,126 L108,98 L216,98 L216,86 L108,86 L108,68 L94,68 L94,167 L69,167 Q54,141 31,116"/> 
            <glyph glyph-name="性" unicode="&#x6027;" horiz-adv-x="240" d=" M83,126 Q73,143 63,157 L73,164 Q83,151 93,135 M28,92 Q23,93 16,94 Q22,123 25,150 L38,148 Q34,121 28,92 M49,-26 L49,205 L62,205 L62,-26 M101,98 Q95,102 88,105 Q109,144 118,188 L132,185 Q128,168 123,152 L160,152 L160,205 L174,205 L174,152 L234,152 L234,139 L174,139 L174,79 L230,79 L230,65 L174,65 L174,-1 L240,-1 L240,-15 L85,-15 L85,-1 L160,-1 L160,65 L100,65 L100,79 L160,79 L160,139 L119,139 Q111,118 101,98"/> 
            <glyph glyph-name="戏" unicode="&#x620F;" horiz-adv-x="240" d=" M211,154 Q195,166 173,181 L181,191 Q204,176 219,165 M99,10 Q86,31 72,53 Q55,18 24,-16 Q21,-11 14,-3 Q47,32 63,68 Q41,104 22,132 L33,139 L70,83 Q81,116 87,162 L21,162 L21,175 L101,175 L101,161 Q93,107 79,69 Q96,42 110,19 M112,119 L109,133 L147,137 Q146,167 145,205 L159,205 Q160,168 160,139 L234,148 L236,134 L161,125 Q164,80 171,52 Q193,78 212,111 L223,104 Q201,65 176,37 Q191,-9 208,-8 Q217,-9 221,6 Q225,21 227,38 Q234,35 240,33 Q237,14 233,-3 Q227,-23 208,-23 Q183,-24 166,25 Q144,4 114,-16 Q108,-9 103,-4 Q137,16 160,41 Q151,73 148,124"/> 
            <glyph glyph-name="手" unicode="&#x624B;" horiz-adv-x="240" d=" M32,173 Q32,180 30,187 Q132,188 216,194 L218,180 Q179,178 136,176 L136,128 L220,128 L220,115 L136,115 L136,66 L240,66 L240,53 L136,53 L136,9 Q138,-21 106,-21 Q98,-21 87,-21 Q76,-21 70,-21 Q70,-14 67,-6 Q85,-7 102,-7 Q123,-8 122,13 L122,53 L17,53 L17,66 L122,66 L122,115 L33,115 L33,128 L122,128 L122,175 Q74,173 32,173"/> 
            <glyph glyph-name="技" unicode="&#x6280;" horiz-adv-x="239" d=" M208,99 L130,99 Q143,56 166,32 Q194,58 208,99 M18,144 L18,157 L49,157 L49,203 L63,203 L63,157 L91,157 L91,144 L63,144 L63,92 Q78,96 92,100 Q92,94 92,87 L63,78 L63,5 Q64,-22 40,-23 Q29,-23 22,-23 Q21,-16 19,-8 L36,-8 Q50,-9 49,7 L49,74 L17,64 L15,79 Q28,82 49,88 L49,144 M102,153 L102,166 L160,166 L160,204 L174,204 L174,166 L237,166 L237,153 L174,153 L174,112 L223,112 L223,99 Q206,51 177,23 Q200,4 239,-10 Q234,-17 231,-24 Q190,-7 166,14 Q139,-8 92,-26 Q87,-18 83,-14 Q130,4 156,24 Q130,51 116,99 L104,99 L104,112 L160,112 L160,153"/> 
            <glyph glyph-name="持" unicode="&#x6301;" horiz-adv-x="240" d=" M137,9 Q131,17 122,26.5 Q113,36 106,43 L116,52 Q136,32 148,19 M94,62 L94,75 L190,75 L190,97 L204,97 L204,75 L240,75 L240,62 L204,62 L204,6 Q206,-21 174,-22 Q158,-22 144,-22 Q144,-15 141,-7 Q157,-8 171,-8 Q192,-9 190,11 L190,62 M104,160 L104,172 L160,172 L160,205 L174,205 L174,172 L230,172 L230,160 L174,160 L174,122 L240,122 L240,109 L94,109 L94,122 L160,122 L160,160 M18,142 L18,155 L49,155 L49,205 L63,205 L63,155 L90,155 L90,142 L63,142 L63,89 Q76,92 90,96 Q90,88 91,82 Q76,78 63,75 L63,2 Q63,-22 41,-22 Q27,-23 22,-23 Q21,-14 19,-7 Q28,-7 37,-7 Q50,-8 49,6 L49,72 Q35,68 18,63 L16,78 L49,86 L49,142"/> 
            <glyph glyph-name="支" unicode="&#x652F;" horiz-adv-x="238" d=" M186,105 L77,105 Q98,52 128,32 Q148,46 162,64 Q175,80 186,105 M230,-23 Q190,-15 167,-6 Q144,3 128,14 Q96,-9 26,-27 Q23,-20 18,-13 Q81,2 116,23 Q82,51 62,105 L40,105 L40,118 L123,118 L123,158 L18,158 L18,171 L123,171 L123,205 L137,205 L137,171 L237,171 L237,158 L137,158 L137,118 L202,118 L202,104 Q181,54 141,23 Q159,12 181.5,5 Q204,-2 238,-9 Q233,-15 230,-23"/> 
            <glyph glyph-name="旗" unicode="&#x65D7;" horiz-adv-x="239" d=" M229,-25 Q206,-7 184,8 L192,17 Q214,2 237,-14 M111,-26 Q108,-21 103,-15 Q128,-1 150,17 L159,7 Q135,-11 111,-26 M140,91 L140,69 L200,69 L200,91 M140,57 L140,35 L200,35 L200,57 M140,124 L140,102 L200,102 L200,124 M110,143 Q106,147 100,152 Q121,178 132,206 L145,202 Q141,192 135,182 L239,182 L239,170 L128,170 Q120,157 110,143 M18,154 L18,167 L59,167 Q53,185 46,202 L59,205 Q66,189 72,171 L62,167 L97,167 L97,154 L53,154 L52,115 L92,115 Q91,57 90,17 Q89,-18 63,-17 Q53,-17 45,-17 Q45,-11 43,-3 Q50,-4 59,-4 Q76,-6 76,17 Q77,34 78,57.5 Q79,81 79,102 L52,102 Q52,93 51,87 Q50,48 44,24 Q38,0 25,-22 Q20,-17 14,-13 Q26,6 31,28 Q36,50 38,86 Q39,114 40,154 M105,124 L105,136 L127,136 L127,155 L140,155 L140,136 L200,136 L200,155 L213,155 L213,136 L235,136 L235,124 L213,124 L213,35 L239,35 L239,23 L103,23 L103,35 L127,35 L127,124"/> 
            <glyph glyph-name="无" unicode="&#x65E0;" horiz-adv-x="239" d=" M37,173 L37,187 L220,187 L220,173 L133,173 Q132,139 127,113 L238,113 L238,99 L148,99 L148,18 Q146,-5 169,-3 L200,-3 Q221,-4 223,16 Q224,28 225,46 Q233,41 239,40 Q238,20 236,8 Q234,-17 202,-17 L165,-17 Q133,-18 134,15 L134,99 L124,99 Q115,58 92.5,28 Q70,-2 28,-26 Q23,-20 17,-14 Q57,9 78.5,35.5 Q100,62 110,99 L19,99 L19,113 L113,113 Q118,139 119,173"/> 
            <glyph glyph-name="时" unicode="&#x65F6;" horiz-adv-x="240" d=" M148,52 Q135,81 122,104 L134,110 Q148,85 161,59 M38,91 L38,25 L86,25 L86,91 M38,170 L38,104 L86,104 L86,170 M113,139 L113,152 L195,152 L195,205 L209,205 L209,152 L240,152 L240,139 L209,139 L209,11 Q210,-20 178,-21 Q163,-22 144,-22 Q143,-14 140,-6 Q154,-7 174,-7 Q196,-8 195,15 L195,139 M25,-11 L25,183 L100,183 L100,-8 L86,-8 L86,12 L38,12 L38,-11"/> 
            <glyph glyph-name="是" unicode="&#x662F;" horiz-adv-x="240" d=" M65,182 L65,157 L191,157 L191,182 M65,146 L65,121 L191,121 L191,146 M20,72 L20,85 L238,85 L238,72 L140,72 L140,43 L222,43 L222,31 L140,31 L140,-2 Q141,-2 142,-2 Q192,-3 240,-2 Q238,-8 236,-16 Q184,-16 142,-15 Q86,-15 64,26 Q54,-3 24,-26 Q20,-22 15,-16 Q36,1 46,18 Q56,35 60,64 L74,61 Q72,50 69,41 Q88,3 125,0 L125,72 M51,109 L51,194 L205,194 L205,109"/> 
            <glyph glyph-name="显" unicode="&#x663E;" horiz-adv-x="239" d=" M64,19 Q47,47 31,70 L42,78 Q60,54 76,27 M193,19 L181,28 Q197,50 215,78 L227,70 Q209,42 193,19 M58,182 L58,152 L198,152 L198,182 M58,140 L58,109 L198,109 L198,140 M18,-17 L18,-4 L94,-4 L94,86 L109,86 L109,-4 L146,-4 L146,86 L160,86 L160,-4 L239,-4 L239,-17 M44,97 L44,194 L212,194 L212,97"/> 
            <glyph glyph-name="更" unicode="&#x66F4;" horiz-adv-x="239" d=" M201,142 L136,142 L135,112 L201,112 M120,70 Q121,83 121,100 L55,100 L55,70 M55,142 L55,112 L122,112 L122,142 M135,100 Q134,83 134,70 L201,70 L201,100 M201,46 L201,58 L132,58 Q128,30 113,14 Q134,5 164,1 Q194,-3 239,-5 Q235,-13 233,-20 Q185,-17 154.5,-12 Q124,-7 103,3 Q86,-13 25,-27 Q22,-20 18,-14 Q74,-2 89,10 Q68,22 49,43 L58,51 Q79,31 100,20 Q114,33 118,58 L41,58 L41,154 L122,154 Q122,168 122,180 L24,180 L24,193 L232,193 L232,180 L136,180 Q136,169 136,154 L215,154 L215,46"/> 
            <glyph glyph-name="有" unicode="&#x6709;" horiz-adv-x="237" d=" M76,116 L76,86 L196,86 L196,116 M76,73 L76,42 L196,42 L196,73 M23,160 L23,173 L96,173 Q104,188 111,205 L126,202 Q119,187 111,173 L237,173 L237,160 L104,160 Q95,144 84,129 L210,129 L210,7 Q211,-21 182,-21 Q161,-21 149,-21 Q148,-14 146,-7 Q158,-7 177.5,-7.5 Q197,-8 196,10 L196,30 L76,30 L76,-25 L62,-25 L62,101 Q45,81 24,62 Q19,70 15,74 Q60,112 88,160"/> 
            <glyph glyph-name="本" unicode="&#x672C;" horiz-adv-x="240" d=" M25,149 L25,163 L121,163 L121,205 L135,205 L135,163 L232,163 L232,149 L146,149 Q164,111 184.5,85 Q205,59 240,35 Q234,27 230,22 Q192,50 171.5,78 Q151,106 135,147 L135,36 L188,36 L188,23 L135,23 L135,-25 L121,-25 L121,23 L67,23 L67,36 L121,36 L121,147 Q105,105 84,75.5 Q63,46 27,18 Q22,25 17,30 Q51,56 72,83 Q93,110 109,149"/> 
            <glyph glyph-name="术" unicode="&#x672F;" horiz-adv-x="240" d=" M200,154 Q192,161 181,170.5 Q170,180 161,188 L170,197 Q191,180 210,164 M21,133 L21,147 L121,147 L121,205 L135,205 L135,147 L236,147 L236,133 L146,133 Q163,95 184,70 Q205,45 240,21 Q234,13 230,8 Q192,35 171,62.5 Q150,90 135,130 L135,-25 L121,-25 L121,129 Q106,88 85,59 Q64,30 26,3 Q21,11 17,17 Q51,41 72.5,67.5 Q94,94 110,133"/> 
            <glyph glyph-name="机" unicode="&#x673A;" horiz-adv-x="241" d=" M20,145 L20,157 L53,157 L53,204 L66,204 L66,157 L98,157 L98,145 L66,145 L66,106 L72,114 Q89,98 102,84 L93,75 Q78,91 66,103 L66,-25 L53,-25 L53,116 Q40,67 21,41 Q18,49 14,56 Q39,90 52,145 M91,-25 Q85,-20 79,-14 Q103,10 111,34.5 Q119,59 118,109 L118,189 L198,189 L198,10 Q197,-4 207,-3 L212,-3 Q223,-4 225,12 Q227,28 228,50 Q235,48 241,46 Q239,21 237,7 Q234,-18 213,-17 L204,-17 Q183,-17 184,8 L184,176 L132,176 L132,109 Q133,57 124.5,29 Q116,1 91,-25"/> 
            <glyph glyph-name="步" unicode="&#x6B65;" horiz-adv-x="238" d=" M127,27 L127,95 L141,95 L141,27 M34,24 Q29,31 25,35 Q60,58 86,82 L96,72 Q69,48 34,24 M25,-26 Q23,-19 19,-13 Q88,-1 130,17.5 Q172,36 210,70 L221,60 Q183,26 140,6.5 Q97,-13 25,-26 M19,105 L19,119 L58,119 L58,184 L72,184 L72,119 L128,119 L128,205 L142,205 L142,171 L220,171 L220,157 L142,157 L142,119 L238,119 L238,105"/> 
            <glyph glyph-name="比" unicode="&#x6BD4;" horiz-adv-x="240" d=" M36,-18 L25,-5 Q33,4 32,15 L32,198 L47,198 L47,127 L111,127 L111,113 L47,113 L47,6 Q73,19 109,35 Q109,27 110,19 Q79,6 52,-8 Q44,-12 36,-18 M162,-18 Q130,-19 132,13 L132,204 L147,204 L147,102 Q190,134 222,172 L234,162 Q197,120 147,84 L147,16 Q145,-5 167,-4 L198,-4 Q217,-5 221,15 Q223,29 225,49 Q233,46 240,44 Q237,23 234,8 Q229,-18 201,-18"/> 
            <glyph glyph-name="没" unicode="&#x6CA1;" horiz-adv-x="240" d=" M53,97 Q45,103 34.5,112 Q24,121 17,127 L25,137 Q33,131 44.5,122.5 Q56,114 63,108 M65,156 Q47,173 27,188 L37,198 Q54,185 75,166 M34,-24 L19,-18 Q34,22 48,71 Q53,68 62,65 Q56,46 48,21.5 Q40,-3 34,-24 M202,86 L117,86 Q132,50 156,29 Q183,51 202,86 M90,110 Q85,116 79,122 Q99,130 106,141 Q113,152 112,171 L112,193 L205,193 L205,148 Q204,134 218,135 L240,135 L238,121 L215,121 Q191,121 191,143 L191,180 L126,180 L126,171 Q126,147 118.5,134 Q111,121 90,110 M231,-23 Q184,-8 157,12 Q127,-9 75,-26 Q71,-19 67,-12 Q117,2 145,21 Q119,45 103,86 L90,86 L90,99 L217,99 L217,84 Q196,45 168,20 Q194,3 239,-8 Q234,-17 231,-23"/> 
            <glyph glyph-name="游" unicode="&#x6E38;" horiz-adv-x="240" d=" M51,163 Q36,178 23,190 L32,199 Q48,186 61,173 M104,163 Q99,181 91,200 L105,204 Q110,190 117,166 M45,101 Q32,113 14,129 L23,139 Q41,124 55,111 M34,-23 L21,-18 Q32,20 42,69 L55,64 Q51,46 45,22.5 Q39,-1 34,-23 M148,118 Q143,123 136,128 Q150,146 159,164 Q168,182 175,206 L189,203 Q183,185 176,170 L240,170 L240,158 L170,158 Q160,136 148,118 M147,59 L147,72 L189,72 L189,87 L218,118 L160,118 L160,130 L233,130 L233,116 L202,83 L202,72 L240,72 L240,59 L202,59 L202,6 Q202,-21 177,-21 Q164,-21 154,-21 Q153,-15 151,-7 Q162,-8 174,-8 Q189,-9 189,8 L189,59 M64,148 L64,161 L142,161 L142,148 L95,148 L95,108 L137,108 Q136,59 134,11 Q134,-19 107,-18 Q100,-19 91,-19 L89,-5 Q99,-5 104,-5 Q121,-6 121.5,13 Q122,32 123,55 Q124,78 124,96 L95,96 L94,86 Q92,44 84.5,20.5 Q77,-3 63,-24 Q58,-20 52,-16 Q65,4 72,26.5 Q79,49 81,87 Q82,112 83,148"/> 
            <glyph glyph-name="特" unicode="&#x7279;" horiz-adv-x="240" d=" M141,9 Q128,26 113,41 L122,49 Q138,34 152,18 M103,60 L103,72 L193,72 L193,97 L207,97 L207,72 L240,72 L240,60 L207,60 L207,3 Q208,-22 178,-23 Q166,-24 150,-24 Q150,-16 148,-8 Q162,-9 175,-9 Q194,-10 193,7 L193,60 M111,160 L111,172 L163,172 L163,205 L177,205 L177,172 L230,172 L230,160 L177,160 L177,121 L240,121 L240,108 L102,108 L102,121 L163,121 L163,160 M24,99 Q19,103 13,106 Q25,141 29,182 L41,180 Q39,163 36,148 L57,148 L57,204 L71,204 L71,148 L97,148 L97,136 L71,136 L71,82 L96,91 Q97,83 98,78 L71,68 L71,-26 L57,-26 L57,63 L18,49 L15,63 Q35,69 57,77 L57,136 L34,136 Q30,117 24,99"/> 
            <glyph glyph-name="状" unicode="&#x72B6;" horiz-adv-x="240" d=" M213,151 Q200,165 184,179 L193,188 Q208,176 224,161 M44,101 Q38,115 31.5,131.5 Q25,148 19,161 L31,166 Q47,131 57,106 M23,32 L16,46 Q26,54 40.5,66 Q55,78 67,88 L67,204 L81,204 L81,-26 L67,-26 L67,70 Q46,51 23,32 M97,122 L97,135 L152,135 Q154,168 154,204 L168,204 Q167,168 165,135 L236,135 L236,122 L166,122 Q176,73 193,43.5 Q210,14 240,-8 Q235,-14 229,-20 Q199,6 183,34 Q167,62 159,100 Q153,60 139.5,32 Q126,4 99,-23 Q94,-18 88,-12 Q117,15 131,46.5 Q145,78 150,122"/> 
            <glyph glyph-name="独" unicode="&#x72EC;" horiz-adv-x="239" d=" M117,146 L117,82 L157,82 L157,146 M211,146 L170,146 L170,82 L211,82 M24,41 Q20,48 16,54 Q41,73 63,104 Q60,124 53,140 Q40,127 25,115 Q22,121 17,126 Q33,138 47,152 Q38,171 21,189 L31,197 Q47,180 57,163 Q70,177 81,194 L92,187 Q78,166 64,151 Q82,113 81,40 Q82,-19 46,-18 Q34,-18 24,-18 Q23,-10 21,-3 Q32,-4 45,-4 Q67,-7 67,40 Q67,66 65,87 Q49,62 24,41 M105,59 L105,159 L157,159 L157,204 L170,204 L170,159 L224,159 L224,69 L170,69 L170,9 Q194,11 213,13 Q205,30 199,42 L211,47 Q218,32 226,14 Q234,-4 239,-17 L227,-22 L218,0 Q182,-3 149,-6 Q116,-9 94,-12 L91,2 Q119,4 157,7 L157,69 L117,69 L117,59"/> 
            <glyph glyph-name="玩" unicode="&#x73A9;" horiz-adv-x="241" d=" M111,170 L111,183 L224,183 L224,170 M18,171 L18,184 L91,184 L91,171 L61,171 L61,110 L87,110 L87,98 L61,98 L61,32 L92,41 Q92,34 93,27 Q57,17 18,6 L15,20 Q30,23 48,28 L48,98 L19,98 L19,110 L48,110 L48,171 M98,104 L98,118 L238,118 L238,104 L189,104 L189,11 Q188,-3 201,-3 L211,-3 Q224,-3 226,9.5 Q228,22 228,39 Q235,36 241,35 Q240,17 238,7 Q235,-17 213,-16 L198,-16 Q174,-17 175,9 L175,104 L141,104 Q140,80 139,62 Q135,32 123,12 Q111,-8 86,-26 L75,-16 Q99,1 110.5,18 Q122,35 125,62 Q127,80 127,104"/> 
            <glyph glyph-name="理" unicode="&#x7406;" horiz-adv-x="241" d=" M213,180 L172,180 L172,142 L213,142 M118,180 L118,142 L159,142 L159,180 M172,130 L172,92 L213,92 L213,130 M118,130 L118,92 L159,92 L159,130 M17,171 L17,184 L91,184 L91,171 L61,171 L61,104 L90,104 L90,91 L61,91 L61,21 L91,28 Q91,21 92,14 Q56,7 18,-3 L15,12 Q31,15 48,18 L48,91 L19,91 L19,104 L48,104 L48,171 M100,35 L100,47 L159,47 L159,79 L105,79 L105,192 L226,192 L226,79 L172,79 L172,47 L231,47 L231,35 L172,35 L172,-4 L241,-4 L241,-17 L87,-17 L87,-4 L159,-4 L159,35"/> 
            <glyph glyph-name="电" unicode="&#x7535;" horiz-adv-x="239" d=" M198,160 L126,160 L126,115 L198,115 M41,160 L41,115 L113,115 L113,160 M126,57 L198,57 L198,102 L126,102 M41,102 L41,57 L113,57 L113,102 M145,-18 Q111,-19 113,16 L113,44 L41,44 L41,27 L28,27 L28,173 L113,173 L113,205 L126,205 L126,173 L211,173 L211,44 L126,44 L126,18 Q125,-5 149,-4 L195,-4 Q217,-4 220,13 Q224,27 225,40 Q233,37 239,35 Q236,15 233,4 Q230,-18 198,-18"/> 
            <glyph glyph-name="的" unicode="&#x7684;" horiz-adv-x="231" d=" M175,50 Q158,77 139,101 L149,109 Q168,85 187,59 M38,152 L38,89 L96,89 L96,152 M38,76 L38,12 L96,12 L96,76 M150,-21 Q149,-13 147,-6 Q163,-6 184,-6 Q213,-8 213,22 Q214,47 215,84.5 Q216,122 217,152 L150,152 Q141,130 131,112 Q125,116 119,120 Q141,158 154,204 L168,200 Q163,183 156,166 L231,166 Q231,133 229.5,95 Q228,57 227,20 Q227,-20 187,-20 Q168,-21 150,-21 M25,-22 L25,165 L50,165 Q57,188 60,204 L75,201 Q70,184 64,165 L110,165 L110,-21 L96,-21 L96,-1 L38,-1 L38,-22"/> 
            <glyph glyph-name="睿" unicode="&#x777F;" horiz-adv-x="240" d=" M218,83 Q210,88 194,96.5 Q178,105 166,111 L173,120 Q199,108 225,94 M32,82 L25,93 Q52,105 76,120 L84,111 Q59,95 32,82 M128,106 Q109,89 87,77 L171,77 Q148,89 128,106 M61,121 L61,132 L195,132 L195,121 M67,39 L67,22 L189,22 L189,39 M67,66 L67,49 L189,49 L189,66 M67,12 L67,-6 L189,-6 L189,12 M25,120 L25,160 L114,160 L114,205 L128,205 L128,188 L217,188 L217,177 L128,177 L128,160 L232,160 L232,120 L218,120 L218,149 L38,149 L38,120 M54,-26 L54,60 L24,47 Q21,53 17,59 Q87,84 125,118 L141,118 Q138,115 136,113 Q176,82 240,61 Q236,55 233,49 Q216,56 202,62 L202,-26 L189,-26 L189,-17 L67,-17 L67,-26"/> 
            <glyph glyph-name="秒" unicode="&#x79D2;" horiz-adv-x="241" d=" M228,94 Q210,128 191,157 L203,164 Q224,132 241,102 M113,81 L99,88 Q116,118 131,162 L144,157 Q130,120 113,81 M161,57 L161,204 L175,204 L175,57 M100,-27 Q96,-21 91,-14 Q136,3 163.5,26 Q191,49 213,86 L225,79 Q202,40 174.5,16 Q147,-8 100,-27 M19,121 L19,134 L56,134 L56,177 Q41,176 22,175 Q22,182 20,189 Q63,190 101,195 L104,182 Q87,180 70,178 L70,134 L103,134 L103,121 L70,121 L70,85 L77,91 Q94,74 110,55 L99,46 Q84,66 70,80 L70,-26 L56,-26 L56,94 Q44,52 22,20 Q19,28 15,36 Q41,71 56,121"/> 
            <glyph glyph-name="立" unicode="&#x7ACB;" horiz-adv-x="238" d=" M129,161 Q122,182 114,201 L128,205 Q136,188 144,166 M89,24 Q70,82 53,122 L67,128 Q85,83 104,30 M25,144 L25,159 L232,159 L232,144 M18,-11 L18,3 L138,3 Q166,61 188,130 L204,124 Q180,61 154,3 L238,3 L238,-11"/> 
            <glyph glyph-name="端" unicode="&#x7AEF;" horiz-adv-x="240" d=" M56,163 Q49,182 42,200 L54,204 Q61,187 68,167 M19,145 L19,157 L91,157 L91,145 M38,41 Q30,88 22,122 L33,124 Q42,89 50,44 M18,0 L16,14 Q33,17 54,21 Q68,89 75,126 L87,124 Q79,84 66,23 L93,29 Q92,23 92,16 Q54,8 18,0 M110,142 L110,191 L123,191 L123,154 L161,154 L161,205 L174,205 L174,154 L212,154 L212,191 L225,191 L225,142 M99,103 L99,116 L240,116 L240,103 L172,103 L165,77 L231,77 L231,1 Q232,-23 209,-24 Q200,-24 191,-24 Q190,-18 188,-10 Q196,-11 205,-11 Q219,-11 218,2 L218,65 L192,65 L192,-6 L180,-6 L180,65 L155,65 L155,-12 L142,-12 L142,65 L117,65 L117,-25 L105,-25 L105,77 L151,77 L158,103"/> 
            <glyph glyph-name="笔" unicode="&#x7B14;" horiz-adv-x="240" d=" M190,135 Q179,148 168,159 L178,166 Q190,155 200,143 M89,133 Q79,145 68,158 L79,165 Q90,152 100,140 M134,134 Q128,139 122,142 Q147,170 159,205 L173,202 Q167,189 162,179 L236,179 L236,166 L156,166 Q146,150 134,134 M26,131 L16,141 Q44,168 58,206 L72,203 Q66,189 61,179 L129,179 L129,166 L54,166 Q43,148 26,131 M33,67 L32,79 L109,83 L109,112 Q68,109 35,108 Q34,115 32,121 Q75,122 123,125 Q171,128 213,131 L215,119 Q171,115 123,112 L123,84 L215,89 L216,77 L123,72 L123,43 L239,50 L240,37 L123,31 L123,15 Q121,-8 146,-7 L191,-7 Q211,-8 212,7 Q214,15 215,27 Q223,25 229,23 Q228,11 225,1 Q222,-20 193,-19 L141,-19 Q108,-20 109,13 L109,30 L18,25 L17,37 L109,42 L109,71"/> 
            <glyph glyph-name="第" unicode="&#x7B2C;" horiz-adv-x="238" d=" M88,142 Q78,155 68,165 L78,172 Q88,162 98,150 M192,142 Q181,154 171,165 L180,172 Q191,162 203,150 M134,144 Q129,149 123,153 Q147,177 158,207 L173,205 Q168,194 163,184 L238,184 L238,173 L156,173 Q147,157 134,144 M26,141 Q21,146 16,150 Q45,174 60,207 L75,205 Q70,194 63,184 L130,184 L130,173 L55,173 Q43,155 26,141 M54,85 L49,58 L121,58 L121,85 M202,125 L134,125 L134,98 L202,98 M23,-21 Q19,-14 15,-7 Q47,3 68,15.5 Q89,28 107,46 L33,46 L43,98 L121,98 L121,125 L39,125 L39,137 L215,137 L215,85 L134,85 L134,58 L228,58 Q227,37 225,20 Q224,-8 193,-8 Q179,-8 165,-8 Q164,-1 162,6 Q176,5 191,5 Q211,4 212,23 Q213,32 214,46 L134,46 L134,-26 L121,-26 L121,45 Q102,22 79.5,6.5 Q57,-9 23,-21"/> 
            <glyph glyph-name="米" unicode="&#x7C73;" horiz-adv-x="240" d=" M177,126 L166,135 Q189,161 206,187 L218,179 Q201,155 177,126 M79,128 Q58,155 38,179 L49,187 Q72,162 91,137 M18,95 L18,109 L122,109 L122,202 L136,202 L136,109 L238,109 L238,95 L149,95 Q178,41 240,10 Q235,3 231,-4 Q195,16 173,39.5 Q151,63 137,95 L136,95 L136,-26 L122,-26 L122,95 L121,95 Q107,64 85,39.5 Q63,15 25,-9 Q21,-3 15,4 Q52,26 73,47 Q94,68 108,95"/> 
            <glyph glyph-name="系" unicode="&#x7CFB;" horiz-adv-x="234" d=" M27,-14 Q22,-8 17,-3 Q47,16 74,42 L85,33 Q57,8 27,-14 M225,-12 Q193,13 165,32 L175,42 Q204,22 234,-1 M44,111 L39,124 Q49,127 56,132 Q90,151 120,174 Q74,171 33,169 Q32,176 30,183 Q128,186 222,194 L225,181 Q178,178 127,174 L136,168 Q105,146 67,125 L147,127 Q171,142 192,157 L204,147 Q175,128 138.5,107 Q102,86 66,69 Q125,70 191,72 Q176,86 162,99 L172,107 Q203,80 231,53 L221,44 Q214,51 203,61 L138,59 L138,8 Q139,-20 111,-21 Q97,-21 84,-21 Q82,-13 80,-6 Q90,-7 107.5,-7.5 Q125,-8 124,11 L124,58 Q84,57 58,56 Q47,55 38,54 L32,68 Q41,70 55,77 Q91,94 127,115 Q97,115 60,112 Q50,112 44,111"/> 
            <glyph glyph-name="级" unicode="&#x7EA7;" horiz-adv-x="240" d=" M20,1 L17,15 Q48,21 86,29 Q86,22 86,16 Q53,9 20,1 M25,55 L19,69 Q26,74 35.5,86.5 Q45,99 58,118 Q33,117 21,116 L15,130 Q21,134 29,147 Q34,156 42.5,171.5 Q51,187 58,202 L72,197 Q54,164 33,130 Q47,130 66,131 Q76,146 84,161 L97,155 Q85,134 69.5,111.5 Q54,89 40,70 Q63,73 87,75 Q86,66 85,62 Q62,60 49,58.5 Q36,57 25,55 M131,156 L131,143 Q149,78 179,42 Q199,70 211,111 L171,111 L171,126 L194,178 L131,178 M124,-26 Q120,-19 114,-13 Q149,7 170,31 Q143,64 129,112 Q128,67 118,37.5 Q108,8 86,-22 Q79,-16 74,-12 Q99,19 108,54.5 Q117,90 117,155 L117,178 L97,178 L97,191 L208,191 L208,177 L185,124 L225,124 L225,111 Q212,64 188,31 Q209,9 240,-8 Q235,-15 231,-22 Q200,-2 179,20 Q158,-6 124,-26"/> 
            <glyph glyph-name="纯" unicode="&#x7EAF;" horiz-adv-x="241" d=" M18,-6 L16,8 Q55,13 97,19 Q96,12 96,5 Q57,0 18,-6 M25,48 L20,61 Q27,65 31,72 Q46,92 60,113 Q31,112 20,110 L15,123 Q21,127 26,135 Q46,166 64,204 L78,198 Q55,156 33,124 Q50,124 68,125 Q75,137 82,150 L95,143 Q72,106 40,63 L90,67 Q89,60 88,54 Q56,52 43,51 Q33,49 25,48 M96,160 L96,173 L156,173 L156,205 L170,205 L170,173 L232,173 L232,160 L170,160 L170,70 L207,70 L207,135 L220,135 L220,57 L170,57 L170,12 Q169,-6 184,-5 L207,-5 Q222,-5 224,10 Q226,23 228,41 Q235,39 241,37 Q239,16 236,3 Q232,-18 209,-18 L181,-18 Q156,-19 156,10 L156,57 L106,57 L106,135 L119,135 L119,70 L156,70 L156,160"/> 
            <glyph glyph-name="线" unicode="&#x7EBF;" horiz-adv-x="241" d=" M203,163 Q188,176 170,191 L179,200 Q197,187 212,174 M20,-6 L17,9 Q29,11 50.5,14.5 Q72,18 93,22 Q92,13 92,8 M24,47 L19,61 Q25,65 32,73 Q44,90 59,115 Q36,114 20,112 L15,126 Q20,131 25,137 Q44,166 61,205 L75,199 Q64,179 52.5,159.5 Q41,140 32,126 Q48,127 67,127 Q75,142 82,154 L95,148 Q81,126 66,102 Q51,78 40,62 Q65,65 89,67 Q87,60 87,54 Q48,51 24,47 M100,130 L99,142 L137,147 Q135,173 135,204 L149,204 Q149,173 151,148 L232,158 L233,146 L151,136 L153,120 Q154,108 156,97 L238,109 L239,96 L158,84 Q162,61 168,43 Q169,40 170,37 Q192,54 215,79 L225,71 Q200,43 175,24 Q191,-10 208,-9 Q218,-10 222,6 Q225,20 228,38 Q234,35 241,33 Q238,15 234,-2 Q228,-24 209,-24 Q183,-24 163,16 Q135,-4 95,-20 Q91,-12 87,-7 Q129,9 158,29 Q157,32 156,36 Q149,56 144,82 L98,75 L96,88 L142,95 Q141,105 140,118 L138,134"/> 
            <glyph glyph-name="统" unicode="&#x7EDF;" horiz-adv-x="240" d=" M19,-3 L15,11 Q53,17 92,25 Q92,17 92,12 Q57,6 19,-3 M24,48 L20,61 Q28,65 40,82 Q50,95 61,113 Q38,112 20,111 L16,125 Q23,130 31,143 Q50,171 65,205 L80,200 Q69,180 56,159.5 Q43,139 33,124 L69,125 Q76,138 83,150 L97,144 Q83,123 67.5,100.5 Q52,78 40,62 Q63,65 89,67 Q88,61 87,54 Q45,51 24,48 M92,160 L92,172 L161,172 Q157,183 149,203 L163,206 Q170,189 175,176 L163,172 L237,172 L237,160 L149,160 L161,155 Q142,130 116,100 Q134,100 158,101 Q182,102 201,103 L181,128 L192,136 Q216,106 234,82 L223,73 L210,91 Q198,90 186,90 L186,12 Q185,-7 201,-6 L206,-6 Q224,-7 224,10 Q226,20 227,35 L240,30 Q239,16 237,4 Q234,-19 206,-19 L198,-19 Q172,-20 172,8 L172,89 L144,88 Q144,68 142,54 Q139,26 126.5,8.5 Q114,-9 87,-26 Q83,-21 77,-14 Q103,1 114.5,15.5 Q126,30 129,54 Q130,68 130,87 Q127,87 124,87 Q112,86 100,84 L93,98 Q102,103 107,109 Q129,132 146,160"/> 
            <glyph glyph-name="缝" unicode="&#x7F1D;" horiz-adv-x="241" d=" M100,153 Q92,178 84,199 L96,204 Q104,182 113,157 M18,2 L15,15 Q28,17 46,20.5 Q64,24 79,27 Q79,22 79,14 Q66,12 48,8.5 Q30,5 18,2 M212,176 L156,176 L153,173 Q165,156 180,146 Q198,158 212,176 M25,51 L20,64 Q26,69 34.5,82.5 Q43,96 53,114 Q36,113 19,111 L15,125 Q20,129 28,142 Q44,170 57,202 L70,198 Q55,167 30,125 Q46,126 59,126 Q66,138 71,150 L83,145 Q72,124 58,99.5 Q44,75 38,65 Q56,67 76,69 Q75,63 75,57 Q61,56 46.5,54 Q32,52 25,51 M75,-23 L65,-13 Q78,5 95,21 L95,106 L78,106 L78,119 L107,119 L107,22 Q118,7 130,1.5 Q142,-4 160,-4 Q180,-5 199,-5 Q218,-5 241,-5 Q239,-10 237,-18 Q184,-18 158,-17 Q137,-16 124.5,-10 Q112,-4 101,10 Q89,-4 75,-23 M126,92 L126,103 L173,103 L173,117 L186,117 L186,103 L233,103 L233,92 L186,92 L186,71 L225,71 L225,59 L186,59 L186,38 L237,38 L237,26 L186,26 L186,4 L173,4 L173,26 L121,26 L121,38 L173,38 L173,59 L132,59 L132,71 L173,71 L173,92 M236,113 Q200,121 180,132 Q158,120 123,112 Q120,118 116,124 Q148,130 168,140 Q156,150 146,164 Q138,153 127,143 Q122,149 118,153 Q145,176 159,207 L172,203 Q168,195 163,187 L224,187 L224,174 Q210,153 192,140 Q211,131 241,126 Q239,120 236,113"/> 
            <glyph glyph-name="置" unicode="&#x7F6E;" horiz-adv-x="240" d=" M106,184 L106,161 L150,161 L150,184 M49,184 L49,161 L93,161 L93,184 M207,184 L163,184 L163,161 L207,161 M62,38 L62,21 L194,21 L194,38 M62,93 L62,76 L194,76 L194,93 M62,66 L62,48 L194,48 L194,66 M62,11 L62,-7 L194,-7 L194,11 M35,151 L35,195 L221,195 L221,151 M21,121 L21,131 L121,131 L121,144 L134,144 L134,131 L235,131 L235,121 L134,121 L134,103 L207,103 L207,-7 L240,-7 L240,-18 L17,-18 L17,-7 L49,-7 L49,103 L121,103 L121,121"/> 
            <glyph glyph-name="能" unicode="&#x80FD;" horiz-adv-x="239" d=" M42,102 L42,76 L105,76 L105,102 M42,65 L42,39 L105,39 L105,65 M125,125 L114,140 Q74,138 38,136 Q29,135 21,133 L16,147 Q23,150 30,159 Q50,180 67,207 L81,200 Q60,173 37,148 Q68,149 104,152 L84,174 L95,182 Q115,160 137,135 M174,102 Q146,102 146,129 L146,204 L160,204 L160,160 Q195,174 224,191 L232,179 Q199,162 160,146 L160,131 Q159,114 177,115 L202,115 Q220,115 222,129 Q224,138 225,155 Q232,152 239,150 Q237,134 234,125 Q230,102 204,102 M174,-19 Q146,-20 146,8 L146,88 L160,88 L160,47 Q196,61 228,80 L236,68 Q199,47 160,33 L160,11 Q159,-7 177,-6 L203,-6 Q221,-6 223,8 Q224,16 225,33 Q233,30 239,29 Q237,13 235,3 Q231,-20 205,-19 M29,-24 L29,113 L118,113 L118,2 Q119,-21 96,-21 Q86,-22 74,-22 Q73,-15 71,-8 Q82,-8 92,-8 Q105,-9 105,2 L105,27 L42,27 L42,-24"/> 
            <glyph glyph-name="舰" unicode="&#x8230;" horiz-adv-x="240" d=" M68,115 Q62,133 55,148 L65,152 Q72,136 78,120 M70,31 Q64,51 57,69 L67,73 Q74,55 81,35 M201,-17 Q178,-19 178,11 L178,68 L191,68 L191,12 Q190,-6 204,-5 L210,-5 Q224,-6 225,10 Q227,20 228,39 Q234,36 240,35 Q239,21 238,7 Q235,-18 210,-17 M112,-25 Q108,-20 102,-14 Q139,9 152.5,34 Q166,59 167,106 Q168,133 168,156 L181,156 Q181,128 180,111 Q178,56 164,27.5 Q150,-1 112,-25 M47,166 L47,100 L89,100 L89,166 M126,52 L126,190 L223,190 L223,56 L210,56 L210,177 L139,177 L139,52 M17,88 L17,100 L35,100 L35,178 L57,178 Q61,194 62,206 L76,204 Q73,191 70,178 L101,178 L101,3 Q102,-21 81,-21 Q70,-21 59,-21 L57,-8 Q67,-8 75,-8 Q90,-9 89,4 L89,88 L47,88 L47,76 Q48,42 43.5,20 Q39,-2 26,-24 Q20,-20 14,-16 Q25,3 30,23.5 Q35,44 35,76 L35,88"/> 
            <glyph glyph-name="英" unicode="&#x82F1;" horiz-adv-x="239" d=" M136,112 Q136,81 134,62 L196,62 L196,112 M120,62 Q121,74 122,112 L60,112 L60,62 M18,164 L18,177 L78,177 L78,205 L92,205 L92,177 L164,177 L164,205 L178,205 L178,177 L239,177 L239,164 L178,164 L178,143 L164,143 L164,164 L92,164 L92,143 L78,143 L78,164 M232,-24 Q189,-15 164.5,0.5 Q140,16 128,41 Q111,-4 25,-27 Q22,-20 18,-12 Q104,9 117,49 L17,49 L17,62 L46,62 L46,124 L122,124 L122,148 L136,148 L136,124 L210,124 L210,62 L239,62 L239,49 L139,49 Q163,1 239,-9 Q235,-16 232,-24"/> 
            <glyph glyph-name="薄" unicode="&#x8584;" horiz-adv-x="240" d=" M123,-14 Q111,-2 96,12 L105,19 Q119,7 133,-5 M49,75 Q33,89 17,101 L25,110 Q43,97 58,85 M60,120 Q44,134 28,145 L36,155 Q55,142 70,130 M208,108 L157,108 L157,92 L208,92 M157,82 L157,65 L208,65 L208,82 M94,108 L94,92 L145,92 L145,108 M94,82 L94,65 L145,65 L145,82 M35,-25 L22,-19 Q35,19 45,58 L58,52 Q46,15 35,-25 M66,21 L66,32 L191,32 L191,43 L204,43 L204,32 L240,32 L240,21 L204,21 L204,6 Q206,-21 176,-21 Q171,-22 161.5,-22 Q152,-22 148,-22 Q147,-16 145,-8 Q149,-9 158.5,-9 Q168,-9 174,-9 Q192,-9 191,6 L191,21 M17,173 L17,184 L86,184 L86,204 L99,204 L99,184 L159,184 L159,204 L172,204 L172,184 L240,184 L240,173 L172,173 L172,162 L159,162 L159,173 L99,173 L99,158 L86,158 L86,173 M74,135 L74,146 L145,146 L145,160 L157,160 L157,146 L195,146 Q192,154 189,162 L201,165 Q204,157 207,146 L235,146 L235,135 L157,135 L157,118 L221,118 L221,46 L208,46 L208,55 L157,55 L157,43 L145,43 L145,55 L94,55 L94,43 L82,43 L82,118 L145,118 L145,135"/> 
            <glyph glyph-name="行" unicode="&#x884C;" horiz-adv-x="241" d=" M28,128 Q25,135 20,141 Q55,170 78,205 L91,197 Q64,159 28,128 M113,173 L113,187 L228,187 L228,173 M22,48 Q19,55 15,63 Q51,93 78,143 L91,136 Q78,114 66,98 L66,-25 L52,-25 L52,80 Q39,64 22,48 M99,101 L99,115 L241,115 L241,101 L196,101 L196,12 Q198,-20 165,-20 Q147,-21 133,-21 Q132,-13 130,-5 Q144,-6 161,-6 Q183,-7 181,13 L181,101"/> 
            <glyph glyph-name="装" unicode="&#x88C5;" horiz-adv-x="239" d=" M57,155 Q41,172 26,185 L36,194 Q52,180 67,165 M26,107 L19,121 Q50,137 81,153 L81,206 L93,206 L93,98 L81,98 L81,138 Q58,126 26,107 M109,161 L109,174 L166,174 L166,205 L180,205 L180,174 L239,174 L239,161 L180,161 L180,125 L231,125 L231,113 L117,113 L117,125 L166,125 L166,161 M18,68 L18,81 L128,81 Q121,92 114,102 L126,108 Q134,97 142,85 L134,81 L239,81 L239,68 L134,68 Q145,46 161,31 Q189,45 212,57 L219,44 L172,22 Q196,5 238,-3 Q234,-9 230,-18 Q191,-8 165.5,10 Q140,28 124,61 Q110,47 91,33 L91,-7 Q117,2 144,11 L144,-5 Q120,-12 96,-19 Q88,-22 81,-26 L73,-15 Q78,-9 78,1 L78,24 Q55,9 24,-3 Q21,5 17,12 Q81,34 114,68"/> 
            <glyph glyph-name="议" unicode="&#x8BAE;" horiz-adv-x="241" d=" M59,152 Q43,174 28,190 L39,198 Q54,182 71,161 M162,146 Q146,178 135,197 L147,203 Q160,180 174,153 M47,-6 L37,5 Q44,13 44,25 L44,112 L17,112 L17,125 L58,125 L58,22 Q75,35 91,49 Q92,41 94,35 Q77,20 57,4 Q52,-1 47,-6 M79,-26 Q74,-18 68,-11 Q116,15 146,46 Q100,100 90,186 L104,189 Q115,106 156,57 Q198,109 208,189 L223,186 Q208,96 166,46 Q196,15 241,-8 Q235,-15 231,-23 Q185,4 156,34 Q126,3 79,-26"/> 
            <glyph glyph-name="记" unicode="&#x8BB0;" horiz-adv-x="240" d=" M65,151 Q51,169 31,191 L42,199 Q49,192 59.5,180.5 Q70,169 77,160 M48,-19 L38,-6 Q45,3 44,17 L44,109 L17,109 L17,123 L58,123 L58,11 Q64,16 72.5,23.5 Q81,31 86,36 Q88,26 89,20 Q71,5 60,-6 Q53,-14 48,-19 M141,-17 Q104,-18 104,16 L104,110 L210,110 L210,179 L102,179 L102,193 L224,193 L224,96 L118,96 L118,20 Q117,-5 144,-3 L190,-3 Q217,-4 221,17 Q224,31 226,49 Q234,46 240,45 Q239,32 234,12 Q230,-18 192,-17"/> 
            <glyph glyph-name="读" unicode="&#x8BFB;" horiz-adv-x="238" d=" M144,85 Q125,97 107,106 L113,115 Q132,106 151,95 M127,58 Q108,70 88,80 L95,89 Q115,79 134,68 M61,154 Q45,172 29,188 L40,197 Q57,179 73,163 M45,-17 L36,-6 Q43,0 42,10 L42,109 L16,109 L16,122 L56,122 L56,8 L84,28 Q84,21 86,13 Q68,2 54,-8 Q49,-13 45,-17 M89,165 L89,177 L151,177 L151,205 L164,205 L164,177 L230,177 L230,165 L164,165 L164,137 L234,137 L234,125 L227,94 Q222,96 214,96 L222,125 L81,125 L81,137 L151,137 L151,165 M79,37 L79,50 L163,50 Q167,68 167,113 L181,113 Q181,70 177,50 L238,50 L238,37 L173,37 Q172,33 170,29 Q204,10 237,-10 L227,-23 Q193,1 164,18 Q147,-5 86,-27 Q83,-20 78,-13 Q116,-1 134.5,10.5 Q153,22 159,37"/> 
            <glyph glyph-name="跑" unicode="&#x8DD1;" horiz-adv-x="241" d=" M130,117 L130,78 L168,78 L168,117 M43,179 L43,134 L84,134 L84,179 M159,29 Q158,37 156,44 Q171,43 184,43 Q209,41 209,70 Q209,90 209.5,117 Q210,144 210,163 L136,163 Q125,140 107,116 Q104,122 99,127 Q125,163 139,204 L153,200 L142,176 L223,176 Q223,146 223,117.5 Q223,89 222,68 Q222,30 188,30 Q175,29 159,29 M146,-19 Q116,-20 117,13 L117,130 L181,130 L181,66 L130,66 L130,16 Q129,-7 149,-6 L196,-6 Q220,-7 223,10 Q225,21 228,36 Q234,33 241,31 Q239,16 236,6 Q230,-20 201,-19 M31,122 L31,192 L97,192 L97,122 L75,122 L75,78 L101,78 L101,66 L75,66 L75,11 L102,16 Q102,9 103,3 Q62,-5 19,-14 L16,1 L28,3 L28,94 L41,94 L41,5 L62,9 L62,122"/> 
            <glyph glyph-name="轻" unicode="&#x8F7B;" horiz-adv-x="241" d=" M232,87 Q207,106 178,125 Q155,104 114,85 Q111,91 106,98 Q142,113 163,130.5 Q184,148 202,176 L117,176 L117,188 L217,188 L217,174 Q203,151 187,134 Q216,116 241,100 M116,62 L116,75 L228,75 L228,62 L179,62 L179,-1 L240,-1 L240,-14 L101,-14 L101,-1 L166,-1 L166,62 M18,158 L18,171 L45,171 Q50,189 55,206 L69,203 L59,171 L107,171 L107,158 L55,158 Q43,122 33,96 L64,96 L64,139 L76,139 L76,96 L101,96 L101,83 L76,83 L76,45 Q93,47 108,49 Q107,44 107,36 Q91,34 76,32 L76,-25 L63,-25 L63,31 Q39,28 17,25 L16,39 L63,44 L63,83 L20,83 L20,97 Q29,121 41,158"/> 
            <glyph glyph-name="载" unicode="&#x8F7D;" horiz-adv-x="241" d=" M212,154 Q199,167 180,184 L190,193 Q209,177 223,164 M22,90 L22,101 L57,101 Q63,112 68,123 L83,120 L72,101 L141,101 L141,90 L65,90 Q53,71 44,58 L81,58 L81,79 L94,79 L94,58 L137,58 L137,46 L94,46 L94,22 L139,25 Q139,20 139,14 L94,10 L94,-26 L81,-26 L81,9 Q47,6 22,4 L20,17 Q43,18 81,21 L81,46 L29,46 L29,60 Q38,68 50,90 M26,167 L26,179 L74,179 L74,203 L87,203 L87,179 L132,179 L132,167 L87,167 L87,141 L151,141 Q149,167 149,204 L163,204 Q163,176 165,141 L241,141 L241,129 L166,129 Q166,126 166,122 Q170,74 178,47 Q194,71 209,107 L221,101 Q203,60 183,31 Q199,-10 213,-8 Q220,-8 222.5,3 Q225,14 228,35 Q233,33 241,30 Q237,3 233,-8 Q227,-23 214,-23 Q192,-25 173,18 Q155,-3 131,-22 Q126,-16 121,-12 Q149,11 167,33 Q156,65 152,123 Q152,126 152,129 L17,129 L17,141 L74,141 L74,167"/> 
            <glyph glyph-name="运" unicode="&#x8FD0;" horiz-adv-x="239" d=" M61,152 Q55,160 46.5,172.5 Q38,185 31,195 L42,202 Q58,181 73,160 M99,176 L99,189 L222,189 L222,176 M25,-24 L14,-12 Q31,9 47,27 L47,108 L18,108 L18,122 L61,122 L61,28 Q86,-4 125,-3 Q147,-3 180,-2.5 Q213,-2 239,-2 Q236,-9 234,-17 Q214,-17 181,-16.5 Q148,-16 122,-16 Q100,-15 84,-8.5 Q68,-2 54,16 Q49,9 40,-2.5 Q31,-14 25,-24 M83,115 L83,128 L235,128 L235,115 L156,115 Q145,97 132,78.5 Q119,60 108,47 Q128,48 153,49 Q178,50 198,51 Q182,73 171,89 L183,96 Q195,79 208,61 Q221,43 230,29 L218,20 L206,38 Q157,36 111,34 Q100,34 91,32 L85,46 Q92,49 99,58 Q108,68 118.5,83.5 Q129,99 138,115"/> 
            <glyph glyph-name="进" unicode="&#x8FDB;" horiz-adv-x="240" d=" M59,150 Q45,172 30,193 L41,200 Q56,180 71,158 M131,109 Q131,101 130,94 L181,94 L181,149 L131,149 M23,-22 L16,-10 Q32,11 44,24 L44,106 L17,106 L17,120 L58,120 L58,24 Q72,-3 107,-2 Q132,-3 169,-2.5 Q206,-2 240,-2 Q237,-9 235,-17 Q201,-17 163,-16.5 Q125,-16 105,-16 Q65,-16 50,13 Q38,-2 23,-22 M88,149 L88,162 L117,162 L117,204 L131,204 L131,162 L181,162 L181,204 L195,204 L195,162 L230,162 L230,149 L195,149 L195,94 L238,94 L238,81 L195,81 L195,9 L181,9 L181,81 L130,81 Q128,58 119.5,41.5 Q111,25 94,10 Q89,15 83,20 Q99,34 106.5,47 Q114,60 116,81 L77,81 L77,94 L117,94 Q117,100 117,107 L117,149"/> 
            <glyph glyph-name="速" unicode="&#x901F;" horiz-adv-x="240" d=" M60,153 Q46,169 29,189 L39,197 Q45,190 54.5,180 Q64,170 71,162 M105,127 L105,92 L151,92 L151,127 M211,127 L164,127 L164,92 L211,92 M24,-19 L15,-7 Q30,9 46,25 L46,107 L18,107 L18,121 L59,121 L59,26 Q81,-5 116,-3 Q141,-3 179,-3.5 Q217,-4 240,-3 Q237,-12 235,-17 Q205,-17 168,-17 Q131,-17 110,-16 Q74,-17 52,14 Q36,-4 24,-19 M82,166 L82,178 L151,178 L151,205 L164,205 L164,178 L236,178 L236,166 L164,166 L164,139 L224,139 L224,80 L164,80 L164,63 L171,72 Q187,62 204,50.5 Q221,39 234,30 L226,19 Q214,28 196.5,40 Q179,52 164,61 L164,7 L151,7 L151,68 Q127,36 86,15 Q82,22 76,28 Q121,46 147,80 L91,80 L91,139 L151,139 L151,166"/> 
            <glyph glyph-name="配" unicode="&#x914D;" horiz-adv-x="240" d=" M68,178 L68,143 L86,143 L86,178 M117,132 L98,132 L98,97 Q97,84 110,84 L117,84 M37,36 L37,4 L117,4 L117,36 M48,61 Q43,66 38,68 Q49,79 52.5,90 Q56,101 56,122 L56,132 L37,132 L37,47 L117,47 L117,74 L105,74 Q86,73 86,94 L86,132 L68,132 L68,123 Q68,99 64,86 Q60,73 48,61 M166,97 L166,15 Q164,-7 187,-5 L201,-5 Q222,-6 224,14 Q227,29 228,46 Q234,44 240,42 Q239,23 237,11 Q233,-20 202,-18 L183,-18 Q152,-19 153,13 L153,110 L214,110 L214,178 L149,178 L149,190 L227,190 L227,97 M20,178 L20,190 L134,190 L134,178 L98,178 L98,143 L129,143 L129,-23 L117,-23 L117,-8 L37,-8 L37,-23 L25,-23 L25,143 L56,143 L56,178"/> 
            <glyph glyph-name="酷" unicode="&#x9177;" horiz-adv-x="240" d=" M63,178 L63,143 L79,143 L79,178 M107,132 L90,132 L90,97 Q90,84 101,84 L107,84 M36,37 L36,3 L107,3 L107,37 M156,56 L156,4 L216,4 L216,56 M45,61 Q40,66 36,68 Q46,79 49,90 Q52,101 52,122 L52,132 L36,132 L36,48 L107,48 L107,74 L97,74 Q79,73 79,94 L79,132 L63,132 L63,123 Q63,99 59.5,86 Q56,73 45,61 M142,119 Q137,122 130,124 Q144,156 150,192 L163,190 Q160,176 157,165 L183,165 L183,204 L196,204 L196,165 L232,165 L232,153 L196,153 L196,107 L240,107 L240,95 L129,95 L129,107 L183,107 L183,153 L153,153 Q149,136 142,119 M143,-26 L143,68 L228,68 L228,-26 L216,-26 L216,-8 L156,-8 L156,-26 M20,178 L20,190 L123,190 L123,178 L91,178 L91,143 L118,143 L118,-23 L107,-23 L107,-8 L36,-8 L36,-23 L25,-23 L25,143 L51,143 L51,178"/> 
            <glyph glyph-name="醒" unicode="&#x9192;" horiz-adv-x="240" d=" M61,179 L61,145 L76,145 L76,179 M102,133 L86,133 L86,95 Q85,82 96,83 L102,83 M35,133 L35,68 Q44,79 47,89.5 Q50,100 50,122 L50,133 M145,150 L145,128 L217,128 L217,150 M145,182 L145,161 L217,161 L217,182 M35,35 L35,3 L102,3 L102,35 M44,61 Q39,65 35,68 L35,47 L102,47 L102,72 L92,72 Q76,72 76,92 L76,133 L61,133 L61,123 Q61,98 57.5,85.5 Q54,73 44,61 M132,29 L132,40 L177,40 L177,71 L142,71 Q137,59 131,48 Q126,51 120,55 Q133,77 140,103 L151,100 Q149,90 146,82 L177,82 L177,108 L189,108 L189,82 L233,82 L233,71 L189,71 L189,40 L231,40 L231,29 L189,29 L189,-4 L240,-4 L240,-15 L123,-15 L123,-4 L177,-4 L177,29 M133,117 L133,194 L229,194 L229,117 M20,179 L20,191 L117,191 L117,179 L87,179 L87,145 L113,145 L113,-23 L102,-23 L102,-8 L35,-8 L35,-24 L24,-24 L24,145 L50,145 L50,179"/> 
            <glyph glyph-name="预" unicode="&#x9884;" horiz-adv-x="240" d=" M231,-23 Q198,9 173,31 Q160,2 107,-26 Q103,-20 97,-14 Q141,7 155.5,28 Q170,49 169,84 L169,116 L182,116 L182,83 Q182,60 178,43 Q207,18 240,-11 M22,-23 Q21,-16 19,-8 Q28,-9 39,-9 Q53,-9 53,4 L53,104 L16,104 L16,117 L65,117 Q45,138 30,154 L39,162 Q48,153 57,144 L86,180 L20,180 L20,193 L100,193 L100,178 L66,135 L75,124 L68,117 L107,117 L107,103 L96,63 Q89,66 83,67 L94,104 L66,104 L66,3 Q66,-22 43,-23 Q32,-23 22,-23 M114,180 L114,193 L240,193 L240,180 L180,180 L174,143 L230,143 L230,31 L216,31 L216,131 L135,131 L135,30 L122,30 L122,143 L160,143 L166,180"/> 
            <glyph glyph-name="高" unicode="&#x9AD8;" horiz-adv-x="239" d=" M91,41 L91,16 L165,16 L165,41 M68,138 L68,115 L188,115 L188,138 M17,169 L17,181 L123,181 Q121,192 117,203 L132,205 L138,181 L239,181 L239,169 M78,4 L78,53 L178,53 L178,4 M29,-24 L29,84 L226,84 L226,5 Q228,-22 201,-23 Q189,-23 172,-23 L170,-8 Q182,-9 196,-9 Q214,-10 213,6 L213,72 L43,72 L43,-24 M55,104 L55,150 L201,150 L201,104"/> 
            <glyph glyph-name="！" unicode="&#xFF01;" horiz-adv-x="73" d=" M73,8 L73,-10 L55,-10 L55,8 M57,43 L57,188 L71,188 L71,43"/> 
            <glyph glyph-name="，" unicode="&#xFF0C;" horiz-adv-x="73" d=" M55,13 L73,13 L73,-5 Q73,-31 64,-51 L55,-51 Q63,-31 63,-5 L55,-5"/> 
        </font>
</defs>
</svg>
