<?xml version="1.0" standalone="no"?><!DOCTYPE svg PUBLIC "-//W3C//DTD SVG 1.1//EN" "http://www.w3.org/Graphics/SVG/1.1/DTD/svg11.dtd" ><svg xmlns="http://www.w3.org/2000/svg"><metadata></metadata><defs><font id="fonteditor" horiz-adv-x="256"><font-face font-family="e¹kcnR;g,`¦[{OS" font-weight="400" font-stretch="normal" units-per-em="256" panose-1="2 0 0 0 0 0 0 0 0 0" ascent="221" descent="-58" x-height="0" bbox="0 -48 262 218" underline-thickness="0" underline-position="0" unicode-range="U+002c-ff1f" /><missing-glyph horiz-adv-x="256"  /><glyph glyph-name="comma" unicode="," d="M18 -31 L13 -24 Q34 -11 35 2 Q14 1 13 22 Q13 42 33 42 Q53 41 53 17 Q54 -12 18 -31 Z" /><glyph glyph-name="period" unicode="." d="M33 43 Q50 42 51 23 Q50 3 33 2 Q14 3 13 22 Q14 42 33 43 Z" /><glyph glyph-name="slash" unicode="/" d="M20 -32 L9 -32 L56 184 L68 184 L20 -32 Z" /><glyph glyph-name="zero" unicode="0" d="M57 180 Q101 179 101 89 Q101 -1 57 0 Q11 -1 12 89 Q12 180 57 180 ZM57 172 Q36 173 36 89 Q36 3 57 6 Q78 4 78 89 Q79 175 57 172 Z" /><glyph glyph-name="one" unicode="1" d="M77 3 L11 3 L11 9 Q34 8 33 36 L33 137 Q34 162 13 162 L13 168 L56 180 L56 37 Q54 7 77 9 L77 3 Z" /><glyph glyph-name="two" unicode="2" d="M96 60 L103 58 L99 3 L13 3 Q16 55 53 88 Q77 109 77 136 Q77 173 56 173 Q41 171 38 153 Q51 130 29 124 Q15 125 15 142 Q18 179 57 181 Q99 179 101 136 Q102 99 63 76 Q35 62 27 30 L78 30 Q91 27 96 60 Z" /><glyph glyph-name="three" unicode="3" d="M38 89 L38 98 Q73 102 73 139 Q73 172 54 173 Q39 172 37 156 Q47 133 26 129 Q13 129 13 146 Q16 179 55 181 Q95 179 97 138 Q97 107 58 94 Q101 84 99 46 Q98 0 54 0 Q10 2 10 31 Q11 49 25 50 Q47 45 36 22 Q41 6 54 6 Q75 8 76 46 Q77 88 38 89 Z" /><glyph glyph-name="four" unicode="4" d="M98 3 L46 3 L46 10 Q61 9 60 30 L60 49 L9 49 L9 60 L66 177 L83 177 L83 60 L100 60 L100 49 L83 49 L83 31 Q82 8 98 10 L98 3 ZM60 60 L60 143 L19 60 L60 60 Z" /><glyph glyph-name="five" unicode="5" d="M22 177 L92 177 L92 150 L29 150 L25 93 Q38 109 56 109 Q96 105 99 56 Q98 2 52 0 Q13 1 11 30 Q12 47 25 48 Q47 43 35 21 Q40 7 52 7 Q75 9 76 55 Q76 99 49 99 Q33 99 23 74 L16 76 L22 177 Z" /><glyph glyph-name="six" unicode="6" d="M60 172 Q37 169 36 98 Q46 113 61 113 Q97 107 100 57 Q98 1 56 0 Q13 0 13 83 Q15 176 62 181 Q93 179 96 152 Q96 136 82 136 Q64 138 72 161 Q70 173 60 172 ZM57 103 Q38 100 36 61 Q37 9 56 6 Q77 7 77 56 Q76 100 57 103 Z" /><glyph glyph-name="seven" unicode="7" d="M19 120 L13 121 L18 177 L99 177 L99 160 Q61 86 62 15 Q62 0 48 0 Q35 0 35 12 Q35 54 85 150 L38 150 Q25 152 19 120 Z" /><glyph glyph-name="eight" unicode="8" d="M95 140 Q93 112 69 100 Q100 78 99 48 Q98 1 53 0 Q12 0 11 40 Q11 71 38 87 Q13 107 13 133 Q15 179 55 181 Q93 179 95 140 ZM35 146 Q34 122 62 103 Q78 119 77 142 Q76 172 55 173 Q36 170 35 146 ZM78 38 Q79 64 46 82 Q28 67 28 43 Q29 9 53 7 Q76 10 78 38 Z" /><glyph glyph-name="nine" unicode="9" d="M52 7 Q72 5 76 81 Q65 65 49 65 Q13 67 12 120 Q13 178 55 180 Q96 175 99 95 Q99 0 51 0 Q18 0 15 26 Q16 43 29 44 Q51 41 41 17 Q44 7 52 7 ZM55 172 Q36 170 35 121 Q35 78 55 77 Q76 77 76 123 Q75 170 55 172 Z" /><glyph glyph-name="semicolon" unicode=";" d="M32 116 Q48 116 48 97 Q47 79 32 78 Q17 79 16 97 Q17 115 32 116 ZM21 -31 L16 -23 Q31 -14 34 0 Q15 -1 16 17 Q18 34 31 36 Q50 35 50 14 Q50 -13 21 -31 Z" /><glyph glyph-name="at" unicode="@" d="M137 27 L141 17 Q113 0 85 0 Q15 3 12 81 Q16 173 93 178 Q155 174 158 99 Q157 45 118 34 Q95 29 99 53 Q87 34 70 34 Q47 35 48 69 Q55 140 99 146 Q108 146 114 136 L116 143 L134 143 Q120 80 117 55 Q116 48 122 48 Q147 53 149 99 Q148 167 93 169 Q38 164 35 83 Q38 15 87 10 Q110 10 137 27 ZM78 46 Q103 54 109 121 Q110 137 100 137 Q75 131 69 67 Q69 46 78 46 Z" /><glyph glyph-name="A" unicode="a" d="M91 3 L91 10 Q113 10 108 24 L98 60 L48 60 L37 24 Q32 11 56 10 L56 3 L8 3 L8 10 Q23 9 28 25 L76 177 L89 178 L133 33 Q139 10 156 10 L156 3 L91 3 ZM51 70 L95 70 L74 144 L51 70 Z" /><glyph glyph-name="C" unicode="c" d="M128 175 L130 122 L123 119 Q109 174 80 171 Q40 167 38 89 Q40 14 82 12 Q111 13 126 51 L135 46 Q118 0 80 0 Q15 4 12 88 Q15 176 80 180 Q100 180 114 170 L128 175 Z" /><glyph glyph-name="D" unicode="d" d="M9 177 L66 177 Q144 177 143 91 Q144 2 67 3 L9 3 L9 11 Q27 9 26 33 L26 145 Q27 171 9 169 L9 177 ZM49 11 L67 11 Q118 12 119 90 Q119 169 66 169 L49 169 L49 11 Z" /><glyph glyph-name="E" unicode="e" d="M25 33 L25 145 Q26 170 7 169 L7 177 L112 177 L115 135 L109 133 Q102 173 75 169 L48 169 L48 97 L67 97 Q90 95 90 122 L97 122 L97 62 L90 62 Q89 91 67 89 L48 89 L48 11 L79 11 Q100 6 112 52 L118 51 L114 3 L7 3 L7 11 Q26 10 25 33 Z" /><glyph glyph-name="H" unicode="h" d="M94 3 L94 11 Q112 8 110 37 L110 91 L49 91 L49 36 Q48 9 66 11 L66 3 L9 3 L9 11 Q28 9 27 36 L27 142 Q29 172 10 169 L10 177 L65 177 L65 169 Q47 172 49 142 L49 99 L110 99 L110 142 Q111 171 94 169 L94 177 L149 177 L149 169 Q131 172 133 142 L133 37 Q131 8 150 11 L150 3 L94 3 Z" /><glyph glyph-name="I" unicode="i" d="M9 177 L69 177 L69 169 Q49 171 50 142 L50 36 Q49 9 69 11 L69 3 L8 3 L8 11 Q28 9 27 36 L27 142 Q28 171 9 169 L9 177 Z" /><glyph glyph-name="L" unicode="l" d="M115 58 L111 3 L7 3 L7 11 Q28 8 26 36 L26 144 Q27 171 8 169 L8 177 L66 177 L66 169 Q48 171 49 145 L49 11 L75 11 Q98 6 108 60 L115 58 Z" /><glyph glyph-name="P" unicode="p" d="M25 36 L25 144 Q26 171 8 169 L8 177 L67 177 Q122 177 122 129 Q123 75 68 76 L48 76 L48 37 Q47 9 67 11 L67 3 L8 3 L8 11 Q26 9 25 36 ZM48 83 L61 83 Q97 84 98 128 Q98 169 61 169 L48 169 L48 83 Z" /><glyph glyph-name="Q" unicode="q" d="M147 2 L149 -3 Q133 -15 120 -15 Q104 -15 92 1 Q85 0 77 0 Q11 2 10 88 Q13 176 76 181 Q141 178 143 89 Q143 40 114 12 Q121 -2 135 -1 Q137 -1 147 2 ZM44 37 Q52 63 70 62 Q88 66 107 23 Q119 50 119 88 Q119 173 76 173 Q36 171 35 90 Q35 59 44 37 ZM77 7 Q79 7 84 8 Q87 8 88 8 Q71 50 62 46 Q54 46 48 25 Q57 8 77 7 Z" /><glyph glyph-name="bracketleft" unicode="[" d="M17 195 L57 195 L57 187 L48 187 Q40 187 40 174 L40 -1 Q39 -14 49 -13 L57 -13 L57 -21 L17 -21 L17 195 Z" /><glyph glyph-name="bracketright" unicode="]" d="M50 -21 L9 -21 L9 -13 L17 -13 Q27 -14 27 0 L27 174 Q27 187 17 187 L9 187 L9 195 L50 195 L50 -21 Z" /><glyph glyph-name="a" unicode="a" d="M87 90 L87 25 Q86 11 98 12 L99 4 L76 2 Q65 0 66 19 Q55 0 35 0 Q10 3 9 33 Q9 72 65 74 L65 91 Q65 116 51 117 Q42 117 37 108 Q47 87 27 84 Q16 85 15 98 Q19 123 51 125 Q86 125 87 90 ZM65 47 L65 67 Q33 65 32 35 Q32 12 46 12 Q64 14 65 47 Z" /><glyph glyph-name="b" unicode="b" d="M6 158 L6 166 L42 177 Q42 156 42 127 L42 105 Q49 124 66 124 Q101 120 103 62 Q102 2 62 0 Q46 0 36 16 L24 1 L18 3 L20 34 L20 136 Q21 160 6 158 ZM61 114 Q42 111 41 58 Q41 10 61 8 Q81 9 81 61 Q80 111 61 114 Z" /><glyph glyph-name="c" unicode="c" d="M80 32 L86 28 Q75 0 53 0 Q13 1 12 61 Q13 123 53 125 Q81 123 84 98 Q84 83 71 83 Q55 87 63 105 Q62 117 52 118 Q34 115 35 62 Q35 12 57 11 Q71 11 80 32 Z" /><glyph glyph-name="d" unicode="d" d="M60 160 L60 167 L97 177 Q95 152 95 132 L95 30 Q94 9 107 11 L107 4 L83 2 Q73 0 74 15 Q65 0 48 0 Q13 2 12 60 Q14 121 51 124 Q63 124 74 112 L74 137 Q75 161 60 160 ZM54 114 Q34 113 34 61 Q34 12 54 11 Q74 11 74 63 Q73 112 54 114 Z" /><glyph glyph-name="e" unicode="e" d="M79 34 L86 28 Q74 0 52 0 Q12 1 11 60 Q12 124 50 125 Q83 123 84 65 L34 65 Q34 12 57 12 Q71 12 79 34 ZM34 72 L62 72 Q62 117 48 118 Q36 116 34 72 Z" /><glyph glyph-name="f" unicode="f" d="M68 121 L68 113 L44 113 L44 33 Q42 9 59 11 L59 3 L8 3 L8 11 Q23 9 22 32 L22 113 L8 113 L8 121 L22 121 L22 141 Q23 176 55 177 Q80 176 82 154 Q82 142 69 141 Q53 143 61 162 Q59 169 53 169 Q44 168 44 147 L44 121 L68 121 Z" /><glyph glyph-name="g" unicode="g" d="M96 111 Q95 103 89 107 Q84 113 78 112 Q87 96 87 81 Q86 42 50 40 Q42 40 36 43 Q29 37 29 30 Q29 21 46 20 Q48 20 54 20 Q60 21 63 21 Q94 20 95 -6 Q94 -45 50 -46 Q12 -45 10 -19 Q10 -6 25 0 Q12 6 12 21 Q11 35 29 46 Q14 57 14 80 Q15 124 49 125 Q60 125 67 123 Q79 124 88 124 Q96 124 96 111 ZM49 118 Q36 118 36 81 Q36 49 49 48 Q64 49 64 81 Q63 116 49 118 ZM55 0 L32 0 Q27 -5 27 -14 Q28 -37 52 -38 Q76 -37 77 -17 Q78 0 55 0 Z" /><glyph glyph-name="h" unicode="h" d="M110 3 L65 3 L65 11 Q78 9 77 34 L77 80 Q76 108 64 110 Q45 107 43 68 L43 34 Q42 9 55 11 L55 3 L9 3 L9 11 Q22 9 21 33 L21 136 Q22 161 9 158 L9 166 L44 177 Q43 162 43 133 L43 103 Q54 124 72 124 Q99 123 99 83 L99 34 Q98 9 110 11 L110 3 Z" /><glyph glyph-name="i" unicode="i" d="M10 107 L10 114 L45 124 L45 34 Q44 9 60 11 L60 3 L9 3 L9 11 Q25 9 24 34 L24 87 Q24 108 10 107 ZM35 178 Q47 176 48 162 Q48 146 35 145 Q22 146 21 162 Q22 177 35 178 Z" /><glyph glyph-name="j" unicode="j" d="M29 107 L29 114 L66 124 Q65 108 65 83 L65 -3 Q65 -45 31 -45 Q11 -44 9 -25 Q10 -11 21 -10 Q41 -14 31 -33 Q31 -36 36 -36 Q43 -35 43 -14 L43 86 Q44 109 29 107 ZM54 179 Q67 177 68 162 Q67 146 54 145 Q41 146 40 162 Q41 177 54 179 Z" /><glyph glyph-name="k" unicode="k" d="M56 3 L7 3 L7 11 Q21 9 20 30 L20 138 Q22 164 7 161 L7 166 L43 177 Q42 162 42 133 L42 59 L68 102 Q72 114 58 113 L58 121 L102 121 L102 113 Q87 114 71 93 L66 83 L89 28 Q95 13 107 11 L107 3 L76 3 L52 60 L42 46 L42 31 Q41 9 56 11 L56 3 Z" /><glyph glyph-name="l" unicode="l" d="M58 3 L7 3 L7 11 Q23 9 22 32 L22 134 Q23 159 8 157 L8 165 L43 177 L43 33 Q42 9 58 11 L58 3 Z" /><glyph glyph-name="m" unicode="m" d="M157 3 L113 3 L113 11 Q125 10 124 30 L124 83 Q124 111 111 111 Q94 106 92 77 L92 31 Q92 10 103 11 L103 3 L60 3 L60 11 Q72 9 71 31 L71 80 Q71 111 59 111 Q43 106 41 71 L41 30 Q40 9 52 11 L52 3 L7 3 L7 11 Q19 10 18 30 L18 87 Q19 108 7 106 L7 114 L41 124 L41 102 Q50 124 68 123 Q85 123 91 98 Q102 123 119 123 Q146 122 146 85 L146 30 Q145 10 157 11 L157 3 Z" /><glyph glyph-name="n" unicode="n" d="M6 106 L6 114 L39 125 L39 101 Q50 123 67 123 Q94 124 94 85 L94 29 Q93 10 106 11 L106 3 L61 3 L61 11 Q73 9 72 28 L72 79 Q73 112 59 110 Q41 105 39 70 L39 28 Q37 9 50 11 L50 3 L6 3 L6 11 Q19 9 17 29 L17 86 Q18 109 6 106 Z" /><glyph glyph-name="o" unicode="o" d="M51 125 Q91 123 92 61 Q91 1 51 0 Q10 0 10 59 Q11 123 51 125 ZM51 118 Q32 117 32 60 Q32 7 51 6 Q69 6 69 61 Q69 117 51 118 Z" /><glyph glyph-name="p" unicode="p" d="M43 124 L43 108 Q51 123 67 123 Q101 118 103 63 Q102 1 65 0 Q52 1 43 10 L43 -16 Q42 -40 56 -38 L56 -46 L8 -46 L8 -38 Q23 -40 22 -17 L22 86 Q23 107 8 106 L8 114 L43 124 ZM62 112 Q43 110 42 59 Q42 11 62 10 Q81 14 81 62 Q80 110 62 112 Z" /><glyph glyph-name="q" unicode="q" d="M103 -46 L54 -46 L54 -38 Q69 -39 68 -19 L68 12 Q60 0 46 0 Q10 1 9 61 Q11 122 49 124 Q64 124 75 108 L84 125 L90 123 L90 -18 Q89 -39 103 -38 L103 -46 ZM51 115 Q32 114 32 62 Q32 13 50 11 Q70 13 71 64 Q71 114 51 115 Z" /><glyph glyph-name="r" unicode="r" d="M7 116 L43 125 L43 99 Q55 125 70 125 Q85 124 86 106 Q86 90 72 90 Q60 91 61 106 Q45 100 43 70 L43 33 Q42 11 57 11 L57 3 L7 3 L7 11 Q22 10 21 31 L21 86 Q22 109 7 108 L7 116 Z" /><glyph glyph-name="s" unicode="s" d="M69 124 L71 90 L65 88 Q57 118 43 117 Q31 117 29 101 Q29 86 49 74 Q76 60 75 36 Q74 1 43 0 Q32 0 22 5 L12 3 L11 37 L17 39 Q24 4 43 7 Q55 8 56 22 Q57 39 33 52 Q10 64 10 88 Q12 123 43 125 Q52 125 60 120 L69 124 Z" /><glyph glyph-name="t" unicode="t" d="M32 161 L39 161 L39 121 L60 121 L60 113 L39 113 L39 30 Q38 13 50 13 Q53 13 61 20 L64 12 Q54 0 39 0 Q16 0 17 28 L17 113 L7 113 L7 121 L10 121 Q26 118 32 161 Z" /><glyph glyph-name="u" unicode="u" d="M107 11 L108 4 L84 2 Q74 1 75 12 L75 23 Q66 0 46 0 Q19 0 19 36 L19 89 Q20 109 7 109 L7 118 L41 124 Q41 111 41 91 L41 42 Q40 14 56 15 Q75 18 76 59 L76 87 Q77 111 63 109 L63 116 L98 124 Q97 109 97 89 L97 24 Q96 10 107 11 Z" /><glyph glyph-name="v" unicode="v" d="M65 121 L99 121 L99 113 Q89 113 81 89 L57 3 L44 3 L19 97 Q15 114 6 113 L6 121 L52 121 L52 113 Q37 113 43 94 L58 34 L75 97 Q80 114 65 113 L65 121 Z" /><glyph glyph-name="w" unicode="w" d="M52 38 L70 118 L83 118 L102 36 L114 93 Q118 115 103 114 L103 121 L137 121 L137 114 Q126 114 121 90 L103 3 L89 3 L70 81 L52 3 L38 3 L18 97 Q16 113 7 114 L7 121 L48 121 L48 114 Q37 113 41 94 L52 38 Z" /><glyph glyph-name="x" unicode="x" d="M98 3 L48 3 L48 11 Q61 12 56 21 L46 45 L34 21 Q31 16 32 13 Q34 11 41 11 L41 3 L7 3 L7 11 Q19 11 25 24 L42 55 L23 98 Q16 112 7 113 L7 121 L52 121 L52 113 Q46 114 44 112 Q43 109 45 104 L55 79 L68 101 Q71 108 70 110 Q69 113 63 113 L63 121 L97 121 L97 113 Q86 115 76 97 L59 70 L79 28 Q85 12 98 11 L98 3 Z" /><glyph glyph-name="y" unicode="y" d="M66 121 L100 121 L100 113 Q89 114 83 93 L50 -17 Q41 -48 28 -47 Q13 -46 13 -30 Q14 -16 26 -15 Q37 -16 37 -25 Q40 -23 44 -11 L48 3 L20 97 Q16 112 7 113 L7 121 L51 121 L51 113 Q39 115 44 98 L59 42 L75 95 Q82 113 66 113 L66 121 Z" /><glyph glyph-name="z" unicode="z" d="M77 45 L83 44 L82 3 L7 3 L7 9 L55 113 L39 113 Q24 118 15 81 L10 82 L12 121 L81 121 L81 115 L33 11 L52 11 Q70 7 77 45 Z" /><glyph glyph-name="quotedblleft" unicode="&#x201c;" d="M223 204 L227 196 Q210 184 210 171 Q227 173 227 153 Q226 135 212 134 Q196 135 196 158 Q196 187 223 204 ZM185 203 L189 195 Q173 184 172 170 Q189 172 189 152 Q188 135 174 134 Q158 134 158 157 Q158 188 185 203 Z" /><glyph glyph-name="quotedblright" unicode="&#x201d;" d="M34 134 L29 142 Q45 153 47 167 Q29 164 29 185 Q30 202 45 203 Q60 202 60 180 Q61 150 34 134 ZM71 134 L67 142 Q82 152 84 166 Q67 165 67 184 Q68 202 82 203 Q97 202 98 179 Q98 150 71 134 Z" /><glyph glyph-name="uni3002" unicode="&#x3002;" d="M53 13 L53 5 Q53 -17 64 -16 Q75 -17 75 6 L75 14 Q75 35 64 35 Q53 34 53 13 ZM63 42 Q90 40 91 10 Q90 -21 63 -23 Q37 -22 36 8 Q38 40 63 42 Z" /><glyph glyph-name="uni4E00" unicode="&#x4e00;" d="M54 95 Q28 93 22 91 L12 101 L202 105 L220 123 L240 103 Q241 100 238 100 L54 95 Z" /><glyph glyph-name="uni4E0A" unicode="&#x4e0a;" d="M59 -16 Q33 -16 23 -20 L12 -11 L107 -8 L108 167 L106 213 L138 204 Q141 204 139 200 Q134 197 133 190 L132 115 L190 116 L205 133 L224 114 Q226 112 223 112 L132 109 L131 -8 L201 -7 L219 9 L240 -8 Q241 -11 238 -11 L59 -16 Z" /><glyph glyph-name="uni4E0B" unicode="&#x4e0b;" d="M48 184 Q30 183 21 181 L12 190 L204 193 L221 210 L242 190 Q243 189 243 188 Q243 187 241 187 L118 185 L134 179 Q135 179 135 176 L134 164 L134 51 L135 4 Q132 -12 111 -25 Q107 -26 106 -20 L108 46 L109 157 Q108 173 106 185 L48 184 ZM154 131 Q214 104 219 90 Q222 72 204 60 Q196 56 194 63 Q181 102 152 129 Q152 132 154 131 Z" /><glyph glyph-name="uni4E0D" unicode="&#x4e0d;" d="M68 179 Q52 178 41 176 L32 186 L209 188 L225 205 L243 186 Q244 183 242 183 L162 181 L176 168 Q177 166 173 164 Q177 166 172 163 Q164 151 155 141 L156 2 Q154 -14 135 -24 Q130 -25 130 -20 L131 20 L132 113 Q73 50 6 13 Q4 12 3 13 Q3 14 4 16 Q82 66 127 146 Q127 148 126 152 Q127 150 125 154 Q126 157 129 156 L132 154 Q140 168 146 181 L68 179 ZM184 112 Q229 93 242 69 Q249 52 233 39 Q222 37 220 46 Q212 81 183 110 Q182 111 184 112 Z" /><glyph glyph-name="uni4E13" unicode="&#x4e13;" d="M73 160 Q58 160 45 158 L37 165 L103 166 L108 186 L113 215 L139 205 Q142 203 139 200 Q133 196 132 186 L127 166 L188 166 L201 179 L217 165 Q218 163 218 163 Q217 162 216 162 L126 161 L118 123 L216 124 L232 140 L249 123 Q251 121 248 121 L116 118 L112 96 L109 84 L174 85 L184 96 L208 78 Q210 77 208 75 L199 69 Q177 48 140 19 Q160 10 168 3 Q175 -4 166 -24 Q161 -33 153 -22 Q127 10 87 34 Q86 36 88 37 Q90 36 93 35 Q121 26 135 20 Q156 50 173 80 L108 79 Q99 68 85 63 Q80 62 80 65 L91 105 L93 118 L48 116 Q29 116 20 114 L12 121 L94 122 L102 161 L73 160 Z" /><glyph glyph-name="uni4E1A" unicode="&#x4e1a;" d="M42 -12 Q25 -13 13 -15 L5 -7 L92 -6 L93 168 L92 213 L118 205 Q121 204 119 201 Q116 198 114 191 L113 -5 L141 -5 L142 167 L141 212 L170 204 Q173 204 170 200 Q167 199 165 190 L164 54 Q191 116 202 167 L231 150 Q233 148 231 147 L224 142 Q193 83 164 42 L163 -5 L215 -4 L230 10 L252 -6 Q253 -8 251 -9 L42 -12 ZM33 158 Q80 102 84 72 Q81 57 63 51 Q54 49 55 57 Q53 113 31 157 Q31 159 33 158 Z" /><glyph glyph-name="uni4E1D" unicode="&#x4e1d;" d="M231 137 Q233 135 231 135 L225 130 Q208 110 158 56 Q150 48 147 44 L229 46 Q230 44 228 44 Q148 23 138 17 Q138 17 137 17 Q134 15 133 18 L125 42 Q133 42 142 51 Q156 68 180 109 Q148 98 136 93 Q134 92 133 92 Q132 92 132 94 L126 114 Q133 113 141 124 Q163 158 180 206 L205 189 Q208 188 204 183 Q176 152 143 116 L186 118 Q197 138 205 155 L231 137 ZM136 143 Q138 142 136 140 L130 135 Q109 110 53 46 L121 51 Q125 52 122 49 Q59 26 46 19 Q41 16 40 20 L34 45 Q45 46 51 55 Q60 66 87 112 Q75 108 56 102 Q45 98 41 97 Q39 95 38 95 Q37 95 37 97 L32 117 Q38 117 47 127 Q69 161 86 209 L111 192 Q114 191 110 187 Q68 139 49 120 L91 121 Q97 131 107 152 Q110 157 111 159 L136 143 ZM41 -13 Q24 -14 12 -16 L4 -8 L214 -5 L229 9 L251 -7 Q252 -9 250 -10 L41 -13 Z" /><glyph glyph-name="uni4E2A" unicode="&#x4e2a;" d="M121 216 L147 204 Q149 203 149 202 Q149 202 147 200 L142 195 Q162 153 254 111 Q256 107 254 107 Q240 108 220 87 Q164 127 140 192 Q93 119 6 67 Q4 66 3 67 Q3 69 4 70 Q80 121 121 216 ZM148 124 Q149 124 149 122 L147 111 L146 37 L147 1 Q146 -16 126 -31 Q121 -33 120 -26 L121 19 L122 94 Q122 119 120 136 Q119 139 122 138 L148 124 Z" /><glyph glyph-name="uni4E49" unicode="&#x4e49;" d="M61 192 Q72 112 123 70 Q157 124 170 209 L201 198 Q204 196 202 193 L196 186 Q177 105 139 57 Q178 27 246 -3 Q248 -5 247 -7 Q247 -8 244 -8 Q229 -7 209 -28 Q153 3 120 37 Q84 0 7 -33 Q4 -33 6 -29 Q73 4 109 50 Q67 101 57 192 L61 192 ZM99 210 Q134 196 131 185 Q131 172 116 165 Q108 163 107 172 Q105 197 97 208 Q95 212 99 210 Z" /><glyph glyph-name="uni4E5F" unicode="&#x4e5f;" d="M131 202 L128 197 L128 135 L163 151 L172 170 L195 157 Q197 156 195 154 L187 142 L187 70 Q193 32 158 16 Q155 15 154 18 Q153 31 146 35 Q145 37 146 38 Q165 35 164 60 L164 145 L128 129 L127 54 Q128 26 114 12 Q110 8 108 8 Q106 8 106 13 L106 119 L71 103 L68 16 Q68 3 79 2 Q145 -6 207 5 Q222 8 232 37 Q233 39 235 39 Q237 38 236 36 Q234 15 240 8 Q255 -9 233 -16 Q211 -23 168 -24 Q123 -25 81 -19 Q49 -15 51 28 L52 94 L45 91 Q30 85 18 76 L7 82 L52 102 L52 133 Q52 144 51 160 Q51 167 51 169 Q50 173 53 171 L75 159 Q77 159 75 156 L72 148 L71 110 L106 126 L106 174 Q106 205 105 214 Q105 216 106 215 L130 205 Q131 205 132 204 Q132 204 131 202 Z" /><glyph glyph-name="uni4E86" unicode="&#x4e86;" d="M115 146 L131 140 L177 186 L70 182 Q49 180 39 177 L29 186 L180 192 L194 205 L220 181 Q222 179 221 177 Q220 176 217 176 Q194 174 135 138 L145 135 Q147 133 145 132 Q142 126 141 123 L142 53 L142 17 Q143 -11 106 -29 Q102 -31 101 -26 Q102 -10 89 0 Q87 0 88 1 Q88 2 90 2 Q118 -1 116 10 L115 95 Q114 129 114 144 Q113 147 115 146 Z" /><glyph glyph-name="uni4E92" unicode="&#x4e92;" d="M177 145 L200 132 Q202 131 200 130 L192 121 L175 -10 L204 -10 L222 6 L242 -12 Q244 -14 242 -15 L53 -18 Q39 -19 26 -21 L19 -13 L149 -11 L156 41 L61 40 Q58 40 57 42 Q57 44 60 45 Q65 47 66 54 L82 151 L86 181 L63 181 Q52 181 40 179 Q37 178 35 178 L26 187 L189 188 L205 204 L225 187 Q226 185 226 185 Q225 184 224 184 L91 182 L110 172 Q112 170 111 169 Q110 168 110 168 L107 163 L101 130 L166 131 L177 145 ZM88 46 L157 47 L166 125 L100 124 L88 46 Z" /><glyph glyph-name="uni4E94" unicode="&#x4e94;" d="M178 120 L200 107 Q200 107 201 106 Q202 106 201 105 L194 95 L187 -2 L210 -1 L226 12 L246 -3 Q247 -5 245 -6 L44 -10 Q30 -10 17 -12 L9 -4 L82 -3 L96 99 L79 99 Q56 99 45 96 L37 104 L97 105 L103 143 L107 180 L65 179 Q51 179 38 177 L29 185 L191 186 L205 200 L224 184 Q225 183 225 182 Q225 181 223 181 L114 180 L134 171 Q136 170 134 167 L129 162 L120 105 L168 106 L178 120 ZM169 100 L119 99 L102 -3 L163 -2 L169 100 Z" /><glyph glyph-name="uni4EBA" unicode="&#x4eba;" d="M105 206 Q105 209 105 209 Q106 210 108 209 L138 193 Q141 191 138 189 L135 186 Q131 67 252 4 Q255 2 251 0 Q236 2 215 -13 Q167 22 149 64 Q132 99 129 183 L127 182 Q124 43 6 -27 Q4 -28 3 -27 Q3 -25 4 -24 Q64 22 83 68 Q104 114 105 206 Z" /><glyph glyph-name="uni4ECE" unicode="&#x4ece;" d="M146 209 Q146 211 148 210 L174 197 Q177 196 175 193 L170 188 L170 131 Q179 56 251 -6 Q253 -7 252 -9 Q252 -10 250 -10 Q235 -7 215 -24 Q181 23 169 112 Q170 14 54 -33 Q52 -33 52 -32 Q52 -30 54 -29 Q150 11 148 126 L147 173 Q147 200 146 209 ZM71 208 Q71 211 73 210 L97 198 Q100 196 97 193 L93 187 L92 132 Q92 99 89 84 Q124 68 128 56 Q127 44 114 34 Q108 31 107 37 Q101 60 88 78 Q78 14 4 -28 Q2 -29 2 -27 Q2 -26 4 -25 Q75 15 71 135 L72 172 Q72 200 71 208 Z" /><glyph glyph-name="uni4ED4" unicode="&#x4ed4;" d="M132 87 Q115 86 106 83 L97 91 L163 95 Q163 105 162 123 Q162 135 162 139 Q162 142 164 141 L174 137 L205 182 L161 178 Q145 177 137 174 L129 181 L207 187 L219 197 L237 181 Q239 179 238 178 Q238 177 235 176 Q222 173 178 135 L184 133 Q187 133 186 130 Q186 120 186 96 L219 98 L233 114 L252 97 Q254 96 252 94 L186 91 Q187 50 185 13 Q183 -11 152 -26 Q149 -26 150 -22 Q150 -8 141 -4 Q138 -3 138 -2 Q139 0 142 0 Q165 -2 162 12 Q163 31 163 89 L132 87 ZM6 65 Q2 63 4 67 Q70 130 99 214 L121 202 Q123 200 120 197 Q106 166 82 138 L81 4 Q80 -7 68 -24 Q63 -29 61 -23 L64 44 L65 118 Q42 92 6 65 Z" /><glyph glyph-name="uni4EE5" unicode="&#x4ee5;" d="M179 199 L214 185 Q218 184 214 180 L206 170 L206 98 Q205 61 187 37 Q219 28 227 13 Q229 -8 210 -13 Q202 -13 200 -4 Q192 18 182 31 Q159 3 61 -26 Q59 -26 59 -24 Q59 -23 61 -22 Q188 13 181 103 L181 161 Q181 167 180 180 Q180 195 179 199 ZM132 130 Q134 131 135 130 Q135 129 134 127 L77 41 Q66 25 37 -22 Q35 -25 32 -22 Q31 -19 28 -11 Q24 -2 23 0 Q23 5 25 7 Q35 17 45 27 L43 159 Q43 166 42 178 Q42 192 41 197 L69 186 Q71 185 69 182 L64 175 L60 42 Q62 46 68 52 Q71 55 72 57 L132 130 ZM114 200 Q146 187 145 172 Q143 161 131 155 Q121 152 121 161 Q120 185 111 198 Q110 199 111 200 Q112 201 114 200 Z" /><glyph glyph-name="uni4F3C" unicode="&#x4f3c;" d="M181 199 L208 187 Q212 186 209 183 L204 175 L204 100 Q203 56 192 34 Q227 23 234 10 Q236 -8 218 -13 Q212 -14 208 -5 Q202 15 189 29 Q174 0 100 -24 Q98 -25 98 -23 Q97 -22 99 -21 Q155 0 167 22 Q182 41 182 103 L182 160 Q182 191 181 199 ZM7 72 Q5 71 4 72 Q3 73 4 74 Q51 134 73 210 L92 201 Q94 200 92 198 L89 194 Q81 174 70 156 L68 4 Q68 -8 57 -23 Q51 -28 50 -23 L52 44 L54 130 Q34 101 7 72 ZM168 111 Q172 112 170 109 L133 52 Q123 39 98 -2 Q96 -5 93 -2 Q88 7 85 18 Q85 19 86 22 Q86 24 86 24 Q95 31 103 40 L101 148 Q101 172 99 183 L126 173 Q128 171 126 169 L122 163 L119 56 Q120 57 123 61 Q127 65 129 67 L168 111 ZM135 204 Q166 191 164 176 Q163 165 151 161 Q144 158 143 165 Q143 164 143 166 Q143 188 133 201 Q132 202 133 204 Q133 205 135 204 Z" /><glyph glyph-name="uni4F73" unicode="&#x4f73;" d="M5 73 Q3 72 2 73 Q1 74 2 76 Q70 130 101 211 L122 198 Q124 197 121 193 Q102 161 80 136 L80 0 Q78 -13 65 -27 Q62 -30 61 -30 Q59 -30 59 -27 L60 40 L61 118 Q45 102 5 73 ZM110 45 Q107 45 107 48 Q106 50 109 50 L152 52 L151 97 L181 89 Q182 89 183 88 Q182 87 181 86 Q178 83 176 76 L176 52 L205 53 L216 66 L232 52 Q233 50 233 50 Q232 49 231 49 L176 47 L176 -10 L217 -9 L231 5 L249 -11 Q251 -13 248 -14 L118 -17 Q101 -18 89 -20 L82 -13 L152 -11 L152 47 L110 45 ZM113 156 Q111 155 110 158 Q110 161 112 161 L153 162 L153 167 L152 211 L181 204 Q184 204 181 200 Q178 199 176 190 L176 163 L199 164 L211 177 L228 162 Q230 159 227 159 L176 158 L176 108 L213 109 L226 122 L242 108 Q243 106 243 106 Q242 105 241 105 L100 102 Q97 102 96 104 Q96 106 99 107 L152 108 L153 157 L113 156 Z" /><glyph glyph-name="uni4FBF" unicode="&#x4fbf;" d="M137 187 Q134 187 127 186 Q113 186 109 184 L101 191 L208 195 L220 206 L237 193 Q238 191 238 191 Q237 190 236 190 L158 187 L171 179 L170 158 L198 159 L206 170 L230 158 Q230 158 231 157 Q232 157 231 155 L225 146 L225 99 Q225 86 211 72 Q206 67 202 72 Q198 82 194 88 L168 87 Q165 52 150 28 Q186 8 251 -6 Q253 -7 252 -8 Q252 -10 250 -10 Q234 -11 214 -30 Q167 -12 140 16 Q115 -12 40 -33 Q38 -33 37 -31 Q37 -30 39 -29 Q109 -8 132 26 Q119 43 111 67 L114 68 Q120 50 137 36 Q149 57 151 87 L123 86 Q119 76 111 71 Q109 70 107 70 Q106 71 106 73 L106 141 Q106 157 105 162 Q105 164 108 163 L122 156 L153 157 Q153 177 151 187 L137 187 ZM4 67 Q3 66 2 67 Q1 69 2 70 Q50 121 84 215 L106 202 Q108 201 106 199 Q107 199 106 198 L102 194 Q88 168 73 147 L75 14 Q75 3 61 -12 Q59 -14 57 -14 Q56 -14 56 -11 L57 56 L58 126 Q33 94 4 67 ZM169 105 Q169 98 169 92 L198 93 L199 154 L170 153 L170 127 L188 128 Q191 128 191 126 Q191 123 188 123 L170 122 L169 105 ZM122 121 L123 91 L152 92 Q152 101 153 112 L153 122 L122 121 ZM153 146 Q153 149 153 152 L122 151 L122 126 L153 126 L153 146 Z" /><glyph glyph-name="uni5019" unicode="&#x5019;" d="M145 139 L161 127 Q163 126 161 124 Q157 120 152 112 L193 113 L204 126 L219 112 Q221 110 219 109 L182 108 Q182 85 179 67 L215 68 L228 81 L243 67 Q245 64 242 63 L184 62 Q191 7 249 -6 Q251 -7 251 -8 Q251 -10 249 -10 Q236 -10 220 -28 Q181 -9 181 62 L178 62 Q174 3 82 -34 Q80 -35 79 -33 Q79 -32 81 -31 Q154 6 158 61 L141 61 Q126 60 114 58 L107 65 L159 67 Q161 84 161 108 L148 107 Q144 103 137 95 Q122 78 115 71 Q113 69 114 72 Q137 113 143 138 Q143 140 145 139 ZM7 67 Q3 66 5 69 Q47 128 77 215 L96 205 Q98 204 96 201 L93 198 Q83 174 69 151 L67 0 Q66 -15 55 -29 Q49 -34 48 -28 L50 40 L52 124 Q31 93 7 67 ZM182 188 L133 187 Q131 187 131 189 Q131 191 133 192 L181 193 L190 203 L208 192 Q210 191 210 191 Q210 190 208 189 L203 182 L199 149 L212 149 L224 162 L239 147 Q240 146 238 144 L145 143 Q129 143 119 141 L112 148 L177 148 L182 188 ZM89 162 L102 154 Q104 154 104 148 L103 58 Q103 42 92 31 Q88 27 86 32 L87 159 Q87 162 89 162 Z" /><glyph glyph-name="uni503C" unicode="&#x503c;" d="M130 166 Q111 166 102 163 L95 170 L146 172 L146 177 L147 211 L176 205 Q178 204 176 200 L170 195 L169 172 L208 173 L221 186 L239 171 Q240 170 237 168 L168 167 L166 137 L186 138 L194 148 L215 138 Q217 138 215 135 L210 129 L209 -5 L221 -4 L235 8 L254 -6 Q256 -8 254 -9 L115 -11 Q98 -12 88 -14 L81 -7 L114 -6 L113 110 L112 142 Q112 144 114 143 L132 136 L144 136 L146 166 L130 166 ZM178 32 Q180 31 180 29 Q180 27 177 27 L132 25 L132 -6 L186 -5 L187 132 L131 131 L131 101 L176 102 Q179 102 179 100 Q179 97 177 97 L131 96 L132 66 L176 67 Q179 67 179 65 Q179 63 177 63 L132 61 L132 30 L178 32 ZM4 67 Q3 66 2 67 Q1 69 2 70 Q53 131 83 215 L105 202 Q107 201 104 198 L101 194 Q89 172 76 153 L79 0 Q77 -14 63 -27 Q61 -29 59 -29 Q58 -29 58 -26 L59 40 L60 130 Q35 98 4 67 Z" /><glyph glyph-name="uni505A" unicode="&#x505a;" d="M133 91 L140 101 L155 90 Q156 90 156 88 L152 81 L153 33 L155 27 Q156 24 153 24 Q135 27 101 27 L102 17 Q95 -1 88 3 L87 96 Q87 100 89 98 L100 89 L110 90 L112 147 Q93 146 84 144 L77 150 L112 152 L113 178 Q113 204 113 214 L134 208 Q135 208 135 206 L132 202 L130 153 L143 154 L153 164 L165 152 Q167 150 165 150 L130 148 L127 91 L133 91 ZM171 108 Q178 72 186 57 Q198 88 203 134 L175 132 Q166 117 157 99 Q156 98 155 98 Q154 98 154 100 Q178 168 185 209 Q185 211 187 210 L209 196 Q211 195 209 194 Q203 190 199 181 Q195 171 186 154 Q181 143 178 137 L218 141 L228 153 L243 140 Q245 138 242 138 L207 135 L222 127 Q224 126 221 121 Q213 73 194 41 Q210 14 247 -2 Q248 -3 248 -4 Q248 -5 246 -5 Q234 -4 217 -20 Q192 4 184 26 Q166 0 129 -27 Q125 -29 127 -25 Q161 5 179 41 Q174 58 169 98 Q168 103 168 106 L171 108 ZM6 66 Q2 65 4 68 Q48 130 73 204 L92 195 Q94 194 91 192 L88 188 Q81 171 70 153 L68 4 Q68 -8 57 -23 Q51 -28 50 -23 L52 44 L54 127 Q32 96 6 66 ZM101 84 L102 32 L135 34 L134 86 L101 84 Z" /><glyph glyph-name="uni5065" unicode="&#x5065;" d="M113 194 L131 182 Q133 180 131 180 L123 171 L104 119 L116 120 L124 130 L142 119 Q144 119 143 116 L136 106 Q130 66 113 36 Q138 10 244 2 Q246 2 246 1 Q247 0 245 0 Q228 -3 214 -25 Q134 -13 106 25 Q88 0 57 -26 Q55 -26 55 -25 Q54 -25 55 -23 Q85 5 97 38 Q87 58 82 86 L86 87 Q91 64 101 49 Q109 71 116 114 L102 113 Q96 105 85 102 Q81 101 82 106 L105 179 L82 178 Q79 180 82 184 L105 184 L113 194 ZM169 209 L190 202 Q191 202 191 199 L188 193 L188 180 L205 180 L212 190 L229 180 Q231 180 229 177 L224 170 L224 151 L228 152 L237 162 L250 150 Q251 148 251 148 Q250 147 249 147 L224 146 L224 120 L227 116 Q228 114 225 113 Q213 114 198 114 L187 114 L187 93 L207 94 L216 104 L229 92 Q231 90 228 90 L187 88 L187 64 L215 65 L226 76 L239 63 Q241 61 238 61 L188 59 L188 41 Q185 28 174 16 Q171 14 169 15 Q167 15 168 18 L168 59 L136 58 Q132 60 135 63 L168 64 L169 79 L169 88 L144 87 Q140 89 143 92 L169 93 L169 113 L149 113 Q146 113 146 116 Q146 118 149 119 L169 119 L169 145 L136 144 Q132 147 136 150 L169 150 L169 174 L147 174 Q144 174 143 176 Q143 179 146 179 L169 180 L169 209 ZM4 74 Q1 73 2 76 Q40 126 70 214 L90 204 Q92 204 89 201 L87 197 Q78 179 67 160 L66 16 Q65 2 54 -11 Q48 -16 47 -11 L49 56 L50 133 Q29 101 4 74 ZM187 119 L205 120 L205 145 L187 145 L187 119 ZM205 175 L188 175 L187 151 L205 151 L205 175 Z" /><glyph glyph-name="uni5168" unicode="&#x5168;" d="M98 98 Q84 98 71 96 L63 104 L163 107 L177 121 L195 104 Q198 102 194 102 L127 99 L143 95 Q146 94 144 91 Q141 90 139 81 L138 47 L167 47 L182 61 L201 45 Q203 44 200 42 L138 41 L137 -11 L204 -10 L219 4 L239 -12 Q241 -14 239 -15 L54 -18 Q40 -19 27 -21 L19 -13 L116 -11 L116 40 L92 40 Q78 39 65 37 L56 45 L116 46 L116 58 L115 99 L98 98 ZM121 216 L146 205 Q149 204 146 201 L143 198 Q177 143 254 111 Q256 107 254 107 Q240 106 225 89 Q165 133 139 194 Q94 124 6 67 Q4 66 3 67 Q3 69 4 70 Q81 130 121 216 Z" /><glyph glyph-name="uni517B" unicode="&#x517b;" d="M164 216 L188 207 Q190 206 187 204 L183 200 Q171 188 152 173 L198 175 L213 188 L229 172 Q231 170 229 170 L138 167 Q135 153 131 141 L181 143 L193 154 L209 140 Q211 137 208 137 L129 135 Q124 120 115 108 L204 110 L219 124 L236 108 Q238 106 236 106 L154 104 Q159 76 252 61 Q255 60 252 57 Q236 56 221 37 Q165 57 151 104 L111 103 Q102 90 89 79 L113 72 Q115 71 113 69 L110 62 Q115 -4 16 -35 Q14 -36 13 -35 Q13 -34 14 -32 Q60 -12 73 9 Q88 30 86 76 Q57 54 9 32 Q7 31 6 32 Q5 34 7 35 Q70 67 90 102 L55 101 Q40 101 28 99 L20 106 L93 108 Q101 120 105 135 L84 134 Q71 134 58 132 L49 139 L107 141 Q112 152 113 167 L65 166 Q42 164 37 162 L29 170 L146 173 Q155 191 162 214 Q162 217 164 216 ZM143 75 L173 65 Q175 64 173 62 L167 55 L167 -5 Q165 -18 150 -29 Q143 -33 143 -28 L144 47 L143 75 ZM79 213 Q109 198 108 189 Q104 179 95 176 Q86 175 86 181 Q85 199 77 211 Q75 214 79 213 Z" /><glyph glyph-name="uni5185" unicode="&#x5185;" d="M116 214 L143 206 Q146 206 144 202 L141 194 Q141 176 139 160 L193 161 L205 174 L227 159 Q229 158 227 156 L219 145 L218 60 L219 27 Q219 -8 180 -27 Q177 -29 176 -26 Q177 -8 166 -3 Q164 -2 165 0 Q165 0 167 0 Q195 -2 192 21 L194 155 L139 154 Q136 129 129 110 Q182 86 185 75 Q187 62 174 49 Q167 44 164 54 Q154 81 127 105 Q113 66 60 27 L60 1 Q59 -12 45 -27 Q42 -30 40 -30 Q38 -29 38 -26 L39 129 Q40 150 38 172 Q38 175 39 173 L62 159 L116 159 Q116 184 116 214 ZM61 153 L60 33 Q111 78 115 153 L61 153 Z" /><glyph glyph-name="uni51AC" unicode="&#x51ac;" d="M95 215 L118 200 Q120 199 117 196 L111 191 Q108 187 104 182 L160 185 L175 198 L199 180 Q201 177 199 176 L187 169 Q162 145 137 126 Q170 106 249 85 Q252 84 249 81 Q234 81 217 59 Q155 80 124 116 Q83 86 23 56 Q21 55 20 56 Q19 57 21 59 Q74 93 113 129 Q103 142 92 168 Q58 132 39 119 Q38 118 36 118 Q35 119 36 121 Q75 166 92 214 Q93 217 95 215 ZM97 37 Q155 16 158 2 Q160 -10 146 -22 Q136 -25 133 -16 Q116 13 95 35 Q92 38 97 37 ZM157 179 L100 176 Q99 175 97 173 Q96 172 95 171 Q105 152 121 137 Q142 158 157 179 ZM102 88 Q143 75 147 63 Q149 52 138 43 Q131 40 127 47 Q118 69 100 85 Q99 86 100 88 Q100 89 102 88 Z" /><glyph glyph-name="uni51B0" unicode="&#x51b0;" d="M144 212 L173 200 Q175 199 173 196 L167 188 L164 49 L165 18 Q164 -11 131 -28 Q128 -29 127 -26 Q129 -9 120 -4 Q117 -1 121 0 Q143 -3 142 13 L145 179 L144 212 ZM178 152 Q181 132 184 114 Q204 138 215 159 L236 141 Q239 138 235 137 Q234 137 233 136 Q218 130 185 110 Q197 50 250 8 Q252 6 250 5 Q238 7 217 -8 Q176 39 176 152 L178 152 ZM118 155 L136 145 Q138 144 136 142 L131 134 Q130 40 35 -31 Q33 -32 32 -30 Q31 -29 32 -28 Q106 38 110 139 L83 138 Q80 138 80 140 Q80 143 82 143 L109 144 L118 155 ZM77 156 L46 42 Q44 34 44 25 Q43 14 45 8 Q49 2 43 -3 Q38 -9 26 -10 Q19 -11 21 -2 Q21 0 23 9 Q24 14 24 17 Q26 26 16 30 Q15 32 17 33 Q25 31 28 39 L74 157 Q74 158 76 158 Q77 157 77 156 ZM26 184 Q58 169 58 156 Q56 145 44 139 Q36 138 34 145 Q32 169 23 182 Q23 185 26 184 Z" /><glyph glyph-name="uni51B7" unicode="&#x51b7;" d="M69 94 Q67 93 66 94 Q65 95 67 97 Q113 135 135 214 L161 204 Q163 203 161 201 L157 199 Q168 154 246 107 Q248 106 248 104 Q248 102 246 103 Q230 104 214 91 Q167 127 155 196 Q124 134 69 94 ZM104 39 Q109 37 120 33 Q130 29 135 27 Q153 50 170 81 L120 80 Q105 79 95 77 L89 83 L171 86 L182 98 L204 82 Q205 81 205 81 Q205 80 203 79 L194 72 Q165 43 140 25 Q167 12 174 3 Q177 -7 165 -20 Q157 -28 152 -17 Q136 14 102 37 Q102 39 104 39 ZM83 160 L49 46 Q45 28 49 12 Q55 2 49 -2 Q41 -10 27 -9 Q18 -8 22 1 Q25 10 26 21 Q27 30 16 35 Q14 38 17 38 Q27 34 30 44 L80 161 Q81 162 82 162 Q84 161 83 160 ZM27 191 Q62 177 62 163 Q60 151 47 146 Q37 145 36 153 Q35 176 24 189 Q24 192 27 191 ZM132 142 Q159 127 161 116 Q160 106 147 101 Q138 99 137 105 Q139 126 131 140 Q130 142 132 142 Z" /><glyph glyph-name="uni51C6" unicode="&#x51c6;" d="M75 83 Q73 82 72 84 Q71 85 72 86 Q109 135 133 216 L157 205 Q159 204 159 204 Q159 204 157 202 L154 198 Q143 179 131 159 L208 160 L220 173 L237 158 Q239 156 236 156 L189 154 L188 113 L202 114 L214 125 L229 112 Q230 111 230 110 Q230 109 228 109 L188 108 L187 72 L202 73 L214 84 L229 71 Q231 68 228 68 L187 67 L187 25 L215 25 L228 39 L244 24 Q246 23 246 22 Q246 21 244 21 L129 18 L128 -2 Q128 -15 114 -31 Q107 -36 107 -31 L109 36 L112 131 Q109 127 103 119 Q93 106 75 83 ZM86 160 L55 45 Q49 27 53 10 Q59 1 53 -3 Q45 -12 33 -11 Q24 -10 27 0 Q30 8 30 20 Q31 30 18 35 Q17 37 19 38 Q31 34 35 43 L83 161 Q84 162 85 162 Q87 161 86 160 ZM129 66 L129 24 L166 24 L166 67 L129 66 ZM131 153 L130 112 L166 113 L166 154 L131 153 ZM130 106 L130 71 L166 72 L166 107 L130 106 ZM31 197 Q65 182 65 169 Q62 157 51 153 Q44 151 40 159 Q39 185 29 195 Q29 198 31 197 ZM168 199 Q193 190 194 180 Q193 172 183 167 Q175 165 175 171 Q174 187 167 198 Q166 200 168 199 Z" /><glyph glyph-name="uni51E0" unicode="&#x51e0;" d="M110 190 L154 191 L164 207 L190 193 Q192 192 190 190 L183 179 L173 22 Q171 12 180 12 Q202 11 221 17 Q229 21 236 36 Q237 37 238 37 Q240 36 239 35 Q235 15 244 10 Q261 -6 237 -14 Q215 -18 178 -15 Q151 -9 150 25 L154 186 L110 185 L109 111 Q115 20 6 -34 Q4 -34 3 -33 Q3 -31 4 -30 Q87 15 86 109 L86 177 L85 206 L110 190 Z" /><glyph glyph-name="uni51FA" unicode="&#x51fa;" d="M188 85 L217 73 Q220 72 217 69 L214 62 L214 14 Q214 -4 194 -19 Q190 -22 188 -17 Q184 -2 181 1 L63 0 L63 -2 Q60 -17 49 -24 Q44 -28 42 -23 L43 51 L43 81 L65 72 Q68 71 66 69 L64 63 L63 5 L114 5 L114 112 L72 111 Q69 99 57 89 Q51 85 50 90 L51 159 L50 186 L73 176 Q75 175 74 172 L72 166 L72 116 L114 117 L113 168 L112 213 L142 205 Q145 205 142 201 Q139 200 137 191 L136 117 L183 118 Q183 118 184 120 L185 169 L184 186 L213 174 Q217 173 214 170 L210 163 L210 126 Q210 107 191 93 Q187 90 185 95 Q181 108 177 113 L136 112 L135 6 L186 6 Q187 6 187 8 L188 66 L188 85 Z" /><glyph glyph-name="uni521D" unicode="&#x521d;" d="M228 20 Q226 -4 199 -19 Q197 -20 196 -19 Q194 -18 195 -16 Q196 -1 184 1 Q182 4 185 4 Q207 1 204 15 L208 173 L160 172 L176 166 Q178 165 176 161 L174 155 L174 118 Q182 22 76 -32 Q74 -32 73 -30 Q73 -29 75 -28 Q120 0 136 31 Q153 60 154 118 L155 136 Q154 147 153 172 Q141 172 131 170 L125 177 L207 178 L218 190 L238 176 Q240 176 238 174 L230 164 L228 79 L228 20 ZM111 135 L127 118 Q127 118 127 117 Q129 115 126 114 L97 101 Q115 88 121 80 Q123 69 113 62 Q106 58 104 64 Q101 85 93 99 L82 94 L81 37 L82 7 Q80 -5 63 -24 Q60 -26 59 -26 Q57 -25 57 -23 L61 46 L62 101 Q38 78 4 54 Q2 54 3 57 Q52 100 93 169 L50 167 L32 165 L23 172 L63 174 L65 212 L89 204 Q92 204 90 201 Q84 195 83 175 L94 175 L103 184 L121 171 Q123 169 120 167 L113 161 Q103 144 83 121 L82 100 Q101 117 111 135 Z" /><glyph glyph-name="uni5230" unicode="&#x5230;" d="M62 185 Q44 185 34 182 L26 189 L124 191 L138 205 L153 190 Q155 187 152 187 L84 186 L102 173 Q104 172 102 170 Q88 158 54 124 Q80 125 123 127 Q120 139 108 152 Q106 154 109 154 Q142 140 148 127 Q153 109 137 102 Q130 100 127 108 Q126 116 124 122 Q117 121 104 118 Q90 114 84 113 L104 106 Q108 104 105 101 Q101 97 101 86 L101 69 L123 70 L136 83 L153 68 Q154 67 152 65 L101 64 L101 17 L157 26 Q159 27 158 24 L44 -16 Q39 -18 36 -14 L25 3 Q24 5 24 5 Q25 6 26 6 Q29 6 37 7 Q52 9 61 10 L79 13 L79 63 L64 63 Q61 63 56 62 Q43 62 37 60 L29 68 L79 69 L80 85 Q79 102 79 111 Q77 111 74 110 Q55 106 41 100 Q39 100 38 102 L29 121 Q29 124 30 123 Q38 123 42 123 Q62 151 79 185 L62 185 ZM205 209 L232 198 Q234 197 234 197 Q234 197 232 195 L227 186 L227 21 Q228 -10 197 -26 Q196 -27 195 -26 Q194 -26 194 -23 Q195 -11 186 -5 Q184 -3 185 -2 Q185 -1 187 -1 Q206 -4 204 8 L204 158 Q204 171 203 192 Q203 203 203 207 Q202 210 205 209 ZM169 170 L185 163 Q188 162 186 157 L185 62 Q185 48 172 37 Q166 34 166 38 L167 168 Q167 171 169 170 Z" /><glyph glyph-name="uni5236" unicode="&#x5236;" d="M108 198 L108 166 L124 167 L135 179 L149 165 Q151 163 149 163 L108 162 L108 130 L136 131 L147 143 L162 129 Q162 127 161 127 L108 125 L107 94 L132 95 L140 106 L160 93 Q162 92 160 90 L155 83 L155 47 Q156 23 130 10 Q128 10 128 12 Q128 24 119 29 Q117 30 120 31 Q135 30 133 36 L132 90 L107 89 L107 17 Q108 -8 94 -25 Q91 -28 89 -27 Q86 -27 86 -23 L87 39 L88 88 L61 88 L61 34 Q61 21 51 8 Q48 5 47 6 Q45 7 45 10 L45 73 L44 99 Q44 101 46 100 L61 93 L88 93 L88 124 L74 124 Q61 124 47 122 L40 127 Q26 107 3 85 Q0 84 2 87 Q44 130 49 207 L70 198 Q73 196 70 193 L67 189 Q63 177 60 165 L88 166 L88 171 Q88 197 87 212 L107 202 Q110 202 108 198 ZM211 209 L238 198 Q240 197 238 195 L232 186 L233 24 Q234 -7 204 -23 Q200 -25 200 -20 Q202 -8 192 -1 Q190 0 193 0 Q213 -1 210 12 L210 158 Q210 171 209 192 Q209 203 209 207 Q209 210 211 209 ZM175 170 L190 163 Q193 162 191 157 L189 62 Q189 46 177 37 Q173 34 171 38 L173 168 Q173 172 175 170 ZM58 161 Q52 143 41 128 L88 129 L88 162 L58 161 Z" /><glyph glyph-name="uni524D" unicode="&#x524d;" d="M110 145 L133 133 Q136 131 134 129 L129 121 L129 44 L130 9 Q129 -10 104 -25 Q100 -26 101 -23 Q101 -11 93 -8 Q92 -7 92 -6 Q92 -5 93 -5 Q106 -5 105 0 L104 123 Q104 127 100 128 L66 125 L66 94 L94 97 Q97 97 97 95 Q97 92 94 92 L66 89 L65 57 L94 59 Q97 59 97 57 Q97 55 94 54 L65 51 L65 5 Q65 -6 52 -23 Q49 -25 48 -25 Q46 -24 46 -22 L47 25 L48 110 Q48 118 47 130 Q47 136 47 137 Q47 140 49 139 L66 131 L100 133 L110 145 ZM189 154 L213 143 Q215 142 215 142 Q215 142 213 140 L210 131 L210 22 Q212 -9 182 -25 Q180 -26 179 -26 Q178 -25 178 -22 Q179 -10 170 -4 Q169 -3 169 -2 Q170 0 171 -1 Q189 -2 187 9 L188 103 Q187 137 187 152 Q186 155 189 154 ZM159 216 L185 203 Q187 202 185 200 L180 195 L165 167 L208 168 L222 183 L242 167 Q243 164 241 164 L51 159 Q33 158 23 156 L15 164 L84 166 L83 188 Q83 202 82 204 Q82 207 85 206 L105 197 Q106 197 106 194 L105 166 L145 167 L159 216 ZM154 131 L168 123 Q171 122 170 118 L169 58 Q168 45 156 34 Q151 30 150 35 L151 129 Q151 132 154 131 Z" /><glyph glyph-name="uni529B" unicode="&#x529b;" d="M117 213 L143 204 Q146 203 144 201 L141 195 Q140 173 140 153 L193 154 L205 168 L229 153 Q232 152 230 150 L221 139 Q221 129 220 97 Q219 60 219 47 Q219 24 217 16 Q210 -9 178 -23 Q175 -24 175 -21 Q175 -4 167 0 Q165 1 165 2 Q165 4 167 3 Q190 1 190 20 Q194 66 195 148 L139 146 Q137 62 110 29 Q85 -6 8 -30 Q6 -31 6 -29 Q6 -27 7 -26 Q72 -2 93 32 Q116 65 118 145 L93 144 Q69 144 55 140 L46 150 L118 152 Q118 179 117 213 Z" /><glyph glyph-name="uni529F" unicode="&#x529f;" d="M151 212 L174 202 Q177 200 175 197 L173 190 L173 156 L200 157 L210 170 L233 157 Q235 156 232 154 L225 145 L224 80 L225 26 Q225 0 195 -18 Q193 -19 192 -18 Q190 -17 191 -15 Q192 -3 183 1 Q182 2 182 3 Q182 4 184 4 Q202 4 200 16 L201 152 L173 151 L173 118 Q182 14 47 -32 Q43 -31 46 -27 Q158 17 152 118 L152 150 L147 150 Q133 150 124 147 L117 154 L152 155 L152 174 Q152 205 151 212 ZM23 165 Q19 168 23 171 L99 173 L112 187 L129 172 Q131 170 129 169 L85 168 L83 61 L130 78 Q134 79 132 76 L71 36 Q65 32 55 26 Q43 18 38 15 Q38 15 37 14 Q36 12 34 14 L16 35 Q13 38 16 39 Q35 42 56 51 L61 52 L60 167 L23 165 Z" /><glyph glyph-name="uni52A0" unicode="&#x52a0;" d="M213 177 L235 164 Q237 164 235 162 L229 152 L230 50 L231 48 Q232 46 230 46 Q211 46 175 45 L175 16 Q174 0 161 -13 Q155 -16 155 -12 L156 44 L156 151 Q156 167 156 177 Q156 179 158 177 L176 165 L205 166 L213 177 ZM65 216 L87 206 Q90 204 88 201 L86 195 L86 162 L111 163 L121 176 L144 163 Q146 162 143 160 L136 150 L135 82 L136 29 Q138 0 106 -16 Q104 -17 103 -17 Q101 -16 102 -14 Q103 -1 94 3 Q92 4 93 5 Q93 6 95 6 Q113 6 111 18 L112 158 L86 157 L86 123 Q90 23 5 -27 Q0 -29 3 -25 Q42 7 53 35 Q66 64 66 123 L66 156 L54 156 Q46 156 31 153 L24 160 L66 162 L66 178 Q66 185 65 202 Q65 213 65 216 ZM176 161 L175 50 L206 51 L204 162 L176 161 Z" /><glyph glyph-name="uni52A8" unicode="&#x52a8;" d="M160 212 L183 202 Q186 200 184 197 L182 191 L182 156 L206 157 L217 170 L239 157 Q241 156 239 154 L232 145 L230 80 L231 22 Q229 -3 201 -18 Q198 -20 197 -15 Q198 -3 189 1 Q188 2 188 3 Q188 4 190 4 Q208 4 206 16 L208 152 L182 151 L182 119 Q188 8 73 -32 Q71 -32 71 -30 Q70 -29 72 -28 Q124 -3 141 26 Q160 56 161 119 L161 150 L158 150 Q152 150 139 147 Q138 147 137 147 L129 154 L161 155 L161 174 Q161 205 160 212 ZM52 113 Q47 113 39 112 Q29 112 25 111 L17 117 L113 120 L125 132 L141 117 Q142 116 140 114 L71 113 L90 104 Q92 102 90 100 Q66 60 40 27 L102 39 Q98 54 90 63 Q89 66 92 65 Q125 42 129 27 Q129 14 114 7 Q106 4 106 13 Q106 25 103 36 Q72 23 30 2 Q26 1 25 0 Q22 -1 21 0 L13 21 Q12 24 14 24 Q26 24 29 27 Q48 52 63 113 L52 113 ZM68 174 Q50 174 40 172 L33 178 L96 180 L106 191 L121 178 Q123 177 121 175 L68 174 Z" /><glyph glyph-name="uni52A9" unicode="&#x52a9;" d="M137 48 L138 46 Q88 25 37 0 Q34 -3 33 0 L23 19 Q22 22 23 23 Q27 23 34 25 Q39 26 42 26 L43 148 Q43 180 41 196 Q41 198 44 197 L65 185 Q66 184 66 184 L100 186 L108 197 L127 187 Q129 186 129 186 Q129 185 127 184 L120 175 L120 44 Q123 45 130 46 Q135 48 137 48 ZM213 164 L234 152 Q237 152 235 150 L229 141 Q229 136 228 123 Q226 53 223 27 Q219 -7 188 -23 Q184 -23 185 -21 Q187 -6 176 -2 Q175 -1 175 0 Q175 0 176 0 Q200 -3 200 27 Q204 78 204 145 L177 144 L177 122 Q181 30 93 -35 Q91 -35 90 -34 Q90 -33 91 -32 Q129 2 142 36 Q156 66 157 123 L158 143 L155 143 Q143 143 133 141 L124 148 L158 150 L158 185 L157 211 Q156 214 158 214 L179 206 Q181 205 179 202 L178 196 L177 150 L204 151 L213 164 ZM88 98 Q91 97 88 94 L61 92 L61 30 Q67 32 80 35 Q93 38 99 39 L99 181 L65 179 L60 173 L60 138 L88 140 Q92 137 88 135 L60 133 L61 97 L88 98 Z" /><glyph glyph-name="uni52FA" unicode="&#x52fa;" d="M11 93 Q8 92 8 93 Q7 94 9 96 Q74 147 104 213 L125 198 Q127 195 124 193 L119 190 Q115 185 106 175 Q101 170 99 167 L202 170 L213 183 L236 168 Q238 167 236 165 L227 155 L225 66 L226 33 Q225 -7 184 -28 Q183 -29 182 -29 Q181 -28 181 -27 Q183 -11 170 -4 Q168 -3 169 -2 Q169 -1 171 -1 Q204 -3 201 33 L203 164 L93 161 Q67 133 11 93 ZM84 106 Q139 90 143 72 Q144 57 132 48 Q127 44 124 44 Q120 45 119 51 Q108 87 84 104 Q81 106 84 106 Z" /><glyph glyph-name="uni5300" unicode="&#x5300;" d="M11 93 Q8 92 8 93 Q7 94 9 96 Q74 147 104 213 L125 198 Q127 195 124 193 L119 190 Q115 185 106 175 Q101 170 99 167 L202 169 L213 183 L235 168 Q237 167 235 165 L227 154 L225 66 L225 33 Q224 -8 184 -28 Q181 -30 180 -27 Q182 -11 169 -4 Q167 -1 170 -1 Q204 -3 201 33 L203 164 L93 161 Q67 133 11 93 ZM180 72 Q185 73 182 70 L108 35 Q79 21 71 14 Q68 13 66 14 L48 39 Q47 40 47 41 Q47 42 48 42 Q65 43 94 50 L180 72 ZM89 128 Q131 116 133 106 Q134 95 123 85 Q115 82 112 90 Q101 113 88 126 Q86 129 89 128 Z" /><glyph glyph-name="uni5339" unicode="&#x5339;" d="M173 175 Q175 174 173 172 L169 165 L155 80 Q153 68 164 69 Q176 68 198 72 Q207 74 212 88 Q213 90 215 90 Q216 89 216 87 Q214 73 223 70 Q238 53 210 44 Q187 40 166 44 Q139 48 140 83 L146 168 L146 185 L114 184 L129 178 Q132 177 130 175 L128 169 Q127 81 62 25 Q60 24 59 26 Q58 28 60 29 Q107 77 106 184 L65 183 L65 188 L187 191 L202 206 L221 189 Q223 186 220 186 L151 185 L173 175 ZM37 200 L61 187 L58 178 L56 2 L202 5 L219 22 L238 4 Q239 2 239 2 Q238 1 237 1 L57 -2 Q51 -16 38 -26 Q35 -27 33 -24 L35 31 L37 154 Q37 180 35 199 Q35 200 37 200 Z" /><glyph glyph-name="uni533A" unicode="&#x533a;" d="M45 202 L74 187 L188 189 L203 203 L221 187 Q223 184 220 184 L71 181 L69 177 L66 1 L198 2 L215 20 L235 1 Q237 0 234 0 L66 -2 Q60 -17 49 -25 Q45 -26 42 -23 L45 41 L45 165 Q45 195 44 201 Q45 203 45 202 ZM169 179 L193 163 Q196 162 193 158 L188 152 Q176 125 158 99 Q159 98 161 97 Q192 69 200 60 Q204 57 201 47 Q196 35 187 28 Q182 26 179 33 Q170 49 146 82 Q115 43 74 10 Q72 9 71 10 Q71 11 72 13 Q107 42 135 95 Q108 130 88 150 Q86 152 86 153 Q87 154 90 153 Q94 150 102 143 Q128 123 143 111 Q161 148 169 179 Z" /><glyph glyph-name="uni5355" unicode="&#x5355;" d="M154 214 L176 200 Q178 200 176 197 L170 193 L138 163 L173 164 L182 176 L204 164 Q206 164 205 162 L200 153 L200 125 L201 98 Q200 86 188 73 Q183 69 180 73 Q174 83 171 86 L138 86 L138 52 L208 53 L225 69 L242 52 Q243 49 241 49 L138 47 L138 42 L139 -1 Q135 -17 124 -28 Q116 -35 115 -28 L116 46 L49 45 Q30 44 21 42 L15 50 L116 51 L116 85 L79 84 Q73 74 66 69 Q60 66 59 71 L60 114 L60 153 L59 172 Q58 175 61 173 L79 162 L131 163 L154 214 ZM174 159 L138 158 L138 129 L164 129 Q166 130 166 127 Q165 125 163 125 L138 125 L138 90 L174 91 L174 159 ZM79 123 L79 89 L116 90 L116 124 L79 123 ZM79 157 L79 127 L116 128 L116 158 L79 157 ZM80 207 Q112 196 111 189 Q112 178 102 173 Q96 170 94 176 Q89 196 79 205 Q78 207 80 207 Z" /><glyph glyph-name="uni535C" unicode="&#x535c;" d="M129 0 Q124 -19 106 -31 Q103 -32 101 -27 L103 36 L103 171 L102 215 L132 205 Q133 205 134 204 Q133 203 132 202 Q132 202 131 201 Q130 199 128 192 L128 138 Q186 120 194 106 Q194 90 182 81 Q175 75 169 86 Q145 124 128 133 L128 39 L129 0 Z" /><glyph glyph-name="uni5378" unicode="&#x5378;" d="M68 116 Q50 115 40 113 L33 120 L83 122 L83 140 Q83 157 81 174 L61 173 Q39 131 7 91 Q4 90 5 93 Q36 145 52 216 L77 207 Q79 205 77 203 L74 199 Q72 194 67 185 Q64 180 63 177 L122 179 L135 193 L150 178 Q152 178 150 176 L88 174 L108 167 Q110 165 108 163 L105 157 L104 123 L127 124 L140 138 L156 123 Q156 121 155 121 L104 118 L104 84 L143 87 Q145 87 145 85 Q145 82 143 83 L104 79 L103 28 L146 50 Q147 51 148 49 Q148 48 147 47 L74 -5 Q73 -6 72 -7 Q57 -18 51 -25 Q50 -28 47 -26 L29 -8 Q28 -7 28 -7 Q28 -6 29 -5 Q33 -4 40 -1 Q46 1 50 2 L49 63 Q49 70 48 81 Q48 94 47 99 L69 89 Q71 88 69 85 L67 79 L65 9 L84 19 L83 117 L68 116 ZM219 199 L240 187 Q242 186 240 184 L234 176 L234 102 L235 70 Q233 50 208 38 Q205 37 205 39 Q207 53 198 58 Q196 59 199 61 Q212 61 212 65 L211 183 L180 181 L180 51 L181 8 Q181 -11 166 -31 Q164 -34 162 -33 Q159 -32 159 -29 L161 35 L160 161 Q160 169 159 182 Q159 198 158 204 L180 194 L180 186 L210 188 L219 199 Z" /><glyph glyph-name="uni5385" unicode="&#x5385;" d="M60 202 Q60 205 62 204 L86 193 L210 195 L224 211 L244 194 Q246 191 243 191 L83 187 L83 119 Q83 71 67 44 Q51 14 6 -22 Q4 -22 4 -20 Q3 -19 5 -18 Q40 13 51 44 Q63 72 62 132 L61 172 L60 202 ZM131 141 Q114 141 104 138 L94 146 L206 148 L221 165 L239 148 Q240 147 240 146 Q240 145 238 145 L160 142 L181 134 Q183 133 181 130 L178 122 L177 64 L178 18 Q179 -12 144 -25 Q141 -26 141 -26 Q140 -26 140 -23 Q141 -8 131 -3 Q130 -2 131 0 Q131 0 133 0 Q158 -1 154 7 L155 142 L131 141 Z" /><glyph glyph-name="uni538B" unicode="&#x538b;" d="M122 95 Q102 95 96 93 L87 101 L138 101 L138 126 L137 171 L166 163 Q168 162 166 159 Q163 156 162 149 L162 102 L196 102 L209 115 L226 100 Q228 98 225 98 L162 96 L161 -3 L208 -2 L223 12 L243 -4 Q244 -6 242 -7 Q242 -6 241 -7 L88 -10 Q76 -10 64 -12 Q65 -11 62 -12 L53 -4 L140 -3 L138 96 L122 95 ZM60 201 Q60 204 62 203 L87 189 L202 191 L217 206 L236 190 Q238 187 235 187 L83 183 L83 119 Q90 38 3 -21 Q1 -22 1 -20 Q1 -18 2 -17 Q38 14 50 46 Q63 76 62 133 L62 170 L60 201 ZM175 70 Q215 54 217 43 Q218 31 205 22 Q199 19 197 26 Q190 55 174 68 Q174 70 175 70 Z" /><glyph glyph-name="uni539A" unicode="&#x539a;" d="M188 115 L119 113 Q117 107 108 101 Q105 99 104 99 Q102 100 102 103 L102 150 L101 172 Q101 174 103 173 L121 164 L192 165 L200 178 L223 166 Q227 165 224 162 L219 154 L219 123 L220 118 Q222 114 219 114 Q213 114 201 115 Q192 115 188 115 ZM64 201 Q63 202 66 202 L88 189 L204 191 L219 206 L237 190 Q239 187 236 187 L88 183 L88 114 Q95 30 4 -29 Q2 -29 2 -28 Q2 -26 4 -25 Q41 6 53 38 Q66 67 65 127 L65 170 L64 201 ZM147 74 L161 68 L181 92 L137 90 Q118 89 110 86 L100 93 L183 97 L195 108 L216 89 Q217 88 216 87 Q216 86 214 86 Q196 86 164 67 L172 64 Q175 64 173 62 Q169 60 169 54 L169 47 L215 48 L227 62 L246 48 Q247 46 246 46 Q246 45 244 45 L169 42 L169 33 L170 10 Q171 -11 142 -26 Q138 -28 138 -23 Q139 -7 127 -5 Q125 -4 126 -3 Q126 -2 128 -2 Q150 -4 147 3 L147 41 L112 40 Q94 39 85 36 L76 45 L147 46 Q147 52 146 63 Q146 69 146 72 Q146 75 147 74 ZM120 159 L120 143 L187 145 Q189 144 189 143 Q189 141 187 140 L120 138 L120 118 L193 120 L193 161 L120 159 Z" /><glyph glyph-name="uni53A8" unicode="&#x53a8;" d="M57 200 Q57 203 59 202 L83 191 L208 193 L222 208 L242 191 Q243 189 240 189 L81 186 L80 116 Q80 64 65 37 Q49 6 4 -29 Q2 -29 2 -27 Q1 -26 3 -25 Q38 4 49 36 Q60 64 59 129 L58 170 L57 200 ZM220 175 Q222 175 222 174 Q222 174 220 172 L219 166 L218 135 L220 135 L230 146 L243 134 Q245 133 243 132 L218 131 L218 14 Q219 -11 190 -26 Q187 -27 188 -24 Q188 -9 181 -6 Q180 -5 180 -4 Q180 -3 182 -3 Q201 -4 198 4 L199 130 L167 129 Q164 128 163 130 Q163 133 166 134 L199 134 L198 184 L220 175 ZM141 140 L161 129 Q164 128 162 126 L157 120 L157 82 L158 79 Q159 78 158 77 Q140 79 108 78 Q107 70 96 62 Q90 59 90 63 L90 115 L89 137 L108 130 L133 131 L141 140 ZM170 23 Q171 23 172 22 Q171 21 170 20 L118 -2 Q98 -10 86 -18 Q84 -21 82 -18 L66 -3 Q65 -2 65 -2 Q65 -1 66 0 Q81 0 104 6 L123 10 Q136 52 138 70 L161 61 Q163 60 161 57 L128 12 L170 23 ZM108 126 L108 82 L134 83 L134 126 L108 126 ZM86 155 Q83 155 83 158 Q82 160 85 160 L140 161 L152 173 L167 160 Q168 159 168 158 Q168 157 166 157 L86 155 ZM95 56 Q118 40 117 32 Q114 22 104 19 Q97 18 98 25 Q100 42 93 54 Q92 57 95 56 ZM169 104 Q192 90 193 81 Q191 75 181 70 Q175 68 175 74 Q175 92 167 102 Q167 105 169 104 Z" /><glyph glyph-name="uni53C2" unicode="&#x53c2;" d="M159 190 Q195 170 200 157 Q199 148 189 140 Q185 137 183 138 Q181 139 180 143 Q179 146 178 151 Q178 155 175 163 Q164 161 145 158 Q133 156 127 155 L140 148 Q143 148 141 146 L137 142 Q133 135 127 129 L202 130 L216 146 L234 129 Q235 128 235 127 Q235 126 233 126 L150 124 Q166 92 245 77 Q248 76 245 73 Q228 71 214 51 Q165 73 146 124 L123 123 Q80 71 15 39 Q11 38 13 41 Q67 75 98 123 L60 122 Q40 120 33 119 L24 127 L102 129 Q109 140 115 152 Q85 146 69 140 Q66 137 64 141 L56 161 L77 161 Q100 189 115 216 L135 202 Q137 201 136 200 Q136 199 134 198 L129 195 Q110 180 83 162 L173 166 Q167 179 158 189 Q156 190 159 190 ZM31 -33 Q29 -33 28 -32 Q28 -31 30 -30 Q118 2 168 51 L188 35 Q190 34 187 32 L182 29 Q128 -3 31 -33 ZM148 74 L164 62 Q164 61 163 59 Q129 36 62 10 Q59 10 61 12 Q112 39 145 73 Q146 76 148 74 ZM133 104 L151 91 Q153 90 151 89 Q122 69 65 42 Q63 41 62 43 Q61 44 63 45 Q102 67 133 104 Z" /><glyph glyph-name="uni53C8" unicode="&#x53c8;" d="M113 59 Q82 111 76 186 Q67 185 53 183 Q50 182 49 182 L38 191 L174 195 L185 208 L211 191 Q213 190 213 190 Q213 189 211 188 L202 179 Q181 112 139 64 Q177 29 249 0 Q251 0 251 0 Q251 -1 250 -2 Q224 -2 205 -25 Q151 6 122 45 Q80 3 17 -25 Q15 -26 14 -25 Q13 -24 15 -22 Q72 8 113 59 ZM79 186 Q87 120 126 77 Q160 128 175 190 L79 186 Z" /><glyph glyph-name="uni53CC" unicode="&#x53cc;" d="M128 177 Q125 176 125 179 Q125 182 128 183 L196 185 L206 198 L229 184 Q231 182 229 180 L221 170 Q204 105 178 67 Q202 25 253 -8 Q256 -9 253 -12 Q233 -10 215 -26 Q178 14 164 47 Q140 14 83 -29 Q81 -30 80 -29 Q79 -28 80 -26 Q128 12 157 66 Q144 103 140 177 L128 177 ZM123 51 Q120 40 110 31 Q105 27 102 34 Q93 55 80 75 Q49 22 5 -18 Q3 -19 3 -18 Q2 -17 3 -15 Q46 33 68 93 Q54 115 31 142 Q30 145 33 144 Q35 142 40 138 Q61 121 74 110 Q84 140 89 170 L33 167 Q30 167 29 170 Q28 173 31 174 L88 176 L101 191 L124 175 Q126 174 124 172 L115 162 Q105 125 90 95 Q108 80 121 63 Q126 57 123 51 ZM196 180 L143 177 Q151 122 167 87 Q187 130 196 180 Z" /><glyph glyph-name="uni53E3" unicode="&#x53e3;" d="M202 38 Q176 40 97 40 Q83 40 78 40 L78 27 Q75 7 62 -2 Q56 -5 55 -1 L56 58 L56 141 L54 179 Q54 184 57 182 L79 167 L170 169 L183 185 L208 170 Q209 169 209 167 L202 158 L203 48 L205 41 Q206 39 205 38 Q204 37 202 38 ZM77 162 L78 47 L173 48 L172 163 L77 162 Z" /><glyph glyph-name="uni53EF" unicode="&#x53ef;" d="M124 156 L144 143 Q144 142 144 140 L138 133 L138 71 L140 68 Q140 66 139 66 Q123 68 73 65 L73 59 Q72 41 60 29 Q57 27 56 28 Q55 28 55 30 L55 125 Q55 130 54 143 Q54 149 54 151 Q54 154 56 153 L73 143 L114 145 L124 156 ZM55 180 Q43 179 30 177 Q31 178 28 177 L20 185 L203 189 L219 206 L240 187 Q242 185 240 185 L179 183 L200 175 Q200 175 201 174 Q202 174 201 172 L197 163 L197 69 L199 21 Q198 -14 159 -30 Q156 -31 157 -28 Q158 -11 148 -3 Q147 -2 147 -1 Q148 0 150 0 Q175 -3 173 8 L173 134 L171 183 L55 180 ZM114 140 L73 138 L73 70 L115 72 L114 140 Z" /><glyph glyph-name="uni5403" unicode="&#x5403;" d="M76 190 L100 177 Q100 176 100 174 L92 164 L93 68 L95 66 Q95 64 94 64 Q73 64 45 63 L45 47 Q42 29 30 15 Q26 12 24 16 L26 78 L26 163 Q26 168 25 181 Q25 187 25 189 Q25 191 27 190 L45 177 L66 178 L76 190 ZM173 116 L142 114 Q127 113 114 110 L105 117 L171 122 L183 134 L209 116 L198 107 L129 20 Q124 14 127 11 Q129 8 138 7 Q174 4 202 10 Q217 12 225 36 Q226 38 227 38 Q229 37 228 35 Q225 17 235 12 Q254 -3 228 -15 Q195 -23 143 -17 Q102 -10 115 27 L173 116 ZM45 172 L45 68 L68 69 L68 173 L45 172 ZM139 216 L161 204 Q163 203 161 201 L156 196 Q150 183 141 170 L200 173 L214 189 L233 172 Q235 171 232 169 L136 165 Q120 143 96 120 Q94 118 94 122 Q125 162 139 216 Z" /><glyph glyph-name="uni5408" unicode="&#x5408;" d="M166 72 L177 86 L201 73 Q202 72 202 70 L195 61 L196 5 L198 0 Q199 -3 198 -3 Q198 -4 195 -4 Q153 0 91 -2 Q86 -20 72 -30 Q69 -31 68 -28 L69 19 L70 52 L69 79 Q69 81 70 81 Q70 82 72 81 L91 71 L166 72 ZM121 216 L146 205 Q149 204 146 201 L143 198 Q177 143 254 111 Q256 107 254 107 Q240 106 225 89 Q165 133 139 194 Q94 124 6 67 Q4 66 3 67 Q3 69 4 70 Q81 130 121 216 ZM91 65 L91 3 L168 4 L167 66 L91 65 ZM118 111 Q103 110 90 108 L83 116 L154 117 L166 130 L184 115 Q185 112 183 112 L118 111 Z" /><glyph glyph-name="uni5411" unicode="&#x5411;" d="M125 216 L140 197 Q141 196 138 194 Q121 185 72 166 Q69 166 71 168 Q108 193 125 216 ZM201 178 L226 165 Q228 164 226 162 L219 152 L220 62 L221 17 Q221 -13 187 -28 Q185 -29 185 -26 Q186 -9 173 -4 Q172 -3 172 -2 Q172 -1 173 -1 Q195 -2 194 2 L192 159 L62 157 L63 8 Q61 -9 46 -25 Q44 -28 42 -27 Q40 -26 40 -23 L41 51 L42 137 L41 173 Q41 175 44 174 L64 162 L191 165 L201 178 ZM104 113 L103 58 L147 59 L146 114 L104 113 ZM146 120 L155 133 L177 120 Q179 119 177 117 L171 108 L172 58 L174 54 Q175 51 172 51 Q150 53 103 51 Q101 37 89 25 Q85 22 84 26 L85 74 L85 130 Q85 132 86 130 L104 119 L146 120 Z" /><glyph glyph-name="uni5417" unicode="&#x5417;" d="M180 194 L110 192 Q108 192 108 195 Q108 197 110 197 L179 199 L190 211 L210 198 Q212 197 210 195 L204 186 L193 98 L205 98 L215 112 L237 98 Q239 98 237 95 L231 87 Q227 30 215 -1 Q206 -18 180 -28 Q178 -29 177 -28 Q175 -27 176 -25 Q177 -9 168 -4 Q167 -3 167 -2 Q168 0 169 -1 Q187 -5 189 -1 Q202 26 205 93 L131 92 Q127 84 114 76 Q110 74 109 79 L113 109 L115 137 Q118 166 117 173 L141 163 Q143 163 141 161 L139 156 L132 97 L169 98 L180 194 ZM80 199 L103 186 Q103 185 103 183 L95 173 L95 77 L97 74 Q98 72 96 72 Q72 72 46 71 L46 56 Q45 39 32 24 Q30 22 28 23 Q27 23 27 25 L28 87 L28 172 Q28 177 27 189 Q27 196 27 198 Q27 200 30 199 L47 186 L71 187 L80 199 ZM47 181 L46 77 L72 77 L72 182 L47 181 ZM109 40 Q91 39 78 37 L71 44 L159 46 L171 60 L189 44 Q191 43 189 42 L109 40 Z" /><glyph glyph-name="uni542F" unicode="&#x542f;" d="M198 191 L221 177 Q223 176 221 174 L215 166 L215 121 L218 116 Q218 113 216 113 Q204 114 167 114 L89 113 Q89 36 5 -23 Q3 -23 3 -21 Q2 -20 4 -19 Q75 39 69 131 L69 154 L67 185 Q67 188 69 187 L93 176 L129 176 L131 214 L159 209 Q161 207 159 205 Q159 204 158 202 Q156 196 156 191 L154 176 L188 177 L198 191 ZM190 75 L201 90 L226 75 Q228 74 226 72 L220 64 L221 7 L222 3 Q223 0 221 0 Q197 2 111 0 Q107 -13 95 -24 Q91 -26 90 -22 L90 81 Q90 83 91 83 Q91 84 94 83 L110 73 L190 75 ZM110 68 L110 5 L191 7 L191 69 L110 68 ZM89 170 L89 119 L189 121 L189 171 L89 170 Z" /><glyph glyph-name="uni5473" unicode="&#x5473;" d="M152 215 L176 204 Q178 203 176 201 L173 194 L172 163 L196 164 L208 176 L223 163 Q224 161 221 160 L172 158 L172 114 L209 115 L222 127 L238 113 Q240 112 237 110 L179 109 Q193 54 248 11 Q251 8 248 7 Q235 9 218 -2 Q192 26 176 109 L171 109 L170 41 L171 -3 Q168 -19 154 -30 Q149 -34 148 -29 L150 43 L150 75 Q112 23 70 -10 Q68 -12 66 -11 Q65 -10 67 -8 Q106 30 142 108 L130 108 Q114 107 102 105 L95 112 L150 113 L150 157 L108 156 Q104 156 104 159 Q104 161 107 161 L150 163 L151 179 Q151 188 150 203 Q150 211 150 214 Q150 215 152 215 ZM75 190 L99 177 Q101 176 99 174 L91 164 L93 68 L94 66 Q95 64 93 64 Q77 64 44 63 L44 47 Q44 33 30 16 Q27 14 26 14 Q24 15 24 17 L26 78 L26 163 Q26 168 25 181 Q25 187 25 189 Q25 191 28 190 L45 178 L67 178 L75 190 ZM45 173 L44 68 L69 69 L68 174 L45 173 Z" /><glyph glyph-name="uni54C1" unicode="&#x54c1;" d="M84 186 L84 129 L163 129 L162 188 L84 186 ZM162 193 L173 207 L197 194 Q199 193 197 191 L191 183 L191 129 L194 123 Q196 119 191 119 Q171 121 141 122 Q108 123 84 122 Q80 109 68 98 Q62 97 62 101 L63 146 L63 177 L62 201 Q62 203 63 203 Q63 204 65 203 L84 192 L162 193 ZM48 78 L48 18 L91 18 L91 78 L48 78 ZM90 83 L100 97 L123 84 Q125 84 123 82 L118 75 L118 19 L120 14 Q122 10 117 10 Q89 13 48 12 L48 0 Q46 -10 34 -21 Q31 -24 30 -23 Q28 -22 28 -19 L29 21 L30 63 L29 95 L48 83 L90 83 ZM153 79 L152 16 L197 17 L198 80 L153 79 ZM197 86 L207 100 L231 87 Q233 86 231 84 L226 77 L225 18 L227 12 Q228 10 228 9 Q227 8 225 8 Q197 11 152 11 L152 2 Q150 -9 138 -18 Q135 -21 134 -20 Q132 -19 132 -15 L133 25 L134 63 L133 97 L153 85 L197 86 Z" /><glyph glyph-name="uni5524" unicode="&#x5524;" d="M138 215 L153 200 Q155 199 153 198 Q151 196 148 191 Q144 187 142 185 L174 186 L183 194 L203 180 Q205 179 202 177 L193 172 Q180 161 154 142 L189 143 L196 154 L217 141 Q219 141 217 139 L211 131 L210 66 L220 66 L232 80 L249 65 Q251 63 249 62 L174 60 Q183 17 244 -13 Q246 -13 245 -15 Q245 -16 243 -16 Q233 -13 211 -28 Q179 -2 171 60 L165 60 Q161 3 58 -31 Q55 -32 54 -30 Q54 -29 56 -27 Q144 7 146 60 L122 60 Q102 60 91 57 L83 64 L109 64 L110 123 Q111 130 110 143 Q110 147 110 148 Q110 151 112 149 L127 141 L148 142 Q164 165 173 181 L138 180 Q127 168 99 142 Q96 141 97 144 Q124 177 136 213 Q136 216 138 215 ZM73 192 L92 181 Q94 180 92 178 L87 170 L86 74 L87 71 Q88 70 87 70 Q82 70 76 70 Q62 69 40 68 L40 53 Q40 39 28 25 Q23 23 23 26 L24 74 L24 163 Q24 168 23 180 Q23 187 23 189 Q23 191 25 189 L41 180 L64 181 L73 192 ZM40 175 L40 72 L63 74 L64 176 L40 175 ZM127 136 L127 65 L147 65 Q150 82 149 103 L149 136 L127 136 ZM189 138 L168 137 L168 94 Q168 78 166 65 L187 66 L189 138 Z" /><glyph glyph-name="uni5747" unicode="&#x5747;" d="M144 211 L167 199 Q167 199 167 198 Q168 197 167 196 L163 190 Q161 187 155 178 Q149 168 145 163 L203 164 L214 177 L237 162 Q239 161 237 159 L229 148 L227 66 L228 33 Q226 -6 187 -28 Q184 -30 183 -27 Q185 -9 173 -4 Q171 -3 172 -2 Q172 -1 174 -1 Q207 -3 204 33 L206 158 L141 157 Q111 113 89 91 Q87 90 87 93 Q125 143 144 211 ZM19 133 Q16 133 16 135 Q16 137 18 138 L53 140 L53 178 L52 211 L79 201 L75 193 L73 141 L81 141 L92 153 L107 140 Q108 139 108 139 Q108 138 106 137 L73 136 L70 53 L107 69 Q110 70 109 67 L36 11 Q34 8 30 10 L12 26 Q12 26 11 27 Q10 29 12 29 Q25 33 47 42 L52 45 L53 135 L19 133 ZM195 75 Q198 76 197 73 L149 45 Q132 36 122 27 Q121 26 119 27 L103 46 Q103 48 104 48 Q121 51 138 57 L195 75 ZM134 131 Q168 118 172 107 Q171 96 161 90 Q152 85 151 94 Q147 120 133 129 Q133 131 134 131 Z" /><glyph glyph-name="uni5802" unicode="&#x5802;" d="M186 72 Q142 74 88 73 Q87 70 77 62 Q70 58 70 63 L71 88 L71 133 L92 123 L158 125 L168 137 L191 126 Q191 126 191 125 Q192 124 191 124 L187 116 L186 79 L189 75 Q190 72 186 72 ZM202 155 L214 164 L240 138 Q243 135 237 133 Q219 133 198 122 Q196 121 196 124 L204 150 L58 145 Q52 116 28 101 Q23 99 23 102 Q17 114 23 119 Q41 136 42 157 Q42 161 47 159 Q53 155 57 150 L116 152 L115 214 L144 207 Q146 206 144 204 L142 198 L139 153 L145 153 Q164 180 176 202 L198 188 Q199 187 198 186 Q198 185 198 185 Q173 170 151 153 L202 155 ZM83 29 Q65 28 55 26 L48 34 L113 35 L113 71 L143 64 Q146 63 144 60 Q139 55 138 50 L138 36 L173 37 L187 51 L206 35 Q208 32 205 32 L138 30 L138 -10 L207 -10 L222 4 L242 -12 Q243 -14 241 -15 L50 -18 Q40 -18 28 -20 Q25 -21 23 -21 L16 -12 L114 -11 L114 30 L83 29 ZM90 118 L89 79 L159 80 L160 120 L90 118 ZM71 196 Q107 180 104 170 Q101 160 90 155 Q80 154 80 161 Q80 182 70 194 Q68 197 71 196 Z" /><glyph glyph-name="uni590F" unicode="&#x590f;" d="M53 188 Q36 188 25 185 L18 194 L198 196 L214 211 L232 194 Q233 193 231 191 L112 189 L125 182 Q127 180 125 178 Q121 177 105 170 Q96 166 92 164 L162 166 L172 177 L192 165 Q194 165 192 163 L187 155 L187 109 Q187 94 172 80 Q166 76 165 82 Q164 83 162 88 Q160 93 159 93 L84 92 Q80 82 71 76 Q67 72 65 76 L65 169 Q65 172 67 171 L84 164 Q93 173 103 189 L53 188 ZM89 45 Q99 34 114 25 Q133 42 149 61 L94 59 Q63 30 47 18 Q42 17 45 20 Q70 48 91 88 L111 78 Q113 77 111 76 Q106 70 100 65 L151 67 L162 77 L183 66 Q185 64 182 62 L174 54 Q146 28 131 16 Q169 0 247 -5 Q249 -5 249 -6 Q249 -7 248 -8 Q226 -11 215 -33 Q149 -17 118 7 Q77 -18 9 -34 Q6 -34 8 -31 Q67 -11 106 18 Q96 30 88 43 L89 45 ZM84 159 L84 142 L149 144 Q151 143 151 142 Q151 140 149 139 L84 137 L84 120 L150 122 Q152 121 152 120 Q152 118 150 117 L84 115 L84 97 L163 99 L164 161 L84 159 Z" /><glyph glyph-name="uni591A" unicode="&#x591a;" d="M125 63 Q136 57 150 47 Q172 67 187 86 L145 84 Q102 52 50 24 Q49 23 48 24 Q47 25 48 27 Q112 72 154 123 L175 110 Q177 109 175 107 Q174 106 172 104 Q166 99 154 90 L188 91 L200 101 L224 85 Q226 84 223 81 L213 75 Q191 53 166 35 Q183 23 184 18 Q186 10 173 -3 Q166 -7 162 1 Q160 5 156 12 Q151 20 149 23 Q105 -5 24 -33 Q21 -34 21 -33 Q20 -30 23 -29 Q93 -2 139 38 Q130 53 123 61 Q120 64 125 63 ZM100 155 Q104 153 113 148 Q123 144 127 141 Q147 159 165 180 L116 179 Q87 155 52 130 Q49 129 51 132 Q97 177 117 214 L138 201 Q140 200 138 198 Q131 192 124 185 L167 186 L179 195 L200 179 Q202 178 199 176 L191 171 Q166 149 143 132 Q146 129 146 128 Q147 118 135 108 Q131 105 127 113 Q126 116 124 119 Q98 100 28 71 Q26 70 25 71 Q25 72 26 74 Q73 96 115 132 Q103 148 99 153 Q97 156 100 155 Z" /><glyph glyph-name="uni5927" unicode="&#x5927;" d="M62 112 Q44 112 34 110 L26 118 L113 120 Q116 157 114 211 L143 204 Q145 203 145 203 Q145 202 143 201 L137 194 Q137 152 134 120 L200 122 L216 138 L234 119 Q236 116 233 116 L144 114 Q155 28 242 -7 Q244 -8 244 -9 Q243 -11 241 -11 Q222 -12 209 -27 Q144 4 138 114 L134 114 Q136 2 5 -28 Q3 -29 3 -28 Q3 -26 4 -25 Q111 7 113 113 L62 112 Z" /><glyph glyph-name="uni597D" unicode="&#x597d;" d="M102 164 L124 153 Q126 152 124 150 L119 142 Q111 81 89 46 Q111 37 123 25 Q129 10 118 -3 Q111 -8 108 0 Q100 15 81 33 Q61 4 5 -33 Q3 -34 2 -32 Q2 -30 3 -29 Q51 6 69 43 Q55 54 40 59 L52 144 L50 144 Q37 144 26 142 L17 149 L53 150 L57 177 Q58 186 59 202 Q60 211 60 215 L87 204 Q89 203 87 201 L83 196 L73 151 L94 151 L102 164 ZM150 95 Q133 94 124 91 L115 99 L167 101 Q167 127 165 143 Q165 145 167 144 L178 140 L207 190 L161 188 Q145 187 137 184 L128 191 L207 196 L218 206 L238 189 Q240 188 240 186 Q239 185 237 184 Q227 179 183 138 L189 136 Q192 136 191 134 Q191 124 191 102 L219 103 L231 119 L250 102 Q252 100 250 99 L191 97 Q192 51 190 10 Q187 -11 158 -29 Q155 -29 155 -26 Q155 -11 146 -7 Q144 -6 144 -5 Q145 -3 147 -3 Q169 -6 166 8 Q167 28 167 95 L150 95 ZM53 61 Q62 58 73 53 Q90 89 94 146 L71 145 L53 61 Z" /><glyph glyph-name="uni59DC" unicode="&#x59dc;" d="M159 214 L184 201 Q186 201 184 199 L179 194 L167 175 L201 176 L215 190 L234 173 Q236 172 234 171 L141 168 L140 143 L180 144 L192 157 L208 142 Q210 141 207 139 L140 137 L140 110 L212 111 L226 125 L245 109 Q247 107 245 106 L111 104 L130 93 Q133 92 131 89 L123 83 L110 68 L201 69 L216 85 L236 67 Q238 66 236 64 L176 63 L190 56 Q193 53 189 51 Q170 32 147 17 Q203 6 210 0 Q216 -11 213 -23 Q210 -33 204 -27 Q178 -6 131 7 Q84 -17 10 -33 Q8 -33 8 -32 Q8 -31 9 -30 Q70 -15 113 13 Q82 23 66 25 L84 62 L56 61 Q53 61 48 60 Q34 60 29 58 L22 67 L87 67 Q97 89 103 104 L47 103 Q29 103 19 100 L12 108 L115 110 L115 136 L84 136 Q70 135 57 133 L48 141 L115 142 L115 168 L57 166 Q46 166 31 163 Q30 163 29 163 L21 172 L82 173 L82 195 Q81 203 81 207 Q80 209 83 208 L103 200 Q105 200 105 197 L104 173 L147 174 L159 214 ZM76 29 Q82 28 95 26 Q115 23 125 22 Q149 42 166 63 L105 62 L76 29 Z" /><glyph glyph-name="uni5B89" unicode="&#x5b89;" d="M59 96 Q45 95 29 93 Q30 94 26 93 L17 102 L91 104 L93 108 Q105 132 113 155 L141 142 Q144 142 142 139 L135 133 L115 104 L204 106 L221 124 L241 105 Q242 104 242 103 Q242 102 240 102 L173 100 L192 85 Q194 83 194 82 Q194 81 191 80 Q165 52 141 34 Q200 18 210 7 Q219 -3 215 -17 Q213 -27 205 -21 Q172 2 126 23 Q89 -3 9 -33 Q7 -33 6 -32 Q6 -30 7 -29 Q78 1 110 29 Q83 41 62 47 L87 97 L59 96 ZM205 176 L217 185 L242 159 Q245 152 237 151 Q218 153 201 143 Q199 142 198 145 L206 171 L62 166 Q53 134 29 121 Q26 119 24 122 Q21 135 25 139 Q45 158 46 178 Q46 181 47 181 Q48 181 51 180 Q55 179 61 171 L118 173 L117 214 Q117 216 119 216 L146 207 Q149 207 147 204 Q144 201 144 192 L143 174 L205 176 ZM78 50 Q84 49 96 45 Q112 41 121 39 Q149 69 168 99 L111 98 L78 50 Z" /><glyph glyph-name="uni5B9A" unicode="&#x5b9a;" d="M88 118 Q72 117 60 115 L53 122 L175 127 L190 142 L208 125 Q211 123 207 123 L139 120 L137 6 Q171 3 249 12 Q251 13 251 11 Q252 9 250 8 Q232 5 223 -19 Q200 -20 169 -19 Q137 -17 124 -14 Q96 -9 74 39 Q66 4 9 -33 Q6 -33 7 -30 Q61 2 63 87 L83 78 Q85 78 83 74 L81 70 Q79 56 76 44 Q92 16 116 9 L116 119 L88 118 ZM36 122 Q25 121 25 141 Q47 154 51 183 Q51 185 53 185 Q54 185 55 183 Q55 178 56 173 L114 175 L113 210 Q113 213 115 212 L143 204 Q146 204 144 200 Q140 197 140 189 L140 176 L200 178 L212 189 L238 167 Q241 164 236 162 Q215 157 197 147 Q195 146 194 147 Q193 148 194 149 L201 173 L56 167 Q57 136 36 122 ZM200 95 L210 77 Q211 75 211 75 Q210 74 209 74 Q197 72 169 68 Q156 66 149 65 Q146 66 148 68 Q180 79 200 95 Z" /><glyph glyph-name="uni5B9C" unicode="&#x5b9c;" d="M98 129 L156 132 L167 145 L190 131 Q192 130 189 127 L182 118 L183 -8 L209 -8 L224 5 L244 -11 Q245 -13 243 -13 L49 -17 Q31 -18 22 -21 L15 -12 L77 -11 L78 105 L77 139 L98 129 ZM99 124 L98 87 L140 91 Q143 90 143 89 Q143 88 141 86 L98 82 L98 45 L142 50 Q145 50 146 48 Q146 46 143 45 L98 40 L98 -10 L157 -9 L157 127 L99 124 ZM205 173 L216 182 L242 157 Q244 155 243 153 Q242 152 239 152 Q223 150 199 138 Q197 137 197 140 L206 168 L61 162 Q54 130 30 116 Q25 114 25 117 Q20 130 25 134 Q44 152 46 173 Q45 175 46 176 Q47 176 50 175 Q54 173 60 167 L117 169 L117 212 L146 205 Q147 205 148 204 Q148 204 147 202 L144 196 L143 170 L205 173 Z" /><glyph glyph-name="uni5B9E" unicode="&#x5b9e;" d="M134 158 L164 147 Q167 147 165 143 L159 135 L155 92 Q153 78 150 66 L199 68 L217 86 L237 66 Q239 63 236 63 L148 60 Q132 -2 14 -32 Q12 -32 11 -31 Q11 -29 13 -28 Q106 0 125 59 L54 57 Q40 56 27 54 L19 62 L127 65 Q131 82 132 99 L134 120 Q135 132 134 151 Q134 156 134 158 ZM205 175 L216 184 L242 159 Q245 154 238 154 Q222 153 199 140 Q197 140 197 142 L206 170 L63 166 Q56 135 31 120 Q28 118 26 121 Q21 134 27 138 Q46 156 48 178 Q47 180 48 180 Q50 181 52 179 Q56 178 62 171 L116 173 L117 214 L147 206 Q148 206 149 205 Q149 205 148 203 L145 197 L144 173 L205 175 ZM160 37 Q209 23 222 8 Q226 -1 217 -16 Q210 -25 205 -15 Q186 17 159 35 Q157 37 160 37 ZM54 113 Q90 105 95 94 Q98 87 89 75 Q81 69 78 77 Q67 101 53 110 Q52 111 52 112 Q52 113 54 113 ZM74 152 Q109 144 112 136 Q113 126 104 116 Q96 111 94 119 Q87 141 73 149 Q71 150 72 151 Q72 152 74 152 Z" /><glyph glyph-name="uni5BB6" unicode="&#x5bb6;" d="M97 134 Q87 134 72 131 Q71 131 70 131 L63 137 L161 142 L174 155 L191 140 Q193 138 191 137 L123 135 L139 125 Q141 123 139 123 L134 121 Q132 120 128 117 Q122 113 120 112 Q135 98 144 80 Q178 104 195 123 L214 106 Q216 104 214 103 Q214 104 213 103 Q198 98 176 89 Q182 50 248 17 Q250 16 249 14 Q249 13 247 13 Q233 12 217 -3 Q173 36 173 88 Q169 86 159 83 Q150 79 145 77 Q158 49 152 7 Q145 -21 114 -31 Q113 -32 112 -31 Q112 -31 112 -28 Q113 -13 102 -7 Q101 -6 101 -5 Q101 -4 103 -4 Q126 -8 127 5 Q133 29 132 49 Q89 11 11 -20 Q9 -21 8 -20 Q8 -18 9 -17 Q72 14 130 75 Q129 80 127 84 Q84 49 22 24 Q19 24 21 26 Q80 60 119 105 Q119 106 118 107 Q117 109 116 109 Q78 87 29 65 Q27 64 26 66 Q25 67 27 68 Q80 98 115 134 L97 134 ZM37 121 Q33 117 31 120 Q23 132 25 142 Q47 155 49 184 Q52 187 53 184 L59 173 L115 175 L114 210 Q114 213 116 212 L144 204 Q146 202 144 200 Q141 194 141 189 L141 176 L196 177 L208 188 L234 167 Q237 164 233 162 Q218 161 194 149 Q192 148 191 148 Q190 149 191 151 L198 173 L59 167 Q59 140 37 121 Z" /><glyph glyph-name="uni5BD2" unicode="&#x5bd2;" d="M87 144 Q77 144 65 142 Q62 141 60 141 L52 148 L95 150 L94 177 L118 168 L114 159 L114 150 L146 151 L145 176 L170 167 L166 158 L166 152 L182 152 L194 165 L211 150 Q213 148 210 148 L166 146 L165 125 L178 125 L189 136 L203 123 Q205 121 202 121 L165 119 L165 96 L209 97 L223 111 L240 95 Q242 93 240 93 L158 90 Q175 65 250 48 Q253 47 250 44 Q237 45 223 24 Q174 50 155 90 L99 89 L113 80 Q115 78 112 76 Q79 46 9 15 Q4 14 7 17 Q59 48 93 89 L60 88 Q41 87 31 84 L23 93 L96 94 L95 118 Q87 117 77 116 Q72 115 70 115 L63 122 L95 123 L95 144 L87 144 ZM206 187 L217 196 L241 177 Q245 174 239 171 Q223 173 205 161 Q202 161 203 163 L208 182 L63 177 Q55 151 33 138 Q28 136 28 140 Q25 152 28 156 Q46 169 47 189 Q47 193 52 191 Q58 187 62 182 L117 184 L118 216 L147 209 Q149 208 147 205 L144 199 L144 185 L206 187 ZM107 24 Q160 5 163 -5 Q164 -19 151 -29 Q142 -33 140 -24 Q125 1 105 22 Q102 24 107 24 ZM111 66 Q149 57 153 45 Q155 35 144 26 Q137 24 134 30 Q127 47 110 63 Q109 65 109 65 Q110 66 111 66 ZM114 118 L113 95 L146 96 L146 119 L114 118 ZM146 146 L114 145 L114 124 L146 124 L146 146 Z" /><glyph glyph-name="uni5C1D" unicode="&#x5c1d;" d="M152 37 Q151 39 153 39 Q198 18 204 1 Q207 -10 191 -20 Q185 -24 182 -15 Q179 -2 172 9 Q103 -2 64 -20 Q60 -21 59 -18 L50 1 Q50 3 52 3 Q68 3 74 7 Q87 19 108 68 L61 67 Q43 66 34 63 L26 72 L200 74 L216 91 L234 73 Q235 71 232 70 L117 68 L135 56 Q136 55 134 53 L131 50 Q121 39 91 13 Q85 8 82 5 L170 13 Q161 28 152 37 ZM199 154 L211 164 L236 140 Q240 133 231 132 Q216 132 195 119 Q191 118 193 121 L200 149 L68 144 Q60 116 38 100 Q34 98 32 102 Q28 114 33 118 Q50 136 52 155 Q51 157 52 158 Q53 158 56 157 Q60 156 67 149 L116 151 L117 173 L115 215 L145 207 Q148 207 146 204 Q143 201 141 194 L141 152 L150 152 Q172 185 180 206 L202 190 Q204 189 204 189 Q204 188 202 187 Q188 181 155 153 L199 154 ZM105 108 Q95 107 83 106 Q80 105 78 105 L71 112 L160 114 L173 129 L190 114 Q191 111 189 110 L105 108 ZM69 201 Q98 187 99 177 Q98 166 87 162 Q79 160 76 168 Q76 189 67 199 Q67 199 67 200 Q66 202 69 201 Z" /><glyph glyph-name="uni5C31" unicode="&#x5c31;" d="M160 210 L186 199 Q190 198 186 194 L183 188 L182 132 L214 133 L226 146 L242 131 Q244 130 242 128 L195 126 L211 118 Q213 117 211 115 L208 109 L197 20 Q195 7 205 6 Q214 3 226 6 Q235 8 240 20 Q241 22 242 22 Q243 22 243 20 Q241 8 249 3 Q259 -9 240 -17 Q222 -22 206 -19 Q182 -14 183 21 L189 111 L189 126 L182 126 L182 122 Q185 22 84 -34 Q82 -34 81 -33 Q81 -31 83 -30 Q131 3 145 33 Q162 66 162 125 Q150 125 143 123 L136 130 L162 131 L162 172 Q162 191 160 210 ZM97 14 Q98 -8 71 -21 Q68 -21 68 -19 Q68 -7 60 -1 Q56 0 60 0 Q78 0 76 6 L76 86 Q67 86 57 86 Q55 78 46 70 Q43 68 42 69 Q41 69 41 71 L42 100 L42 122 Q42 127 41 139 Q41 146 41 148 Q41 150 43 148 L61 140 L109 141 L118 151 L138 138 Q140 138 138 136 L132 129 L132 91 L133 87 Q134 87 133 86 Q121 86 98 86 L97 14 ZM58 135 L58 91 L109 92 L109 136 L58 135 ZM76 212 L100 204 Q102 202 100 200 Q98 197 98 189 L97 174 L119 174 L132 189 L149 173 Q150 172 150 171 Q150 170 148 170 L53 167 Q37 167 25 164 L18 172 L74 173 L73 210 Q74 213 76 212 ZM66 57 Q68 56 66 54 Q40 14 4 -19 Q0 -22 2 -18 Q35 24 46 66 L66 57 ZM105 63 Q132 54 139 40 Q138 31 129 23 Q122 19 120 26 Q119 29 118 33 Q113 55 104 61 Q103 64 105 63 ZM202 189 Q229 180 229 170 Q228 163 219 159 Q212 155 210 162 Q208 179 201 187 Q199 188 202 189 Z" /><glyph glyph-name="uni5C49" unicode="&#x5c49;" d="M202 137 L198 131 L198 101 L210 101 L224 116 L242 99 Q244 98 242 96 L198 95 L198 72 L199 46 Q196 28 181 18 Q177 18 177 21 L176 37 L153 37 Q151 28 141 17 Q135 15 135 18 L135 94 L116 94 L116 -1 L202 0 L218 12 L235 -2 Q236 -3 236 -4 Q236 -5 234 -5 L117 -6 Q111 -18 101 -26 Q97 -27 96 -24 L97 28 L97 93 Q94 93 90 92 Q84 92 82 91 L77 95 Q79 33 4 -22 Q2 -22 2 -20 Q1 -19 3 -18 Q36 10 48 42 Q53 58 55 78 Q57 96 57 133 L57 177 L55 208 Q55 211 57 210 L80 199 L194 201 L205 213 L226 199 Q228 198 228 198 Q228 197 226 196 L221 189 L220 163 L222 159 Q223 157 221 157 Q199 159 176 158 L78 156 L78 119 Q78 108 77 99 L97 99 Q97 136 96 142 Q97 145 97 143 L120 133 Q122 132 120 131 L116 123 L116 100 L135 100 L135 112 L134 147 L157 139 Q159 137 157 136 L154 130 L154 100 L176 101 L176 114 L175 149 L201 141 Q204 140 202 137 ZM78 192 L78 162 L195 164 L195 195 L79 194 L78 192 ZM154 94 L154 42 L176 42 L176 95 L154 94 Z" /><glyph glyph-name="uni5DE2" unicode="&#x5de2;" d="M77 81 Q72 72 62 66 Q58 64 57 70 L57 127 Q57 141 56 145 Q56 148 59 147 L74 137 L167 139 L176 149 L198 137 Q198 137 199 136 Q200 136 199 134 L194 129 L195 99 Q195 86 180 73 Q174 68 172 73 Q167 82 164 84 L134 83 L134 62 L205 65 L220 82 L241 64 Q242 61 240 60 L146 57 Q177 20 244 9 Q247 7 244 5 Q223 5 208 -13 Q161 5 143 57 L134 57 L134 28 L135 -2 Q133 -20 115 -32 Q110 -34 109 -29 L111 14 L111 34 Q59 -1 5 -18 Q2 -18 3 -15 Q57 9 105 56 L51 55 Q41 54 27 52 Q24 51 23 51 L14 59 L111 62 L111 82 L77 81 ZM168 134 L134 134 L134 115 L163 116 Q165 116 165 114 Q165 111 163 111 L134 110 L134 88 L168 89 L168 134 ZM71 215 L93 206 Q94 205 93 205 Q94 205 92 204 L88 201 Q80 194 63 182 Q61 180 60 179 Q91 170 90 158 Q90 147 80 145 Q71 143 70 152 Q69 168 55 179 Q67 200 71 215 ZM122 216 L144 206 Q145 205 144 205 Q145 205 143 204 L138 201 Q122 187 112 181 Q142 170 141 160 Q141 148 130 146 Q122 145 120 154 Q119 170 107 181 Q116 197 122 216 ZM173 215 L195 204 Q197 205 195 202 L191 199 Q187 197 177 191 Q167 185 162 182 Q191 173 191 164 Q191 152 181 150 Q172 147 170 159 Q169 173 157 182 Q168 200 173 215 ZM77 109 L77 86 L111 87 L111 109 L77 109 ZM77 133 L77 113 L111 114 L111 133 L77 133 Z" /><glyph glyph-name="uni5DF1" unicode="&#x5df1;" d="M72 179 Q55 179 45 176 L37 184 L165 187 L178 201 L203 186 Q206 185 203 182 L195 173 L194 111 L196 107 Q197 105 195 104 Q184 106 132 106 L78 105 L77 101 L73 25 Q70 10 85 10 Q156 4 202 16 Q218 20 227 44 Q228 46 230 46 Q232 45 231 43 Q228 21 235 15 Q252 -2 228 -9 Q171 -23 87 -13 Q52 -6 51 35 L52 87 Q52 97 51 113 Q51 120 51 123 Q51 126 53 125 L79 111 L166 113 L167 181 L72 179 Z" /><glyph glyph-name="uni5E26" unicode="&#x5e26;" d="M191 99 L211 86 Q213 86 212 83 L206 76 L206 40 Q205 18 179 6 Q178 6 178 8 Q177 20 169 25 Q168 26 169 27 Q183 25 183 32 L182 83 L140 82 L140 34 L141 6 Q139 -11 126 -27 Q123 -31 120 -31 Q116 -30 116 -26 L118 20 L118 81 L73 80 L73 36 Q74 22 62 10 Q59 7 58 8 Q56 8 56 12 L56 66 L55 91 Q55 94 57 93 L72 85 L118 86 Q118 93 117 104 Q117 117 116 122 L137 114 Q141 113 141 108 L140 87 L182 88 L191 99 ZM63 214 L89 205 Q91 204 89 202 L85 195 L85 173 L116 173 L117 185 L116 213 L143 205 Q145 204 143 202 L138 195 L138 174 L167 174 L167 184 L166 212 L192 203 Q194 202 192 201 L188 194 L188 174 L213 175 L227 190 L245 173 Q247 170 244 170 L188 169 L188 160 Q188 147 173 136 Q167 132 166 138 L166 169 L138 168 L138 159 Q138 145 123 135 Q120 133 118 133 Q116 134 116 137 L116 168 L85 167 L85 157 Q84 144 70 134 Q64 130 63 136 L63 167 L49 167 Q32 167 22 164 L14 172 L64 173 L64 186 L63 214 ZM29 81 Q23 78 18 92 Q17 95 20 97 Q39 110 47 136 Q47 138 49 138 Q50 138 50 136 L50 128 L208 132 L220 143 L244 121 Q247 117 242 116 Q228 116 206 102 Q204 101 203 102 Q202 103 203 104 L209 126 L50 122 Q49 94 29 81 Z" /><glyph glyph-name="uni5EB7" unicode="&#x5eb7;" d="M123 141 Q110 141 98 139 L90 146 L140 147 Q140 155 139 166 Q139 171 139 172 Q139 173 141 173 L164 168 Q167 168 165 166 Q162 163 162 159 L162 147 L182 147 L182 142 L162 142 L162 121 L188 122 L188 142 L187 147 L197 158 L217 145 Q219 144 217 141 L212 135 L211 122 L217 123 L229 135 L243 121 Q245 119 243 118 L211 117 L210 91 L211 89 Q212 87 210 87 L162 87 L162 32 L163 5 Q161 -19 134 -31 Q132 -32 132 -29 Q129 -15 122 -12 Q119 -9 122 -8 Q141 -9 140 1 L140 47 Q136 43 128 36 Q95 7 85 -3 Q79 -9 73 -8 Q66 -6 69 0 Q77 13 74 25 Q83 13 140 52 L140 86 L125 86 Q108 86 99 83 L91 91 L140 92 L140 115 L85 114 Q89 37 4 -21 Q2 -21 2 -19 Q1 -18 3 -17 Q39 14 53 47 Q66 78 65 132 L65 161 L64 192 Q63 195 66 193 L90 183 L134 183 L135 213 L166 208 Q168 207 166 205 Q161 198 160 184 L200 185 L214 199 L232 183 Q234 180 231 180 L86 176 L86 120 L140 121 L140 124 Q140 133 140 141 L123 141 ZM164 74 Q170 62 177 53 Q196 70 201 78 L215 64 Q217 63 214 61 Q212 60 206 58 Q188 53 179 49 Q195 29 244 8 Q246 7 245 5 Q245 4 243 4 Q234 6 217 -9 Q175 15 164 74 ZM162 92 L187 93 L188 116 L162 116 L162 92 ZM94 76 Q118 67 119 58 Q120 50 111 44 Q102 41 101 48 Q101 64 92 75 Q90 77 94 76 Z" /><glyph glyph-name="uni5F0F" unicode="&#x5f0f;" d="M140 210 L165 199 Q167 199 164 196 L160 192 Q158 173 159 156 L207 157 L220 171 L238 155 Q239 153 236 152 L159 150 Q163 50 219 12 Q226 9 229 13 L239 24 Q242 26 243 22 Q235 7 244 -3 Q249 -15 242 -22 Q234 -27 221 -22 Q145 12 138 150 L56 148 Q46 148 31 145 Q30 145 29 145 L21 153 L138 155 Q138 183 140 210 ZM33 100 Q29 102 33 105 L105 107 L117 120 L133 106 Q135 105 135 105 Q135 104 133 103 L93 102 L92 25 L138 41 Q140 42 141 41 Q142 39 141 38 L79 1 Q60 -8 48 -18 Q48 -18 47 -18 Q45 -20 44 -18 L26 2 Q23 5 26 6 Q44 9 67 17 L71 18 L71 101 L33 100 ZM178 193 Q201 187 204 182 Q202 172 195 167 Q190 163 188 169 Q187 171 186 174 Q179 187 176 191 Q176 193 178 193 Z" /><glyph glyph-name="uni5F39" unicode="&#x5f39;" d="M188 214 L208 201 Q210 200 207 198 L202 194 L174 165 L199 166 L205 177 L225 166 Q225 166 226 165 Q227 165 226 163 L221 156 L222 100 Q220 87 211 76 Q208 73 207 73 Q206 73 204 75 Q201 80 197 88 L174 88 L174 54 L218 55 L232 69 L248 53 Q249 52 249 51 Q249 50 247 50 L174 48 L174 42 L175 0 Q170 -18 161 -27 Q158 -30 155 -30 Q153 -30 153 -27 L154 48 L127 47 Q110 46 100 44 L94 52 L154 53 L154 87 L130 86 Q127 78 119 72 Q114 69 113 74 L114 112 L114 154 Q114 167 114 173 Q113 176 115 174 L130 164 L167 165 L188 214 ZM52 185 Q36 185 26 183 L18 190 L71 192 L82 202 L99 190 Q101 189 99 186 L94 180 L93 138 L94 136 Q95 134 92 134 L74 134 L47 133 L44 89 Q44 88 44 88 L70 89 L77 99 L98 90 Q100 90 98 87 L93 81 Q92 36 81 0 Q73 -17 51 -28 Q49 -29 48 -28 Q46 -27 47 -25 Q48 -11 39 -8 Q38 -6 38 -5 Q39 -3 41 -4 Q57 -6 58 -1 Q70 17 71 83 L42 82 Q37 73 28 66 Q26 64 25 65 Q23 66 23 68 L26 96 L29 151 Q29 152 30 152 L47 139 L71 140 L73 186 L52 185 ZM199 161 L175 161 L174 130 L194 131 Q197 131 196 129 Q196 126 194 127 L174 126 L174 93 L199 94 L199 161 ZM130 124 L130 91 L154 92 L154 125 L130 124 ZM130 159 L130 129 L154 130 L154 160 L130 159 ZM125 207 Q156 197 155 189 Q154 178 146 173 Q140 172 139 176 Q133 195 124 206 Q123 208 125 207 Z" /><glyph glyph-name="uni5F53" unicode="&#x5f53;" d="M86 63 Q72 62 59 60 L51 68 L189 69 L189 121 L187 127 L199 143 L223 128 Q225 127 223 124 L216 114 L215 66 L216 18 Q218 -4 200 -24 Q197 -28 194 -24 Q189 -11 182 -1 L62 -2 Q45 -2 36 -5 L28 2 L189 3 L189 64 L86 63 ZM69 118 Q52 118 42 115 L34 123 L113 124 L113 173 L112 213 L141 205 Q145 203 142 200 L138 192 L136 125 L139 125 Q167 165 177 196 L202 179 Q202 179 203 178 Q205 177 201 175 L144 125 L181 125 L181 120 L69 118 ZM47 188 Q47 191 49 190 Q84 172 91 159 Q94 150 78 138 Q71 134 70 140 Q62 173 47 188 Z" /><glyph glyph-name="uni5F97" unicode="&#x5f97;" d="M141 136 Q139 130 130 121 Q128 119 126 120 Q125 120 125 122 L126 152 L126 185 Q126 190 125 199 Q125 204 125 206 Q125 209 127 208 L142 200 L195 202 L204 213 L223 202 Q225 202 224 199 L220 192 L220 152 Q221 141 209 129 Q204 123 201 128 Q196 135 193 139 L141 136 ZM144 103 Q126 103 116 101 L109 107 L212 109 L222 120 L237 107 Q239 105 237 105 L202 104 L201 71 L221 72 L233 85 L249 69 Q251 67 249 67 L201 66 L200 7 Q199 -15 174 -28 Q171 -28 170 -27 Q170 -13 162 -9 Q159 -7 162 -5 Q180 -7 178 0 L179 65 L136 65 Q133 65 127 64 Q114 64 109 62 L101 69 L179 71 L180 104 L144 103 ZM4 41 Q1 40 2 43 Q55 86 88 158 L109 142 Q111 140 108 138 L105 135 Q95 122 86 112 L88 -1 Q85 -17 74 -31 Q68 -34 68 -29 L69 37 L70 94 Q44 69 4 41 ZM197 197 L141 195 L141 172 L187 174 Q189 174 189 172 Q189 170 187 169 L141 167 L142 142 L196 144 L197 197 ZM89 212 L105 197 Q107 195 107 194 Q107 193 104 191 Q78 171 27 146 Q24 145 26 148 Q68 176 89 212 ZM126 55 Q127 55 128 53 Q155 37 152 29 Q151 19 139 16 Q132 15 131 22 Q131 41 124 53 Q123 56 126 55 Z" /><glyph glyph-name="uni5FEB" unicode="&#x5feb;" d="M135 215 L164 205 Q167 203 164 200 L159 193 L159 158 L187 159 L196 172 L217 159 Q220 159 218 157 L210 148 L209 89 L217 89 L231 103 L246 88 Q249 85 245 84 L154 82 Q144 15 65 -33 Q63 -34 62 -33 Q61 -31 63 -30 Q130 18 134 82 L116 81 Q106 81 94 79 Q96 80 91 79 L83 86 L135 87 Q137 108 137 135 L137 152 L101 151 Q98 151 97 153 Q97 157 100 157 L137 158 L137 177 Q135 201 135 215 ZM55 210 Q55 212 56 213 Q57 213 59 212 L78 205 Q80 204 78 202 L76 196 L72 55 L74 9 Q70 -10 57 -22 Q51 -25 50 -19 L54 58 L57 178 L55 210 ZM165 75 Q169 27 241 -4 Q245 -6 241 -9 Q226 -9 207 -24 Q165 9 162 75 L165 75 ZM187 154 L158 153 L158 130 Q158 107 155 88 L187 89 L187 154 ZM42 148 Q42 149 43 150 Q44 149 45 148 Q48 116 39 97 Q31 84 12 83 Q5 92 12 99 Q34 108 42 148 ZM85 143 Q104 134 107 125 Q107 120 98 112 Q93 109 92 113 Q84 127 83 141 Q82 145 85 143 Z" /><glyph glyph-name="uni6052" unicode="&#x6052;" d="M186 147 L197 161 L219 147 Q221 146 219 144 Q220 144 219 143 L213 134 L213 60 Q214 34 194 16 Q188 13 187 18 Q184 29 179 39 L134 37 Q131 25 122 14 Q116 9 113 14 L114 116 L112 155 Q112 160 116 158 L134 145 L186 147 ZM134 140 L134 98 L176 100 Q179 100 179 97 Q179 94 176 94 L134 93 L134 42 L186 45 Q186 46 186 46 L187 142 L134 140 ZM53 211 Q53 213 54 213 Q55 213 56 212 L76 203 Q78 202 76 200 L74 194 L71 28 L72 -7 Q67 -20 57 -29 Q53 -31 52 -31 Q50 -30 50 -27 L53 50 L55 175 L53 211 ZM118 -14 Q105 -14 92 -16 Q93 -16 91 -16 L83 -8 L216 -5 L232 9 L250 -7 Q252 -9 250 -10 L118 -14 ZM130 184 Q114 184 101 182 L94 189 L206 192 L220 208 L240 190 Q241 188 239 188 L130 184 ZM41 151 Q43 153 44 151 Q49 120 39 99 Q31 85 13 86 Q6 94 13 101 Q35 111 41 151 ZM82 150 Q98 142 100 134 Q100 130 92 123 Q89 121 87 124 Q81 138 80 148 Q79 152 82 150 Z" /><glyph glyph-name="uni6070" unicode="&#x6070;" d="M187 76 L196 89 L219 77 Q221 76 219 74 L214 67 L214 11 L216 5 Q217 3 216 3 Q216 2 213 2 Q187 4 136 4 L136 -2 Q134 -12 123 -22 Q120 -25 119 -24 Q117 -23 117 -20 L118 17 L119 58 L118 86 L137 74 L187 76 ZM55 209 Q55 211 56 211 Q57 211 59 210 L78 203 Q80 202 78 200 L76 194 L72 53 L74 7 Q70 -12 57 -23 Q54 -25 52 -25 Q50 -24 50 -21 L54 56 L57 176 L55 209 ZM85 82 Q82 81 82 82 Q81 82 82 84 Q135 139 158 214 L181 204 Q183 202 181 201 L179 199 Q189 155 254 114 Q255 113 255 112 Q255 111 253 111 Q240 113 227 99 Q185 140 176 197 Q143 133 85 82 ZM136 69 L136 9 L187 10 L188 71 L136 69 ZM42 153 Q42 154 44 155 Q45 154 45 153 Q48 121 39 102 Q31 88 13 89 Q5 97 13 104 Q35 114 42 153 ZM162 113 Q144 113 132 111 L127 118 L177 119 L189 132 L206 118 Q207 115 204 114 L162 113 ZM85 148 Q101 141 106 132 Q105 127 97 120 Q93 117 91 120 Q84 135 83 146 Q82 150 85 148 Z" /><glyph glyph-name="uni60C5" unicode="&#x60c5;" d="M133 100 L190 102 L199 113 L220 101 Q222 100 220 98 L214 91 L215 16 Q218 -14 190 -30 Q187 -31 187 -28 Q187 -16 178 -11 Q177 -10 177 -9 Q177 -8 179 -8 Q194 -8 192 0 L191 96 L133 94 L132 70 L182 71 Q185 71 185 69 Q185 67 183 66 L132 64 L132 38 L183 40 Q185 39 185 38 Q185 36 183 35 L132 33 L132 0 Q130 -13 119 -25 Q115 -29 114 -29 Q112 -29 113 -25 L114 16 L115 110 L133 100 ZM49 211 Q49 213 50 214 Q52 214 53 213 L72 204 Q74 203 72 201 L70 195 L67 36 L66 4 Q67 -3 65 -11 Q61 -23 51 -30 Q48 -32 47 -32 Q45 -31 45 -29 L48 48 L51 179 L49 211 ZM134 173 Q122 173 109 171 Q110 171 108 171 L99 178 L152 179 L151 214 L178 206 Q179 206 180 205 Q179 204 178 203 Q178 203 178 202 Q175 198 175 193 L174 179 L201 180 L214 192 L229 178 Q230 176 228 175 Q228 176 227 175 L174 174 L174 151 L192 151 L204 163 L218 150 Q219 148 219 148 Q218 147 217 147 L174 146 L174 123 L219 124 L231 137 L248 122 Q249 120 247 119 Q247 120 246 119 L120 116 Q105 116 94 113 L86 121 L152 122 L152 145 L117 144 Q113 144 113 147 Q113 149 117 150 L152 150 L152 173 L134 173 ZM38 159 Q40 161 41 159 Q47 128 36 105 Q27 90 13 92 Q5 101 13 109 Q35 121 38 159 ZM78 157 Q98 147 99 139 Q97 132 90 127 Q86 124 84 128 Q78 139 75 155 Q74 158 78 157 Z" /><glyph glyph-name="uni611F" unicode="&#x611f;" d="M51 187 Q51 190 53 189 L75 175 L145 176 Q144 194 142 215 L167 203 Q169 202 166 200 L162 195 Q162 186 164 177 L195 177 L209 192 L226 176 Q227 174 224 173 L164 172 Q169 144 178 124 Q189 139 198 155 L216 142 Q218 142 216 138 L211 135 Q199 120 187 108 Q200 89 215 78 Q220 73 224 80 L232 88 Q233 89 235 89 Q236 88 235 86 Q225 72 234 59 Q239 49 233 43 Q227 39 217 45 Q186 64 169 93 Q143 73 106 52 Q103 54 105 56 Q140 80 163 106 Q152 133 146 171 L74 169 L74 130 Q78 84 4 30 Q2 29 2 31 Q1 33 3 34 Q32 60 42 82 Q53 102 53 138 L53 157 L51 187 ZM77 52 L95 44 Q97 43 94 40 L92 37 Q87 24 89 8 Q90 0 102 -2 Q131 -7 155 -2 Q164 0 164 4 L164 26 Q165 28 166 28 Q167 29 168 27 Q174 2 192 0 Q200 -1 200 -6 Q200 -12 191 -16 Q174 -23 146 -25 Q115 -26 94 -20 Q76 -12 74 5 Q72 24 75 50 Q75 53 77 52 ZM122 131 L138 121 Q138 121 138 120 Q139 119 138 119 L133 111 L133 87 L134 84 Q134 82 133 82 Q126 82 94 81 Q91 72 84 64 Q82 62 81 63 Q80 63 80 65 L81 104 Q81 119 81 129 Q81 131 83 129 L95 121 L114 122 L122 131 ZM190 36 Q233 28 236 16 Q238 8 228 -1 Q220 -6 216 1 Q204 22 189 34 Q186 37 190 36 ZM42 41 Q43 45 46 42 Q62 15 57 0 Q49 -7 37 -10 Q31 -10 30 -7 Q29 -4 32 0 Q45 18 42 41 ZM95 117 L94 86 L114 87 L114 118 L95 117 ZM120 49 Q145 39 146 30 Q145 20 135 16 Q127 12 126 19 Q125 38 117 47 Q116 49 117 49 Q118 50 120 49 ZM81 142 Q79 142 78 144 Q78 147 80 147 L117 148 L127 159 L139 147 Q141 145 139 144 L81 142 ZM177 207 Q196 203 197 198 Q195 189 190 186 Q187 183 185 188 Q184 190 182 194 Q177 203 176 206 Q175 207 177 207 Z" /><glyph glyph-name="uni6210" unicode="&#x6210;" d="M61 172 Q61 175 63 174 L88 160 L147 162 Q147 169 147 185 Q148 201 148 209 L173 200 Q175 199 173 197 L168 192 Q167 177 167 162 L209 163 L223 179 L241 162 Q243 159 240 159 L167 157 Q166 112 178 78 Q190 100 199 124 L218 111 Q222 108 218 106 Q218 105 216 103 Q215 101 214 100 Q201 76 187 57 Q201 30 225 15 Q231 11 235 16 L245 26 Q246 27 248 27 Q250 26 249 24 Q239 9 247 -2 Q252 -14 246 -19 Q239 -24 226 -18 Q191 -2 170 38 Q140 4 71 -29 Q70 -30 69 -28 Q69 -27 70 -26 Q130 9 164 55 Q148 99 148 156 L85 155 L85 113 L111 114 L119 126 L139 116 Q141 115 139 113 L133 103 L133 75 L134 56 Q132 31 106 15 Q104 14 103 15 Q101 16 102 18 Q104 30 94 32 Q92 36 95 36 Q112 34 110 49 L112 109 L85 108 Q89 37 4 -22 Q2 -23 2 -21 Q1 -20 3 -19 Q39 11 51 42 Q63 71 63 127 L63 142 L61 172 ZM189 197 Q208 192 210 187 Q209 180 203 174 Q199 171 197 176 Q195 181 190 190 Q188 194 187 196 Q187 197 189 197 Z" /><glyph glyph-name="uni6211" unicode="&#x6211;" d="M139 211 Q139 214 141 213 L166 202 Q169 202 166 200 L162 194 Q162 193 162 190 Q160 160 161 133 L197 134 L212 149 L230 132 Q231 131 231 130 Q231 129 229 129 L162 126 Q164 87 173 60 Q189 84 199 105 Q199 108 201 106 L220 91 Q223 89 219 86 Q197 63 179 45 Q191 17 215 4 Q221 1 225 5 L236 18 Q237 19 239 19 Q240 18 239 16 Q232 3 232 -13 Q234 -22 230 -26 Q225 -29 216 -24 Q179 -2 163 31 Q134 7 113 -4 Q110 -5 111 -2 Q139 18 158 41 Q145 76 142 125 L99 123 L99 84 L121 91 Q125 92 122 89 L98 75 L98 12 Q97 -15 71 -28 Q69 -29 69 -28 Q68 -28 68 -26 Q69 -15 59 -7 Q58 -6 59 -5 Q59 -4 61 -4 Q80 -6 78 5 L79 63 L69 58 Q47 45 36 36 Q35 35 33 36 L22 62 Q23 62 25 63 Q36 65 52 70 L79 78 L79 122 L56 121 Q45 121 31 118 Q29 118 28 118 L20 127 L79 130 Q79 154 79 172 Q78 174 79 175 Q79 175 81 175 L103 165 Q105 165 104 162 L100 155 L99 130 L141 132 Q141 137 141 149 Q140 161 140 168 Q140 175 140 189 Q139 203 139 211 ZM106 212 L122 196 Q123 193 120 192 Q89 185 36 172 Q33 172 35 174 Q78 191 103 212 Q105 214 106 212 ZM182 194 Q212 183 213 172 Q211 161 201 156 Q192 153 191 161 Q191 181 179 192 Q179 195 182 194 Z" /><glyph glyph-name="uni623F" unicode="&#x623f;" d="M69 192 Q69 195 71 194 L95 183 L134 184 L136 215 L166 208 Q169 208 167 205 Q162 201 161 184 L198 185 L209 197 L230 184 Q233 183 230 180 L225 173 L225 150 L227 146 Q228 144 225 144 Q212 145 176 145 L90 143 L90 119 Q92 41 5 -19 Q3 -19 3 -18 Q3 -16 5 -15 Q43 18 57 50 Q71 81 71 132 L71 162 L69 192 ZM197 83 L217 70 Q219 69 217 68 L211 61 L209 22 Q206 -9 174 -23 Q172 -24 172 -21 Q175 -8 167 -3 Q164 -2 167 -1 Q184 -3 185 13 L188 67 L148 65 L147 59 Q145 8 56 -29 Q54 -30 53 -28 Q52 -27 54 -26 Q132 9 129 81 L129 99 L125 99 Q110 99 100 96 L91 104 L209 107 L221 120 L236 105 Q237 104 238 103 Q237 102 236 102 L138 99 L151 94 Q154 93 151 90 L150 84 L148 71 L188 72 L197 83 ZM90 177 L90 148 L199 151 L200 180 L90 177 ZM145 141 Q170 131 171 122 Q169 111 157 108 Q151 107 150 112 Q150 130 143 139 Q142 142 145 141 Z" /><glyph glyph-name="uni624B" unicode="&#x624b;" d="M179 207 L197 185 Q199 182 194 181 Q190 181 170 179 Q146 177 130 175 L140 171 Q142 171 142 168 L141 131 L186 133 L201 148 L219 131 Q221 128 219 128 L141 125 L141 81 L210 82 L226 100 L248 80 Q250 78 247 78 L141 75 L141 21 Q143 -10 103 -25 Q101 -26 101 -25 Q100 -24 101 -22 Q101 -5 92 0 Q89 3 93 4 Q119 1 117 14 L116 74 L48 72 Q34 71 21 69 L13 78 L116 80 L116 125 L70 124 Q65 123 57 122 Q47 121 43 120 L35 129 L116 131 L115 173 Q103 171 77 169 Q56 166 45 165 Q42 165 42 166 Q42 167 44 169 Q146 192 179 207 Z" /><glyph glyph-name="uni624D" unicode="&#x624d;" d="M146 213 L176 205 Q177 205 177 201 L173 193 L173 153 L208 154 L224 170 L246 152 Q247 150 245 149 L173 147 L172 53 L173 18 Q175 -8 135 -28 Q133 -29 133 -28 Q132 -27 133 -25 Q135 -6 124 -1 Q122 1 125 0 Q149 0 146 10 L146 113 Q93 43 6 -10 Q4 -11 3 -9 Q3 -8 4 -6 Q76 44 134 146 L50 143 Q36 142 23 140 L15 148 L146 152 L146 161 Q146 202 145 211 Q146 214 146 213 Z" /><glyph glyph-name="uni6253" unicode="&#x6253;" d="M58 211 L82 202 Q85 201 83 199 L79 191 L79 156 L91 157 L104 170 L120 156 Q121 153 118 153 L79 150 L78 102 Q82 103 89 106 Q98 109 119 118 Q121 117 119 114 Q96 100 78 88 L78 62 L79 14 Q80 -12 50 -29 Q48 -30 47 -30 Q46 -29 46 -27 Q47 -12 38 -8 Q37 -7 37 -6 Q38 -4 39 -5 Q59 -8 56 4 L57 73 Q36 60 28 51 Q25 49 24 52 L14 80 Q14 82 15 82 Q22 83 43 90 Q52 93 57 94 L57 149 L46 148 Q30 148 19 145 L12 153 L57 155 L57 160 Q57 173 56 194 Q56 205 56 209 Q56 212 58 211 ZM151 174 Q133 173 124 170 L114 178 L213 181 L227 196 L244 180 Q245 179 245 178 Q245 177 243 177 L173 174 L195 167 Q197 167 195 164 L192 156 L191 62 L192 19 Q193 -9 158 -28 Q155 -29 154 -28 Q153 -27 154 -25 Q154 -10 145 -5 Q143 -4 144 -3 Q144 -2 146 -2 Q171 -3 168 4 L168 126 L167 174 L151 174 Z" /><glyph glyph-name="uni6270" unicode="&#x6270;" d="M133 211 L160 203 Q163 202 160 198 L157 191 Q157 183 156 169 Q156 153 155 146 L210 148 L224 162 L239 146 Q241 144 238 144 L172 141 L193 131 Q193 131 193 130 Q194 130 193 129 L189 122 L173 22 Q172 10 182 8 Q197 5 222 9 Q231 11 236 24 Q237 26 238 26 Q240 26 239 24 Q237 10 245 5 Q255 -6 234 -14 Q207 -19 180 -15 Q156 -12 158 24 L167 125 L167 141 L155 140 Q153 35 57 -33 Q55 -34 54 -33 Q54 -32 55 -30 Q134 34 134 140 L130 140 Q120 139 108 137 Q109 138 105 137 L97 144 L134 146 Q134 150 134 158 Q135 168 135 173 Q135 195 133 211 ZM58 213 L81 205 Q83 205 83 204 Q83 204 81 202 L78 194 L77 156 L82 157 L92 167 L106 156 Q109 153 105 152 L77 151 L76 107 Q82 109 95 115 Q103 118 107 120 Q111 121 108 118 Q104 115 96 109 Q91 107 76 95 L76 27 Q77 -1 47 -17 Q45 -18 44 -18 Q43 -17 43 -14 Q45 -1 35 4 Q33 8 36 8 Q58 7 56 17 L56 80 Q36 65 28 57 Q26 55 26 56 Q26 55 25 57 L17 83 Q16 84 17 84 Q16 84 18 85 Q28 87 56 98 L56 149 L48 149 Q31 148 22 145 L14 153 L56 155 L56 162 Q56 196 55 211 Q55 213 56 213 Q56 214 58 213 ZM177 196 Q207 185 206 176 Q205 167 195 162 Q186 158 185 166 Q182 184 175 194 Q174 196 177 196 Z" /><glyph glyph-name="uni628A" unicode="&#x628a;" d="M116 196 L138 184 L201 185 L210 197 L230 186 Q233 185 230 182 L225 174 L225 109 L227 106 Q228 104 225 104 Q205 104 176 104 L134 103 L133 26 Q133 11 148 10 Q184 8 210 14 Q229 17 236 39 Q237 41 239 40 Q240 40 240 38 Q236 19 244 15 Q262 -1 239 -11 Q203 -22 157 -15 Q114 -9 115 44 L115 159 Q115 169 114 183 Q114 191 114 194 Q113 197 116 196 ZM60 214 L83 204 Q86 204 84 200 L80 193 L80 158 L86 158 L98 171 L113 158 Q114 155 112 155 L80 153 L79 103 Q94 109 108 116 Q112 117 109 114 Q106 112 100 107 Q93 102 79 92 L79 16 Q80 -10 51 -27 Q49 -28 48 -28 Q47 -27 47 -25 Q49 -10 39 -6 Q38 -5 38 -4 Q39 -2 40 -3 Q59 -4 57 6 L58 75 Q37 59 29 50 Q28 49 27 49 Q26 49 26 50 L18 78 Q17 80 19 80 Q29 82 58 93 L58 152 L23 150 Q20 149 20 151 Q19 153 22 155 L58 157 L59 163 Q59 176 58 197 Q58 208 58 212 Q58 215 60 214 ZM135 173 L134 109 L158 110 L158 179 L139 178 L135 173 ZM178 111 L201 111 L202 180 L179 179 L178 111 Z" /><glyph glyph-name="uni62C5" unicode="&#x62c5;" d="M193 185 L203 199 L226 183 Q229 182 226 179 L220 172 L219 77 Q220 48 200 32 Q196 29 194 34 Q189 49 186 54 L138 51 Q136 40 125 29 Q122 26 120 26 Q119 26 118 29 L119 153 L117 193 Q117 196 121 195 L138 182 L193 185 ZM58 208 L81 200 Q83 199 81 197 L77 189 L77 152 L83 152 L94 165 L110 152 Q111 149 109 148 L77 146 L76 98 Q79 100 86 103 Q97 108 103 111 Q105 111 105 110 Q105 109 104 108 Q98 104 86 96 Q79 90 75 88 L75 16 Q76 -12 47 -28 Q43 -30 43 -25 Q45 -12 36 -5 Q34 -2 37 -1 Q58 -3 55 6 L55 73 Q45 65 32 54 Q29 52 28 51 Q25 48 24 51 L17 76 Q16 78 18 78 Q32 81 55 90 L56 144 L51 144 Q34 143 25 140 L17 148 L56 151 L56 157 Q56 186 54 207 Q55 211 58 208 ZM138 177 L138 125 L181 127 Q184 127 184 125 Q184 122 181 121 L138 119 L138 57 L192 59 Q193 61 193 62 L194 180 L138 177 ZM124 -13 Q110 -13 97 -15 L89 -7 L213 -4 L230 10 L248 -6 Q250 -8 247 -8 L124 -13 Z" /><glyph glyph-name="uni62C6" unicode="&#x62c6;" d="M127 195 L147 183 Q178 197 198 211 Q201 214 203 211 L220 190 Q221 187 218 186 Q194 184 145 176 L145 133 L214 134 L228 148 L245 133 Q248 130 244 129 L189 128 L205 118 Q208 116 205 112 L200 105 L200 80 Q230 73 239 63 Q243 53 233 43 Q224 35 219 42 Q212 52 201 62 L201 0 Q200 -17 186 -25 Q180 -30 179 -25 L178 76 Q171 80 157 85 Q153 86 151 87 Q149 89 152 90 L178 84 L178 128 L145 127 Q145 62 130 31 Q119 2 71 -32 Q68 -33 67 -31 Q66 -30 68 -28 Q102 -2 113 28 Q125 59 125 123 L125 164 Q125 190 124 193 Q124 196 127 195 ZM65 209 L87 201 Q90 201 88 197 L84 190 L83 153 L93 154 L104 166 L120 153 Q121 151 121 151 Q120 150 119 150 L83 147 L83 99 Q98 105 114 112 Q116 111 114 109 Q106 103 90 93 Q85 89 83 88 L82 68 L82 20 Q83 -7 55 -23 Q53 -24 52 -24 Q51 -23 51 -21 Q51 -8 43 -2 Q42 -1 42 0 Q42 0 44 0 Q66 -2 63 10 L63 74 Q62 73 60 72 Q42 60 33 51 Q30 48 29 51 L21 77 Q21 79 23 79 Q34 82 63 92 L63 146 L55 145 Q39 145 28 142 L21 150 L63 152 L63 158 Q63 192 63 207 Q62 210 65 209 Z" /><glyph glyph-name="uni62FF" unicode="&#x62ff;" d="M170 141 L187 132 Q189 131 187 129 L183 122 L183 105 L185 102 Q185 102 184 101 Q135 101 94 99 Q91 93 84 88 Q79 85 78 90 L79 120 L78 137 Q45 111 7 88 Q5 87 4 88 Q4 90 5 91 Q81 143 121 217 L145 206 Q148 205 145 202 L142 199 Q169 159 251 131 Q254 128 251 127 Q237 125 223 110 Q165 147 140 197 L138 195 Q117 171 96 153 L142 154 L151 164 L163 153 Q164 151 161 151 L125 149 Q110 149 103 147 L96 152 Q89 146 81 140 L95 132 L163 133 L170 141 ZM167 100 L180 86 Q182 83 178 82 Q174 82 164 80 Q142 77 127 76 L140 72 Q142 71 142 69 L141 56 L182 57 L195 69 L211 55 Q212 54 210 52 L141 51 L141 30 L206 31 L221 45 L239 30 Q240 29 238 27 L140 26 L140 1 Q140 -19 115 -29 Q113 -29 113 -28 Q112 -13 105 -10 Q102 -8 105 -6 Q121 -8 119 0 L119 25 L58 24 Q37 24 27 22 L19 29 L119 30 L118 50 L80 50 Q60 49 48 47 L41 54 L118 56 L118 75 Q112 75 99 73 Q81 72 71 71 Q67 71 71 73 Q145 89 167 100 ZM95 127 L95 104 L164 106 L163 129 L95 127 Z" /><glyph glyph-name="uni63A7" unicode="&#x63a7;" d="M54 213 L77 205 Q79 204 79 204 Q79 204 77 202 L74 194 L73 158 L80 159 L92 172 L107 158 Q109 155 106 155 L73 153 L72 104 Q79 107 91 113 Q98 116 101 117 Q103 118 103 117 Q103 115 102 114 Q86 104 72 93 L71 51 L72 15 Q73 -10 44 -28 Q42 -29 41 -28 Q40 -28 41 -25 Q41 -13 33 -7 Q31 -4 34 -3 Q53 -5 51 5 L52 78 Q48 75 40 69 Q25 57 22 54 Q20 52 20 53 Q20 52 19 54 L11 80 Q11 82 13 82 Q26 85 52 96 L52 152 L17 150 Q15 150 14 152 Q14 154 16 155 L52 157 L52 162 Q53 178 52 201 Q52 208 52 211 Q51 214 54 213 ZM116 69 Q113 69 112 71 Q112 73 115 74 L197 77 L210 90 L227 75 Q228 74 228 74 Q228 73 226 72 L180 71 L179 -8 L219 -7 L234 5 L252 -9 Q253 -11 251 -12 L127 -16 Q108 -16 98 -18 L91 -11 L155 -9 L156 70 L116 69 ZM215 170 L225 179 L247 159 Q249 157 248 155 Q247 154 244 154 Q230 153 210 140 Q207 138 208 141 L216 165 L129 161 Q124 136 103 124 Q100 122 99 125 Q94 137 99 140 Q114 155 115 172 Q116 175 119 174 Q125 170 128 165 L158 167 L159 212 L184 205 Q186 204 184 202 L182 196 L181 168 L215 170 ZM145 147 L163 133 Q163 132 162 130 Q126 94 92 70 Q90 70 91 72 Q121 99 143 146 Q143 149 145 147 ZM176 141 Q179 140 185 138 Q213 129 226 120 Q232 111 225 97 Q218 88 212 99 Q196 124 176 139 Q175 140 176 141 Z" /><glyph glyph-name="uni63A8" unicode="&#x63a8;" d="M88 83 Q86 82 85 83 Q84 84 85 85 Q116 128 141 215 L164 204 Q166 203 166 203 Q166 202 164 201 L161 197 Q157 187 146 169 Q143 162 141 158 L208 159 L220 172 L237 157 Q238 155 236 155 L192 153 L192 112 L203 113 L214 124 L229 111 Q230 110 230 109 Q230 108 228 108 L191 107 L191 72 L203 72 L215 83 L229 70 Q230 69 230 69 Q230 68 228 67 L191 66 L190 24 L214 25 L227 38 L243 23 Q244 21 244 21 Q243 20 242 20 L139 17 L139 -1 Q137 -16 125 -30 Q120 -34 118 -29 L120 37 L123 130 Q106 104 88 83 ZM58 211 L81 203 Q84 203 82 199 L78 192 L77 154 L84 155 L95 167 L110 154 Q111 152 109 151 L77 148 L77 111 Q80 112 87 115 Q97 119 102 121 Q104 122 103 119 Q101 118 98 115 Q88 109 77 100 L76 66 L78 17 Q78 -9 48 -26 Q46 -27 45 -27 Q44 -26 44 -24 Q45 -10 36 -5 Q35 -4 35 -3 Q36 -1 37 -2 Q58 -2 56 7 L56 83 Q53 80 47 76 Q38 69 29 60 Q27 58 27 59 Q27 58 26 60 L18 87 Q17 88 18 88 Q17 88 19 89 Q33 93 56 102 L56 147 L49 146 Q46 146 41 145 Q29 145 23 143 L16 150 L56 153 L56 160 Q56 194 56 209 Q55 212 58 211 ZM140 65 L139 23 L170 24 L170 66 L140 65 ZM141 152 L141 111 L170 112 L170 153 L141 152 ZM141 105 L140 70 L170 71 L170 106 L141 105 ZM172 198 Q197 187 197 178 Q196 171 185 166 Q178 164 177 170 Q176 188 170 196 Q169 198 172 198 Z" /><glyph glyph-name="uni63D0" unicode="&#x63d0;" d="M127 97 Q106 96 99 94 L92 102 L219 105 L232 119 L249 103 Q251 100 248 100 L173 98 L172 9 Q191 5 248 7 Q250 7 250 6 Q250 5 249 4 Q230 1 223 -20 Q191 -20 165 -15 Q142 -7 123 32 Q110 3 72 -29 Q69 -31 70 -27 Q111 15 119 76 Q119 78 121 77 L136 70 Q139 69 137 66 Q131 50 126 37 Q138 17 153 13 L154 98 L127 97 ZM138 127 Q136 120 128 115 Q125 113 124 113 Q122 114 122 116 L123 189 Q123 193 122 200 Q122 205 122 207 Q122 210 124 209 L140 202 L140 199 L183 200 L188 209 L209 199 Q211 199 209 197 L205 189 L205 141 Q205 129 195 118 Q190 114 188 118 Q188 119 187 120 Q184 126 180 129 L138 127 ZM56 212 L78 204 Q80 203 78 201 L74 193 L74 153 L83 154 L93 166 L109 153 Q110 150 107 150 L73 147 L73 102 Q86 108 101 114 Q103 114 103 113 Q103 112 102 111 Q85 101 73 90 L72 68 L72 20 Q73 -6 46 -24 Q43 -25 42 -24 Q41 -24 42 -21 Q43 -6 34 -2 Q33 -1 33 0 Q33 0 35 0 Q57 -2 54 10 L54 77 Q50 74 44 69 Q36 62 28 55 Q25 53 24 56 L16 81 Q16 83 17 83 Q21 84 31 88 Q46 92 54 95 L55 146 L50 146 Q37 145 24 143 L16 150 L55 152 L55 161 Q55 174 54 195 Q54 206 54 210 Q54 213 56 212 ZM183 196 L139 194 L139 167 L177 168 Q179 169 179 167 Q179 164 177 165 L139 163 L139 132 L183 134 L183 196 ZM221 72 L229 56 Q229 54 226 54 L220 54 Q211 53 192 54 Q185 54 182 54 Q179 54 182 56 Q207 63 221 72 Z" /></font>
</defs>
</svg>
