<?xml version="1.0" standalone="no"?>
<!DOCTYPE svg PUBLIC "-//W3C//DTD SVG 1.1//EN" "http://www.w3.org/Graphics/SVG/1.1/DTD/svg11.dtd" >
<!--
2013-9-30: Created.
-->
<svg>
<metadata>
Created by iconfont
</metadata>
<defs>

<font id="iconfont" horiz-adv-x="1024" >
  <font-face
    font-family="iconfont"
    font-weight="500"
    font-stretch="normal"
    units-per-em="1024"
    ascent="896"
    descent="-128"
  />
    <missing-glyph />
    
    <glyph glyph-name="shanchu" unicode="&#58881;" d="M344.4593 104.618c15.4235 0 27.902 12.4795 27.902 27.902L372.3613 439.441408c0 15.4225-12.4795 27.902-27.902 27.902-15.4225 0-27.902-12.4805-27.902-27.902l0-306.922496C316.5573 117.0964 329.0368 104.618 344.4593 104.618zM511.872 104.618c15.4235 0 27.902 12.4795 27.902 27.902L539.774 439.441408c0 15.4225-12.4795 27.902-27.902 27.902s-27.902-12.4805-27.902-27.902l0-306.922496C483.969 117.0964 496.4485 104.618 511.872 104.618zM679.2837 104.618c15.4235 0 27.902 12.4795 27.902 27.902L707.1857 439.441408c0 15.4225-12.4795 27.902-27.902 27.902s-27.902-12.4805-27.902-27.902l0-306.922496C651.3818 117.0964 663.8602 104.618 679.2837 104.618zM818.7935 746.3639 703.234048 746.3639c-12.4795 48.0113-55.8039 83.7059-107.6572 83.7059L428.16512 830.0698c-51.8533 0-95.1777-35.6946-107.6572-83.7059L204.949504 746.3639c-61.5526 0-111.6078-50.0828-111.6078-111.6078l0-27.902976 27.901952 0 0-27.901952 55.803904 0 0-530.138112c0-61.526 50.0552-111.6078 111.6078-111.6078l446.432256 0c61.5547 0 111.6078 50.0818 111.6078 111.6078L846.695416 578.952192l55.803904 0 0 27.901952 27.901952 0 0 27.902976C930.4013 696.2821 880.3482 746.3639 818.7935 746.3639zM428.1651 774.2659l167.411712 0c20.5445 0 38.3652-11.308 48.0389-27.902L380.127232 746.3639C389.801 762.9578 407.6206 774.2659 428.1651 774.2659zM790.8915 48.8141c0-30.7896-25.0399-55.8039-55.8039-55.8039L288.65536-6.9898c-30.763 0-59.6726 25.0143-59.6726 55.8039l3.8687 530.1381 558.040064 0L790.891524 48.81408zM149.1446 634.7561c0 30.7896 25.0419 55.8039 55.8039 55.8039L818.793472 690.56c30.7651 0 55.8039-25.0143 55.8039-55.8039L149.144576 634.7561z"  horiz-adv-x="1024" />

    
    <glyph glyph-name="tubiao202" unicode="&#58937;" d="M768.464092 479.657112l-480.091782 0L288.372309 543.670032c0 129.776801 94.202924 256.048609 224.040103 256.048609 124.711192 0 224.046243-146.900605 224.046243-192.037736 0-17.687673 14.31367-32.00339 32.005437-32.00339 17.686649 0 32.004413 14.31674 32.004413 32.00339 0 84.39611-134.652065 256.051679-288.056093 256.051679-166.905154 0-288.057116-153.153305-288.057116-320.062553l0-67.011351c-57.9434-10.314398-96.012216-49.697203-96.012216-117.896669l0-334.312775c0-80.264825 52.316992-120.89817 128.02584-120.89817l512.096195 0c75.700661 0 128.023793 40.633345 128.023793 120.89817L896.488908 358.762012C896.486861 438.899941 844.163729 479.657112 768.464092 479.657112zM832.473941 24.449237c0-29.507426-7.748846-56.884227-64.00985-56.884227l-512.096195 0c-56.261004 0-64.01599 27.376801-64.01599 56.884227L192.351906 358.762012c0 22.129035 5.12087 44.505721 34.690721 53.011851 10.693039 5.124963 59.513227 3.8734 59.513227 3.8734l481.907214 0c56.38483 0 64.00985-28.75526 64.00985-56.88525L832.472918 24.449237zM512.412412 351.635366c-53.140793 0-96.014263-43.005483-96.014263-96.017333 0-41.805087 26.668639-77.383057 64.004733-90.558756l0-95.977422c0-20.627773 14.259433-37.506995 32.00953-37.506995 17.628318 0 32.004413 16.879222 32.004413 37.506995l0 95.993796c37.286973 13.18798 64.018037 48.754693 64.018037 90.543406C608.434862 308.629883 565.424263 351.635366 512.412412 351.635366zM512.412412 223.610549c-17.631388 0-32.00953 14.378142-32.00953 32.00646s14.379165 32.004413 32.00953 32.004413c17.628318 0 32.004413-14.376095 32.004413-32.004413S530.039707 223.610549 512.412412 223.610549z"  horiz-adv-x="1025" />

    
    <glyph glyph-name="shangpin" unicode="&#58905;" d="M749.220285-63.524546 274.789948-63.524546c-51.92051 0-99.466386 40.037878-108.315938 91.192955l-68.476581 414.905638c-4.470825 26.03905 2.27174 52.176336 18.532075 71.474868 16.235776 19.296485 40.838104 30.356378 67.419506 30.356378L840.097038 544.405293c26.643823 0 51.251268-11.087523 67.481927-30.385031 16.229636-19.301602 22.939455-45.438888 18.370393-71.703065l-68.409043-414.423661C848.623225-23.486668 801.081443-63.524546 749.220285-63.524546L749.220285-63.524546zM183.947987 480.466052c-7.825222 0-14.44192-2.681062-18.561751-7.607258-4.1536-4.919033-5.689582-11.916401-4.378727-19.681248l68.506257-414.901545c3.452635-20.067035 24.636097-37.897122 45.275159-37.897122l474.430336 0c20.643156 0 41.827641 17.863856 45.342698 38.151925l68.410066 414.427754c1.375324 7.984858-0.160659 14.951527-4.28049 19.871583-4.154623 4.920056-10.770298 7.635911-18.59552 7.635911L183.947987 480.466052 183.947987 480.466052zM318.406329 288.621722c-35.274388 0-63.937195 28.66383-63.937195 63.910589 0 35.239596 28.662807 63.902402 63.937195 63.902402 35.210943 0 63.874773-28.66383 63.874773-63.902402C382.281101 317.319322 353.617271 288.621722 318.406329 288.621722L318.406329 288.621722zM318.406329 352.532311c0 0-0.063445 0-0.097214-0.033769l0.063445-31.921014L318.406329 352.532311 318.406329 352.532311zM703.688275 288.621722c-35.240619 0-63.904449 28.66383-63.904449 63.910589 0 35.239596 28.664853 63.902402 63.904449 63.902402 35.244712 0 63.907519-28.66383 63.907519-63.902402C767.595794 317.319322 738.932987 288.621722 703.688275 288.621722L703.688275 288.621722zM703.722044 352.532311l-0.064468 0 0.029676-31.955806L703.722044 352.532311 703.722044 352.532311zM735.671711 575.525058c-17.669428 0-31.949666 14.314007-31.949666 31.954783 0 91.444689-102.091166 159.762657-193.408965 159.762657-93.396133 0-190.019775-59.624982-190.019775-159.38301 0-17.633612-14.31503-31.949666-31.954783-31.949666-17.639752 0-31.954783 14.31503-31.954783 31.949666 0 139.763161 129.124869 223.286436 253.957992 223.286436 121.708969 0 257.317507-91.865267 257.317507-223.666082C767.626493 589.839065 753.345232 575.525058 735.671711 575.525058L735.671711 575.525058zM735.671711 575.525058"  horiz-adv-x="1024" />

    
    <glyph glyph-name="updir" unicode="&#59358;" d="M804.53376 201.121792q0-14.856192-10.856448-25.71264t-25.71264-10.856448l-511.967232 0q-14.856192 0-25.71264 10.856448t-10.856448 25.71264 10.856448 25.71264l255.983616 255.983616q10.856448 10.856448 25.71264 10.856448t25.71264-10.856448l255.983616-255.983616q10.856448-10.856448 10.856448-25.71264z"  horiz-adv-x="1024" />

    
    <glyph glyph-name="htmal5icon23" unicode="&#58940;" d="M774.630513 656.439926c-66.918086 71.697949-162.516374 114.716718-267.673365 114.716718-210.315006 0-382.391107-172.0761-382.391107-382.391107s172.0761-382.391107 382.391107-382.391107c176.855964 0 325.031724 124.277468 368.051517 286.792818l-100.377128 0c-38.238906-109.936855-143.396921-191.195553-267.673365-191.195553-157.736511 0-286.792818 129.057331-286.792818 286.792818 0 157.736511 129.057331 286.792818 286.792818 286.792818 81.257675 0 148.176784-33.459043 200.75528-86.037539l-152.956647-152.956647 334.591451 0 0 334.591451L774.630513 656.439926z"  horiz-adv-x="1024" />

    
    <glyph glyph-name="xiugaimima" unicode="&#58888;" d="M350.334-128c-93.643 0-181.663 36.448-247.844 102.629-136.625 136.8-136.619 359.229 0 495.848 66.181 66.181 154.201 102.629 247.844 102.629 55.7 0 110.859-13.74 160.967-39.925L833.41 855.289c43.51 43.51 114.307 43.522 157.834 0.029l0 0c21.122-21.068 32.755-49.096 32.756-78.92 0-29.824-11.633-57.852-32.755-78.921l-76.494-76.493 76.522-76.522c43.522-43.523 43.522-114.34 0.001-157.863-21.093-21.092-49.125-32.707-78.933-32.707-29.809 0-57.841 11.615-78.932 32.706l-76.522 76.522-90.886-90.886c23.087-47.813 34.812-97.988 34.886-149.477 0.087-93.694-36.39-181.81-102.71-248.129C531.996-91.552 443.977-128 350.334-128zM350.334 509.106c-76.548 0-148.496-29.791-202.589-83.884C36.064 313.541 36.07 131.701 147.759 19.87 201.838-34.209 273.786-64 350.334-64s148.496 29.791 202.59 83.884c54.216 54.216 84.035 126.237 83.964 202.799-0.069 48.215-12.854 95.27-37.999 139.84l-11.942 21.167L756.888 553.63l121.777-121.777c9.003-9.003 20.963-13.961 33.677-13.961 12.713 0 24.674 4.958 33.678 13.962 18.568 18.569 18.568 48.784-0.001 67.354L824.241 620.983 946.02 742.76c9.025 9.003 13.98 20.939 13.98 33.637s-4.956 24.633-13.953 33.607l-0.028 0.029c-18.569 18.568-48.784 18.569-67.354 0L521.44 452.81l-21.533 13.272C454.243 494.229 402.521 509.106 350.334 509.106zM350.222 32.85c-51.316 0-100.555 19.785-135.109 54.293-74.568 74.759-74.555 196.187-0.015 270.726 36.087 36.088 84.115 55.962 135.236 55.962s99.148-19.874 135.236-55.962c36.138-36.138 56.041-84.194 56.041-135.315 0-51.218-19.913-99.284-56.071-135.345-34.612-34.521-83.898-54.334-135.22-54.358C350.288 32.85 350.254 32.85 350.222 32.85zM350.334 349.83c-34.026 0-65.981-13.217-89.981-37.216-49.618-49.618-49.605-130.47 0.029-180.23 47.844-47.78 131.96-47.736 179.963 0.139l0 0c24.031 23.967 37.265 55.94 37.265 90.03 0 34.026-13.245 66.011-37.295 90.062C416.316 336.613 384.36 349.83 350.334 349.83z"  horiz-adv-x="1024" />

    
    <glyph glyph-name="arrow-down" unicode="&#58952;" d="M511.5 106.1l-430.9 430.9c-22.8 22.8-22.8 59.8 0 82.6s59.8 22.8 82.6 0l348.3-348.3 348.3 348.3c22.8 22.8 59.8 22.8 82.6 0 22.8-22.8 22.8-59.8 0-82.6l-430.9-430.9zM511.5 106.1z"  horiz-adv-x="1024" />

    
    <glyph glyph-name="huojian" unicode="&#58898;" d="M852.255 573.472c0 65.712-53.442 119.172-119.132 119.172-65.711 0-119.171-53.461-119.171-119.172 0-65.69 53.46-119.132 119.171-119.132C798.813 454.34 852.255 507.783 852.255 573.472zM801.935 573.447c0-37.942-30.869-68.811-68.812-68.811-37.964 0-68.851 30.869-68.851 68.811 0 37.965 30.886 68.852 68.851 68.852C771.066 642.299 801.935 611.412 801.935 573.447zM1021.905 855.249l-0.842 6.791-6.838 0.284c-12.267 0.509-24.382 0.767-36.007 0.767-86.79 0-168.182-13.548-241.91-40.269-59.076-21.41-113.379-51.273-161.401-88.757-71.787-56.035-107.4-111.497-116.092-126.169l-168.014-21.019L42.324 338.39l243.649 0c-3.286-67.805 12.286-120.663 46.338-157.203 45.252-48.56 111.951-55.81 147.681-55.81 7.315 0 13.461 0.293 18.057 0.621L498.049-95.09l270.026 248.559L768.075 300.092c66.683 49.787 121.513 109.535 163.006 177.636 33.736 55.371 58.766 116.336 74.395 181.204C1032.094 769.409 1022.334 851.796 1021.905 855.249zM709.63 304.156l0-133.51-153.111-134.47 0 98.691c0 27.767-22.847 50.357-50.929 50.357-2.153 0-14.174-1.402-25.597-1.402-44.742 0-79.152 12.588-102.276 37.414-25.257 27.116-36.634 69.198-32.902 121.704 0.967 13.792-3.946 27.567-13.48 37.793-9.54 10.233-22.947 16.102-36.783 16.102L183.466 396.835 317.96 531.328l152.091 19.062c16.077 1.985 30.302 11.686 38.022 25.895 5.076 9.171 127.185 222.971 457.649 228.224-0.696-92.773-27.065-305.992-235.611-459.79C717.287 335.256 709.63 320.092 709.63 304.156zM242.325 199.706c-24.879 44.079-24.358 82.709-24.351 83.078l0.429 17.049L0 129.928l132.946-22.13L44.695-27.239l181.519 46.792 44.229-110.606L437.39 75.912l-14.037 3.358C337.849 99.725 275.251 141.372 242.325 199.706zM188.355 85.785c9.456 14.196 10.984 32.138 4.087 47.996-6.875 15.806-20.994 26.886-37.749 29.636l-13.533 2.255 37.999 29.537c12.287-27.803 29.561-53.445 51.45-76.349 26.682-27.922 59.684-51.039 98.229-68.828l-37.048-37.048-13.945 34.84c-7.559 18.906-26.441 31.609-46.986 31.609-4.042 0-8.078-0.49-12.014-1.462l-42.831-10.683L188.355 85.785z"  horiz-adv-x="1025" />

    
    <glyph glyph-name="zhishi" unicode="&#58901;" d="M720.384001 296.551c-3.395 0-6.748-0.589-9.974-1.754l-191.785-69.693-0.393-0.16c-0.943-0.428-3.335-0.888-6.36-0.888-3.095 0-5.229 0.479-5.847 0.781l-0.262 0.128-191.701 69.665c-3.214 1.164-6.565 1.754-9.961 1.754-14.489 0-26.765-10.308-29.189-24.512-15.038-88.162-17.358-186.472-17.449-190.613-0.177-7.942 2.818-15.478 8.433-21.22 5.622-5.749 13.1-8.915 21.057-8.915l450.611 0c7.957 0 15.435 3.165 21.057 8.913 5.615 5.742 8.611 13.279 8.434 21.221-0.092 4.149-2.416 102.608-17.488 190.785C747.140001 286.244 734.866001 296.551 720.384001 296.551zM317.642001 110.109c1.532 30.564 4.5 73.466 10.177 116.756l157.569-57.262c7.926-2.865 17.102-4.379 26.539-4.379 9.473 0 18.717 1.522 26.754 4.408l157.989 57.414c5.698-43.407 8.67-86.357 10.203-116.937L317.642001 110.109zM997.954001 545.608 538.593001 712.496c-7.972 2.865-17.179 4.379-26.628 4.379-9.477 0-18.686-1.525-26.629-4.411L26.008001 545.621C9.962001 539.792-0.003999 526.856 1.0e-06 511.86c0.004-14.985 9.971-27.908 26.008-33.723L485.342001 311.28c7.944-2.875 17.141-4.394 26.596-4.394 9.474 0 18.71 1.523 26.724 4.409l395.882 143.799 0-150.581c0-13.297 10.235-24.114 22.816-24.114l10.931 0c12.581 0 22.817 10.817 22.817 24.114L991.108001 475.639l6.799 2.471c16.098 5.819 26.097 18.769 26.093 33.796C1023.997001 526.896 1014.013001 539.812 997.954001 545.608zM918.071001 511.88 518.579001 366.755l-2.77-1.006c-0.866-0.172-1.855-0.263-2.924-0.263-2.947 0-5.837 0.67-7.416 1.244L105.900001 511.878l399.569 145.138 0.325 0.13c0.615 0.25 3.091 0.717 6.292 0.717 2.593 0 4.959-0.31 6.444-0.834L918.071001 511.88zM962.838001 249.483c-21.034 0-38.147-17.111-38.147-38.142 0-21.047 17.113-38.169 38.147-38.169 21.043 0 38.163 17.122 38.163 38.169C1001.001001 232.373 983.881001 249.483 962.838001 249.483z"  horiz-adv-x="1025" />

    
    <glyph glyph-name="caigou" unicode="&#58904;" d="M207.962937 706.766125 207.962937 706.766125c19.73753 19.685341 52.062749 19.685341 71.592548 0L541.066501 445.309344c19.685341-19.739577 19.685341-51.934836 0-71.595618l0 0c-19.581987-19.787672-51.804876-19.787672-71.594595 0L207.962937 635.042593C188.379926 654.781146 188.379926 686.951847 207.962937 706.766125L207.962937 706.766125zM896.550795 448.676022 577.122695 448.676022c16.784268-31.05632 12.224416-70.765717-13.986549-97.02887-31.911804-31.886221-83.769892-31.886221-115.627461 0l-96.978728 97.02887L121.759623 448.676022c-32.016181 0-58.332547-26.290783-58.332547-58.332547l0 0c0-32.0653 26.316366-58.357106 58.332547-58.357106l13.986549 0 134.589324-394.543891 118.736265 0 247.936859 0L755.848239-62.557522l134.588301 394.543891 6.114255 0c32.118512 0 58.3305 26.290783 58.3305 58.357106l0 0C954.881294 422.385239 928.669306 448.676022 896.550795 448.676022L896.550795 448.676022zM275.412119 295.203628l470.799646 0c16.476253 0 29.840632-13.468756 29.840632-29.941939l0 0c0-16.476253-13.365402-29.943986-29.840632-29.943986L275.412119 235.317703c-16.473183 0-29.941939 13.467733-29.941939 29.943986l0 0C245.469156 281.734872 258.938935 295.203628 275.412119 295.203628L275.412119 295.203628zM341.204567 57.731098l342.222245 0c16.368806 0 29.838585-13.57211 29.838585-30.045293l0 0c0-16.474206-13.469779-29.942963-29.838585-29.942963L341.204567-2.257158c-16.423041 0-29.943986 13.468756-29.943986 29.942963l0 0C311.260581 44.158988 324.781526 57.731098 341.204567 57.731098L341.204567 57.731098zM308.308343 174.602899l410.964886 0c16.47523 0 29.945009-13.57211 29.945009-30.149671l0 0c0-16.474206-13.469779-29.839609-29.945009-29.839609L308.308343 114.61362c-16.47523 0-29.788443 13.366426-29.788443 29.839609l0 0C278.5199 161.030789 291.833113 174.602899 308.308343 174.602899zM544.692075 833.740004 544.692075 662.94099 459.319685 662.94099 630.067534 492.167558 800.918737 662.94099 715.544301 662.94099 715.544301 833.740004 544.692075 833.740004Z"  horiz-adv-x="1024" />

    
    <glyph glyph-name="084tuichu" unicode="&#58969;" d="M767.986697 721.39224c29.986965-21.286816 56.608276-45.414329 79.868025-72.355935 23.316032-26.970258 43.268456-56.087413 59.914578-87.349417 16.647145-31.29168 29.291117-64.381309 37.932937-99.326193s12.991895-70.355371 12.991895-106.316397c0-61.887512-11.83249-119.945813-35.43914-174.176948-23.663956-54.231135-55.565527-101.501742-95.875604-141.754514-40.252773-40.252773-87.466074-72.181973-141.753491-95.818299-54.172807-23.635303-112.289436-35.438117-174.176948-35.438117-61.191664 0-118.90204 11.802814-173.191504 35.438117-54.172807 23.636327-101.617375 55.565527-142.218072 95.818299-40.600697 40.281425-72.501244 87.523379-95.817276 141.754514-23.317055 54.231135-34.917254 112.289436-34.917254 174.176948 0 35.265178 4.117784 69.891813 12.412704 103.821577 8.352225 33.930787 20.184715 66.207911 35.496445 96.833419 15.311731 30.594809 34.220383 59.21873 56.840566 85.841064 22.620184 26.623357 47.90915 50.576909 75.865875 71.863724 14.674211 10.643408 30.507828 14.645558 47.444569 11.977799 16.935718-2.667759 30.740118-10.962679 41.412179-24.941042 10.67206-13.977339 14.616906-29.609365 12.006452-46.922682-2.667759-17.313318-10.961656-31.29168-24.998347-41.934065-41.87676-30.595832-74.009597-68.209498-96.281857-112.783693-22.272259-44.602847-33.466206-92.510974-33.466206-143.755078 0-43.906999 8.293897-85.34783 24.998347-124.267235 16.587793-38.948057 39.382962-72.878844 68.325132-101.821013 29.000498-28.942169 62.872956-51.9113 101.849666-68.876694 38.918381-16.965393 80.331583-25.433252 124.238582-25.433252 43.964304 0 85.377506 8.467859 124.295887 25.433252s72.849168 39.933501 101.849666 68.876694c28.942169 28.942169 51.852972 62.872956 68.847018 101.821013 16.994046 38.918381 25.461905 80.359212 25.461905 124.267235 0 51.9113-12.005428 100.979856-35.961026 147.235342-23.953551 46.25651-57.537438 84.362386-100.805894 114.291023-14.615882 9.976212-23.431665 23.635303-26.448372 40.918945-3.015683 17.313318 0.521886 33.293267 10.498098 47.938825 9.976212 13.977339 23.606651 22.446221 40.891316 25.433252C737.420541 734.878392 753.370815 731.368452 767.986697 721.39224L767.986697 721.39224 767.986697 721.39224 767.986697 721.39224zM511.44895 353.057267c-17.284665 0-32.075533 6.148024-44.428885 18.473747-12.297071 12.296047-18.444071 27.115568-18.444071 44.428885L448.575993 795.257551c0 17.313318 6.148024 32.277124 18.444071 44.921095 12.353352 12.642948 27.14422 18.965957 44.428885 18.965957 17.97949 0 33.118282-6.323009 45.414329-18.965957 12.354376-12.643971 18.502399-27.607778 18.502399-44.921095l0-379.297652c0-17.313318-6.148024-32.132838-18.502399-44.428885C544.567231 359.204268 529.42844 353.057267 511.44895 353.057267L511.44895 353.057267 511.44895 353.057267 511.44895 353.057267zM511.44895 353.057267"  horiz-adv-x="1024" />

    
    <glyph glyph-name="iconfontarrows1" unicode="&#58918;" d="M533.931498 156.411585c-12.692067-12.692067-33.187867-12.773931-45.778626-0.184195L74.382081 569.999205c-12.590759 12.590759-12.507872 33.086559 0.184195 45.778626l0 0c12.692067 12.692067 33.187867 12.773931 45.778626 0.184195l413.771815-413.771815C546.70543 189.599452 546.623565 169.103652 533.931498 156.411585L533.931498 156.411585zM947.851693 614.737128c12.692067-12.692067 12.773931-33.187867 0.184195-45.778626L534.264073 155.187711c-12.590759-12.590759-33.086559-12.507872-45.778626 0.184195l0 0c-12.692067 12.692067-12.773931 33.187867-0.184195 45.778626l413.770791 413.770791C914.663826 627.51106 935.159626 627.429195 947.851693 614.737128L947.851693 614.737128z"  horiz-adv-x="1024" />

    
    <glyph glyph-name="iconfonticonfonti2copy" unicode="&#58925;" d="M942.936 148.755c29.315 28.497 29.315 74.739 0 103.307l-378.011 367.236c-29.367 28.483-76.982 28.483-106.291 0l-377.997-367.236c-29.367-28.562-29.367-74.806 0-103.307 29.325-28.546 76.929-28.546 106.304 0l324.841 315.6 324.803-315.599c29.367-28.545 76.973-28.544 106.356 0l0 0z"  horiz-adv-x="1024" />

    
    <glyph glyph-name="icon1" unicode="&#58927;" d="M843.693959 602.390939 425.255869 183.943638 186.145026 423.052434 66.579883 303.495478 425.255869-55.165158 963.260126 482.825796Z"  horiz-adv-x="1024" />

    
    <glyph glyph-name="duigou" unicode="&#58894;" d="M378.410667 45.549037C364.491852 45.549037 350.610963 50.706963 340.02963 61.060741L20.920889 372.470519C-0.279704 393.178074-0.279704 426.704593 20.920889 447.412148 42.121481 468.119704 76.48237 468.119704 97.682963 447.412148L378.410667 173.473185 925.75763 707.508148C946.958222 728.215704 981.319111 728.215704 1002.519704 707.508148 1023.720296 686.838519 1023.720296 653.312 1002.519704 632.604444L416.791704 61.060741C406.172444 50.706963 392.291556 45.549037 378.410667 45.549037L378.410667 45.549037Z"  horiz-adv-x="1024" />

    
    <glyph glyph-name="yonghu1" unicode="&#58962;" d="M815.814506 596.649355c0-165.306834-134.011812-299.350645-299.350645-299.350645s-299.350645 134.011812-299.350645 299.350645c0 165.306834 134.011812 299.350645 299.350645 299.350645s299.350645-134.011812 299.350645-299.350645zM763.52814 283.219149c-69.75782-55.070279-156.219118-85.661323-247.064279-85.661323-91.901128 0-179.1944 31.295022-249.27221 87.421268-184.698228-67.805881-267.19165-304.758476-267.19165-412.979094l1027.711884 0c0 107.260648-83.133402 342.549295-264.183744 411.18715z"  horiz-adv-x="1028" />

    
    <glyph glyph-name="yijiedan" unicode="&#58893;" d="M810.008381-77.945905l-34.474667 34.474667 189.610667 189.659429L999.619048 111.689143 810.008381-77.945905zM706.535619 94.45181l103.472762-103.424-34.474667-34.499048-103.472762 103.448381L706.535619 94.45181zM609.52381 67.047619 219.428571 67.047619l0 48.761905 390.095238 0L609.52381 67.047619zM219.428571 603.428571l243.809524 0 0-48.761905L219.428571 554.666667 219.428571 603.428571zM609.52381 310.857143 219.428571 310.857143l0 48.761905 390.095238 0L609.52381 310.857143zM853.333333 554.666667 560.761905 554.666667l0 48.761905L560.761905 847.238095 121.904762 847.238095C94.96381 847.238095 73.142857 825.417143 73.142857 798.47619l0-828.952381c0-26.940952 21.820952-48.761905 48.761905-48.761905l536.380952 0 0-48.761905L121.904762-128c-53.857524 0-97.52381 43.666286-97.52381 97.52381L24.380952 798.47619c0 53.857524 43.666286 97.52381 97.52381 97.52381l438.857143 0 48.761905 0 0-16.725333 10.093714 10.093714 275.846095-275.846095L885.369905 603.428571 902.095238 603.428571l0-341.333333-48.761905 0L853.333333 554.666667zM609.52381 830.512762 609.52381 603.428571l227.08419 0L609.52381 830.512762z"  horiz-adv-x="1024" />

    
    <glyph glyph-name="biaodanwancheng" unicode="&#59342;" d="M416 64 128 64c-35.2 0-64 28.8-64 64L64 704c0 35.2 28.8 64 64 64l512 0c35.2 0 64-28.8 64-64l0-352C704 334.08 718.08 320 736 320 753.92 320 768 334.08 768 352L768 704c0 70.4-57.6 128-128 128L128 832C57.6 832 0 774.4 0 704l0-576c0-70.4 57.6-128 128-128l288 0C433.92 0 448 14.08 448 32 448 49.92 433.92 64 416 64zM544 640l-320 0C206.08 640 192 625.92 192 608 192 590.08 206.08 576 224 576l320 0C561.92 576 576 590.08 576 608 576 625.92 561.92 640 544 640zM576 416C576 433.92 561.92 448 544 448l-320 0C206.08 448 192 433.92 192 416 192 398.08 206.08 384 224 384l320 0C561.92 384 576 398.08 576 416zM224 256C206.08 256 192 241.92 192 224 192 206.08 206.08 192 224 192l128 0C369.92 192 384 206.08 384 224 384 241.92 369.92 256 352 256L224 256zM952.96 312.96c-12.16 12.16-32 12.16-44.16 0l-237.44-237.44-107.52 107.52c-12.16 12.16-31.36 12.16-42.88 0-12.16-12.16-12.16-31.36 0-42.88l122.88-122.88c1.28-3.2 3.2-5.76 5.76-8.32 12.16-12.16 32-12.16 44.16 0l259.84 259.84C965.12 280.96 965.12 300.8 952.96 312.96z"  horiz-adv-x="1024" />

    
    <glyph glyph-name="icon" unicode="&#58964;" d="M228.254587-17.306922 66.10251-17.306922l0 240.783948 162.152077 0L228.254587-17.306922zM471.464795-17.306922 309.318858-17.306922 309.318858 544.516834l162.145937 0L471.464795-17.306922zM714.681142-17.306922 552.540322-17.306922 552.540322 303.732885 714.681142 303.732885 714.681142-17.306922zM957.896466-17.306922 795.744389-17.306922 795.744389 785.306922l162.152077 0L957.896466-17.306922z"  horiz-adv-x="1024" />

    
    <glyph glyph-name="peisong2" unicode="&#59073;" d="M585.536 695.424C585.216 703.04 582.528 709.76 577.92 715.776 569.344 726.72 557.76 730.112 544.32 730.048 387.456 729.92 230.592 729.984 73.792 729.984c-2.688 0-5.312-0.128-7.936-0.32C48.256 728.448 33.984 714.24 32.64 696.64 32.384 693.632 32.256 690.688 32.256 687.616c0-167.808 0.192-335.616-0.256-503.488-0.128-27.136 17.344-44.096 43.136-42.88 20.16 1.024 40.512 0.192 60.736 0.192 2.048 0 4.032 0 6.464 0 10.56 64.192 60.736 107.2 114.368 111.04 79.872 5.824 126.08-35.84 146.24-110.784 0.064 0 0.64-0.192 1.216-0.192 48.256 0 96.512-0.128 144.768 0.192 5.504 0 11.456 1.344 16.32 3.84 14.976 7.424 20.544 20.352 20.544 36.736C585.6 351.232 585.664 520.192 585.664 689.152 585.664 691.2 585.664 693.312 585.536 695.424zM991.424 370.24c-3.84 25.664-14.912 48.256-29.952 68.992-13.44 18.496-27.328 36.736-41.28 54.848-17.792 23.296-35.712 46.528-54.08 69.376-11.136 13.888-26.176 19.584-44.032 19.52-52.736-0.192-105.536-0.064-158.4-0.128-4.48-0.064-9.152-0.384-13.44-1.536-17.472-4.672-27.264-18.56-27.264-38.336 0-120.512 0-241.088 0-361.6 0-2.432 0-4.864 0.256-7.296 1.856-18.24 18.688-33.344 36.16-31.936 5.184 31.744 19.776 58.752 44.224 79.936 24.768 21.376 53.824 31.808 86.464 31.808 53.952 0.128 116.608-38.656 128.896-112.448 7.616 0 15.36-0.064 23.04 0.064 6.976 0.128 14.208-0.448 20.928 1.024 17.92 3.84 28.864 18.368 28.864 37.632 0.064 60.352 0 120.768 0 181.056C992 364.16 991.872 367.296 991.424 370.24zM733.76 362.176c0 49.024 0 97.664 0 147.392 2.176 0 4.352 0 6.592 0 25.856 0 51.84-0.32 77.76 0.128 9.216 0.192 16-3.392 20.928-10.176 27.2-37.248 54.272-74.624 80.896-112.32 4.416-6.336 6.72-14.208 9.92-21.44 0.448-0.896 0.064-2.176 0.064-3.584C864.512 362.176 799.424 362.176 733.76 362.176zM272.256 207.616c-47.168 0.128-85.248-37.568-85.312-84.736-0.064-46.976 37.952-84.928 85.12-84.928 47.104 0 85.312 38.144 85.184 85.056C357.184 169.664 319.296 207.424 272.256 207.616zM789.568 207.616c-46.976 0.448-85.568-37.504-85.824-84.416-0.256-46.848 37.76-84.928 84.992-85.248 46.784-0.256 84.864 37.248 85.312 84.16C874.624 169.088 836.992 207.168 789.568 207.616z"  horiz-adv-x="1024" />

    
    <glyph glyph-name="ai-wallet" unicode="&#58993;" d="M970.102 58.383v-53.895c0-59.284-48.505-107.789-107.789-107.789l-754.524-0c-59.824 0.001-107.789 48.505-107.789 107.79v754.525c0 59.284 47.966 107.788 107.789 107.788h754.525c59.284 0 107.789-48.505 107.789-107.789v-53.895h-485.052c-59.822 0-107.789-48.505-107.789-107.789v-431.157c0-59.284 47.966-107.789 107.789-107.789h485.051zM485.051 166.173h538.946l-0 431.157h-538.946v-431.157zM700.63 300.909c-44.733 0-80.842 36.109-80.842 80.842s36.109 80.842 80.842 80.842 80.842-36.109 80.842-80.842-36.109-80.842-80.842-80.842z"  horiz-adv-x="1024" />

    
    <glyph glyph-name="mima1" unicode="&#58971;" d="M881.627409 528.5727l-33.152051 0c0.353041 2.012843 0.470721 4.104481 0.314155 6.245238-2.741437 37.419238-11.31572 73.77526-25.590841 108.396779-17.012466 41.262776-41.362037 78.314647-72.371284 110.125143-31.008224 31.810496-67.125817 56.789401-107.348913 74.241888-41.659819 18.076704-85.895299 27.241434-131.478474 27.241434-45.583175 0-89.818655-9.165754-131.479497-27.241434-40.223097-17.452487-76.340689-42.431392-107.348913-74.241888-31.009248-31.810496-55.357795-68.862367-72.371284-110.125143-14.275121-34.621519-22.848381-70.977541-25.590841-108.396779-0.156566-2.140757-0.038886-4.232394 0.314155-6.245238l-49.682539 0c-50.327222 0-91.27175-40.944528-91.27175-91.27175l0-431.924243c0-50.328245 40.944528-91.27175 91.27175-91.27175l755.785306 0c50.327222 0 91.270726 40.944528 91.270726 91.27175L972.897112 437.30095C972.898135 487.628172 931.953607 528.5727 881.627409 528.5727zM237.227959 531.115616c5.167696 66.944691 33.06507 129.168872 79.859839 177.173189 52.062749 53.40942 121.284297 82.82231 194.912202 82.82231s142.848429-29.413913 194.911178-82.82231c46.793746-48.004317 74.692143-110.227474 79.859839-177.173189 0.066515-0.861624 0.178055-1.708921 0.327458-2.542916L236.901525 528.5727C237.049904 529.406694 237.161445 530.253992 237.227959 531.115616zM906.383232 5.376707c0-13.650905-11.105942-24.756847-24.755824-24.756847L125.842103-19.38014c-13.650905 0-24.756847 11.106965-24.756847 24.756847L101.085256 437.30095c0 13.650905 11.105942 24.756847 24.756847 24.756847l755.785306 0c13.650905 0 24.755824-11.105942 24.755824-24.756847L906.383232 5.376707zM507.520989 358.334457c-28.492938-2.116197-51.582819-24.984021-53.946656-53.457516-1.706875-20.553105 7.198959-39.111786 21.832238-50.811246 10.066263-8.049327 15.652492-20.453844 15.652492-33.342386L491.059062 106.700393c0-10.666944 7.378038-20.208251 17.86795-22.143323 13.882172-2.561335 26.107611 8.16496 26.107611 21.60711L535.034623 222.470093c0 12.583596 5.417383 24.604374 14.992459 32.769334 12.610202 10.752902 20.60734 26.755364 20.60734 44.626383C570.634422 333.730083 541.92659 360.889653 507.520989 358.334457z"  horiz-adv-x="1024" />

    
    <glyph glyph-name="up-copy" unicode="&#58880;" d="M804 493.984c0-10.015-4-18.016-10.015-26.016l-256-256c-8-8-16-10.016-26.016-10.015s-18.016 2.016-26.016 10.015l-256 256c-6.016 8-10.016 16-10.015 26.016s4 18.016 10.015 26.016c8 6.016 16 10.016 26.016 10.015h512c10.015 0 18.016-4 26.016-10.015 6.016-8 10.016-16 10.015-26.016z"  horiz-adv-x="1024" />

    
    <glyph glyph-name="shanchu2" unicode="&#58951;" d="M640 768l0-64L384 704 384 768 640 768M704 896 320 896C281.6 896 256 870.4 256 832l0-192c0-38.4 25.6-64 64-64l384 0c38.4 0 64 25.6 64 64L768 832C768 870.4 742.4 896 704 896L704 896zM768 576l0-576L256 0 256 576 768 576M960 704l-128 0L192 704 64 704C25.6 704 0 678.4 0 640c0-38.4 25.6-64 64-64l64 0 0-640c0-38.4 25.6-64 64-64l640 0c38.4 0 64 25.6 64 64L896 576l64 0c38.4 0 64 25.6 64 64C1024 678.4 998.4 704 960 704L960 704zM384 64 384 64c-38.4 0-64 25.6-64 64L320 448c0 38.4 25.6 64 64 64l0 0c38.4 0 64-25.6 64-64l0-320C448 89.6 422.4 64 384 64zM640 64 640 64c-38.4 0-64 25.6-64 64L576 448c0 38.4 25.6 64 64 64l0 0c38.4 0 64-25.6 64-64l0-320C704 89.6 678.4 64 640 64z"  horiz-adv-x="1024" />

    
    <glyph glyph-name="tongzhi" unicode="&#58958;" d="M543.069623 850.560088 272.968975 592.933543 96.77816 592.933543c-53.036937 0-96.430236-43.393299-96.430236-96.430236l0-225.004567c0-53.036937 43.394323-96.430236 96.430236-96.430236l176.191838 0L543.069623-82.560088c13.029758-12.428054 34.603099-3.192715 34.603099 14.814404L577.672722 835.745684C577.672722 853.752804 556.100404 862.988142 543.069623 850.560088zM908.201647 646.575254c-17.455557 16.030092-44.63764 14.856359-60.653405-2.599198-16.043395-17.46886-14.869662-44.623313 2.599198-60.653405 55.692417-51.108005 87.640036-123.766838 87.640036-199.318558s-31.94762-148.196227-87.640036-199.318558c-17.46886-16.043395-18.629289-43.212174-2.599198-60.681034 8.468882-9.224082 20.027126-13.891382 31.640628-13.891382 10.370185 0 20.767999 3.745301 29.012777 11.292184 73.371054 67.3622 115.451452 163.065889 115.451452 262.59879C1023.652076 483.55132 981.572702 579.256032 908.201647 646.575254zM785.133727 546.832576c-15.442714 18.028609-42.527582 20.082384-60.541865 4.695952-18.014282-15.415085-20.111037-42.527582-4.695952-60.541865 25.462928-29.753651 39.494503-67.738777 39.494503-106.98257s-14.031575-77.256548-39.494503-106.995873c-15.415085-18.028609-13.31833-45.112454 4.695952-60.541865 8.092305-6.931876 18.028609-10.313903 27.90863-10.313903 12.102642 0 24.1357 5.086855 32.632211 15.009855 38.767955 45.308929 60.122309 103.139032 60.122309 162.841785C845.256036 443.70787 823.901683 501.523647 785.133727 546.832576z"  horiz-adv-x="1024" />

    
    <glyph glyph-name="yonghu" unicode="&#58884;" d="M811.739-70.597c-0.048 0-0.095 0-0.143 0l-718.856 0c-10.326 0-18.697 8.371-18.697 18.697l0 22.468c-0.318 6.267-0.911 40.604 21.004 78.307 13.716 23.598 33.431 43.861 58.598 60.225 30.493 19.829 69.116 33.909 114.796 41.849 0.233 0.04 0.467 0.076 0.701 0.107 0.347 0.047 35.499 4.859 71.209 14.273 61.895 16.318 67.308 30.743 67.346 30.884 0.364 1.431 0.894 2.804 1.573 4.095 0.508 2.699 1.764 12.859-0.638 40.08-6.101 69.136-42.12 109.995-71.061 142.826-9.128 10.355-17.749 20.133-24.387 29.723-28.64 41.372-31.297 88.416-31.396 90.399-0.015 0.311-0.023 0.622-0.023 0.933 0 18.78 9.363 27.418 17.624 35.041l0.434 0.401c0.271 0.251 0.442 0.437 0.542 0.557 0.093 1.341-0.567 4.743-1.013 7.041-0.17 0.874-0.34 1.751-0.501 2.633-7.18 38.982-7.671 99.192-1.176 137.837 2.41 50.813 46.225 89.711 48.105 91.356 0.072 0.062 0.143 0.124 0.215 0.185 6.29 5.339 12.672 11.169 16.728 17.637 0.487 0.776 0.828 1.377 1.066 1.837-0.305 0.787-0.742 1.794-1.095 2.608-2.436 5.619-6.118 14.109-4.024 25.024 1.264 6.589 6.078 18.362 24.118 23.174 7.261 1.937 15.022 2.333 20.689 2.622l1.123 0.058c22.39 1.179 46.273 2.177 70.435 0.324 174.73-13.396 234.92-78.686 237.396-81.459 0.14-0.156 0.276-0.314 0.409-0.475 13.987-16.757 24.347-37.635 30.796-62.055 2.015-7.62 3.309-14.016 4.063-20.072 6.103-35.465 5.085-71.904 3.782-96.269-0.733-13.675-2.257-28.03-4.8-45.176-0.692-4.656 0.069-5.565 0.355-5.906 0.758-0.907 1.686-1.892 2.668-2.935 3.863-4.099 9.152-9.713 11.964-18.721 1.41-4.503 2.069-9.36 2.069-15.268 0-0.311-0.008-0.622-0.023-0.933-0.099-1.982-2.756-49.026-31.395-90.398-6.639-9.59-15.26-19.369-24.387-29.723-28.942-32.83-64.96-73.689-71.061-142.828-2.402-27.221-1.145-37.379-0.638-40.08 0.678-1.291 1.208-2.665 1.573-4.094 0.037-0.141 5.472-14.614 67.649-30.964 35.705-9.389 70.558-14.146 70.906-14.193 0.304-0.041 0.607-0.09 0.909-0.145 46.096-8.55 84.957-22.992 115.505-42.923 25.252-16.476 44.93-36.702 58.489-60.114 21.502-37.129 20.627-70.714 20.196-77.444l0-22.333c0-10.326-8.371-18.697-18.697-18.697l-176.883 0c-10.326 0-18.697 8.371-18.697 18.697 0 10.326 8.371 18.697 18.697 18.697L934.07-33.207l0 4.311c0 0.687 0.009 1.106 0.082 1.769 0.104 1.508 1.627 28.332-16.349 58.131-10.82 17.938-26.59 33.609-46.87 46.581-26.1 16.693-59.762 28.968-100.052 36.483-4.64 0.643-39.012 5.565-75.081 15.06-70.761 18.629-87.964 39.353-93.189 54.396-4.004 7.766-6.245 23.195-2.985 60.153 7.181 81.369 49.419 129.282 80.261 164.268 8.747 9.922 16.301 18.491 21.693 26.279 21.12 30.511 24.438 66.3 24.765 70.606-0.033 2.252-0.261 3.223-0.362 3.55-0.249 0.798-1.897 2.547-3.49 4.238-1.25 1.327-2.668 2.833-4.136 4.587-7.95 9.504-10.783 21.079-8.66 35.385 2.368 15.96 3.781 29.206 4.449 41.684 1.951 36.502 0.914 63.748-3.364 88.341-0.057 0.326-0.105 0.655-0.145 0.983-0.531 4.438-1.531 9.354-3.148 15.469-4.987 18.884-12.727 34.771-23.007 47.233-1.714 1.748-15.385 15.125-45.883 29.676C583.715 802.16 517.807 811.826 472.181 815.325c-21.935 1.681-44.442 0.733-65.614-0.383l-1.179-0.06c-1.766-0.09-4.736-0.242-7.558-0.526 2.448-5.841 5.453-14.632 2.296-25.136-1.185-3.94-3.003-7.792-5.723-12.129-6.732-10.733-15.924-19.236-24.055-26.145-1.597-1.442-34.223-31.356-35.351-65.738-0.029-0.87-0.118-1.737-0.267-2.594-5.972-34.304-5.569-90.78 0.898-125.894 0.14-0.765 0.289-1.526 0.436-2.283 1.98-10.205 5.295-27.284-10.88-42.202l-0.435-0.402c-2.087-1.925-4.944-4.561-5.416-5.469l0 0c0.003 0-0.133-0.427-0.165-1.584 0.328-4.296 3.654-40.06 24.764-70.555 5.392-7.788 12.946-16.357 21.693-26.279 30.841-34.985 73.079-82.899 80.26-164.266 3.26-36.959 1.019-52.388-2.985-60.154-5.226-15.043-22.428-35.767-93.189-54.396-36.365-9.574-71.006-14.497-75.189-15.074-39.834-6.958-73.196-18.883-99.16-35.445-20.186-12.876-35.971-28.599-46.919-46.732-18.282-30.282-17.133-57.861-17.055-59.336 0.05-0.543 0.054-0.868 0.054-1.434l0-4.309 700.077 0M631.465 206.126c0.454-0.368 0.89-0.757 1.306-1.165C632.377 205.348 631.942 205.739 631.465 206.126zM414.041 206.126c-0.472-0.383-0.902-0.768-1.292-1.152C413.16 205.375 413.592 205.76 414.041 206.126z"  horiz-adv-x="1024" />

    
    <glyph glyph-name="caiwu" unicode="&#59002;" d="M849.822716 580.454748 176.769047 580.454748c-60.418236 0-109.566514-49.148277-109.566514-109.566514l0-414.788973c0-60.418037 49.148277-109.566514 109.566514-109.566514l673.05347 0c60.403446 0 109.566514 49.148477 109.566514 109.566514L959.38903 470.888234C959.38903 531.32206 910.225963 580.454748 849.822716 580.454748L849.822716 580.454748zM896.77948 56.099261c0-25.889047-21.067116-46.956963-46.956963-46.956963L176.769047 9.142298c-25.889047 0-46.956963 21.068715-46.956963 46.956963L129.812083 470.888234c0 25.889847 21.067916 46.956963 46.956963 46.956963l673.05347 0c25.889847 0 46.956963-21.067116 46.956963-46.956963L896.77948 56.099261 896.77948 56.099261zM658.972912 289.821197c13.524031 0 24.52797 10.98835 24.52797 24.52797 0 13.53962-11.004139 24.54276-24.52797 24.54276l-91.800959 0 93.617727 93.601138c9.578506 9.594295 9.578506 25.122367 0 34.701672-9.579505 9.594295-25.106578 9.594295-34.701672 0l-111.461629-111.493008-111.492208 111.493008c-9.579505 9.594295-25.106578 9.594295-34.701672 0-9.578506-9.563716-9.578506-25.107377 0-34.701672l93.617727-93.601138-94.446365 0c-13.555409 0-24.52797-11.00314-24.52797-24.54276 0-13.53962 10.97276-24.52797 24.52797-24.52797l121.149061 0 0-54.063545-121.149061 0c-13.555409 0-24.52797-10.98835-24.52797-24.543759 0-13.53962 10.97276-24.510582 24.52797-24.510582l121.149061 0 0-115.592628c0-13.53962 10.97276-24.52797 24.52797-24.52797 13.53962 0 24.526371 10.98835 24.526371 24.52797l0 115.592628 121.149061 0c13.523031 0 24.52797 10.971761 24.52797 24.510582 0 13.555409-11.004139 24.543759-24.52797 24.543759l-121.149061 0 0 54.063545L658.972912 289.821197 658.972912 289.821197zM179.696862 619.336186l667.18325 0c17.280284 0 31.304376 14.023292 31.304376 31.304376 0 17.295873-14.024891 31.305175-31.304376 31.305175l-667.18325 0c-17.280284 0-31.305175-14.008502-31.305175-31.305175C148.391487 633.359478 162.416578 619.336186 179.696862 619.336186L179.696862 619.336186zM262.857678 719.760698l500.876606 0c17.281083 0 31.305175 14.024891 31.305175 31.304376 0 17.295873-14.023292 31.304376-31.305175 31.304376L262.857479 782.36945c-17.280284 0-31.305175-14.009302-31.305175-31.304376C231.552304 733.785589 245.561605 719.760698 262.857678 719.760698L262.857678 719.760698z"  horiz-adv-x="1024" />

    
    <glyph glyph-name="liuliangyunpingtaitubiao03" unicode="&#59017;" d="M888.32 99.456c-6.272 2.432-11.008 3.968-14.208 4.736-1.536-16.512-3.584-29.568-5.888-39.04-1.536-14.208-5.504-20.864-11.776-20.096-5.504-1.536-11.008 4.352-16.512 17.792-8.704 15.744-14.976 43.776-18.944 83.968l92.288 10.624-4.736 47.36-91.008-10.624c-0.768 11.008-1.536 25.984-2.432 44.928-1.536 17.28-2.432 30.336-2.432 39.04L764.16 278.144c0.768-25.984 2.688-55.936 5.888-89.856l-53.248-5.888 5.888-48.512 50.816 5.888c4.736-49.664 13.056-84.352 24.832-104.064 14.208-25.984 34.688-39.04 61.44-39.04 24.448-0.768 40.192 13.824 47.232 43.776 2.432 15.744 4.736 28.8 7.04 39.04 0.768 4.736 1.536 8.32 2.432 10.624C911.232 91.52 901.76 94.72 888.32 99.456zM867.072 203.52l33.152 33.152c-14.976 13.44-30.72 25.984-47.36 37.888l-30.72-29.568C842.624 227.584 857.6 213.76 867.072 203.52zM686.08 278.016c-14.208-48.128-33.92-89.856-59.136-125.312 0.768-6.272 2.432-15.744 4.736-28.416 1.536-14.976 3.2-25.984 4.736-33.152 9.472 11.776 18.56 23.68 27.136 35.456l0-128.896 47.36 0L710.912 204.672c8.704 18.944 16.512 38.272 23.68 57.984L686.08 278.016zM469.632 466.304m-60.928 0a47.6 47.6 0 1 0 121.856 0 47.6 47.6 0 1 0-121.856 0ZM775.296 357.12c22.016 0 43.392-3.328 63.488-9.472L838.784 656.384c0 51.712-41.856 93.568-93.568 93.568l-462.08 0c-51.712 0-93.568-41.856-93.568-93.568l0-545.152c0-51.712 41.856-93.568 93.568-93.568l303.616 0 3.2 4.096c-21.248 33.792-33.664 73.6-33.664 116.352C556.16 259.072 654.208 357.12 775.296 357.12zM497.152 300.928l-52.864 0c-26.112 93.824-105.6 59.392-105.6 59.392l-28.032 45.952c72.064 68.352 0 118.656 0 118.656 0 0 0.896 1.408 27.52 45.824 92.032-25.6 106.496 60.928 106.496 60.928l52.224 0c16.768-86.4 106.88-61.056 106.88-61.056s-0.384-0.768 25.728-44.288c-67.968-62.464-0.384-120.832-0.384-120.832s-0.384-0.384-25.856-43.904C513.664 387.072 497.152 300.928 497.152 300.928z"  horiz-adv-x="1024" />

    
    <glyph glyph-name="triangle_right" unicode="&#58885;" d="M402.016 676c10.015 0 18.016-4 26.016-10.015l256-256c8-8 10.016-16 10.015-26.016s-2.016-18.016-10.015-26.016l-256-256c-8-6.016-16-10.016-26.016-10.015s-18.016 4-26.016 10.015c-6.016 8-10.016 16-10.015 26.016v512c0 10.015 4 18.016 10.015 26.016 8 6.016 16 10.016 26.016 10.015z"  horiz-adv-x="1024" />

    
    <glyph glyph-name="dajiantouyou" unicode="&#59178;" d="M338.580299-58.674075 242.745626 37.160597 589.584006 384 242.745626 730.839403 338.580299 826.674075 781.254374 384Z"  horiz-adv-x="1024" />

    
    <glyph glyph-name="dajiantouzuo" unicode="&#59179;" d="M685.419701-58.674075 781.254374 37.160597 434.414971 384 781.254374 730.839403 685.419701 826.674075 242.745626 384Z"  horiz-adv-x="1024" />

    
    <glyph glyph-name="chacha" unicode="&#58906;" d="M851.416 678.16l-45.256 45.248L512 429.256l-294.152 294.16-45.256-45.256L466.744 384l-294.152-294.16 45.248-45.256L512 338.744l294.16-294.16 45.256 45.256L557.256 384z"  horiz-adv-x="1024" />

    
    <glyph glyph-name="yingyongzhongxin" unicode="&#58915;" d="M423.332 333.311h-240c-17.673 0-32-14.327-32-32v-240c0-17.673 14.327-32 32-32h240c17.673 0 32 14.327 32 32v240c0 17.672-14.327 32-32 32z m-32-240h-176v176h176v-176zM423.332 720.689h-240c-17.673 0-32-14.327-32-32v-240c0-17.673 14.327-32 32-32h240c17.673 0 32 14.327 32 32v240c0 17.674-14.327 32-32 32z m-32-240h-176v176h176v-176zM820.669 333.311h-240c-17.673 0-32-14.327-32-32v-240c0-17.673 14.327-32 32-32h240c17.673 0 32 14.327 32 32v240c0 17.672-14.327 32-32 32z m-32-240h-176v176h176v-176zM863.297 589.317l-140 140c-12.498 12.497-32.758 12.497-45.256 0l-140-140c-12.496-12.497-12.496-32.758 0-45.255l140-140c6.249-6.249 14.438-9.373 22.628-9.373s16.379 3.124 22.628 9.373l140 140c12.496 12.497 12.496 32.758 0 45.255zM700.669 471.944l-94.745 94.745 94.745 94.745 94.745-94.745-94.745-94.745z"  horiz-adv-x="1024" />

    
    <glyph glyph-name="tubiao-" unicode="&#58886;" d="M764.863183-35.395031c-28.134446-26.543085-71.203204-36.070849-71.203204-36.070849v40.049252c-12.914507 0.550856-26.033034 1.122114-39.5392 1.550556v-41.599808c-49.12817-4.182423-90.564763 24.584487-112.292961 43.680819-6.651073 0.040804-13.302146 0.040804-19.994023 0.040804-253.108007 0-458.33237-22.360662-458.33237-50.005459 0-27.624395 205.224363-50.046263 458.33237-50.046263s458.33237 22.442271 458.33237 50.046263c-0.020402 17.872208-86.117113 33.540993-215.302982 42.354685zM752.295511 175.745931l-98.174732-90.544361 144.079376-7.895599c0 0.020402-16.566476 92.074515-45.904644 98.43996zM525.485764 563.262736m-173.784782 0a173.784782 173.784782 0 1 1 347.569565 0 173.784782 173.784782 0 1 1-347.569565 0ZM157.45293-66.834612s-10.486661 235.582634 165.481142 337.592955c0 0 254.862585 144.895459 453.19105-17.811002l43.78283-58.064274 28.012034-129.226674-43.027954 0.408041-55.677233 132.654221-103.88731 26.767508-80.486143-20.402064-61.451017-64.429719v-73.284214l14.057022-65.980275 72.202905-72.835369-432.197326 4.610866zM525.485764 361.486322c-111.252456 0-201.756012 90.544361-201.756012 201.796816s90.503556 201.796816 201.756012 201.796817 201.756012-90.544361 201.756012-201.796817-90.503556-201.796816-201.756012-201.796816z m0 374.724712c-95.359248 0-172.948298-77.58905-172.948297-172.948298s77.58905-172.948298 172.948297-172.948297 172.948298 77.58905 172.948298 172.948297-77.58905 172.948298-172.948298 172.948298zM157.45293-66.834612a17.606981 17.606981 0 0 0-17.341755 17.851806c0 106.111135 40.090056 205.816023 112.884621 280.814011 72.876173 75.038792 169.663565 116.312168 272.673587 116.312167 91.809289 0 180.741886-33.785818 250.435337-95.196031a18.198641 18.198641 0 0 0 1.87699-25.176147 17.015321 17.015321 0 0 0-24.462075-1.958598c-63.389213 55.820047-144.283397 86.58636-227.850252 86.58636-193.452372 0-350.854297-162.094399-350.854297-361.381762a17.545775 17.545775 0 0 0-17.362156-17.851806zM317.405112-75.525891H156.534837c-9.078919 0-16.423662 8.691279-16.423662 19.483971 0 10.67028 7.324341 19.443167 16.423662 19.443167h160.870275c9.078919 0 16.464466-8.772888 16.464466-19.443167 0-10.792692-7.385547-19.483971-16.464466-19.483971zM439.817497-75.525891h-160.870275c-9.078919 0-16.423662 8.691279-16.423662 19.483971 0 10.67028 7.324341 19.443167 16.423662 19.443167h160.870275c9.078919 0 16.464466-8.772888 16.464466-19.443167 0-10.792692-7.385547-19.483971-16.464466-19.483971zM501.02369-75.525891h-160.870276c-9.078919 0-16.423662 8.691279-16.423662 19.483971 0 10.67028 7.324341 19.443167 16.423662 19.443167h160.870276c9.078919 0 16.464466-8.772888 16.464465-19.443167 0-10.792692-7.385547-19.483971-16.464465-19.483971zM663.832161-80.544799l1.387341 147.914965 139.67253-1.305732 0.122413 10.28264c0.795681 87.87169-70.142296 160.033791-158.197605 160.829472-88.014505 0.836485-160.299018-70.019884-161.135503-157.830368-0.795681-87.912494 70.142296-160.033791 158.197605-160.870276 3.019505-0.040804 5.977805 0.163217 8.956507 0.326433l10.996712 0.652866z m120.943436 166.766472l-114.435177 1.040505 85.443844 75.344823c16.60728-21.442569 27.236756-46.475902 28.991333-76.385328z m-279.141041-7.099918c0.714072 76.874978 64.001275 138.87685 141.019067 138.142376a139.223686 139.223686 0 0 0 95.869299-39.498396l-97.113825-90.299536-1.38734-149.669542c-77.017792 0.734474-139.101273 64.409316-138.387201 141.325098z m188.698691-161.1151c64.34811 3.101114 109.824311 64.919368 110.293559 118.474786l0.122412 9.609372-119.780518 1.122114-1.203722-129.695922 10.568269 0.48965z m10.425455 109.069434l79.221215-0.754876c-4.978104-39.845231-36.17286-79.608854-80.0577-87.259628l0.836485 88.014504z"  horiz-adv-x="1024" />

    
    <glyph glyph-name="zhuyidapx" unicode="&#58903;" d="M512 832C264.6 832 64 631.4 64 384s200.6-448 448-448 448 200.6 448 448S759.4 832 512 832z m-0.6-728c-30.9 0-55.9 25-55.9 56s25 56 55.9 56 55.9-25 55.9-56-25-56-55.9-56z m55.9 252c0-15.5-12.5-28-28-28h-55.9c-15.4 0-28 12.5-28 28V636c0 15.5 12.5 28 28 28h55.9c15.4 0 28-12.5 28-28v-280z"  horiz-adv-x="1024" />

    
    <glyph glyph-name="yunying" unicode="&#59005;" d="M362.8 698.96a318.72 318.72 0 0 0 345.52-30.64 96 96 0 1 1 38.4 51.68 384 384 0 0 1-419.92 32.64l1.36-1.2a157.52 157.52 0 0 0 34.64-52.48zM192 416a317.52 317.52 0 0 0 26.96 128h6.08A96 96 0 1 1 160 569.52a384 384 0 0 1 200.88-506.64 160.64 160.64 0 0 0 14.48 64A320 320 0 0 0 192 416z m631.2 74.4a320 320 0 0 0-224.88-382.48 96 96 0 1 1 8.56-64 384 384 0 0 1 276.64 469.44 158.96 158.96 0 0 0-60.32-22.96z"  horiz-adv-x="1024" />

    
    <glyph glyph-name="caigoudan" unicode="&#58909;" d="M584.282 304.188l-36.141-36.141 84.329-84.329 138.541 126.494-36.141 42.165-102.4-96.376zM584.282 527.059l-36.141-42.165 84.329-84.329 138.541 126.494-36.141 42.165-102.4-90.353zM373.459 768c0 18.071 12.047 30.118 24.094 30.118h222.871c12.047 0 24.094-12.047 24.094-30.118v-54.212c0-18.071-12.047-30.118-24.094-30.118h-222.871c-12.047 0-24.094 12.047-24.094 30.118v54.212zM319.247 768v-54.212c0-48.188 36.141-84.329 84.329-84.329h222.871c42.165 0 84.329 36.141 84.329 84.329v54.212c0 48.188-36.141 84.329-84.329 84.329h-222.871c-48.188 0-84.329-36.141-84.329-84.329zM740.894 743.906h48.188c48.188 0 84.329-36.141 84.329-84.329v-608.376c0-48.188-36.141-84.329-84.329-84.329h-548.141c-48.188 0-84.329 36.141-84.329 84.329v608.376c0 48.188 36.141 84.329 84.329 84.329h54.212v54.212h-54.212c-78.306 0-138.541-60.235-138.541-138.541v-608.376c0-78.306 60.235-138.541 138.541-138.541h548.141c78.306 0 138.541 60.235 138.541 138.541v608.376c0 78.306-60.235 138.541-138.541 138.541h-48.188v-54.212zM289.129 496.941h168.659v54.212h-168.659zM289.129 328.282h168.659v54.212h-168.659zM289.129 165.647h168.659v54.212h-168.659z"  horiz-adv-x="1024" />

    
    <glyph glyph-name="xiaolian-line" unicode="&#59042;" d="M512 832c247.136 0 448-200.864 448-448s-200.864-448-448-448S64 136.86400000000003 64 384 264.864 832 512 832z m0-832c211.968 0 384 172.032 384 384S723.968 768 512 768 128 595.9680000000001 128 384s172.032-384 384-384z m96 480a64 64 0 1 0 128 0 64 64 0 0 0-128 0zM288 480a64 64 0 1 0 128 0 64 64 0 0 0-128 0z m407.68-170.848c17.184-11.2 22.4-34.336 11.2-51.52A229.44 229.44 0 0 0 512 150.84799999999996a229.44 229.44 0 0 0-194.88 106.784 37.408 37.408 0 0 0 11.2 51.52 37.408 37.408 0 0 0 51.52-11.2A155.904 155.904 0 0 1 512 225.53599999999994c53.76 0 103.04 26.88 132.16 72.416 11.2 17.184 34.336 22.4 51.52 11.2z"  horiz-adv-x="1024" />

    
    <glyph glyph-name="dingdan" unicode="&#58935;" d="M300 433.6h424.8v-48H300v48zM300 222.4H560v-48H300v48zM818.4-85.6H205.6c-12.8 0-24.8 2.4-36.8 7.2-11.2 4.8-21.6 11.2-29.6 20-8.8 8.8-15.2 18.4-20 29.6-4.8 12-7.2 24-7.2 36.8V645.6c0 12.8 2.4 24.8 7.2 36.8 4.8 11.2 11.2 21.6 20 29.6 8.8 8.8 18.4 15.2 29.6 20 12 4.8 24 7.2 36.8 7.2h92.8v-47.2H205.6c-25.6 0-47.2-20.8-47.2-47.2v-637.6c0-25.6 20.8-47.2 47.2-47.2h612c25.6 0 47.2 20.8 47.2 47.2V645.6c0 25.6-20.8 47.2-47.2 47.2H725.6v47.2h92.8c12.8 0 24.8-2.4 36.8-7.2 11.2-4.8 21.6-11.2 29.6-20 8.8-8.8 15.2-18.4 20-29.6 4.8-12 7.2-24 7.2-36.8v-637.6c0-12.8-2.4-24.8-7.2-36.8-4.8-11.2-11.2-21.6-20-29.6-8.8-8.8-18.4-15.2-29.6-20-12-5.6-24-8-36.8-8zM747.2 598.4H276.8V752c0 32.8 26.4 59.2 59.2 59.2h60.8c21.6 43.2 66.4 71.2 116 71.2 49.6 0 94.4-28 116-71.2h60.8c32.8 0 59.2-26.4 59.2-59.2l-1.6-153.6z m-423.2 47.2h376.8V752c0 6.4-5.6 12-12 12H595.2l-5.6 16c-11.2 32.8-42.4 55.2-77.6 55.2-35.2 0-66.4-22.4-77.6-55.2l-5.6-16H335.2c-6.4 0-12-5.6-12-12v-106.4z"  horiz-adv-x="1024" />

    
    <glyph glyph-name="xiangxiajiantoucuxiao" unicode="&#59592;" d="M597.333333 256V810.666667c0 23.68-19.285333 42.666667-43.093333 42.666666h-84.48A42.666667 42.666667 0 0 1 426.666667 810.666667v-554.666667H341.717333c-47.232 0-62.805333-30.549333-34.56-68.266667l153.642667-204.8c28.501333-37.973333 74.112-37.717333 102.4 0l153.6 204.8c28.501333 37.973333 12.8 68.266667-34.517333 68.266667H597.333333z"  horiz-adv-x="1024" />

    
    <glyph glyph-name="xiangshangjiantoucuxiao" unicode="&#59608;" d="M426.752 551.850667v-554.666667c0-23.68 19.285333-42.666667 43.093333-42.666667h84.48a42.666667 42.666667 0 0 1 43.093334 42.666667v554.666667h84.949333c47.232 0 62.805333 30.549333 34.56 68.266666l-153.642667 204.8c-28.501333 37.973333-74.112 37.717333-102.4 0l-153.6-204.8c-28.501333-37.973333-12.8-68.266667 34.517334-68.266666h84.949333z"  horiz-adv-x="1024" />

    
    <glyph glyph-name="survey" unicode="&#58899;" d="M452 267.2c17.6 0 32-14.4 32-32v-8.8c0-17.6-14.4-32-32-32s-32 14.4-32 32v8.8c0 17.6 14.4 32 32 32zM304 521.6s2.4-21.6 27.2-21.6 26.4 21.6 26.4 21.6c-2.4 70.4 30.4 104.8 98.4 100.8 44.8-4.8 68-30.4 69.6-76-3.2-20-20-46.4-50.4-78.4-40-40.8-60.8-76.8-60.8-108.8v-32.8s3.2-20 25.6-20 25.6 20 25.6 20v23.2c0 27.2 19.2 59.2 57.6 96.8 40.8 36.8 60.8 71.2 60.8 101.6-3.2 84.8-47.2 128.8-132.8 132-98.4-0-147.2-52-147.2-158.4zM558.4 2.4h-442.4c-28.8 0-53.6 24.8-53.6 53.6v762.4c0 28.8 24.8 53.6 53.6 53.6h656c28.8 0 53.6-24.8 53.6-53.6v-24h-0.8v-398.4l-266.4-393.6zM116 824c-2.4 0-5.6-3.2-5.6-5.6v-762.4c0-2.4 3.2-5.6 5.6-5.6h416.8l244 360v410.4c-0.8 1.6-3.2 3.2-4.8 3.2h-656zM632.8 44.8l-4-5.6v-7.2l-1.6-118.4v-35.2l32.8 12.8 110.4 44.8 6.4 2.4 4 5.6 204.8 299.2 12.8 19.2-19.2 12.8-108.8 74.4-19.2 12.8-12.8-19.2-205.6-298.4zM844 312l108.8-74.4-6.4 32-204.8-299.2 10.4 8.8-110.4-44.8 32-21.6 1.6 118.4-4-12.8 204.8 299.2-32-5.6zM751.112-38.664l-89.136 60.984 27.104 39.616 89.136-60.992z"  horiz-adv-x="1024" />

    
    <glyph glyph-name="xianshiqi" unicode="&#58895;" d="M1122.461538 896h-1063.384615c-33.476923 0-59.076923-25.6-59.076923-59.076923v-748.307692c0-33.476923 25.6-59.076923 59.076923-59.076923h452.923077v-78.769231h-137.846154c-21.661538 0-39.384615-17.723077-39.384615-39.384616s17.723077-39.384615 39.384615-39.384615h433.230769c21.661538 0 39.384615 17.723077 39.384616 39.384615s-17.723077 39.384615-39.384616 39.384616h-137.846153v78.769231h452.923076c33.476923 0 59.076923 25.6 59.076924 59.076923v748.307692c0 33.476923-25.6 59.076923-59.076924 59.076923z m-19.692307-689.230769h-1024v590.769231h1024v-590.769231z"  horiz-adv-x="1181" />

    
    <glyph glyph-name="xiugaimima1" unicode="&#58902;" d="M12.8 96.256v-214.528h208.896l542.72 600.576L555.52 696.32 12.8 96.256zM931.328 653.824c20.48 20.992 20.48 64.512 0 86.016L806.4 868.352c-20.992 20.992-62.976 20.992-83.456 0l-125.44-128.512 208.896-214.528 124.928 128.512z m-500.736-686.08l-83.456-86.016h668.16v86.016H430.592z"  horiz-adv-x="1024" />

    
    <glyph glyph-name="shezhi" unicode="&#58939;" d="M943.321212 318.836364c12.412121-18.618182 31.030303-31.030303 55.854546-37.236364 6.206061 0 12.412121-6.206061 12.412121-6.206061 6.206061-6.206061 18.618182-18.618182 18.618182-31.030303v-24.824242c-6.206061-24.824242-12.412121-43.442424-24.824243-62.060606l-6.20606-12.412121c-6.206061-12.412121-12.412121-18.618182-24.824243-24.824243-6.206061-6.206061-18.618182-6.206061-24.824242-6.20606-6.206061 0-12.412121 0-18.618182 6.20606-18.618182 6.206061-37.236364 6.206061-55.854546 6.206061h6.206061-12.412121c-18.618182 0-31.030303-6.206061-43.442424-12.412121 0 0-12.412121-6.206061-24.824243-18.618182-12.412121-12.412121-24.824242-37.236364-24.824242-62.060606 0-18.618182 0-37.236364 12.412121-62.060606 6.206061-12.412121 6.206061-31.030303-6.206061-43.442425-12.412121-12.412121-24.824242-18.618182-37.236363-24.824242-6.206061-6.206061-37.236364-18.618182-68.266667-24.824242 37.236364 6.206061 12.412121 0-12.412121 0h-6.206061c-6.206061 0-12.412121 0-18.618182 6.20606-6.206061 6.206061-12.412121 12.412121-12.412121 24.824243v-6.206061c-12.412121 31.030303-31.030303 55.854545-55.854545 68.266667 0 6.206061-24.824242 12.412121-49.648485 12.412121s-49.648485-6.206061-68.266667-24.824243c-24.824242-18.618182-43.442424-43.442424-49.648485-74.472727 0 6.206061-6.206061 0-12.412121 0 0 0-12.412121-6.206061-18.618182-6.20606-12.412121 0-18.618182 0-37.236363 6.20606-12.412121 6.206061-24.824242 6.206061-37.236364 12.412121l-37.236364 18.618182c-12.412121 6.206061-18.618182 12.412121-24.824242 24.824243-6.206061 6.206061-6.206061 12.412121-6.206061 18.618181 0 6.206061 0 18.618182 6.206061 31.030304 6.206061 6.206061 12.412121 24.824242 12.412121 49.648484s-12.412121 43.442424-31.030303 62.060606c-12.412121 12.412121-24.824242 18.618182-43.442424 24.824243h-24.824242-6.206061c-12.412121 0-31.030303-6.206061-49.648485-6.206061h-12.412121c-6.206061 0-12.412121 0-18.618182 6.206061-6.206061 0-12.412121 12.412121-24.824242 18.618182-18.618182 31.030303-31.030303 68.266667-37.236364 105.50303v6.206061c0 18.618182 12.412121 24.824242 24.824242 31.030303 24.824242 6.206061 43.442424 24.824242 62.060606 43.442424 18.618182 6.206061 24.824242 31.030303 24.824243 55.854545s-6.206061 49.648485-24.824243 68.266667C62.060606 480.193939 31.030303 498.812121 0 505.018182c18.618182-6.206061 12.412121 0 12.412121 6.20606-6.206061 6.206061-6.206061 18.618182-6.20606 24.824243 0 6.206061 0 18.618182 6.20606 31.030303 6.206061 24.824242 18.618182 49.648485 31.030303 68.266667-12.412121-24.824242-6.206061-12.412121 0-6.206061 0 12.412121 6.206061 18.618182 12.412121 24.824242 6.206061 0 6.206061 6.206061 12.412122 6.206061s12.412121 0 18.618181-6.206061c24.824242-6.206061 49.648485-12.412121 74.472728-6.20606 24.824242 0 43.442424 12.412121 62.060606 31.030303 12.412121 12.412121 18.618182 24.824242 18.618182 43.442424 6.206061 0 6.206061 12.412121 6.20606 24.824242v18.618182 18.618182c0 18.618182-6.206061 43.442424-12.412121 62.060606 6.206061-31.030303 0-18.618182 0-6.20606v0c12.412121 6.206061 18.618182 12.412121 31.030303 18.618181l37.236364 18.618182c12.412121 6.206061 24.824242 6.206061 37.236363 12.412121 12.412121 6.206061 24.824242 6.206061 31.030303 6.206061 12.412121 0 18.618182 0 24.824243-12.412121 6.206061-6.206061 12.412121-18.618182 12.412121-31.030303 6.206061-12.412121 18.618182-24.824242 37.236364-43.442424s37.236364-24.824242 62.060606-24.824243 49.648485 6.206061 68.266666 18.618182c24.824242 24.824242 37.236364 43.442424 43.442425 68.266667 0 6.206061 6.206061 12.412121 12.412121 18.618181 6.206061 0 12.412121 6.206061 18.618182 6.206061 12.412121 0 18.618182 0 31.030303-6.206061 12.412121 0 24.824242-6.206061 37.236363-12.412121 12.412121-6.206061 24.824242-12.412121 31.030303-18.618182 12.412121-6.206061 18.618182-18.618182 24.824243-24.824242 0-6.206061 6.206061-6.206061 6.20606-12.412121v-6.206061c0-6.206061-6.206061-18.618182-6.20606-24.824242 0-6.206061-6.206061-24.824242-6.206061-37.236364v-18.618182c6.206061-24.824242 12.412121-43.442424 31.030303-62.060606 18.618182-18.618182 37.236364-24.824242 62.060606-31.030303 24.824242 0 49.648485 0 68.266667 12.412121 6.206061 0 12.412121 6.206061 18.618182 6.206061h6.20606c6.206061 0 18.618182-6.206061 24.824243-12.412121 12.412121-12.412121 18.618182-24.824242 31.030303-43.442424 6.206061-18.618182 12.412121-43.442424 18.618182-62.060607 0-12.412121 0-24.824242-6.206061-31.030303-6.206061-6.206061-12.412121-12.412121-24.824242-18.618181-24.824242-6.206061-49.648485-31.030303-62.060606-55.854546-6.206061-6.206061-12.412121-24.824242-12.412122-49.648485-6.206061-24.824242 0-49.648485 18.618182-68.266666zM682.666667 554.666667c-43.442424 43.442424-105.50303 68.266667-167.563637 68.266666-31.030303 0-62.060606-6.206061-93.090909-18.618181-43.442424-18.618182-80.678788-49.648485-105.50303-86.884849-6.206061 6.206061-24.824242-37.236364-37.236364-80.678788 0 18.618182-6.206061-12.412121-6.20606-49.648485 0-31.030303 6.206061-62.060606 18.618181-93.090909 12.412121-31.030303 31.030303-55.854545 49.648485-74.472727 18.618182-24.824242 49.648485-37.236364 74.472728-49.648485 31.030303-12.412121 62.060606-18.618182 93.090909-18.618182s62.060606 6.206061 93.090909 18.618182c43.442424 18.618182 80.678788 49.648485 105.50303 86.884849-6.206061-12.412121 12.412121 12.412121 24.824243 43.442424 12.412121 31.030303 18.618182 62.060606 18.618181 93.090909s-6.206061 62.060606-18.618181 93.090909C713.69697 523.636364 682.666667 560.8727269999999 645.430303 585.69697l37.236364-31.030303z"  horiz-adv-x="1030" />

    
    <glyph glyph-name="gerenzhongxin-denglu" unicode="&#58882;" d="M983.531956 583.142097A511.756369 511.756369 0 0 1 138.969483 734.568474a31.992896 31.992896 0 1 1 46.599653-43.840265C271.170129 781.688012 387.054398 831.786888 511.88668 831.786888c246.945168 0 447.900548-200.95538 447.900548-447.900548a445.581063 445.581063 0 0 0-89.780065-268.710335 416.127603 416.127603 0 0 1-56.557442 75.063333 31.992896 31.992896 0 1 1-46.429691-43.990233 351.741899 351.741899 0 0 0 58.117096-82.171754C744.305074-15.135061 633.699633-64.014207 511.88668-64.014207s-232.418394 48.879147-313.250445 128.061565C258.382968 180.981393 380.055952 255.914755 511.88668 255.914755a349.642365 349.642365 0 0 0 186.378617-53.418139 31.992896 31.992896 0 1 1 33.992452 54.217962 415.647709 415.647709 0 0 1-58.836936 30.613202q-14.99667 6.308599-30.243285 11.407467a226.659672 226.659672 0 0 1 26.874033 22.994894 223.670336 223.670336 0 1 1-316.319764 0 226.629679 226.629679 0 0 1 26.904026-22.994894 416.067616 416.067616 0 0 1-226.879623-183.559242A445.581063 445.581063 0 0 0 63.986133 383.88634a452.309569 452.309569 0 0 0 6.998446 79.332385A31.992896 31.992896 0 0 1 7.998564 474.466228 516.475321 516.475321 0 0 1 0.00034 383.88634a512.016311 512.016311 0 0 1 983.531616-199.255757 513.465989 513.465989 0 0 1 0 398.521512zM352.202137 479.865029c0 88.050449 71.634094 159.684543 159.684543 159.684544S671.571224 567.915478 671.571224 479.865029 599.937129 320.180486 511.88668 320.180486 352.202137 391.81458 352.202137 479.865029zM53.758404 530.773725a31.992896 31.992896 0 0 1 41.530778 17.996004c2.779383 6.998446 5.768719 13.996892 8.908022 20.915356a448.370443 448.370443 0 0 0 25.844262 48.479236 31.992896 31.992896 0 0 1-54.507897 33.512559A512.636174 512.636174 0 0 1 45.990128 596.209196c-3.579205-7.848257-6.998446-15.89647-10.187738-23.91469a31.992896 31.992896 0 0 1 17.956014-41.520781z"  horiz-adv-x="1024" />

    
    <glyph glyph-name="shouye" unicode="&#59033;" d="M829.824 26.176c0-21.44-16.192-38.784-36.032-38.784H632.128c-19.84 0-36.032 17.344-36.032 38.784v80.512h-0.384a79.488 79.488 0 0 1-78.912 74.432h-9.408a79.36 79.36 0 0 1-78.912-74.432h-0.512v-80.512c0-21.44-16.064-38.784-35.904-38.784H230.272c-19.84 0-35.904 17.344-35.904 38.784V357.824h-37.376v-331.648c0-42.048 32.896-76.224 73.28-76.224h161.792c40.384 0 73.28 34.176 73.28 76.224v75.456a42.24 42.24 0 0 0 42.048 42.048h9.344a42.24 42.24 0 0 0 42.048-42.048v-75.456c0-42.048 32.832-76.224 73.344-76.224h161.664c40.448 0 73.344 34.176 73.344 76.224V357.824h-37.312v-331.648zM932.736 438.912L567.68 777.344c-14.272 16.384-34.56 25.728-55.616 25.728s-41.408-9.344-55.68-25.792L91.328 438.912c-24.768-28.352-17.28-53.632-12.992-63.232 4.352-9.536 18.56-31.808 56.128-31.808h42.368v39.36h-42.304c-21.696 0-27.776 13.376-13.504 29.696L486.144 751.36c7.168 8.192 16.576 12.224 25.984 12.224s18.816-4.032 25.984-12.224l365.12-338.432c14.272-16.32 8.192-29.696-13.504-29.696h-42.368v-39.36h42.24c37.632 0 51.84 22.208 56.192 31.808 4.288 9.6 11.776 34.88-13.056 63.232zM869.44 363.648a19.84 19.84 0 0 0-19.968-19.776 19.84 19.84 0 0 0 0 39.68 19.968 19.968 0 0 0 19.968-19.904zM194.368 363.648a19.84 19.84 0 1 0-39.744 0 19.904 19.904 0 0 0 39.744 0z"  horiz-adv-x="1024" />

    
    <glyph glyph-name="full-screen" unicode="&#58887;" d="M145.066667 810.666667h153.6c25.6 0 42.666667 17.066667 42.666666 42.666666S324.266667 896 298.666667 896H34.133333C25.6 896 17.066667 887.466667 8.533333 878.933333 0 870.4 0 861.866667 0 853.333333v-256c0-25.6 17.066667-42.666667 42.666667-42.666666s42.666667 17.066667 42.666666 42.666666V750.933333l230.4-230.4c17.066667-17.066667 42.666667-17.066667 59.733334 0 17.066667 17.066667 17.066667 42.666667 0 59.733334L145.066667 810.666667z m170.666666-563.2L162.133333 93.866667l-76.8-76.8V170.66666699999996C85.333333 196.26666699999998 68.266667 213.33333300000004 42.666667 213.33333300000004s-42.666667-17.066667-42.666667-42.666666v-256c0-25.6 17.066667-42.666667 42.666667-42.666667h256c25.6 0 42.666667 17.066667 42.666666 42.666667s-17.066667 42.666667-42.666666 42.666666H145.066667l76.8 76.8 153.6 153.6c17.066667 17.066667 17.066667 42.666667 0 59.733334-17.066667 17.066667-42.666667 17.066667-59.733334 0z m665.6-34.133334c-25.6 0-42.666667-17.066667-42.666666-42.666666v-153.6l-76.8 76.8-153.6 153.6c-17.066667 17.066667-42.666667 17.066667-59.733334 0-17.066667-17.066667-17.066667-42.666667 0-59.733334l153.6-153.6 76.8-76.8H725.333333c-25.6 0-42.666667-17.066667-42.666666-42.666666s17.066667-42.666667 42.666666-42.666667h256c25.6 0 42.666667 17.066667 42.666667 42.666667v256c0 25.6-17.066667 42.666667-42.666667 42.666666z m0 682.666667h-256c-25.6 0-42.666667-17.066667-42.666666-42.666667s17.066667-42.666667 42.666666-42.666666h153.6l-76.8-76.8-153.6-153.6c-17.066667-17.066667-17.066667-42.666667 0-59.733334 17.066667-17.066667 42.666667-17.066667 59.733334 0l153.6 153.6 76.8 76.8v-153.6c0-25.6 17.066667-42.666667 42.666666-42.666666s42.666667 17.066667 42.666667 42.666666v256c0 25.6-17.066667 42.666667-42.666667 42.666667z"  horiz-adv-x="1024" />

    
    <glyph glyph-name="peisong" unicode="&#58917;" d="M607.2 4.4H440.5c-27 0-48.9 21.9-48.9 48.9V219.9c0 27 21.9 48.9 48.9 48.9h166.7c27 0 48.9-21.9 48.9-48.9v-166.7c0-26.9-22-48.8-48.9-48.8zM440.5 236.6c-9.2 0-16.7-7.5-16.7-16.7v-166.7c0-9.2 7.5-16.7 16.7-16.7h166.7c9.2 0 16.7 7.5 16.7 16.7V219.9c0 9.2-7.5 16.7-16.7 16.7H440.5zM518.7 765.5c-85.6 0-156.3-65.5-164.4-149h-77.8c-8.7 0-16.2-6.7-16.6-15.4-0.4-9.2 7-16.8 16.1-16.8H667.8c8.9 0 16.2 7.3 16.2 16.2-0.2 90.9-74.3 165-165.3 165z m-132-149.1c8 65.8 64.1 116.9 131.9 116.9s124-51.1 132-116.8c0 0 0-0.1-0.1-0.1H386.7zM711.7 322.3c-44 46.9-103.5 75.2-167.5 79.5-71.4 4.9-139-18.9-190.4-66.9-25.2-23.6-45.1-51.6-59-83.4-14.4-32.8-21.6-68.1-21.6-104.7v-70.2c0-39.9 32.3-72.2 72.2-72.2 7.7 0 13.9 6.2 13.9 13.9v4.3c0 7.7-6.2 13.9-13.9 13.9-22.1 0-40 17.9-40 40v70.2c0 32.2 6.4 63.1 18.9 91.8 12.1 27.7 29.4 52.2 51.5 72.8 41 38.3 93.8 58.9 150.2 58.9 5.3 0 10.6-0.2 15.9-0.5 55.8-3.8 107.7-28.5 146.2-69.4 38.1-40.6 59.2-93.4 59.8-149 0-0.4 0-0.9-0.1-1.3v-73.4c0-22.1-17.9-40-40-40h-5.7c-7.7 0-13.9-6.2-13.9-13.9v-4.3c0-7.7 6.2-13.9 13.9-13.9h5.7c39.9 0 72.2 32.3 72.2 72.2v70.6c0.1 0.6 0.1 1.2 0.1 1.8 0.1 64.5-24.2 126.1-68.4 173.2zM652.8 552.2c-6.2 0-11.8-3.6-14.5-9.1-21.5-44.6-67.2-75.5-119.9-75.5S420 498.4 398.5 543c-2.7 5.6-8.3 9.1-14.5 9.1-11.9 0-19.7-12.4-14.5-23.1 26.7-55.4 83.4-93.8 148.9-93.8s122.3 38.3 148.9 93.8c5.2 10.8-2.6 23.2-14.5 23.2z"  horiz-adv-x="1024" />

    
    <glyph glyph-name="compress" unicode="&#58891;" d="M384 298.66666699999996h-256c-25.6 0-42.666667-17.066667-42.666667-42.666667s17.066667-42.666667 42.666667-42.666667h153.6L17.066667-51.200000000000045c-17.066667-17.066667-17.066667-42.666667 0-59.733333 17.066667-17.066667 42.666667-17.066667 59.733333 0L341.333333 153.60000000000002v-153.6c0-25.6 17.066667-42.666667 42.666667-42.666667s42.666667 17.066667 42.666667 42.666667v256c0 25.6-17.066667 42.666667-42.666667 42.666667z m358.4-85.333334h153.6c25.6 0 42.666667 17.066667 42.666667 42.666667s-17.066667 42.666667-42.666667 42.666667h-256c-25.6 0-42.666667-17.066667-42.666667-42.666667v-256c0-25.6 17.066667-42.666667 42.666667-42.666667s42.666667 17.066667 42.666667 42.666667V153.60000000000002l264.533333-264.533333c17.066667-17.066667 42.666667-17.066667 59.733333 0 17.066667 17.066667 17.066667 42.666667 0 59.733333L742.4 213.33333300000004zM640 469.333333h256c25.6 0 42.666667 17.066667 42.666667 42.666667s-17.066667 42.666667-42.666667 42.666667H742.4L1006.933333 819.2c17.066667 17.066667 17.066667 42.666667 0 59.733333-17.066667 17.066667-42.666667 17.066667-59.733333 0L682.666667 614.4V768c0 25.6-17.066667 42.666667-42.666667 42.666667s-42.666667-17.066667-42.666667-42.666667v-256c0-25.6 17.066667-42.666667 42.666667-42.666667z m-256 341.333334c-25.6 0-42.666667-17.066667-42.666667-42.666667v-153.6L76.8 887.466667C59.733333 896 25.6 896 8.533333 887.466667 0 870.4 0 836.266667 8.533333 819.2L281.6 554.666667H128c-25.6 0-42.666667-17.066667-42.666667-42.666667s17.066667-42.666667 42.666667-42.666667h256c25.6 0 42.666667 17.066667 42.666667 42.666667v256c0 25.6-17.066667 42.666667-42.666667 42.666667z"  horiz-adv-x="1024" />

    
    <glyph glyph-name="ercifenjian" unicode="&#58900;" d="M788.13 320.72A30.72 30.72 0 0 1 757.4 290v-129.66a21.14 21.14 0 0 0-21.11-21.11H606.63a30.72 30.72 0 0 1 0-61.44h129.66a82.65 82.65 0 0 1 82.56 82.56V290a30.72 30.72 0 0 1-30.72 30.72zM736.29 691.28H606.63a30.72 30.72 0 0 1 0-61.44h129.66a21.14 21.14 0 0 0 21.11-21.11v-129.67a30.72 30.72 0 1 1 61.44 0V608.72a82.65 82.65 0 0 1-82.55 82.56zM236.07 448.34a30.72 30.72 0 0 1 30.72 30.72V608.72a21.14 21.14 0 0 0 21.11 21.11h129.67a30.72 30.72 0 1 1 0 61.44H287.91a82.65 82.65 0 0 1-82.56-82.56v-129.65a30.72 30.72 0 0 1 30.72-30.72zM448.29 108.5a30.72 30.72 0 0 1-30.72 30.72H287.91a21.14 21.14 0 0 0-21.11 21.11V290a30.72 30.72 0 0 1-61.44 0v-129.66a82.65 82.65 0 0 1 82.56-82.56h129.65a30.72 30.72 0 0 1 30.72 30.72zM367.45 503.24v-55c0-21.37 4.58-25.95 25.95-25.95h54.95c21.37 0 25.94 4.58 25.94 25.95v56.52c-1.53 19.84-6.1 24.42-25.94 24.42h-54.96c-21.39 0.01-25.94-4.57-25.94-25.94zM575.86 422.34h54.95c21.37 0 25.94 4.58 25.94 25.95v56.47c-1.53 19.84-6.1 24.42-25.94 24.42h-54.95c-21.37 0-25.95-4.58-25.95-25.95v-55c0-21.31 4.58-25.89 25.95-25.89zM448.34 346.72h-54.95c-21.37 0-25.95-4.58-25.95-25.95v-55c0-21.37 4.58-25.95 25.95-25.95h54.95c21.37 0 25.94 4.58 25.94 25.95V322.3c-1.52 19.84-6.1 24.42-25.94 24.42zM575.86 239.87h54.95c21.37 0 25.94 4.58 25.94 25.95V322.3c-1.53 19.84-6.1 24.42-25.94 24.42h-54.95c-21.37 0-25.95-4.58-25.95-25.95v-55c0-21.32 4.58-25.9 25.95-25.9zM774.82 410.86h27.04v-52.79h-27.04zM721.95 410.86h27.04v-52.79h-27.04zM953.35 399.25l-66.05 58.81c-9.09 8.08-23.76 8.08-32.88 0.08v-47.27h-27v-52.79h27V311c9.12-8 23.81-8 32.88 0.08l66.05 58.81c9.12 8.06 9.12 21.23 0 29.36zM222.34 410.86h27.04v-52.79h-27.04zM275.2 410.86h27.04v-52.79H275.2zM169.78 458.14c-9.12 8-23.79 8-32.88-0.08l-66.05-58.81c-9.12-8.13-9.12-21.3 0-29.41L136.9 311c9.1-8 23.76-8 32.88 0v47.07h27v52.79h-27zM485.62 121.81h52.79v-27.04h-52.79zM485.62 174.67h52.79v-27.04h-52.79zM538.42 42.21v27h-52.8v-27h-47.11c-8-9.12-8-23.81 0.08-32.88l58.81-66.05c8.1-9.12 21.28-9.12 29.41 0l58.81 66.05c8.08 9.09 8.08 23.76 0.08 32.88z"  horiz-adv-x="1024" />

    
    <glyph glyph-name="huaban" unicode="&#59061;" d="M676.1472 493.68064L549.2224 433.5616l23.3984 133.59616H455.7312l20.0192-133.59616-120.2176 60.11904-33.4336-110.21824 133.632-16.70144-96.8704-93.52192 93.5424-70.144 63.4368 120.23808 60.1088-120.23808 96.8704 70.144-96.8704 93.52192 130.2528 16.70144z"  horiz-adv-x="1024" />

    
    <glyph glyph-name="wodeyewuyuan" unicode="&#59025;" d="M512 350.952727A221.090909 221.090909 0 1 0 733.556364 570.181818 221.556364 221.556364 0 0 0 512 350.952727z m0 396.101818A174.545455 174.545455 0 1 1 687.010909 570.181818 175.010909 175.010909 0 0 1 512 747.054545zM298.356364 148.48h46.545454v-150.807273h-46.545454zM694.458182 148.48h46.545454v-150.807273h-46.545454zM519.447273 31.185455a23.272727 23.272727 0 0 0-17.687273 8.378181L448.232727 104.727273a23.272727 23.272727 0 0 0-5.12 18.618182l26.065455 162.443636 46.545454-7.447273-24.669091-151.738182 28.858182-34.443636 28.858182 34.909091-19.549091 148.014545 46.545455 6.050909 20.945454-158.254545a23.272727 23.272727 0 0 0-5.12-17.687273l-53.992727-65.629091a23.272727 23.272727 0 0 0-18.152727-8.378181zM906.705455-25.6h-791.272728a23.272727 23.272727 0 0 0-20.014545 34.909091l192.232727 333.265454a23.272727 23.272727 0 0 0 31.650909 8.378182 388.189091 388.189091 0 0 1 381.207273 0 23.272727 23.272727 0 0 0 31.650909-8.378182l192.232727-333.265454a23.272727 23.272727 0 0 0-20.014545-34.909091z m-748.916364 46.545455h708.421818l-161.047273 279.272727a434.734545 434.734545 0 0 0-386.792727 0z"  horiz-adv-x="1024" />

    
    <glyph glyph-name="tuichuquanping" unicode="&#58994;" d="M848.3 686.9l-32.5 32.6L598.1 503V704.1h-46v-279.4l279-0.1v46l-200.3 0.1zM208.4 47.7L425 265v-201.1h46V342.6H191.9v-46h199.7L175.8 80.2z"  horiz-adv-x="1024" />

    
    <glyph glyph-name="quanping" unicode="&#58995;" d="M547.4 698.6v-46l200.3-0.1L546.1 452l32.4-32.6 201.9 200.7v-200.9h46V698.5zM471.4 311.6l-32.6 32.6L243.6 149V348.1h-46v-278.7h279v46H275z"  horiz-adv-x="1024" />

    
    <glyph glyph-name="biaodanpeizhi" unicode="&#58996;" d="M768.1 122.20000000000005v-51.9c0-3.3-2.7-6-6-6h-116c-3.3 0-6 2.7-6 6v51.9c0 3.3 2.7 6 6 6H698c3.3 0 6 2.7 6 6V314c0 3.3-2.7 6-6 6H518.3c-3.3 0-6-2.7-6-6v-179.8c0-3.3 2.7-6 6-6h51.8c3.3 0 6-2.7 6-6v-51.9c0-3.3-2.7-6-6-6h-116c-3.3 0-6 2.7-6 6v52c0 3.3-2.7 6-6 6H262.2c-3.3 0-6-2.7-6-6v-179.9c0-3.3 2.7-6 6-6h179.9c3.3 0 6 2.7 6 6v51.9c0 3.3 2.7 6 6 6h308.1c3.3 0 6-2.7 6-6v-51.9c0-3.3 2.7-6 6-6h180c3.3 0 6 2.7 6 6V122.20000000000005c0 3.3-2.7 6-6 6h-180c-3.4 0-6.1-2.7-6.1-6z m-390-121.8h-51.9c-3.3 0-6 2.7-6 6v51.9c0 3.3 2.7 6 6 6h51.9c3.3 0 6-2.7 6-6v-51.9c0-3.3-2.7-6-6-6zM634 192.20000000000005h-51.8c-3.3 0-6 2.7-6 6V250c0 3.3 2.7 6 6 6H634c3.3 0 6-2.7 6-6v-51.8c0-3.3-2.6-6-6-6z m256.2-191.8h-52c-3.3 0-6 2.7-6 6v51.8c0 3.3 2.7 6 6 6h52c3.3 0 6-2.7 6-6v-51.8c0-3.3-2.7-6-6-6zM134 768.1h436.1c3.3 0 6-2.7 6-6v-180c0-3.3 2.7-6 6-6h180.2c3.3 0 6-2.7 6-6l-0.1-180.1c0-3.3 2.7-6 6-6h52c3.3 0 6 2.7 6 6l-0.9 244.8c0 3.3-2.7 6-6 6h-56.9v-0.6h-0.2v58c0 3.3-2.7 6-6 6h-52c-3.3 0-6 2.7-6 6v52c0 3.3-2.7 6-6 6h-58V826.1c0 3.3-2.7 6-6 6H76c-6.6 0-12-5.4-12-12v-871.6c0-6.6 5.4-12 12-12h109.9c3.3 0 6 2.7 6 6v52c0 3.3-2.7 6-6 6H134c-3.3 0-6 2.7-6 6V762.1c0 3.3 2.7 6 6 6zM506 704.2H198c-3.3 0-6-2.7-6-6v-52c0-3.3 2.7-6 6-6h308c3.3 0 6 2.7 6 6v52c0 3.3-2.6 6-6 6zM198 512h308c3.3 0 6 2.7 6 6v52c0 3.3-2.7 6-6 6H198c-3.3 0-6-2.7-6-6v-52c0-3.3 2.7-6 6-6zM198 383.79999999999995h500.1c3.3 0 6 2.7 6 6v52c0 3.3-2.7 6-6 6H198c-3.3 0-6-2.7-6-6v-52c0-3.3 2.7-6 6-6zM442.1 320H198c-3.3 0-6-2.7-6-6v-52c0-3.3 2.7-6 6-6h244c3.3 0 6 2.7 6 6v52c0.1 3.3-2.6 6-5.9 6z"  horiz-adv-x="1024" />

    
    <glyph glyph-name="gongyingshang" unicode="&#58889;" d="M399.92 581.94c0-0.8 0-1.6 0.08-2.38v4.76c0-0.79-0.08-1.58-0.08-2.38zM480 581.94v0.93V581.94zM802.41 288.72l-1.75 1.6c0.57-0.55 1.15-1.09 1.75-1.6zM853.56 350.32q1.91-1.71 3.78-3.45a39.85 39.85 0 0 1-3.78 3.45zM544 832c-132.55 0-240-107.45-240-240s107.45-240 240-240 240 107.45 240 240S676.55 832 544 832z m0-400a160 160 0 1 0 160 160 160 160 0 0 0-160-160zM767.08 372.24c-1.26 0.73-2.54 1.45-3.82 2.17A445.89 445.89 0 0 1 544 431.66c-247.42 0-448-200.58-448-448v-7.58c0-1.06 0-2.1 0.13-3.13a40 40 0 0 1 80 2.85v0.28c0 0.71 0 1.41-0.06 2.11v5.48c0 203.24 164.76 368 368 368a366.28 366.28 0 0 0 180.42-47.2l2.41-1.38a40 40 0 0 1 40.25 69.16zM893.74 186.51H777.37a34.26 34.26 0 0 1-34.26-34.26v-2.59a34.26 34.26 0 0 1 34.26-34.26h29.24L713 21.83 607.44 127.44a35.53 35.53 0 0 1-50.28 0L426.41-3.29a35.57 35.57 0 0 1 0-50.29 35.57 35.57 0 0 1 50.29 0L582.29 52l105.6-105.6a35.55 35.55 0 0 1 50.29 0l118.71 118.72v-29.24a34.26 34.26 0 0 1 34.26-34.26h2.59A34.26 34.26 0 0 1 928 35.88V152.25a34.26 34.26 0 0 1-34.26 34.26z"  horiz-adv-x="1024" />

    
    <glyph glyph-name="huitutiaosepan" unicode="&#58929;" d="M222.3 819.6c-1.4 2.9-3.3 6-5.6 9.3-0.6 0.9-1.1 1.8-1.8 2.6-7.4 10.4-19.8 24.3-29.4 30.8C131.5 903.7 68.1 896.1 34.6 890.8c-11.8-1.9-23-3.8-23.5-6.4-0.4-2.3 14.5-6.7 19.8-9.6C70.1 853.3 82.1 821.1 88.5 799c0.7-5.3 2-10.7 3.7-16.1 0.1-0.7 0.1-1 0.1-1h0.2c3.1-9.6 7.9-19.1 14.3-28 27.3-37.9 73.6-51.3 103.4-29.8 26.8 19.2 31.2 59.9 12.1 95.5zM354 244.7c-50.7 16-82.2 59.5-70.3 97.1 6.5 20.6 25 34.9 48.4 41.2-13.2 20.1-26.7 40.4-38.8 59.8l-2.7 4.3c-42.8 65.7-79.9 125.7-110.9 178.6 1.5-3.3 3.1-6.8 4.9-10.8 0.6-1.3 1.1-2.4 1.7-3.8 5.8-13.1 12.6-29.3 19.6-47.5 0.7-1.8 1.4-3.8 2.1-5.7 2.7-7.3 5.4-14.9 8.1-22.7 0.9-2.5 1.7-5.1 2.6-7.6 2.7-8.1 5.3-16.5 7.7-25l1.8-6c3-10.7 5.8-21.6 8.2-32.6 11.9-54.2 14.6-109-7.1-146l-9.4-16.2c-13.7-14.8-12.9-43.9 1.5-64.7 0 0 39-55.7 83-97.4C406.2 43.6 528-12 642.2-24c-94.1 103.4-189.9 233.6-215.3 268.8-20.8-7.6-46.8-8.3-72.9-0.1zM1011.9 322.3c-0.2 3.4-0.8 6.8-1.1 10.1-0.9 9.9-2 19.8-3.6 29.8-0.8 5-2 10-2.9 15-1.7 8.5-3.3 16.9-5.5 25.4-1.4 5.5-3.1 11-4.7 16.6-2.3 8-4.7 16-7.4 24-2 5.7-4.1 11.5-6.3 17.2-3 7.8-6 15.5-9.4 23.3-2.5 5.8-5.1 11.6-7.9 17.3-3.6 7.7-7.5 15.3-11.5 22.9-3 5.7-6.1 11.4-9.3 17-4.3 7.6-9 15.2-13.7 22.7-3.4 5.5-6.9 11-10.5 16.4-5.2 7.7-10.8 15.3-16.4 22.9-3.7 5-7.3 10.1-11.2 15-6.5 8.3-13.5 16.4-20.5 24.5-3.5 4.1-6.8 8.2-10.5 12.2-10.9 12-22.3 23.7-34.3 35.1C648.8 857.1 412.5 901.1 259.9 807.4c2.7-9.7 4.5-19.4 4.8-29 6.5-7.1 13-14.3 19.7-21.7 5 6.2 11 11 11 11 3.2 2.4 9.2 2.1 13.5-0.7l4.2-2c25.9-12.4 64 6.3 64 6.3 3.8 1.8 11.5 1.1 17.2-1.5 0 0 3.1-1.5 9.5-5.8 44-29.3 60.8-81.5 37.5-116.6-9.4-14.2-24-23.1-40.9-27.2 15.6-19.1 31.4-38.8 47.7-59.4l3.5-4.3c46-56 93.3-117.8 140.7-183.5 34.4-47.9 83.6-118.6 130.2-192.8 1.7 6.4 4.1 12.5 7.8 18.2 5.1 7.7 13.6 14.2 13.6 14.2 3.2 2.5 9.3 2.2 13.5-0.6l4.2-2c25.8-12.4 64 6.3 64 6.3 3.8 1.8 11.5 1.1 17.2-1.6 0 0 3.1-1.4 9.5-5.7 44-29.3 60.8-81.5 37.4-116.6-20.1-30.3-63.6-37.8-103.4-20.5 13.8-25.4 26.3-50.1 36.7-73.3 40 15.9 76.3 39.2 106.4 70.9 13.9 14.6 25.4 30.8 35.8 47.6l0.3-0.6c1.7 2.7 3 5.6 4.5 8.4 2.7 4.7 5.3 9.5 7.8 14.4 3.1 6.1 5.9 12.3 8.5 18.7 2.1 5 4.2 9.9 6 15 2.4 6.6 4.4 13.4 6.4 20.3 1.4 5 3 10 4.2 15.1 1.8 7.4 3.1 14.9 4.3 22.5 0.8 4.8 1.8 9.5 2.4 14.4 1.1 8.9 1.7 18 2.2 27 0.2 3.7 0.7 7.4 0.8 11.2 0.5 12.7 0.2 25.7-0.7 38.8zM685.2 667.1c-23.4-35.1-78-39.8-122-10.5-44 29.4-60.8 81.6-37.5 116.6 5.1 7.7 13.6 14.2 13.6 14.2 3.1 2.5 9.2 2.2 13.5-0.6l4.2-2c25.9-12.4 64 6.3 64 6.3 3.8 1.8 11.5 1.1 17.2-1.5 0 0 3.1-1.5 9.5-5.8 44.1-29.4 60.9-81.6 37.5-116.7z m68-162.9c-44 29.3-60.9 81.5-37.5 116.6 5.1 7.7 13.6 14.2 13.6 14.2 3.2 2.4 9.3 2.1 13.5-0.6l4.2-2c25.8-12.4 64 6.3 64 6.3 3.8 1.9 11.5 1.2 17.2-1.6 0 0 3.2-1.5 9.6-5.7 44-29.3 60.8-81.5 37.4-116.6-23.4-35.2-78-39.9-122-10.6z m206.4-219.8c-23.4-35.1-78-39.8-122-10.5-44.1 29.3-60.9 81.5-37.4 116.6 5.1 7.7 13.6 14.2 13.6 14.2 3.1 2.5 9.2 2.2 13.5-0.6l4.1-2.1c25.9-12.3 64 6.3 64 6.3 3.8 1.9 11.5 1.2 17.2-1.5 0 0 3.1-1.5 9.6-5.8 44-29.3 60.8-81.5 37.4-116.6zM228.1 699.2c-13.4-9.6-29.4-14.5-46.3-15.4 35.4-63.1 82-139.3 137.7-224.7l-0.1-0.1c36.9-59.1 80.2-123.6 128-190.2 173.4-241.2 340.8-417.5 374-393.7 33.1 23.8-80.6 238.7-253.9 480-47.9 66.6-95.3 128.2-139.5 182l-0.1-0.1c-63.3 80.2-120.8 148.8-169.3 202.6-6.1-16.1-16.2-30.2-30.5-40.4z m191.7-165.8c0.4-0.3 0.8-0.7 1.1-1.1 1.6-2.2 1.2-6.2-2.2-8.9-46.3-37.6-82.9-60-84.6-60.7-4.6-1.9-8.7-0.5-9.2 3.1s2.8 8 7.3 10c0.4 0.1 35.2 19.8 75.8 54.7 3.9 3.3 8.9 4.9 11.8 2.9z m-112.4-19.3c0.4 0.1 35.3 17.2 73.1 52.9 3.6 3.5 8.9 4.3 12.8 1 0.6-0.6 1.2-1.1 1.6-1.8 2.4-3.4 3-8.5-0.2-11.3-43.6-37.9-80-58.1-81.7-58.6-4.8-1.3-9.9 1.6-11.5 6.5-1.5 4.9 1.1 9.9 5.9 11.3z"  horiz-adv-x="1024" />

    
    <glyph glyph-name="shuangxiajiantou-" unicode="&#58896;" d="M819.627 744.533a34.133 34.133 0 1 0 48.213-48.213L535.893 364.373a34.133 34.133 0 0 0-48.213 0L156.16 696.32a34.133 34.133 0 1 0 48.213 48.213L512 436.907z m0-341.333a34.133 34.133 0 1 0 48.213-48.213L535.893 23.04a34.133 34.133 0 0 0-48.213 0L156.16 354.987a34.133 34.133 0 0 0 48.213 48.213L512 95.573z"  horiz-adv-x="1024" />

    
    <glyph glyph-name="shuangshangjiantou-" unicode="&#58897;" d="M204.373 23.467a34.133 34.133 0 0 0-48.213 48.213l331.947 331.947a34.133 34.133 0 0 0 48.213 0L868.267 71.68a34.133 34.133 0 0 0-48.214-48.213L512 331.093z m0 341.333a34.133 34.133 0 0 0-48.213 48.213L488.107 744.96a34.133 34.133 0 0 0 48.213 0l331.947-331.947a34.133 34.133 0 0 0-48.214-48.213L512 672.427z"  horiz-adv-x="1024" />

    
    <glyph glyph-name="shuangyoujiantou-" unicode="&#58922;" d="M151.467 691.627a34.133 34.133 0 1 0 48.213 48.213l331.947-331.947a34.133 34.133 0 0 0 0-48.213L199.68 28.16a34.133 34.133 0 1 0-48.213 48.213L459.093 384z m341.333 0a34.133 34.133 0 0 0 48.213 48.213L872.96 407.893a34.133 34.133 0 0 0 0-48.213L541.013 27.733a34.133 34.133 0 0 0-48.213 48.214L800.427 384z"  horiz-adv-x="1024" />

    
    <glyph glyph-name="shuangzuojiantou-" unicode="&#58923;" d="M872.533 76.373a34.133 34.133 0 0 0-48.213-48.213L492.373 360.107a34.133 34.133 0 0 0 0 48.213L824.32 740.267a34.133 34.133 0 0 0 48.213-48.214L564.907 384z m-341.333 0a34.133 34.133 0 0 0-48.213-48.213l-331.52 331.52a34.133 34.133 0 0 0 0 48.213L483.413 739.84a34.133 34.133 0 0 0 48.214-48.213L223.573 384z"  horiz-adv-x="1024" />

    
    <glyph glyph-name="caidan-shousuo" unicode="&#59043;" d="M908.70574649 64.77851307000003H134.16925867v52.07344924h774.54813867v-52.07344924zM531.80092872 453.03707875H130.86041885V505.110528h400.94050987zM531.80092872 261.82924515H130.86041885v52.05597298h400.94050987zM901.4996992 650.08198542H126.9690368v52.06762383h774.54231325v-52.06762383zM669.95081672 377.97651341999995l225.4205383 150.2609408v-300.53353244z"  horiz-adv-x="1024" />

    
    <glyph glyph-name="caidan-dakai" unicode="&#59044;" d="M908.70574649 64.77851307000003H134.16925867v52.07344924h774.54813867v-52.07344924zM531.80092872 453.03707875H130.86041885V505.110528h400.94050987zM531.80092872 261.82924515H130.86041885v52.05597298h400.94050987zM901.4996992 650.08198542H126.9690368v52.06762383h774.54231325v-52.06762383zM669.95081672 227.70392177999997V528.23745422l225.4205383-150.2609408z"  horiz-adv-x="1024" />

    
    <glyph glyph-name="tongzhigonggao1" unicode="&#58883;" d="M24.380952 603.428571h975.238096v-731.428571H24.380952V603.428571z m162.523429-162.523428v-68.266667h650.191238v68.266667H186.904381z m0-162.572191v-68.266666h650.191238v68.266666H186.904381z m0-162.523428v-68.266667h650.191238V115.809524H186.904381zM512 847.238095l390.095238-292.571428H121.904762l390.095238 292.571428z m-3.413333-87.868952L310.418286 603.428571h398.189714l-199.92381 155.940572zM509.318095 790.869333m-73.142857 0a73.142857 73.142857 0 1 1 146.285714 0 73.142857 73.142857 0 1 1-146.285714 0Z"  horiz-adv-x="1024" />

    


  </font>
</defs>
</svg>
